<?xml version="1.0" standalone="no"?>
<!DOCTYPE svg
  PUBLIC '-//W3C//DTD SVG 1.1//EN'
  'http://www.w3.org/Graphics/SVG/1.1/DTD/svg11.dtd'><svg version="1.1" xmlns="http://www.w3.org/2000/svg"><defs><font horiz-adv-x="0" id="font"><font-face ascent="650" bbox="-171 -243 1274 998" cap-height="680" descent="-200" font-family="Inria Sans Light" font-stretch="normal" font-style="normal" font-weight="680" units-per-em="1000" x-height="487" /><missing-glyph d="M557 0 159 0V680H557ZM224 621 224 59H492V621Z" horiz-adv-x="716" /><glyph d="" glyph-name=".null" horiz-adv-x="0" unicode="" /><glyph d="" glyph-name="CR" horiz-adv-x="0" unicode="" /><glyph d="" glyph-name="space" horiz-adv-x="230" unicode=" " /><glyph d="" glyph-name="uni00A0" horiz-adv-x="230" unicode=" " /><glyph d="M540 0 474 0L416 175H141L84 0H22L248 680H313ZM278 595 203 363L160 233H396L353 363Z" glyph-name="A" horiz-adv-x="562" unicode="A" /><glyph d="M335 0 115 0V680H310Q396 680 444.5 634Q493 588 493 507V489Q493 440 470.5 405Q448 370 406 351Q462 335 492.5 295Q523 255 523 197V179Q523 96 473 48Q423 0 335 0ZM310 621 180 621V375H310Q365 375 395 404.5Q425 434 425 489V507Q425 562 395 591.5Q365 621 310 621ZM335 316 180 316V59H335Q393 59 424 90Q455 121 455 179V197Q455 254 423.5 285Q392 316 335 316Z" glyph-name="B" horiz-adv-x="585" unicode="B" /><glyph d="M152 417 152 263Q152 156 193 102.5Q234 49 316 49Q353 49 387 57.5Q421 66 464 86L487 31Q443 11 400 0.5Q357 -10 315 -10Q203 -10 143.5 60.5Q84 131 84 263V417Q84 549 143.5 619.5Q203 690 315 690Q359 690 403.5 679.5Q448 669 487 649L465 594Q428 612 390 621.5Q352 631 315 631Q233 631 192.5 577.5Q152 524 152 417Z" glyph-name="C" horiz-adv-x="526" unicode="C" /><glyph d="M313 0 115 0V680H313Q424 680 487.5 609.5Q551 539 551 417V264Q551 141 487.5 70.5Q424 0 313 0ZM313 621 180 621V59H313Q395 59 439 112.5Q483 166 483 264V417Q483 515 439 568Q395 621 313 621Z" glyph-name="D" horiz-adv-x="637" unicode="D" /><glyph d="M180 59 485 59V0H115V680H475V621H180V374H445V315H180Z" glyph-name="E" horiz-adv-x="528" unicode="E" /><glyph d="M439 363 439 304H180V0H115V680H469V621H180V363Z" glyph-name="F" horiz-adv-x="507" unicode="F" /><glyph d="M531 345 531 50Q490 21 437.5 5.5Q385 -10 325 -10Q213 -10 149.5 63Q86 136 86 264V417Q86 548 148.5 619Q211 690 326 690Q375 690 425.5 679.5Q476 669 518 649L496 594Q455 612 411.5 621.5Q368 631 326 631Q240 631 197 577.5Q154 524 154 417V264Q154 160 199.5 103.5Q245 47 330 47Q369 47 405.5 56.5Q442 66 470 83V286H333V345Z" glyph-name="G" horiz-adv-x="605" unicode="G" /><glyph d="M570 0 505 0V315H180V0H115V680H180V374H505V680H570Z" glyph-name="H" horiz-adv-x="685" unicode="H" /><glyph d="M180 680 180 0H115V680Z" glyph-name="I" horiz-adv-x="295" unicode="I" /><glyph d="M28 -5 28 57Q113 57 149.5 93Q186 129 186 212V680H251V212Q251 101 196 48Q141 -5 28 -5Z" glyph-name="J" horiz-adv-x="355" unicode="J" /><glyph d="M573 0 493 0L282 337Q259 313 233.5 288.5Q208 264 180 238V0H115V680H180V312Q278 403 348 491.5Q418 580 471 680H540Q496 596 448.5 527.5Q401 459 330 380Z" glyph-name="K" horiz-adv-x="584" unicode="K" /><glyph d="M180 59 474 59V0H115V680H180Z" glyph-name="L" horiz-adv-x="506" unicode="L" /><glyph d="M115 680 198 680L415 151L636 680H714V0H649V312L656 586L445 80H380L173 588L180 312V0H115Z" glyph-name="M" horiz-adv-x="829" unicode="M" /><glyph d="M180 0 115 0V680H193Q293 529 372.5 387.5Q452 246 524 90L515 388V680H580V0H502Q424 167 345 311Q266 455 176 596L180 291Z" glyph-name="N" horiz-adv-x="695" unicode="N" /><glyph d="M326 690Q438 690 502 616.5Q566 543 566 417V264Q566 136 502 63Q438 -10 326 -10Q213 -10 149.5 63Q86 136 86 264V417Q86 544 150 617Q214 690 326 690ZM498 264 498 417Q498 519 453 575Q408 631 326 631Q244 631 199 575Q154 519 154 417V264Q154 162 199 105.5Q244 49 326 49Q408 49 453 105.5Q498 162 498 264Z" glyph-name="O" horiz-adv-x="652" unicode="O" /><glyph d="M180 0 115 0V680H318Q408 680 459.5 631Q511 582 511 497V444Q511 359 459.5 309.5Q408 260 318 260H180ZM318 621 180 621V319H318Q378 319 410.5 351.5Q443 384 443 444V497Q443 556 410.5 588.5Q378 621 318 621Z" glyph-name="P" horiz-adv-x="558" unicode="P" /><glyph d="M564 -108 564 -173Q477 -173 427.5 -142Q378 -111 350 -40L338 -10H326Q213 -10 149.5 63Q86 136 86 264V417Q86 544 150 617Q214 690 326 690Q438 690 502 616.5Q566 543 566 417V264Q566 160 522.5 91Q479 22 400 0L404 -9Q429 -68 459 -87Q489 -106 564 -108ZM498 264 498 417Q498 519 453 575Q408 631 326 631Q244 631 199 575Q154 519 154 417V264Q154 162 199 105.5Q244 49 326 49Q408 49 453 105.5Q498 162 498 264Z" glyph-name="Q" horiz-adv-x="652" unicode="Q" /><glyph d="M333 278 180 278V0H115V680H318Q408 680 459.5 632.5Q511 585 511 501V458Q511 396 481.5 352.5Q452 309 398 290Q440 225 478.5 152Q517 79 552 0H476Q448 68 412 137Q376 206 333 278ZM318 621 180 621V337H318Q375 337 409 370Q443 403 443 458V501Q443 557 409.5 589Q376 621 318 621Z" glyph-name="R" horiz-adv-x="597" unicode="R" /><glyph d="M247 47Q315 47 351.5 79Q388 111 388 170Q388 223 359.5 258.5Q331 294 276 309L196 331Q121 352 84 396.5Q47 441 47 510Q47 597 98 643.5Q149 690 247 690Q292 690 340.5 678.5Q389 667 435 646L413 590Q367 612 325.5 622.5Q284 633 247 633Q180 633 146.5 603.5Q113 574 113 515Q113 466 139 437Q165 408 220 392L300 370Q376 349 415 300.5Q454 252 454 178Q454 87 401 38.5Q348 -10 247 -10Q196 -10 143 2Q90 14 41 36L62 91Q111 68 155 57.5Q199 47 247 47Z" glyph-name="S" horiz-adv-x="499" unicode="S" /><glyph d="M217 621 13 621V680H486V621H282V0H217Z" glyph-name="T" horiz-adv-x="499" unicode="T" /><glyph d="M102 244 102 680H170V244Q170 148 209 98.5Q248 49 325 49Q402 49 441 98Q480 147 480 244V680H548V244Q548 120 491 55Q434 -10 325 -10Q216 -10 159 55Q102 120 102 244Z" glyph-name="U" horiz-adv-x="650" unicode="U" /><glyph d="M464 680 526 680L308 0H243L24 680H90L201 334L278 90L355 334Z" glyph-name="V" horiz-adv-x="550" unicode="V" /><glyph d="M108 680 172 380L227 95L398 680H461L633 93L688 380L752 680H813L666 0H600L429 587L256 0H189L43 680Z" glyph-name="W" horiz-adv-x="856" unicode="W" /><glyph d="M510 0 437 0L263 295L91 0H24L229 349L34 680H107L271 402L433 680H500L305 347Z" glyph-name="X" horiz-adv-x="534" unicode="X" /><glyph d="M496 680 289 270V0H224V270L16 680H86L259 337L429 680Z" glyph-name="Y" horiz-adv-x="512" unicode="Y" /><glyph d="M121 59 468 59V0H43V47L380 621H53V680H458V633Z" glyph-name="Z" horiz-adv-x="508" unicode="Z" /><glyph d="M74 0 5 0L389 680H775V621H480V374H745V315H480V59H785V0H415V175H172ZM415 610 204 233H415Z" glyph-name="AE" horiz-adv-x="828" unicode="Æ" /><glyph d="M86 264 86 417Q86 539 149.5 609.5Q213 680 324 680H817V621H522V374H787V315H522V59H827V0H324Q213 0 149.5 70.5Q86 141 86 264ZM324 59 457 59V621H324Q242 621 198 568Q154 515 154 417V264Q154 166 198 112.5Q242 59 324 59Z" glyph-name="OE" horiz-adv-x="870" unicode="Œ" /><glyph d="M190 59 484 59V0H125V287L35 243V306L125 350V680H190V381L337 452V389L190 318Z" glyph-name="Lslash" horiz-adv-x="516" unicode="Ł" /><glyph d="M326 -10Q283 -10 247 1Q211 12 183 33L147 -30H86L143 71Q115 106 100.5 155.5Q86 205 86 264V417Q86 544 150 617Q214 690 326 690Q368 690 404 679Q440 668 469 647L505 710H566L509 609Q537 572 551.5 523.5Q566 475 566 417V264Q566 136 502 63Q438 -10 326 -10ZM154 417 154 264Q154 226 160.5 194Q167 162 180 136L438 591Q417 611 388.5 621Q360 631 326 631Q244 631 199 575Q154 519 154 417ZM498 264 498 417Q498 455 491.5 487Q485 519 472 545L214 89Q236 69 264 59Q292 49 326 49Q408 49 453 105.5Q498 162 498 264Z" glyph-name="Oslash" horiz-adv-x="652" unicode="Ø" /><glyph d="M35 315 35 374H125V680H323Q434 680 497.5 609.5Q561 539 561 417V264Q561 141 497.5 70.5Q434 0 323 0H125V315ZM339 374 339 315H190V59H323Q405 59 449 112.5Q493 166 493 264V417Q493 515 449 568Q405 621 323 621H190V374Z" glyph-name="Eth" horiz-adv-x="647" unicode="Ð" /><glyph d="M318 135 180 135V0H115V680H180V555H318Q408 555 459.5 506Q511 457 511 372V319Q511 234 459.5 184.5Q408 135 318 135ZM318 496 180 496V194H318Q378 194 410.5 226.5Q443 259 443 319V372Q443 431 410.5 463.5Q378 496 318 496Z" glyph-name="Thorn" horiz-adv-x="558" unicode="Þ" /><glyph d="M552 174 552 156Q552 79 507.5 34.5Q463 -10 386 -10Q349 -10 308 0Q267 10 227 29L248 84Q286 65 318.5 57Q351 49 386 49Q433 49 458.5 77Q484 105 484 156V174Q484 224 462 254.5Q440 285 389 304L303 337V389L416 597Q395 614 365 622.5Q335 631 297 631Q234 631 199.5 590.5Q165 550 165 477V0H100V477Q100 576 152.5 633Q205 690 297 690Q353 690 398.5 674Q444 658 476 627V584L364 379L413 361Q485 335 518.5 290Q552 245 552 174Z" glyph-name="uni1E9E" horiz-adv-x="598" unicode="ẞ" /><glyph d="M452 -5 442 -5Q401 -5 374 15Q347 35 342 70Q296 29 254.5 9.5Q213 -10 170 -10Q112 -10 78.5 28.5Q45 67 45 131Q45 199 84.5 234Q124 269 201 269Q228 269 263.5 265.5Q299 262 334 256V328Q334 389 310.5 415.5Q287 442 231 442Q197 442 162 433Q127 424 87 405L66 454Q109 476 149.5 486.5Q190 497 231 497Q314 497 353.5 459.5Q393 422 393 338V112Q393 78 404 64Q415 50 440 50H452ZM202 216Q153 216 130 195.5Q107 175 107 131Q107 90 126 66.5Q145 43 179 43Q211 43 249.5 63.5Q288 84 334 126V203Q300 209 263.5 212.5Q227 216 202 216Z" glyph-name="a" horiz-adv-x="484" unicode="a" /><glyph d="M477 273 477 213Q477 107 424.5 48.5Q372 -10 277 -10Q231 -10 184 2.5Q137 15 92 39V740H152V420Q194 459 235 478Q276 497 319 497Q395 497 436 438.5Q477 380 477 273ZM307 440Q270 440 235 421.5Q200 403 152 359V73Q184 59 213.5 52Q243 45 274 45Q344 45 379 87Q414 129 414 213V273Q414 359 388 399.5Q362 440 307 440Z" glyph-name="b" horiz-adv-x="548" unicode="b" /><glyph d="M263 442Q197 442 165 400.5Q133 359 133 274V214Q133 128 165 86.5Q197 45 263 45Q294 45 326.5 53Q359 61 395 78L415 29Q378 10 337 0Q296 -10 258 -10Q167 -10 118.5 48Q70 106 70 214V274Q70 381 118.5 439Q167 497 258 497Q295 497 333.5 487.5Q372 478 406 461L386 411Q354 426 323 434Q292 442 263 442Z" glyph-name="c" horiz-adv-x="451" unicode="c" /><glyph d="M456 0 399 0V69Q355 28 313.5 9Q272 -10 229 -10Q153 -10 112 48.5Q71 107 71 214V274Q71 380 123.5 438.5Q176 497 271 497Q301 497 332.5 490.5Q364 484 396 472V740H456ZM134 274 134 214Q134 128 160 87.5Q186 47 241 47Q278 47 313 65.5Q348 84 396 128V414Q364 428 334.5 435Q305 442 274 442Q204 442 169 400Q134 358 134 274Z" glyph-name="d" horiz-adv-x="551" unicode="d" /><glyph d="M417 78 437 29Q400 10 356.5 0Q313 -10 271 -10Q172 -10 121 47Q70 104 70 214V274Q70 379 121 438Q172 497 264 497Q345 497 392 450Q439 403 439 320Q439 299 436 275.5Q433 252 427 226H131V214Q131 128 165.5 86.5Q200 45 271 45Q305 45 344 53.5Q383 62 417 78ZM380 325Q380 380 348.5 411Q317 442 264 442Q200 442 165.5 400Q131 358 131 279H376Q378 290 379 301.5Q380 313 380 325Z" glyph-name="e" horiz-adv-x="493" unicode="e" /><glyph d="M333 487 333 434H168V0H108V434H19V487H108V589Q108 664 146 707Q184 750 255 750Q283 750 312 743.5Q341 737 369 724L349 675Q324 686 301 691.5Q278 697 257 697Q213 697 190.5 670Q168 643 168 590V487Z" glyph-name="f" horiz-adv-x="332" unicode="f" /><glyph d="M474 -70Q474 -140 416.5 -181.5Q359 -223 262 -223Q206 -223 152.5 -207Q99 -191 52 -160L76 -114Q120 -142 165.5 -155.5Q211 -169 263 -169Q333 -169 373 -144Q413 -119 413 -75Q413 -42 390 -26Q367 -10 321 -10H210Q156 -10 125.5 15Q95 40 95 81Q95 106 106.5 131.5Q118 157 142 184Q105 205 85 242.5Q65 280 65 328Q65 407 113 452Q161 497 242 497H259Q275 497 289.5 494.5Q304 492 317 487H491V432L379 445Q407 423 421 393.5Q435 364 435 328Q435 251 386.5 205Q338 159 259 159H242Q226 159 212.5 160.5Q199 162 186 166Q169 147 160.5 128.5Q152 110 152 93Q152 71 167.5 60Q183 49 215 49H320Q395 49 434.5 18.5Q474 -12 474 -70ZM242 214 259 214Q310 214 341 244.5Q372 275 372 328Q372 381 341 411.5Q310 442 259 442H242Q190 442 159 411.5Q128 381 128 328Q128 275 159 244.5Q190 214 242 214Z" glyph-name="g" horiz-adv-x="514" unicode="g" /><glyph d="M326 440Q287 440 246 421Q205 402 155 361V0H95V740H155V420Q203 460 246 478.5Q289 497 336 497Q402 497 437.5 456Q473 415 473 338V0H413V327Q413 385 392 412.5Q371 440 326 440Z" glyph-name="h" horiz-adv-x="563" unicode="h" /><glyph d="M161 699 161 626H89V699ZM155 487 155 0H95V487Z" glyph-name="i" horiz-adv-x="250" unicode="i" /><glyph d="M161 699 161 626H88V699ZM-18 -223 -18 -166Q45 -166 70 -136.5Q95 -107 95 -37V487H155V-37Q155 -134 113 -178.5Q71 -223 -18 -223Z" glyph-name="j" horiz-adv-x="250" unicode="j" /><glyph d="M474 0 401 0L252 241Q233 221 209.5 199.5Q186 178 155 151V0H95V740H155V220Q230 290 285 354Q340 418 385 487H453Q414 425 377 377Q340 329 295 281Z" glyph-name="k" horiz-adv-x="493" unicode="k" /><glyph d="M95 105 95 740H155V112Q155 75 165 62.5Q175 50 202 50H218V-5H199Q145 -5 120 21.5Q95 48 95 105Z" glyph-name="l" horiz-adv-x="256" unicode="l" /><glyph d="M321 440Q284 440 245 421Q206 402 155 361V0H95V487H152V417Q202 459 244 478Q286 497 331 497Q377 497 407.5 475.5Q438 454 452 413Q504 456 548.5 476.5Q593 497 639 497Q703 497 737 456Q771 415 771 338V0H711V327Q711 385 691 412.5Q671 440 629 440Q592 440 552 421Q512 402 462 361Q463 357 463 352.5Q463 348 463 338V0H403V327Q403 385 383 412.5Q363 440 321 440Z" glyph-name="m" horiz-adv-x="861" unicode="m" /><glyph d="M326 440Q287 440 246 421Q205 402 155 361V0H95V487H152V417Q202 458 246 477.5Q290 497 336 497Q402 497 437.5 456Q473 415 473 338V0H413V327Q413 385 392 412.5Q371 440 326 440Z" glyph-name="n" horiz-adv-x="563" unicode="n" /><glyph d="M270 497Q365 497 418.5 437.5Q472 378 472 274V214Q472 108 419 49Q366 -10 270 -10Q174 -10 121 48.5Q68 107 68 214V274Q68 379 121.5 438Q175 497 270 497ZM409 214 409 274Q409 354 372.5 398Q336 442 270 442Q204 442 167.5 398Q131 354 131 274V214Q131 132 166.5 88.5Q202 45 270 45Q338 45 373.5 88.5Q409 132 409 214Z" glyph-name="o" horiz-adv-x="540" unicode="o" /><glyph d="M280 -10Q250 -10 218.5 -3.5Q187 3 155 15V-213H95V487H152V418Q196 459 237.5 478Q279 497 322 497Q398 497 439 438.5Q480 380 480 273V213Q480 107 427.5 48.5Q375 -10 280 -10ZM310 440Q273 440 238 421.5Q203 403 155 359V73Q187 59 216.5 52Q246 45 277 45Q347 45 382 87Q417 129 417 213V273Q417 359 391 399.5Q365 440 310 440Z" glyph-name="p" horiz-adv-x="551" unicode="p" /><glyph d="M271 497Q317 497 364 484.5Q411 472 456 448V-213H396V67Q354 28 313 9Q272 -10 229 -10Q153 -10 112 48.5Q71 107 71 214V274Q71 380 123.5 438.5Q176 497 271 497ZM134 274 134 214Q134 128 160 87.5Q186 47 241 47Q278 47 313 65.5Q348 84 396 128V414Q364 428 334.5 435Q305 442 274 442Q204 442 169 400Q134 358 134 274Z" glyph-name="q" horiz-adv-x="549" unicode="q" /><glyph d="M337 497 337 437Q285 437 244 416.5Q203 396 155 350V0H95V487H152V406Q198 454 241.5 475.5Q285 497 337 497Z" glyph-name="r" horiz-adv-x="354" unicode="r" /><glyph d="M201 45Q258 45 284.5 64Q311 83 311 125Q311 161 289.5 181Q268 201 219 213L165 226Q109 239 79 274.5Q49 310 49 362Q49 425 90 461Q131 497 206 497Q244 497 282 488Q320 479 356 462L336 411Q301 426 268.5 434Q236 442 206 442Q158 442 133 422.5Q108 403 108 366Q108 332 129.5 311Q151 290 195 279L250 266Q311 252 340.5 218Q370 184 370 128Q370 60 328.5 25Q287 -10 206 -10Q162 -10 121 -1Q80 8 39 27L55 78Q99 60 132 52.5Q165 45 201 45Z" glyph-name="s" horiz-adv-x="415" unicode="s" /><glyph d="M323 67 344 19Q317 5 289 -2.5Q261 -10 233 -10Q170 -10 137.5 27.5Q105 65 105 137V434H16V487H105V629H165V487H330V434H165V142Q165 87 181.5 65Q198 43 240 43Q260 43 279.5 48.5Q299 54 323 67Z" glyph-name="t" horiz-adv-x="369" unicode="t" /><glyph d="M458 0 401 0V70Q351 28 309 9Q267 -10 222 -10Q158 -10 124 31Q90 72 90 149V487H150V160Q150 102 170 74.5Q190 47 232 47Q269 47 308 66Q347 85 398 126V487H458Z" glyph-name="u" horiz-adv-x="553" unicode="u" /><glyph d="M370 487 429 487L257 0H200L25 487H88L169 254L230 73L290 254Z" glyph-name="v" horiz-adv-x="454" unicode="v" /><glyph d="M608 487 669 487L544 0H469L352 421L233 0H158L34 487H96L147 276L198 64L319 487H388L507 62L558 276Z" glyph-name="w" horiz-adv-x="703" unicode="w" /><glyph d="M420 0 352 0L219 208L89 0H25L188 254L38 487H106L226 300L343 487H407L257 254Z" glyph-name="x" horiz-adv-x="445" unicode="x" /><glyph d="M430 487 240 -50Q206 -145 161.5 -184Q117 -223 43 -223V-166Q103 -166 131.5 -137Q160 -108 190 -30L201 -2L25 487H88L169 254L230 71L290 254L370 487Z" glyph-name="y" horiz-adv-x="455" unicode="y" /><glyph d="M105 53 367 53V0H35V48L287 434H45V487H357V439Z" glyph-name="z" horiz-adv-x="399" unicode="z" /><glyph d="M681 78 701 29Q664 10 620.5 0Q577 -10 535 -10Q474 -10 430.5 12.5Q387 35 362 80Q310 34 263.5 12Q217 -10 172 -10Q113 -10 79 28Q45 66 45 131Q45 199 84.5 234Q124 269 201 269Q228 269 263.5 265.5Q299 262 334 256V328Q334 389 310.5 415.5Q287 442 231 442Q197 442 162 433Q127 424 87 405L66 454Q109 476 149.5 486.5Q190 497 231 497Q290 497 326.5 478.5Q363 460 379 422Q402 460 439.5 478.5Q477 497 528 497Q609 497 656 450Q703 403 703 320Q703 299 700 275.5Q697 252 691 226H395V214Q395 128 429.5 86.5Q464 45 535 45Q569 45 608 53.5Q647 62 681 78ZM644 325Q644 380 612.5 411Q581 442 528 442Q464 442 429.5 400Q395 358 395 279H640Q642 290 643 301.5Q644 313 644 325ZM202 216Q153 216 130.5 195.5Q108 175 108 131Q108 90 127 66.5Q146 43 179 43Q214 43 256 65.5Q298 88 343 131Q339 148 337 166Q335 184 334 203Q300 209 263.5 212.5Q227 216 202 216Z" glyph-name="ae" horiz-adv-x="757" unicode="æ" /><glyph d="M756 78 776 29Q739 10 695.5 0Q652 -10 610 -10Q547 -10 504.5 15Q462 40 440 90Q417 41 373.5 15.5Q330 -10 270 -10Q174 -10 121 48.5Q68 107 68 214V274Q68 379 121.5 438Q175 497 270 497Q330 497 373.5 471Q417 445 440 395Q463 445 504.5 471Q546 497 603 497Q684 497 731 450Q778 403 778 320Q778 299 775 275.5Q772 252 766 226H470V214Q470 128 504.5 86.5Q539 45 610 45Q644 45 683 53.5Q722 62 756 78ZM409 214 409 274Q409 354 372.5 398Q336 442 270 442Q204 442 167.5 398Q131 354 131 274V214Q131 132 166.5 88.5Q202 45 270 45Q338 45 373.5 88.5Q409 132 409 214ZM719 325Q719 380 687.5 411Q656 442 603 442Q539 442 504.5 400Q470 358 470 279H715Q717 290 718 301.5Q719 313 719 325Z" glyph-name="oe" horiz-adv-x="832" unicode="œ" /><glyph d="M217 50 233 50V-5H214Q160 -5 135 21.5Q110 48 110 105V318L21 263V326L110 381V740H170V417L259 472V409L170 354V112Q170 75 180 62.5Q190 50 217 50Z" glyph-name="lslash" horiz-adv-x="285" unicode="ł" /><glyph d="M270 -10Q237 -10 208.5 -2.5Q180 5 157 19L126 -30H68L119 51Q94 80 81 121Q68 162 68 214V274Q68 379 121.5 438Q175 497 270 497Q303 497 331 489.5Q359 482 383 468L414 517H472L420 435Q445 407 458.5 365.5Q472 324 472 274V214Q472 108 419 49Q366 -10 270 -10ZM131 274 131 214Q131 181 137 154.5Q143 128 154 107L351 418Q335 430 315 436Q295 442 270 442Q204 442 167.5 398Q131 354 131 274ZM409 214 409 274Q409 307 403 333.5Q397 360 385 380L188 68Q205 56 225.5 50.5Q246 45 270 45Q338 45 373.5 88.5Q409 132 409 214Z" glyph-name="oslash" horiz-adv-x="540" unicode="ø" /><glyph d="M474 291 474 251Q474 124 420.5 57Q367 -10 265 -10Q168 -10 115.5 44.5Q63 99 63 199V239Q63 335 114.5 391Q166 447 255 447Q295 447 330 434.5Q365 422 399 395Q387 449 361 496Q335 543 294 586L171 496V559L257 622Q231 645 203 665.5Q175 686 145 704L170 750Q207 728 240.5 704Q274 680 302 655L431 750V687L339 619Q406 547 440 465Q474 383 474 291ZM126 239 126 199Q126 124 161.5 84.5Q197 45 265 45Q338 45 374.5 96.5Q411 148 411 251V291Q411 305 411 312Q411 319 410 325Q368 360 331.5 376Q295 392 258 392Q196 392 161 351.5Q126 311 126 239Z" glyph-name="eth" horiz-adv-x="540" unicode="ð" /><glyph d="M280 -10Q250 -10 218.5 -3.5Q187 3 155 15V-213H95V740H155V420Q197 459 238 478Q279 497 322 497Q398 497 439 438.5Q480 380 480 273V213Q480 107 427.5 48.5Q375 -10 280 -10ZM310 440Q273 440 238 421.5Q203 403 155 359V73Q187 59 216.5 52Q246 45 277 45Q347 45 382 87Q417 129 417 213V273Q417 359 391 399.5Q365 440 310 440Z" glyph-name="thorn" horiz-adv-x="551" unicode="þ" /><glyph d="M562 130Q562 65 521 27.5Q480 -10 406 -10Q372 -10 336.5 -1.5Q301 7 262 25L280 77Q315 60 344.5 52.5Q374 45 404 45Q451 45 476.5 66Q502 87 502 126Q502 157 488 180Q474 203 442 225L386 263Q348 289 331.5 317Q315 345 315 382Q315 406 322.5 430.5Q330 455 353 499Q375 541 382 563.5Q389 586 389 608Q389 648 358.5 672.5Q328 697 279 697Q222 697 195 668Q168 639 168 576V0H108V434H19V487H108V575Q108 659 151 704.5Q194 750 277 750Q357 750 403 712.5Q449 675 449 608Q449 581 441 554Q433 527 408 481Q387 444 381 425Q375 406 375 388Q375 364 385 347Q395 330 416 316L473 278Q518 248 540 211.5Q562 175 562 130Z" glyph-name="germandbls" horiz-adv-x="594" unicode="ß" /><glyph d="M155 487 155 0H95V487Z" glyph-name="dotlessi" horiz-adv-x="250" unicode="ı" /><glyph d="M-18 -223 -18 -166Q45 -166 70 -136.5Q95 -107 95 -37V487H155V-37Q155 -134 113 -178.5Q71 -223 -18 -223Z" glyph-name="dotlessj" horiz-adv-x="250" unicode="ȷ" /><glyph d="M296 697Q232 697 200 667.5Q168 638 168 580V487H475V0H415V434H168V0H108V434H19V487H108V579Q108 660 156 705Q204 750 294 750Q337 750 381 741Q425 732 469 714L449 667Q411 682 371.5 689.5Q332 697 296 697Z" glyph-name="fi" horiz-adv-x="570" unicode="ﬁ" /><glyph d="M475 0 415 0V434H168V0H108V434H19V487H108V579Q108 654 146 697Q184 740 255 740Q283 740 312 733.5Q341 727 369 714L349 665Q324 676 301 681.5Q278 687 257 687Q213 687 190.5 660Q168 633 168 580V487H415V579Q415 660 463 705Q511 750 601 750Q644 750 688 741Q732 732 776 714L756 667Q718 682 678.5 689.5Q639 697 603 697Q539 697 507 667.5Q475 638 475 580V487H782V0H722V434H475Z" glyph-name="ffi" horiz-adv-x="877" unicode="ﬃ" /><glyph d="M524 50 540 50V-5H521Q467 -5 442 21.5Q417 48 417 105V675Q380 686 347.5 691.5Q315 697 286 697Q226 697 197 668Q168 639 168 580V487H333V434H168V0H108V434H19V487H108V579Q108 660 153.5 705Q199 750 284 750Q329 750 378.5 739.5Q428 729 477 709V112Q477 75 487 62.5Q497 50 524 50Z" glyph-name="fl" horiz-adv-x="578" unicode="ﬂ" /><glyph d="M257 687Q213 687 190.5 660Q168 633 168 580V487H415V579Q415 660 460.5 705Q506 750 591 750Q636 750 685.5 739.5Q735 729 784 709V112Q784 75 794 62.5Q804 50 831 50H847V-5H828Q774 -5 749 21.5Q724 48 724 105V675Q687 686 654.5 691.5Q622 697 593 697Q533 697 504 668Q475 639 475 580V487H640V434H475V0H415V434H168V0H108V434H19V487H108V579Q108 654 146 697Q184 740 255 740Q283 740 312 733.5Q341 727 369 714L349 665Q324 676 301 681.5Q278 687 257 687Z" glyph-name="ffl" horiz-adv-x="885" unicode="ﬄ" /><glyph d="M539 -10Q478 -10 447.5 25Q417 60 417 129V434H168V0H108V434H19V487H108V579Q108 660 153.5 705Q199 750 284 750Q329 750 378.5 739.5Q428 729 477 709V487H642V434H477V134Q477 84 492 63.5Q507 43 546 43Q568 43 589.5 50Q611 57 635 71L656 23Q628 7 598.5 -1.5Q569 -10 539 -10ZM286 697Q226 697 197 668Q168 639 168 580V487H417V675Q380 686 347.5 691.5Q315 697 286 697Z" glyph-name="ft" horiz-adv-x="681" unicode="" /><glyph d="M257 687Q213 687 190.5 660Q168 633 168 580V487H415V579Q415 660 460.5 705Q506 750 591 750Q636 750 685.5 739.5Q735 729 784 709V487H949V434H784V134Q784 84 799 63.5Q814 43 853 43Q875 43 896.5 50Q918 57 942 71L963 23Q935 7 905.5 -1.5Q876 -10 846 -10Q785 -10 754.5 25Q724 60 724 129V434H475V0H415V434H168V0H108V434H19V487H108V579Q108 654 146 697Q184 740 255 740Q283 740 312 733.5Q341 727 369 714L349 665Q324 676 301 681.5Q278 687 257 687ZM593 697Q533 697 504 668Q475 639 475 580V487H724V675Q687 686 654.5 691.5Q622 697 593 697Z" glyph-name="fft" horiz-adv-x="988" unicode="" /><glyph d="M802 273 802 213Q802 107 749.5 48.5Q697 -10 602 -10Q556 -10 509 2.5Q462 15 417 39V675Q380 686 347.5 691.5Q315 697 286 697Q226 697 197 668Q168 639 168 580V487H333V434H168V0H108V434H19V487H108V579Q108 660 153.5 705Q199 750 284 750Q329 750 378.5 739.5Q428 729 477 709V420Q519 459 560 478Q601 497 644 497Q720 497 761 438.5Q802 380 802 273ZM632 440Q595 440 560 421.5Q525 403 477 359V73Q509 59 538.5 52Q568 45 599 45Q669 45 704 87Q739 129 739 213V273Q739 359 713 399.5Q687 440 632 440Z" glyph-name="fb" horiz-adv-x="873" unicode="" /><glyph d="M257 687Q213 687 190.5 660Q168 633 168 580V487H415V579Q415 660 460.5 705Q506 750 591 750Q636 750 685.5 739.5Q735 729 784 709V420Q826 459 867 478Q908 497 951 497Q1027 497 1068 438.5Q1109 380 1109 273V213Q1109 107 1056.5 48.5Q1004 -10 909 -10Q863 -10 816 2.5Q769 15 724 39V675Q687 686 654.5 691.5Q622 697 593 697Q533 697 504 668Q475 639 475 580V487H640V434H475V0H415V434H168V0H108V434H19V487H108V579Q108 654 146 697Q184 740 255 740Q283 740 312 733.5Q341 727 369 714L349 665Q324 676 301 681.5Q278 687 257 687ZM939 440Q902 440 867 421.5Q832 403 784 359V73Q816 59 845.5 52Q875 45 906 45Q976 45 1011 87Q1046 129 1046 213V273Q1046 359 1020 399.5Q994 440 939 440Z" glyph-name="ffb" horiz-adv-x="1180" unicode="" /><glyph d="M475 0 415 0V434H168V0H108V434H19V487H108V579Q108 654 146 697Q184 740 255 740Q283 740 312 733.5Q341 727 369 714L349 665Q324 676 301 681.5Q278 687 257 687Q213 687 190.5 660Q168 633 168 580V487H415V589Q415 664 453 707Q491 750 562 750Q590 750 619 743.5Q648 737 676 724L656 675Q631 686 608 691.5Q585 697 564 697Q520 697 497.5 670Q475 643 475 590V487H640V434H475Z" glyph-name="ff" horiz-adv-x="639" unicode="ﬀ" /><glyph d="M475 0 415 0V434H168V0H108V434H19V487H108V579Q108 654 146 697Q184 740 255 740Q283 740 312 733.5Q341 727 369 714L349 665Q324 676 301 681.5Q278 687 257 687Q213 687 190.5 660Q168 633 168 580V487H415V579Q415 654 453 697Q491 740 562 740Q590 740 619 733.5Q648 727 676 714L656 665Q631 676 608 681.5Q585 687 564 687Q520 687 497.5 660Q475 633 475 580V487H722V589Q722 664 760 707Q798 750 869 750Q897 750 926 743.5Q955 737 983 724L963 675Q938 686 915 691.5Q892 697 871 697Q827 697 804.5 670Q782 643 782 590V487H947V434H782V0H722V434H475Z" glyph-name="fff" horiz-adv-x="946" unicode="" /><glyph d="M333 487 333 434H168V0H108V434H19V487H108V579Q108 660 153.5 705Q199 750 284 750Q329 750 378.5 739.5Q428 729 477 709V420Q526 460 569.5 478.5Q613 497 658 497Q724 497 759.5 456Q795 415 795 338V0H735V327Q735 385 714 412.5Q693 440 648 440Q609 440 568.5 421Q528 402 477 361V0H417V675Q380 686 347.5 691.5Q315 697 286 697Q226 697 197 668Q168 639 168 580V487Z" glyph-name="fh" horiz-adv-x="885" unicode="" /><glyph d="M475 0 415 0V434H168V0H108V434H19V487H108V579Q108 654 146 697Q184 740 255 740Q283 740 312 733.5Q341 727 369 714L349 665Q324 676 301 681.5Q278 687 257 687Q213 687 190.5 660Q168 633 168 580V487H415V579Q415 660 460.5 705Q506 750 591 750Q636 750 685.5 739.5Q735 729 784 709V420Q833 460 876.5 478.5Q920 497 965 497Q1031 497 1066.5 456Q1102 415 1102 338V0H1042V327Q1042 385 1021 412.5Q1000 440 955 440Q916 440 875.5 421Q835 402 784 361V0H724V675Q687 686 654.5 691.5Q622 697 593 697Q533 697 504 668Q475 639 475 580V487H640V434H475Z" glyph-name="ffh" horiz-adv-x="1192" unicode="" /><glyph d="M296 697Q232 697 200 667.5Q168 638 168 580V487H475V-37Q475 -134 433 -178.5Q391 -223 302 -223V-166Q365 -166 390 -136.5Q415 -107 415 -37V434H168V0H108V434H19V487H108V579Q108 660 156 705Q204 750 294 750Q337 750 381 741Q425 732 469 714L449 667Q411 682 371.5 689.5Q332 697 296 697Z" glyph-name="fj" horiz-adv-x="570" unicode="" /><glyph d="M603 697Q539 697 507 667.5Q475 638 475 580V487H782V-37Q782 -134 740 -178.5Q698 -223 609 -223V-166Q672 -166 697 -136.5Q722 -107 722 -37V434H475V0H415V434H168V0H108V434H19V487H108V579Q108 654 146 697Q184 740 255 740Q283 740 312 733.5Q341 727 369 714L349 665Q324 676 301 681.5Q278 687 257 687Q213 687 190.5 660Q168 633 168 580V487H415V579Q415 660 463 705Q511 750 601 750Q644 750 688 741Q732 732 776 714L756 667Q718 682 678.5 689.5Q639 697 603 697Z" glyph-name="ffj" horiz-adv-x="877" unicode="" /><glyph d="M333 487 333 434H168V0H108V434H19V487H108V579Q108 660 153.5 705Q199 750 284 750Q329 750 378.5 739.5Q428 729 477 709V220Q552 290 607 354Q662 418 707 487H775Q736 425 699 377Q662 329 617 281L796 0H723L574 241Q555 221 531.5 199.5Q508 178 477 151V0H417V675Q380 686 347.5 691.5Q315 697 286 697Q226 697 197 668Q168 639 168 580V487Z" glyph-name="fk" horiz-adv-x="815" unicode="" /><glyph d="M475 0 415 0V434H168V0H108V434H19V487H108V579Q108 654 146 697Q184 740 255 740Q283 740 312 733.5Q341 727 369 714L349 665Q324 676 301 681.5Q278 687 257 687Q213 687 190.5 660Q168 633 168 580V487H415V579Q415 660 460.5 705Q506 750 591 750Q636 750 685.5 739.5Q735 729 784 709V220Q859 290 914 354Q969 418 1014 487H1082Q1043 425 1006 377Q969 329 924 281L1103 0H1030L881 241Q862 221 838.5 199.5Q815 178 784 151V0H724V675Q687 686 654.5 691.5Q622 697 593 697Q533 697 504 668Q475 639 475 580V487H640V434H475Z" glyph-name="ffk" horiz-adv-x="1122" unicode="" /><glyph d="M540 0 474 0L416 175H141L84 0H22L248 680H313ZM278 595 203 363L160 233H396L353 363ZM401 909 307 772H256L342 938Z" glyph-name="Aacute" horiz-adv-x="562" unicode="Á" /><glyph d="M540 0 474 0L416 175H141L84 0H22L248 680H313ZM278 595 203 363L160 233H396L353 363ZM403 772 350 772L279 878L207 772H158L249 933H312Z" glyph-name="Acircumflex" horiz-adv-x="562" unicode="Â" /><glyph d="M540 0 474 0L416 175H141L84 0H22L248 680H313ZM278 595 203 363L160 233H396L353 363ZM221 891 221 820H150V891ZM410 891 410 820H339V891Z" glyph-name="Adieresis" horiz-adv-x="562" unicode="Ä" /><glyph d="M540 0 474 0L416 175H141L84 0H22L248 680H313ZM278 595 203 363L160 233H396L353 363ZM306 772 255 772L161 909L220 938Z" glyph-name="Agrave" horiz-adv-x="562" unicode="À" /><glyph d="M416 175 141 175L84 0H22L235 640Q205 651 188 677Q171 703 171 737V748Q171 795 201 823.5Q231 852 281 852Q331 852 361 823.5Q391 795 391 748V737Q391 702 374 676.5Q357 651 326 640L540 0H474ZM339 737 339 748Q339 774 323 789.5Q307 805 281 805Q255 805 239 789.5Q223 774 223 748V737Q223 711 239 695.5Q255 680 281 680Q307 680 323 695.5Q339 711 339 737ZM278 595 203 363L160 233H396L353 363Z" glyph-name="Aring" horiz-adv-x="562" unicode="Å" /><glyph d="M540 0 474 0L416 175H141L84 0H22L248 680H313ZM278 595 203 363L160 233H396L353 363ZM342 781Q321 781 303 792Q285 803 261 836Q245 858 236.5 864.5Q228 871 219 871Q205 871 197.5 852Q190 833 190 796H139Q140 859 160.5 891Q181 923 220 923Q241 923 259 912Q277 901 301 868Q317 846 325.5 839.5Q334 833 343 833Q357 833 364.5 852Q372 871 372 908H423Q422 845 401.5 813Q381 781 342 781Z" glyph-name="Atilde" horiz-adv-x="562" unicode="Ã" /><glyph d="M540 0 474 0L416 175H141L84 0H22L248 680H313ZM278 595 203 363L160 233H396L353 363ZM281 829Q318 829 336.5 851.5Q355 874 359 924H410Q405 852 372 815Q339 778 281 778Q223 778 190 815Q157 852 152 924H203Q207 875 226 852Q245 829 281 829Z" glyph-name="Abreve" horiz-adv-x="562" unicode="Ă" /><glyph d="M540 0 474 0L416 175H141L84 0H22L248 680H313ZM278 595 203 363L160 233H396L353 363ZM143 852 417 852V802H143Z" glyph-name="Amacron" horiz-adv-x="562" unicode="Ā" /><glyph d="M526 -157 540 -206Q520 -215 501 -219Q482 -223 463 -223Q419 -223 394 -201Q369 -179 369 -140Q369 -103 393.5 -68.5Q418 -34 472 7L416 175H141L84 0H22L248 680H313L540 0Q476 -49 451.5 -77.5Q427 -106 427 -134Q427 -152 437.5 -161Q448 -170 469 -170Q481 -170 495.5 -166.5Q510 -163 526 -157ZM278 595 203 363L160 233H396L353 363Z" glyph-name="Aogonek" horiz-adv-x="562" unicode="Ą" /><glyph d="M415 -138Q415 -177 387 -200Q359 -223 310 -223Q291 -223 272 -219Q253 -215 235 -208L245 -162Q260 -168 276.5 -171Q293 -174 308 -174Q335 -174 348 -165.5Q361 -157 361 -138Q361 -120 347.5 -112Q334 -104 307 -104Q304 -104 300 -104.5Q296 -105 287 -106L264 -64L275 -7Q182 5 133 74.5Q84 144 84 263V417Q84 549 143.5 619.5Q203 690 315 690Q359 690 403.5 679.5Q448 669 487 649L465 594Q428 612 390 621.5Q352 631 315 631Q233 631 192.5 577.5Q152 524 152 417V263Q152 156 193 102.5Q234 49 316 49Q353 49 387 57.5Q421 66 464 86L487 31Q446 11 404 1Q362 -9 322 -10L313 -58H317Q362 -58 388.5 -79.5Q415 -101 415 -138Z" glyph-name="Ccedilla" horiz-adv-x="526" unicode="Ç" /><glyph d="M152 417 152 263Q152 156 193 102.5Q234 49 316 49Q353 49 387 57.5Q421 66 464 86L487 31Q443 11 400 0.5Q357 -10 315 -10Q203 -10 143.5 60.5Q84 131 84 263V417Q84 549 143.5 619.5Q203 690 315 690Q359 690 403.5 679.5Q448 669 487 649L465 594Q428 612 390 621.5Q352 631 315 631Q233 631 192.5 577.5Q152 524 152 417ZM436 909 342 772H291L377 938Z" glyph-name="Cacute" horiz-adv-x="526" unicode="Ć" /><glyph d="M152 417 152 263Q152 156 193 102.5Q234 49 316 49Q353 49 387 57.5Q421 66 464 86L487 31Q443 11 400 0.5Q357 -10 315 -10Q203 -10 143.5 60.5Q84 131 84 263V417Q84 549 143.5 619.5Q203 690 315 690Q359 690 403.5 679.5Q448 669 487 649L465 594Q428 612 390 621.5Q352 631 315 631Q233 631 192.5 577.5Q152 524 152 417ZM390 933 439 933L348 772H285L194 933H247L319 827Z" glyph-name="Ccaron" horiz-adv-x="526" unicode="Č" /><glyph d="M152 417 152 263Q152 156 193 102.5Q234 49 316 49Q353 49 387 57.5Q421 66 464 86L487 31Q443 11 400 0.5Q357 -10 315 -10Q203 -10 143.5 60.5Q84 131 84 263V417Q84 549 143.5 619.5Q203 690 315 690Q359 690 403.5 679.5Q448 669 487 649L465 594Q428 612 390 621.5Q352 631 315 631Q233 631 192.5 577.5Q152 524 152 417ZM439 772 386 772L315 878L243 772H194L285 933H348Z" glyph-name="Ccircumflex" horiz-adv-x="526" unicode="Ĉ" /><glyph d="M152 417 152 263Q152 156 193 102.5Q234 49 316 49Q353 49 387 57.5Q421 66 464 86L487 31Q443 11 400 0.5Q357 -10 315 -10Q203 -10 143.5 60.5Q84 131 84 263V417Q84 549 143.5 619.5Q203 690 315 690Q359 690 403.5 679.5Q448 669 487 649L465 594Q428 612 390 621.5Q352 631 315 631Q233 631 192.5 577.5Q152 524 152 417ZM352 892 352 819H280V892Z" glyph-name="Cdotaccent" horiz-adv-x="526" unicode="Ċ" /><glyph d="M313 0 115 0V680H313Q424 680 487.5 609.5Q551 539 551 417V264Q551 141 487.5 70.5Q424 0 313 0ZM313 621 180 621V59H313Q395 59 439 112.5Q483 166 483 264V417Q483 515 439 568Q395 621 313 621ZM382 933 431 933L340 772H277L186 933H239L311 827Z" glyph-name="Dcaron" horiz-adv-x="637" unicode="Ď" /><glyph d="M35 315 35 374H125V680H323Q434 680 497.5 609.5Q561 539 561 417V264Q561 141 497.5 70.5Q434 0 323 0H125V315ZM339 374 339 315H190V59H323Q405 59 449 112.5Q493 166 493 264V417Q493 515 449 568Q405 621 323 621H190V374Z" glyph-name="Dcroat" horiz-adv-x="647" unicode="Đ" /><glyph d="M180 59 485 59V0H115V680H475V621H180V374H445V315H180ZM414 909 320 772H269L355 938Z" glyph-name="Eacute" horiz-adv-x="528" unicode="É" /><glyph d="M180 59 485 59V0H115V680H475V621H180V374H445V315H180ZM417 772 364 772L293 878L221 772H172L263 933H326Z" glyph-name="Ecircumflex" horiz-adv-x="528" unicode="Ê" /><glyph d="M180 59 485 59V0H115V680H475V621H180V374H445V315H180ZM235 891 235 820H164V891ZM424 891 424 820H353V891Z" glyph-name="Edieresis" horiz-adv-x="528" unicode="Ë" /><glyph d="M180 59 485 59V0H115V680H475V621H180V374H445V315H180ZM319 772 268 772L174 909L233 938Z" glyph-name="Egrave" horiz-adv-x="528" unicode="È" /><glyph d="M180 59 485 59V0H115V680H475V621H180V374H445V315H180ZM294 829Q331 829 349.5 851.5Q368 874 372 924H423Q418 852 385 815Q352 778 294 778Q236 778 203 815Q170 852 165 924H216Q220 875 239 852Q258 829 294 829Z" glyph-name="Ebreve" horiz-adv-x="528" unicode="Ĕ" /><glyph d="M180 59 485 59V0H115V680H475V621H180V374H445V315H180ZM368 933 417 933L326 772H263L172 933H225L297 827Z" glyph-name="Ecaron" horiz-adv-x="528" unicode="Ě" /><glyph d="M180 59 485 59V0H115V680H475V621H180V374H445V315H180ZM330 892 330 819H258V892Z" glyph-name="Edotaccent" horiz-adv-x="528" unicode="Ė" /><glyph d="M180 59 485 59V0H115V680H475V621H180V374H445V315H180ZM157 852 431 852V802H157Z" glyph-name="Emacron" horiz-adv-x="528" unicode="Ē" /><glyph d="M471 -157 485 -206Q465 -215 446 -219Q427 -223 408 -223Q364 -223 339 -201Q314 -179 314 -140Q314 -106 337 -73Q360 -40 412 0H115V680H475V621H180V374H445V315H180V59H485V0Q421 -49 396.5 -77.5Q372 -106 372 -134Q372 -152 382.5 -161Q393 -170 414 -170Q426 -170 440.5 -166.5Q455 -163 471 -157Z" glyph-name="Eogonek" horiz-adv-x="528" unicode="Ę" /><glyph d="M531 345 531 50Q490 21 437.5 5.5Q385 -10 325 -10Q213 -10 149.5 63Q86 136 86 264V417Q86 548 148.5 619Q211 690 326 690Q375 690 425.5 679.5Q476 669 518 649L496 594Q455 612 411.5 621.5Q368 631 326 631Q240 631 197 577.5Q154 524 154 417V264Q154 160 199.5 103.5Q245 47 330 47Q369 47 405.5 56.5Q442 66 470 83V286H333V345ZM330 829Q367 829 385.5 851.5Q404 874 408 924H459Q454 852 421 815Q388 778 330 778Q272 778 239 815Q206 852 201 924H252Q256 875 275 852Q294 829 330 829Z" glyph-name="Gbreve" horiz-adv-x="605" unicode="Ğ" /><glyph d="M531 345 531 50Q490 21 437.5 5.5Q385 -10 325 -10Q213 -10 149.5 63Q86 136 86 264V417Q86 548 148.5 619Q211 690 326 690Q375 690 425.5 679.5Q476 669 518 649L496 594Q455 612 411.5 621.5Q368 631 326 631Q240 631 197 577.5Q154 524 154 417V264Q154 160 199.5 103.5Q245 47 330 47Q369 47 405.5 56.5Q442 66 470 83V286H333V345ZM453 772 400 772L329 878L257 772H208L299 933H362Z" glyph-name="Gcircumflex" horiz-adv-x="605" unicode="Ĝ" /><glyph d="M531 345 531 50Q490 21 437.5 5.5Q385 -10 325 -10Q213 -10 149.5 63Q86 136 86 264V417Q86 548 148.5 619Q211 690 326 690Q375 690 425.5 679.5Q476 669 518 649L496 594Q455 612 411.5 621.5Q368 631 326 631Q240 631 197 577.5Q154 524 154 417V264Q154 160 199.5 103.5Q245 47 330 47Q369 47 405.5 56.5Q442 66 470 83V286H333V345ZM362 -77 294 -243L259 -232L293 -77Z" glyph-name="Gcommaaccent" horiz-adv-x="605" unicode="Ģ" /><glyph d="M531 345 531 50Q490 21 437.5 5.5Q385 -10 325 -10Q213 -10 149.5 63Q86 136 86 264V417Q86 548 148.5 619Q211 690 326 690Q375 690 425.5 679.5Q476 669 518 649L496 594Q455 612 411.5 621.5Q368 631 326 631Q240 631 197 577.5Q154 524 154 417V264Q154 160 199.5 103.5Q245 47 330 47Q369 47 405.5 56.5Q442 66 470 83V286H333V345ZM366 892 366 819H294V892Z" glyph-name="Gdotaccent" horiz-adv-x="605" unicode="Ġ" /><glyph d="M515 315 190 315V0H125V507H35V560H125V680H190V560H515V680H580V560H670V507H580V0H515ZM190 507 190 374H515V507Z" glyph-name="Hbar" horiz-adv-x="705" unicode="Ħ" /><glyph d="M570 0 505 0V315H180V0H115V680H180V374H505V680H570ZM465 772 412 772L341 878L269 772H220L311 933H374Z" glyph-name="Hcircumflex" horiz-adv-x="685" unicode="Ĥ" /><glyph d="M180 680 180 0H115V680ZM268 909 174 772H123L209 938Z" glyph-name="Iacute" horiz-adv-x="295" unicode="Í" /><glyph d="M180 680 180 0H115V680ZM270 772 217 772L146 878L74 772H25L116 933H179Z" glyph-name="Icircumflex" horiz-adv-x="295" unicode="Î" /><glyph d="M180 680 180 0H115V680ZM88 891 88 820H17V891ZM277 891 277 820H206V891Z" glyph-name="Idieresis" horiz-adv-x="295" unicode="Ï" /><glyph d="M180 680 180 0H115V680ZM173 772 122 772L28 909L87 938Z" glyph-name="Igrave" horiz-adv-x="295" unicode="Ì" /><glyph d="M180 680 180 0H115V680ZM148 829Q185 829 203.5 851.5Q222 874 226 924H277Q272 852 239 815Q206 778 148 778Q90 778 57 815Q24 852 19 924H70Q74 875 93 852Q112 829 148 829Z" glyph-name="Ibreve" horiz-adv-x="295" unicode="Ĭ" /><glyph d="M180 680 180 0H115V680ZM183 892 183 819H111V892Z" glyph-name="Idotaccent" horiz-adv-x="295" unicode="İ" /><glyph d="M180 680 180 0H115V680ZM10 852 284 852V802H10Z" glyph-name="Imacron" horiz-adv-x="295" unicode="Ī" /><glyph d="M196 -157 210 -206Q190 -215 171 -219Q152 -223 133 -223Q89 -223 64 -201Q39 -179 39 -140Q39 -108 57.5 -74Q76 -40 115 0V680H180V0Q131 -56 114 -84Q97 -112 97 -134Q97 -152 107.5 -161Q118 -170 139 -170Q151 -170 165.5 -166.5Q180 -163 196 -157Z" glyph-name="Iogonek" horiz-adv-x="295" unicode="Į" /><glyph d="M180 680 180 0H115V680ZM209 781Q188 781 170 792Q152 803 128 836Q112 858 103.5 864.5Q95 871 86 871Q72 871 64.5 852Q57 833 57 796H6Q7 859 27.5 891Q48 923 87 923Q108 923 126 912Q144 901 168 868Q184 846 192.5 839.5Q201 833 210 833Q224 833 231.5 852Q239 871 239 908H290Q289 845 268.5 813Q248 781 209 781Z" glyph-name="Itilde" horiz-adv-x="295" unicode="Ĩ" /><glyph d="M28 -5 28 57Q113 57 149.5 93Q186 129 186 212V680H251V212Q251 101 196 48Q141 -5 28 -5ZM340 772 287 772L216 878L144 772H95L186 933H249Z" glyph-name="Jcircumflex" horiz-adv-x="355" unicode="Ĵ" /><glyph d="M180 680 180 0H115V680ZM323 -5 323 57Q408 57 444.5 93Q481 129 481 212V680H546V212Q546 101 491 48Q436 -5 323 -5Z" glyph-name="IJ" horiz-adv-x="650" unicode="Ĳ" /><glyph d="M573 0 493 0L282 337Q259 313 233.5 288.5Q208 264 180 238V0H115V680H180V312Q278 403 348 491.5Q418 580 471 680H540Q496 596 448.5 527.5Q401 459 330 380ZM354 -77 286 -243L251 -232L285 -77Z" glyph-name="Kcommaaccent" horiz-adv-x="584" unicode="Ķ" /><glyph d="M575 519 643 685L678 674L644 519ZM573 0 493 0L282 337Q259 313 233.5 288.5Q208 264 180 238V0H115V680H180V312Q278 403 348 491.5Q418 580 471 680H540Q496 596 448.5 527.5Q401 459 330 380Z" glyph-name="kgreenlandic.case" horiz-adv-x="584" unicode="" /><glyph d="M180 59 474 59V0H115V680H180ZM275 909 181 772H130L216 938Z" glyph-name="Lacute" horiz-adv-x="506" unicode="Ĺ" /><glyph d="M180 59 474 59V0H115V680H180ZM336 680 312 487H272V680Z" glyph-name="Lcaron" horiz-adv-x="506" unicode="Ľ" /><glyph d="M180 59 474 59V0H115V680H180ZM328 -77 260 -243L225 -232L259 -77Z" glyph-name="Lcommaaccent" horiz-adv-x="506" unicode="Ļ" /><glyph d="M180 59 474 59V0H115V680H180ZM436 421 436 348H364V421Z" glyph-name="Ldot" horiz-adv-x="506" unicode="Ŀ" /><glyph d="M180 0 115 0V680H193Q293 529 372.5 387.5Q452 246 524 90L515 388V680H580V0H502Q424 167 345 311Q266 455 176 596L180 291ZM409 781Q388 781 370 792Q352 803 328 836Q312 858 303.5 864.5Q295 871 286 871Q272 871 264.5 852Q257 833 257 796H206Q207 859 227.5 891Q248 923 287 923Q308 923 326 912Q344 901 368 868Q384 846 392.5 839.5Q401 833 410 833Q424 833 431.5 852Q439 871 439 908H490Q489 845 468.5 813Q448 781 409 781Z" glyph-name="Ntilde" horiz-adv-x="695" unicode="Ñ" /><glyph d="M180 0 115 0V680H193Q293 529 372.5 387.5Q452 246 524 90L515 388V680H580V0H502Q424 167 345 311Q266 455 176 596L180 291ZM468 909 374 772H323L409 938Z" glyph-name="Nacute" horiz-adv-x="695" unicode="Ń" /><glyph d="M180 0 115 0V680H193Q293 529 372.5 387.5Q452 246 524 90L515 388V680H580V0H502Q424 167 345 311Q266 455 176 596L180 291ZM421 933 470 933L379 772H316L225 933H278L350 827Z" glyph-name="Ncaron" horiz-adv-x="695" unicode="Ň" /><glyph d="M180 0 115 0V680H193Q293 529 372.5 387.5Q452 246 524 90L515 388V680H580V0H502Q424 167 345 311Q266 455 176 596L180 291ZM382 -77 314 -243L279 -232L313 -77Z" glyph-name="Ncommaaccent" horiz-adv-x="695" unicode="Ņ" /><glyph d="M515 388 515 680H580V-6Q580 -117 525 -170Q470 -223 357 -223V-161Q441 -161 478 -126.5Q515 -92 515 -13Q442 142 357.5 293.5Q273 445 176 595L180 291V0H115V680H193Q302 515 380.5 379.5Q459 244 524 106Z" glyph-name="Eng" horiz-adv-x="695" unicode="Ŋ" /><glyph d="M218 0 153 0V680H231Q331 529 410.5 387.5Q490 246 562 90L553 388V680H618V0H540Q462 167 383 311Q304 455 214 596L218 291ZM3 680 65 680V661Q65 612 50.5 562Q36 512 3 448L-40 468Q-14 526 -5.5 570Q3 614 3 680Z" glyph-name="napostrophe.case" horiz-adv-x="733" unicode="" /><glyph d="M326 690Q438 690 502 616.5Q566 543 566 417V264Q566 136 502 63Q438 -10 326 -10Q213 -10 149.5 63Q86 136 86 264V417Q86 544 150 617Q214 690 326 690ZM498 264 498 417Q498 519 453 575Q408 631 326 631Q244 631 199 575Q154 519 154 417V264Q154 162 199 105.5Q244 49 326 49Q408 49 453 105.5Q498 162 498 264ZM446 909 352 772H301L387 938Z" glyph-name="Oacute" horiz-adv-x="652" unicode="Ó" /><glyph d="M326 690Q438 690 502 616.5Q566 543 566 417V264Q566 136 502 63Q438 -10 326 -10Q213 -10 149.5 63Q86 136 86 264V417Q86 544 150 617Q214 690 326 690ZM498 264 498 417Q498 519 453 575Q408 631 326 631Q244 631 199 575Q154 519 154 417V264Q154 162 199 105.5Q244 49 326 49Q408 49 453 105.5Q498 162 498 264ZM449 772 396 772L325 878L253 772H204L295 933H358Z" glyph-name="Ocircumflex" horiz-adv-x="652" unicode="Ô" /><glyph d="M326 690Q438 690 502 616.5Q566 543 566 417V264Q566 136 502 63Q438 -10 326 -10Q213 -10 149.5 63Q86 136 86 264V417Q86 544 150 617Q214 690 326 690ZM498 264 498 417Q498 519 453 575Q408 631 326 631Q244 631 199 575Q154 519 154 417V264Q154 162 199 105.5Q244 49 326 49Q408 49 453 105.5Q498 162 498 264ZM267 891 267 820H196V891ZM456 891 456 820H385V891Z" glyph-name="Odieresis" horiz-adv-x="652" unicode="Ö" /><glyph d="M326 690Q438 690 502 616.5Q566 543 566 417V264Q566 136 502 63Q438 -10 326 -10Q213 -10 149.5 63Q86 136 86 264V417Q86 544 150 617Q214 690 326 690ZM498 264 498 417Q498 519 453 575Q408 631 326 631Q244 631 199 575Q154 519 154 417V264Q154 162 199 105.5Q244 49 326 49Q408 49 453 105.5Q498 162 498 264ZM351 772 300 772L206 909L265 938Z" glyph-name="Ograve" horiz-adv-x="652" unicode="Ò" /><glyph d="M326 690Q438 690 502 616.5Q566 543 566 417V264Q566 136 502 63Q438 -10 326 -10Q213 -10 149.5 63Q86 136 86 264V417Q86 544 150 617Q214 690 326 690ZM498 264 498 417Q498 519 453 575Q408 631 326 631Q244 631 199 575Q154 519 154 417V264Q154 162 199 105.5Q244 49 326 49Q408 49 453 105.5Q498 162 498 264ZM387 781Q366 781 348 792Q330 803 306 836Q290 858 281.5 864.5Q273 871 264 871Q250 871 242.5 852Q235 833 235 796H184Q185 859 205.5 891Q226 923 265 923Q286 923 304 912Q322 901 346 868Q362 846 370.5 839.5Q379 833 388 833Q402 833 409.5 852Q417 871 417 908H468Q467 845 446.5 813Q426 781 387 781Z" glyph-name="Otilde" horiz-adv-x="652" unicode="Õ" /><glyph d="M326 690Q438 690 502 616.5Q566 543 566 417V264Q566 136 502 63Q438 -10 326 -10Q213 -10 149.5 63Q86 136 86 264V417Q86 544 150 617Q214 690 326 690ZM498 264 498 417Q498 519 453 575Q408 631 326 631Q244 631 199 575Q154 519 154 417V264Q154 162 199 105.5Q244 49 326 49Q408 49 453 105.5Q498 162 498 264ZM326 829Q363 829 381.5 851.5Q400 874 404 924H455Q450 852 417 815Q384 778 326 778Q268 778 235 815Q202 852 197 924H248Q252 875 271 852Q290 829 326 829Z" glyph-name="Obreve" horiz-adv-x="652" unicode="Ŏ" /><glyph d="M326 690Q438 690 502 616.5Q566 543 566 417V264Q566 136 502 63Q438 -10 326 -10Q213 -10 149.5 63Q86 136 86 264V417Q86 544 150 617Q214 690 326 690ZM498 264 498 417Q498 519 453 575Q408 631 326 631Q244 631 199 575Q154 519 154 417V264Q154 162 199 105.5Q244 49 326 49Q408 49 453 105.5Q498 162 498 264ZM376 909 287 772H236L322 938ZM506 909 417 772H366L452 938Z" glyph-name="Ohungarumlaut" horiz-adv-x="652" unicode="Ő" /><glyph d="M326 690Q438 690 502 616.5Q566 543 566 417V264Q566 136 502 63Q438 -10 326 -10Q213 -10 149.5 63Q86 136 86 264V417Q86 544 150 617Q214 690 326 690ZM498 264 498 417Q498 519 453 575Q408 631 326 631Q244 631 199 575Q154 519 154 417V264Q154 162 199 105.5Q244 49 326 49Q408 49 453 105.5Q498 162 498 264ZM189 852 463 852V802H189Z" glyph-name="Omacron" horiz-adv-x="652" unicode="Ō" /><glyph d="M333 278 180 278V0H115V680H318Q408 680 459.5 632.5Q511 585 511 501V458Q511 396 481.5 352.5Q452 309 398 290Q440 225 478.5 152Q517 79 552 0H476Q448 68 412 137Q376 206 333 278ZM318 621 180 621V337H318Q375 337 409 370Q443 403 443 458V501Q443 557 409.5 589Q376 621 318 621ZM418 909 324 772H273L359 938Z" glyph-name="Racute" horiz-adv-x="597" unicode="Ŕ" /><glyph d="M333 278 180 278V0H115V680H318Q408 680 459.5 632.5Q511 585 511 501V458Q511 396 481.5 352.5Q452 309 398 290Q440 225 478.5 152Q517 79 552 0H476Q448 68 412 137Q376 206 333 278ZM318 621 180 621V337H318Q375 337 409 370Q443 403 443 458V501Q443 557 409.5 589Q376 621 318 621ZM372 933 421 933L330 772H267L176 933H229L301 827Z" glyph-name="Rcaron" horiz-adv-x="597" unicode="Ř" /><glyph d="M333 278 180 278V0H115V680H318Q408 680 459.5 632.5Q511 585 511 501V458Q511 396 481.5 352.5Q452 309 398 290Q440 225 478.5 152Q517 79 552 0H476Q448 68 412 137Q376 206 333 278ZM318 621 180 621V337H318Q375 337 409 370Q443 403 443 458V501Q443 557 409.5 589Q376 621 318 621ZM360 -77 292 -243L257 -232L291 -77Z" glyph-name="Rcommaaccent" horiz-adv-x="597" unicode="Ŗ" /><glyph d="M247 47Q315 47 351.5 79Q388 111 388 170Q388 223 359.5 258.5Q331 294 276 309L196 331Q121 352 84 396.5Q47 441 47 510Q47 597 98 643.5Q149 690 247 690Q292 690 340.5 678.5Q389 667 435 646L413 590Q367 612 325.5 622.5Q284 633 247 633Q180 633 146.5 603.5Q113 574 113 515Q113 466 139 437Q165 408 220 392L300 370Q376 349 415 300.5Q454 252 454 178Q454 87 401 38.5Q348 -10 247 -10Q196 -10 143 2Q90 14 41 36L62 91Q111 68 155 57.5Q199 47 247 47ZM326 933 375 933L284 772H221L130 933H183L255 827Z" glyph-name="Scaron" horiz-adv-x="499" unicode="Š" /><glyph d="M247 47Q315 47 351.5 79Q388 111 388 170Q388 223 359.5 258.5Q331 294 276 309L196 331Q121 352 84 396.5Q47 441 47 510Q47 597 98 643.5Q149 690 247 690Q292 690 340.5 678.5Q389 667 435 646L413 590Q367 612 325.5 622.5Q284 633 247 633Q180 633 146.5 603.5Q113 574 113 515Q113 466 139 437Q165 408 220 392L300 370Q376 349 415 300.5Q454 252 454 178Q454 87 401 38.5Q348 -10 247 -10Q196 -10 143 2Q90 14 41 36L62 91Q111 68 155 57.5Q199 47 247 47ZM373 909 279 772H228L314 938Z" glyph-name="Sacute" horiz-adv-x="499" unicode="Ś" /><glyph d="M343 -138Q343 -177 315 -200Q287 -223 238 -223Q219 -223 200 -219Q181 -215 163 -208L173 -162Q188 -168 204.5 -171Q221 -174 236 -174Q263 -174 276 -165.5Q289 -157 289 -138Q289 -120 275.5 -112Q262 -104 235 -104Q232 -104 228 -104.5Q224 -105 215 -106L192 -64L203 -8Q161 -4 120 7Q79 18 41 36L62 91Q111 68 155 57.5Q199 47 247 47Q315 47 351.5 79Q388 111 388 170Q388 223 359.5 258.5Q331 294 276 309L196 331Q121 352 84 396.5Q47 441 47 510Q47 597 98 643.5Q149 690 247 690Q292 690 340.5 678.5Q389 667 435 646L413 590Q367 612 325.5 622.5Q284 633 247 633Q180 633 146.5 603.5Q113 574 113 515Q113 466 139 437Q165 408 220 392L300 370Q376 349 415 300.5Q454 252 454 178Q454 87 401.5 38.5Q349 -10 250 -10L241 -58H245Q290 -58 316.5 -79.5Q343 -101 343 -138Z" glyph-name="Scedilla" horiz-adv-x="499" unicode="Ş" /><glyph d="M247 47Q315 47 351.5 79Q388 111 388 170Q388 223 359.5 258.5Q331 294 276 309L196 331Q121 352 84 396.5Q47 441 47 510Q47 597 98 643.5Q149 690 247 690Q292 690 340.5 678.5Q389 667 435 646L413 590Q367 612 325.5 622.5Q284 633 247 633Q180 633 146.5 603.5Q113 574 113 515Q113 466 139 437Q165 408 220 392L300 370Q376 349 415 300.5Q454 252 454 178Q454 87 401 38.5Q348 -10 247 -10Q196 -10 143 2Q90 14 41 36L62 91Q111 68 155 57.5Q199 47 247 47ZM375 772 322 772L251 878L179 772H130L221 933H284Z" glyph-name="Scircumflex" horiz-adv-x="499" unicode="Ŝ" /><glyph d="M247 47Q315 47 351.5 79Q388 111 388 170Q388 223 359.5 258.5Q331 294 276 309L196 331Q121 352 84 396.5Q47 441 47 510Q47 597 98 643.5Q149 690 247 690Q292 690 340.5 678.5Q389 667 435 646L413 590Q367 612 325.5 622.5Q284 633 247 633Q180 633 146.5 603.5Q113 574 113 515Q113 466 139 437Q165 408 220 392L300 370Q376 349 415 300.5Q454 252 454 178Q454 87 401 38.5Q348 -10 247 -10Q196 -10 143 2Q90 14 41 36L62 91Q111 68 155 57.5Q199 47 247 47ZM273 -77 205 -243L170 -232L204 -77Z" glyph-name="uni0218" horiz-adv-x="499" unicode="Ș" /><glyph d="M423 365 423 312H282V0H217V312H76V365H217V621H13V680H486V621H282V365Z" glyph-name="Tbar" horiz-adv-x="499" unicode="Ŧ" /><glyph d="M217 621 13 621V680H486V621H282V0H217ZM323 933 372 933L281 772H218L127 933H180L252 827Z" glyph-name="Tcaron" horiz-adv-x="499" unicode="Ť" /><glyph d="M217 621 13 621V680H486V621H282V0H217ZM284 -77 216 -243L181 -232L215 -77Z" glyph-name="uni0162" horiz-adv-x="499" unicode="Ţ" /><glyph d="M217 621 13 621V680H486V621H282V0H217ZM284 -77 216 -243L181 -232L215 -77Z" glyph-name="uni021A" horiz-adv-x="499" unicode="Ț" /><glyph d="M102 244 102 680H170V244Q170 148 209 98.5Q248 49 325 49Q402 49 441 98Q480 147 480 244V680H548V244Q548 120 491 55Q434 -10 325 -10Q216 -10 159 55Q102 120 102 244ZM445 909 351 772H300L386 938Z" glyph-name="Uacute" horiz-adv-x="650" unicode="Ú" /><glyph d="M102 244 102 680H170V244Q170 148 209 98.5Q248 49 325 49Q402 49 441 98Q480 147 480 244V680H548V244Q548 120 491 55Q434 -10 325 -10Q216 -10 159 55Q102 120 102 244ZM447 772 394 772L323 878L251 772H202L293 933H356Z" glyph-name="Ucircumflex" horiz-adv-x="650" unicode="Û" /><glyph d="M102 244 102 680H170V244Q170 148 209 98.5Q248 49 325 49Q402 49 441 98Q480 147 480 244V680H548V244Q548 120 491 55Q434 -10 325 -10Q216 -10 159 55Q102 120 102 244ZM265 891 265 820H194V891ZM454 891 454 820H383V891Z" glyph-name="Udieresis" horiz-adv-x="650" unicode="Ü" /><glyph d="M102 244 102 680H170V244Q170 148 209 98.5Q248 49 325 49Q402 49 441 98Q480 147 480 244V680H548V244Q548 120 491 55Q434 -10 325 -10Q216 -10 159 55Q102 120 102 244ZM350 772 299 772L205 909L264 938Z" glyph-name="Ugrave" horiz-adv-x="650" unicode="Ù" /><glyph d="M102 244 102 680H170V244Q170 148 209 98.5Q248 49 325 49Q402 49 441 98Q480 147 480 244V680H548V244Q548 120 491 55Q434 -10 325 -10Q216 -10 159 55Q102 120 102 244ZM325 829Q362 829 380.5 851.5Q399 874 403 924H454Q449 852 416 815Q383 778 325 778Q267 778 234 815Q201 852 196 924H247Q251 875 270 852Q289 829 325 829Z" glyph-name="Ubreve" horiz-adv-x="650" unicode="Ŭ" /><glyph d="M102 244 102 680H170V244Q170 148 209 98.5Q248 49 325 49Q402 49 441 98Q480 147 480 244V680H548V244Q548 120 491 55Q434 -10 325 -10Q216 -10 159 55Q102 120 102 244ZM375 909 286 772H235L321 938ZM505 909 416 772H365L451 938Z" glyph-name="Uhungarumlaut" horiz-adv-x="650" unicode="Ű" /><glyph d="M102 244 102 680H170V244Q170 148 209 98.5Q248 49 325 49Q402 49 441 98Q480 147 480 244V680H548V244Q548 120 491 55Q434 -10 325 -10Q216 -10 159 55Q102 120 102 244ZM187 852 461 852V802H187Z" glyph-name="Umacron" horiz-adv-x="650" unicode="Ū" /><glyph d="M449 -157 463 -206Q443 -215 424 -219Q405 -223 386 -223Q342 -223 317 -201Q292 -179 292 -140Q292 -110 308.5 -78.5Q325 -47 361 -8Q348 -9 340 -9.5Q332 -10 325 -10Q216 -10 159 55Q102 120 102 244V680H170V244Q170 148 209 98.5Q248 49 325 49Q402 49 441 98Q480 147 480 244V680H548V244Q548 176 531 126.5Q514 77 478 42Q410 -25 380 -65.5Q350 -106 350 -134Q350 -152 360.5 -161Q371 -170 392 -170Q404 -170 418.5 -166.5Q433 -163 449 -157Z" glyph-name="Uogonek" horiz-adv-x="650" unicode="Ų" /><glyph d="M102 244 102 680H170V244Q170 148 209 98.5Q248 49 325 49Q402 49 441 98Q480 147 480 244V680H548V244Q548 120 491 55Q434 -10 325 -10Q216 -10 159 55Q102 120 102 244ZM325 976Q375 976 405 947.5Q435 919 435 872V861Q435 814 405 785Q375 756 325 756Q275 756 245 785Q215 814 215 861V872Q215 919 245 947.5Q275 976 325 976ZM383 861 383 872Q383 898 367 913.5Q351 929 325 929Q299 929 283 913.5Q267 898 267 872V861Q267 835 283 819.5Q299 804 325 804Q351 804 367 819.5Q383 835 383 861Z" glyph-name="Uring" horiz-adv-x="650" unicode="Ů" /><glyph d="M102 244 102 680H170V244Q170 148 209 98.5Q248 49 325 49Q402 49 441 98Q480 147 480 244V680H548V244Q548 120 491 55Q434 -10 325 -10Q216 -10 159 55Q102 120 102 244ZM386 781Q365 781 347 792Q329 803 305 836Q289 858 280.5 864.5Q272 871 263 871Q249 871 241.5 852Q234 833 234 796H183Q184 859 204.5 891Q225 923 264 923Q285 923 303 912Q321 901 345 868Q361 846 369.5 839.5Q378 833 387 833Q401 833 408.5 852Q416 871 416 908H467Q466 845 445.5 813Q425 781 386 781Z" glyph-name="Utilde" horiz-adv-x="650" unicode="Ũ" /><glyph d="M108 680 172 380L227 95L398 680H461L633 93L688 380L752 680H813L666 0H600L429 587L256 0H189L43 680ZM548 909 454 772H403L489 938Z" glyph-name="Wacute" horiz-adv-x="856" unicode="Ẃ" /><glyph d="M108 680 172 380L227 95L398 680H461L633 93L688 380L752 680H813L666 0H600L429 587L256 0H189L43 680ZM551 772 498 772L427 878L355 772H306L397 933H460Z" glyph-name="Wcircumflex" horiz-adv-x="856" unicode="Ŵ" /><glyph d="M108 680 172 380L227 95L398 680H461L633 93L688 380L752 680H813L666 0H600L429 587L256 0H189L43 680ZM369 891 369 820H298V891ZM558 891 558 820H487V891Z" glyph-name="Wdieresis" horiz-adv-x="856" unicode="Ẅ" /><glyph d="M108 680 172 380L227 95L398 680H461L633 93L688 380L752 680H813L666 0H600L429 587L256 0H189L43 680ZM453 772 402 772L308 909L367 938Z" glyph-name="Wgrave" horiz-adv-x="856" unicode="Ẁ" /><glyph d="M496 680 289 270V0H224V270L16 680H86L259 337L429 680ZM376 909 282 772H231L317 938Z" glyph-name="Yacute" horiz-adv-x="512" unicode="Ý" /><glyph d="M496 680 289 270V0H224V270L16 680H86L259 337L429 680ZM197 891 197 820H126V891ZM386 891 386 820H315V891Z" glyph-name="Ydieresis" horiz-adv-x="512" unicode="Ÿ" /><glyph d="M496 680 289 270V0H224V270L16 680H86L259 337L429 680ZM379 772 326 772L255 878L183 772H134L225 933H288Z" glyph-name="Ycircumflex" horiz-adv-x="512" unicode="Ŷ" /><glyph d="M496 680 289 270V0H224V270L16 680H86L259 337L429 680ZM281 772 230 772L136 909L195 938Z" glyph-name="Ygrave" horiz-adv-x="512" unicode="Ỳ" /><glyph d="M121 59 468 59V0H43V47L380 621H53V680H458V633ZM330 933 379 933L288 772H225L134 933H187L259 827Z" glyph-name="Zcaron" horiz-adv-x="508" unicode="Ž" /><glyph d="M121 59 468 59V0H43V47L380 621H53V680H458V633ZM376 909 282 772H231L317 938Z" glyph-name="Zacute" horiz-adv-x="508" unicode="Ź" /><glyph d="M121 59 468 59V0H43V47L380 621H53V680H458V633ZM292 892 292 819H220V892Z" glyph-name="Zdotaccent" horiz-adv-x="508" unicode="Ż" /><glyph d="M452 -5 442 -5Q401 -5 374 15Q347 35 342 70Q296 29 254.5 9.5Q213 -10 170 -10Q112 -10 78.5 28.5Q45 67 45 131Q45 199 84.5 234Q124 269 201 269Q228 269 263.5 265.5Q299 262 334 256V328Q334 389 310.5 415.5Q287 442 231 442Q197 442 162 433Q127 424 87 405L66 454Q109 476 149.5 486.5Q190 497 231 497Q314 497 353.5 459.5Q393 422 393 338V112Q393 78 404 64Q415 50 440 50H452ZM202 216Q153 216 130 195.5Q107 175 107 131Q107 90 126 66.5Q145 43 179 43Q211 43 249.5 63.5Q288 84 334 126V203Q300 209 263.5 212.5Q227 216 202 216ZM342 716 248 579H197L283 745Z" glyph-name="aacute" horiz-adv-x="484" unicode="á" /><glyph d="M452 -5 442 -5Q401 -5 374 15Q347 35 342 70Q296 29 254.5 9.5Q213 -10 170 -10Q112 -10 78.5 28.5Q45 67 45 131Q45 199 84.5 234Q124 269 201 269Q228 269 263.5 265.5Q299 262 334 256V328Q334 389 310.5 415.5Q287 442 231 442Q197 442 162 433Q127 424 87 405L66 454Q109 476 149.5 486.5Q190 497 231 497Q314 497 353.5 459.5Q393 422 393 338V112Q393 78 404 64Q415 50 440 50H452ZM202 216Q153 216 130 195.5Q107 175 107 131Q107 90 126 66.5Q145 43 179 43Q211 43 249.5 63.5Q288 84 334 126V203Q300 209 263.5 212.5Q227 216 202 216ZM345 579 292 579L221 685L149 579H100L191 740H254Z" glyph-name="acircumflex" horiz-adv-x="484" unicode="â" /><glyph d="M452 -5 442 -5Q401 -5 374 15Q347 35 342 70Q296 29 254.5 9.5Q213 -10 170 -10Q112 -10 78.5 28.5Q45 67 45 131Q45 199 84.5 234Q124 269 201 269Q228 269 263.5 265.5Q299 262 334 256V328Q334 389 310.5 415.5Q287 442 231 442Q197 442 162 433Q127 424 87 405L66 454Q109 476 149.5 486.5Q190 497 231 497Q314 497 353.5 459.5Q393 422 393 338V112Q393 78 404 64Q415 50 440 50H452ZM202 216Q153 216 130 195.5Q107 175 107 131Q107 90 126 66.5Q145 43 179 43Q211 43 249.5 63.5Q288 84 334 126V203Q300 209 263.5 212.5Q227 216 202 216ZM163 698 163 627H92V698ZM352 698 352 627H281V698Z" glyph-name="adieresis" horiz-adv-x="484" unicode="ä" /><glyph d="M452 -5 442 -5Q401 -5 374 15Q347 35 342 70Q296 29 254.5 9.5Q213 -10 170 -10Q112 -10 78.5 28.5Q45 67 45 131Q45 199 84.5 234Q124 269 201 269Q228 269 263.5 265.5Q299 262 334 256V328Q334 389 310.5 415.5Q287 442 231 442Q197 442 162 433Q127 424 87 405L66 454Q109 476 149.5 486.5Q190 497 231 497Q314 497 353.5 459.5Q393 422 393 338V112Q393 78 404 64Q415 50 440 50H452ZM202 216Q153 216 130 195.5Q107 175 107 131Q107 90 126 66.5Q145 43 179 43Q211 43 249.5 63.5Q288 84 334 126V203Q300 209 263.5 212.5Q227 216 202 216ZM247 579 196 579L102 716L161 745Z" glyph-name="agrave" horiz-adv-x="484" unicode="à" /><glyph d="M452 -5 442 -5Q401 -5 374 15Q347 35 342 70Q296 29 254.5 9.5Q213 -10 170 -10Q112 -10 78.5 28.5Q45 67 45 131Q45 199 84.5 234Q124 269 201 269Q228 269 263.5 265.5Q299 262 334 256V328Q334 389 310.5 415.5Q287 442 231 442Q197 442 162 433Q127 424 87 405L66 454Q109 476 149.5 486.5Q190 497 231 497Q314 497 353.5 459.5Q393 422 393 338V112Q393 78 404 64Q415 50 440 50H452ZM202 216Q153 216 130 195.5Q107 175 107 131Q107 90 126 66.5Q145 43 179 43Q211 43 249.5 63.5Q288 84 334 126V203Q300 209 263.5 212.5Q227 216 202 216ZM222 783Q272 783 302 754.5Q332 726 332 679V668Q332 621 302 592Q272 563 222 563Q172 563 142 592Q112 621 112 668V679Q112 726 142 754.5Q172 783 222 783ZM280 668 280 679Q280 705 264 720.5Q248 736 222 736Q196 736 180 720.5Q164 705 164 679V668Q164 642 180 626.5Q196 611 222 611Q248 611 264 626.5Q280 642 280 668Z" glyph-name="aring" horiz-adv-x="484" unicode="å" /><glyph d="M452 -5 442 -5Q401 -5 374 15Q347 35 342 70Q296 29 254.5 9.5Q213 -10 170 -10Q112 -10 78.5 28.5Q45 67 45 131Q45 199 84.5 234Q124 269 201 269Q228 269 263.5 265.5Q299 262 334 256V328Q334 389 310.5 415.5Q287 442 231 442Q197 442 162 433Q127 424 87 405L66 454Q109 476 149.5 486.5Q190 497 231 497Q314 497 353.5 459.5Q393 422 393 338V112Q393 78 404 64Q415 50 440 50H452ZM202 216Q153 216 130 195.5Q107 175 107 131Q107 90 126 66.5Q145 43 179 43Q211 43 249.5 63.5Q288 84 334 126V203Q300 209 263.5 212.5Q227 216 202 216ZM283 588Q262 588 244 599Q226 610 202 643Q186 665 177.5 671.5Q169 678 160 678Q146 678 138.5 659Q131 640 131 603H80Q81 666 101.5 698Q122 730 161 730Q182 730 200 719Q218 708 242 675Q258 653 266.5 646.5Q275 640 284 640Q298 640 305.5 659Q313 678 313 715H364Q363 652 342.5 620Q322 588 283 588Z" glyph-name="atilde" horiz-adv-x="484" unicode="ã" /><glyph d="M452 -5 442 -5Q401 -5 374 15Q347 35 342 70Q296 29 254.5 9.5Q213 -10 170 -10Q112 -10 78.5 28.5Q45 67 45 131Q45 199 84.5 234Q124 269 201 269Q228 269 263.5 265.5Q299 262 334 256V328Q334 389 310.5 415.5Q287 442 231 442Q197 442 162 433Q127 424 87 405L66 454Q109 476 149.5 486.5Q190 497 231 497Q314 497 353.5 459.5Q393 422 393 338V112Q393 78 404 64Q415 50 440 50H452ZM202 216Q153 216 130 195.5Q107 175 107 131Q107 90 126 66.5Q145 43 179 43Q211 43 249.5 63.5Q288 84 334 126V203Q300 209 263.5 212.5Q227 216 202 216ZM222 636Q259 636 277.5 658.5Q296 681 300 731H351Q346 659 313 622Q280 585 222 585Q164 585 131 622Q98 659 93 731H144Q148 682 167 659Q186 636 222 636Z" glyph-name="abreve" horiz-adv-x="484" unicode="ă" /><glyph d="M452 -5 442 -5Q401 -5 374 15Q347 35 342 70Q296 29 254.5 9.5Q213 -10 170 -10Q112 -10 78.5 28.5Q45 67 45 131Q45 199 84.5 234Q124 269 201 269Q228 269 263.5 265.5Q299 262 334 256V328Q334 389 310.5 415.5Q287 442 231 442Q197 442 162 433Q127 424 87 405L66 454Q109 476 149.5 486.5Q190 497 231 497Q314 497 353.5 459.5Q393 422 393 338V112Q393 78 404 64Q415 50 440 50H452ZM202 216Q153 216 130 195.5Q107 175 107 131Q107 90 126 66.5Q145 43 179 43Q211 43 249.5 63.5Q288 84 334 126V203Q300 209 263.5 212.5Q227 216 202 216ZM85 659 359 659V609H85Z" glyph-name="amacron" horiz-adv-x="484" unicode="ā" /><glyph d="M438 -157 452 -206Q432 -215 413 -219Q394 -223 375 -223Q331 -223 306 -201Q281 -179 281 -140Q281 -104 306.5 -69Q332 -34 387 7Q368 16 356.5 32.5Q345 49 342 70Q296 29 254.5 9.5Q213 -10 170 -10Q112 -10 78.5 28.5Q45 67 45 131Q45 199 84.5 234Q124 269 201 269Q228 269 263.5 265.5Q299 262 334 256V328Q334 389 310.5 415.5Q287 442 231 442Q197 442 162 433Q127 424 87 405L66 454Q109 476 149.5 486.5Q190 497 231 497Q314 497 353.5 459.5Q393 422 393 338V112Q393 78 404 64Q415 50 440 50H452V-5Q389 -49 364 -77.5Q339 -106 339 -134Q339 -152 349.5 -161Q360 -170 381 -170Q393 -170 407.5 -166.5Q422 -163 438 -157ZM202 216Q153 216 130 195.5Q107 175 107 131Q107 90 126 66.5Q145 43 179 43Q211 43 249.5 63.5Q288 84 334 126V203Q300 209 263.5 212.5Q227 216 202 216Z" glyph-name="aogonek" horiz-adv-x="484" unicode="ą" /><glyph d="M353 -138Q353 -177 325 -200Q297 -223 248 -223Q229 -223 210 -219Q191 -215 173 -208L183 -162Q198 -168 214.5 -171Q231 -174 246 -174Q273 -174 286 -165.5Q299 -157 299 -138Q299 -120 285.5 -112Q272 -104 245 -104Q242 -104 238 -104.5Q234 -105 225 -106L202 -64L213 -6Q143 7 106.5 63.5Q70 120 70 214V274Q70 381 118.5 439Q167 497 258 497Q295 497 333.5 487.5Q372 478 406 461L386 411Q354 426 323 434Q292 442 263 442Q197 442 165 400.5Q133 359 133 274V214Q133 128 165 86.5Q197 45 263 45Q294 45 326.5 53Q359 61 395 78L415 29Q379 10 338 0Q297 -10 260 -10L251 -58H255Q300 -58 326.5 -79.5Q353 -101 353 -138Z" glyph-name="ccedilla" horiz-adv-x="451" unicode="ç" /><glyph d="M263 442Q197 442 165 400.5Q133 359 133 274V214Q133 128 165 86.5Q197 45 263 45Q294 45 326.5 53Q359 61 395 78L415 29Q378 10 337 0Q296 -10 258 -10Q167 -10 118.5 48Q70 106 70 214V274Q70 381 118.5 439Q167 497 258 497Q295 497 333.5 487.5Q372 478 406 461L386 411Q354 426 323 434Q292 442 263 442ZM380 716 286 579H235L321 745Z" glyph-name="cacute" horiz-adv-x="451" unicode="ć" /><glyph d="M263 442Q197 442 165 400.5Q133 359 133 274V214Q133 128 165 86.5Q197 45 263 45Q294 45 326.5 53Q359 61 395 78L415 29Q378 10 337 0Q296 -10 258 -10Q167 -10 118.5 48Q70 106 70 214V274Q70 381 118.5 439Q167 497 258 497Q295 497 333.5 487.5Q372 478 406 461L386 411Q354 426 323 434Q292 442 263 442ZM333 740 382 740L291 579H228L137 740H190L262 634Z" glyph-name="ccaron" horiz-adv-x="451" unicode="č" /><glyph d="M263 442Q197 442 165 400.5Q133 359 133 274V214Q133 128 165 86.5Q197 45 263 45Q294 45 326.5 53Q359 61 395 78L415 29Q378 10 337 0Q296 -10 258 -10Q167 -10 118.5 48Q70 106 70 214V274Q70 381 118.5 439Q167 497 258 497Q295 497 333.5 487.5Q372 478 406 461L386 411Q354 426 323 434Q292 442 263 442ZM382 579 329 579L258 685L186 579H137L228 740H291Z" glyph-name="ccircumflex" horiz-adv-x="451" unicode="ĉ" /><glyph d="M263 442Q197 442 165 400.5Q133 359 133 274V214Q133 128 165 86.5Q197 45 263 45Q294 45 326.5 53Q359 61 395 78L415 29Q378 10 337 0Q296 -10 258 -10Q167 -10 118.5 48Q70 106 70 214V274Q70 381 118.5 439Q167 497 258 497Q295 497 333.5 487.5Q372 478 406 461L386 411Q354 426 323 434Q292 442 263 442ZM295 699 295 626H223V699Z" glyph-name="cdotaccent" horiz-adv-x="451" unicode="ċ" /><glyph d="M456 0 399 0V69Q355 28 313.5 9Q272 -10 229 -10Q153 -10 112 48.5Q71 107 71 214V274Q71 380 123.5 438.5Q176 497 271 497Q301 497 332.5 490.5Q364 484 396 472V740H456ZM134 274 134 214Q134 128 160 87.5Q186 47 241 47Q278 47 313 65.5Q348 84 396 128V414Q364 428 334.5 435Q305 442 274 442Q204 442 169 400Q134 358 134 274ZM612 740 588 547H548V740Z" glyph-name="dcaron" horiz-adv-x="596" unicode="ď" /><glyph d="M456 0 399 0V69Q355 28 313.5 9Q272 -10 229 -10Q153 -10 112 48.5Q71 107 71 214V274Q71 380 123.5 438.5Q176 497 271 497Q301 497 332.5 490.5Q364 484 396 472V584H238V637H396V740H456V637H546V584H456ZM134 274 134 214Q134 128 160 87.5Q186 47 241 47Q278 47 313 65.5Q348 84 396 128V414Q364 428 334.5 435Q305 442 274 442Q204 442 169 400Q134 358 134 274Z" glyph-name="dcroat" horiz-adv-x="551" unicode="đ" /><glyph d="M417 78 437 29Q400 10 356.5 0Q313 -10 271 -10Q172 -10 121 47Q70 104 70 214V274Q70 379 121 438Q172 497 264 497Q345 497 392 450Q439 403 439 320Q439 299 436 275.5Q433 252 427 226H131V214Q131 128 165.5 86.5Q200 45 271 45Q305 45 344 53.5Q383 62 417 78ZM380 325Q380 380 348.5 411Q317 442 264 442Q200 442 165.5 400Q131 358 131 279H376Q378 290 379 301.5Q380 313 380 325ZM384 716 290 579H239L325 745Z" glyph-name="eacute" horiz-adv-x="493" unicode="é" /><glyph d="M417 78 437 29Q400 10 356.5 0Q313 -10 271 -10Q172 -10 121 47Q70 104 70 214V274Q70 379 121 438Q172 497 264 497Q345 497 392 450Q439 403 439 320Q439 299 436 275.5Q433 252 427 226H131V214Q131 128 165.5 86.5Q200 45 271 45Q305 45 344 53.5Q383 62 417 78ZM380 325Q380 380 348.5 411Q317 442 264 442Q200 442 165.5 400Q131 358 131 279H376Q378 290 379 301.5Q380 313 380 325ZM386 579 333 579L262 685L190 579H141L232 740H295Z" glyph-name="ecircumflex" horiz-adv-x="493" unicode="ê" /><glyph d="M417 78 437 29Q400 10 356.5 0Q313 -10 271 -10Q172 -10 121 47Q70 104 70 214V274Q70 379 121 438Q172 497 264 497Q345 497 392 450Q439 403 439 320Q439 299 436 275.5Q433 252 427 226H131V214Q131 128 165.5 86.5Q200 45 271 45Q305 45 344 53.5Q383 62 417 78ZM380 325Q380 380 348.5 411Q317 442 264 442Q200 442 165.5 400Q131 358 131 279H376Q378 290 379 301.5Q380 313 380 325ZM204 698 204 627H133V698ZM393 698 393 627H322V698Z" glyph-name="edieresis" horiz-adv-x="493" unicode="ë" /><glyph d="M417 78 437 29Q400 10 356.5 0Q313 -10 271 -10Q172 -10 121 47Q70 104 70 214V274Q70 379 121 438Q172 497 264 497Q345 497 392 450Q439 403 439 320Q439 299 436 275.5Q433 252 427 226H131V214Q131 128 165.5 86.5Q200 45 271 45Q305 45 344 53.5Q383 62 417 78ZM380 325Q380 380 348.5 411Q317 442 264 442Q200 442 165.5 400Q131 358 131 279H376Q378 290 379 301.5Q380 313 380 325ZM289 579 238 579L144 716L203 745Z" glyph-name="egrave" horiz-adv-x="493" unicode="è" /><glyph d="M417 78 437 29Q400 10 356.5 0Q313 -10 271 -10Q172 -10 121 47Q70 104 70 214V274Q70 379 121 438Q172 497 264 497Q345 497 392 450Q439 403 439 320Q439 299 436 275.5Q433 252 427 226H131V214Q131 128 165.5 86.5Q200 45 271 45Q305 45 344 53.5Q383 62 417 78ZM380 325Q380 380 348.5 411Q317 442 264 442Q200 442 165.5 400Q131 358 131 279H376Q378 290 379 301.5Q380 313 380 325ZM264 636Q301 636 319.5 658.5Q338 681 342 731H393Q388 659 355 622Q322 585 264 585Q206 585 173 622Q140 659 135 731H186Q190 682 209 659Q228 636 264 636Z" glyph-name="ebreve" horiz-adv-x="493" unicode="ĕ" /><glyph d="M417 78 437 29Q400 10 356.5 0Q313 -10 271 -10Q172 -10 121 47Q70 104 70 214V274Q70 379 121 438Q172 497 264 497Q345 497 392 450Q439 403 439 320Q439 299 436 275.5Q433 252 427 226H131V214Q131 128 165.5 86.5Q200 45 271 45Q305 45 344 53.5Q383 62 417 78ZM380 325Q380 380 348.5 411Q317 442 264 442Q200 442 165.5 400Q131 358 131 279H376Q378 290 379 301.5Q380 313 380 325ZM337 740 386 740L295 579H232L141 740H194L266 634Z" glyph-name="ecaron" horiz-adv-x="493" unicode="ě" /><glyph d="M417 78 437 29Q400 10 356.5 0Q313 -10 271 -10Q172 -10 121 47Q70 104 70 214V274Q70 379 121 438Q172 497 264 497Q345 497 392 450Q439 403 439 320Q439 299 436 275.5Q433 252 427 226H131V214Q131 128 165.5 86.5Q200 45 271 45Q305 45 344 53.5Q383 62 417 78ZM380 325Q380 380 348.5 411Q317 442 264 442Q200 442 165.5 400Q131 358 131 279H376Q378 290 379 301.5Q380 313 380 325ZM299 699 299 626H227V699Z" glyph-name="edotaccent" horiz-adv-x="493" unicode="ė" /><glyph d="M417 78 437 29Q400 10 356.5 0Q313 -10 271 -10Q172 -10 121 47Q70 104 70 214V274Q70 379 121 438Q172 497 264 497Q345 497 392 450Q439 403 439 320Q439 299 436 275.5Q433 252 427 226H131V214Q131 128 165.5 86.5Q200 45 271 45Q305 45 344 53.5Q383 62 417 78ZM380 325Q380 380 348.5 411Q317 442 264 442Q200 442 165.5 400Q131 358 131 279H376Q378 290 379 301.5Q380 313 380 325ZM126 659 400 659V609H126Z" glyph-name="emacron" horiz-adv-x="493" unicode="ē" /><glyph d="M423 -157 437 -206Q417 -215 398 -219Q379 -223 360 -223Q315 -223 290.5 -200Q266 -177 266 -135Q266 -103 283 -70.5Q300 -38 336 -1Q321 -6 305 -8Q289 -10 271 -10Q172 -10 121 47Q70 104 70 214V274Q70 379 121 438Q172 497 264 497Q345 497 392 450Q439 403 439 320Q439 299 436 275.5Q433 252 427 226H131V214Q131 128 165.5 86.5Q200 45 271 45Q305 45 344 53.5Q383 62 417 78L437 29Q378 -25 351 -61.5Q324 -98 324 -129Q324 -150 334.5 -160Q345 -170 366 -170Q378 -170 392.5 -166.5Q407 -163 423 -157ZM380 325Q380 380 348.5 411Q317 442 264 442Q200 442 165.5 400Q131 358 131 279H376Q378 290 379 301.5Q380 313 380 325Z" glyph-name="eogonek" horiz-adv-x="493" unicode="ę" /><glyph d="M474 -70Q474 -140 416.5 -181.5Q359 -223 262 -223Q206 -223 152.5 -207Q99 -191 52 -160L76 -114Q120 -142 165.5 -155.5Q211 -169 263 -169Q333 -169 373 -144Q413 -119 413 -75Q413 -42 390 -26Q367 -10 321 -10H210Q156 -10 125.5 15Q95 40 95 81Q95 106 106.5 131.5Q118 157 142 184Q105 205 85 242.5Q65 280 65 328Q65 407 113 452Q161 497 242 497H259Q275 497 289.5 494.5Q304 492 317 487H491V432L379 445Q407 423 421 393.5Q435 364 435 328Q435 251 386.5 205Q338 159 259 159H242Q226 159 212.5 160.5Q199 162 186 166Q169 147 160.5 128.5Q152 110 152 93Q152 71 167.5 60Q183 49 215 49H320Q395 49 434.5 18.5Q474 -12 474 -70ZM242 214 259 214Q310 214 341 244.5Q372 275 372 328Q372 381 341 411.5Q310 442 259 442H242Q190 442 159 411.5Q128 381 128 328Q128 275 159 244.5Q190 214 242 214ZM249 636Q286 636 304.5 658.5Q323 681 327 731H378Q373 659 340 622Q307 585 249 585Q191 585 158 622Q125 659 120 731H171Q175 682 194 659Q213 636 249 636Z" glyph-name="gbreve" horiz-adv-x="514" unicode="ğ" /><glyph d="M474 -70Q474 -140 416.5 -181.5Q359 -223 262 -223Q206 -223 152.5 -207Q99 -191 52 -160L76 -114Q120 -142 165.5 -155.5Q211 -169 263 -169Q333 -169 373 -144Q413 -119 413 -75Q413 -42 390 -26Q367 -10 321 -10H210Q156 -10 125.5 15Q95 40 95 81Q95 106 106.5 131.5Q118 157 142 184Q105 205 85 242.5Q65 280 65 328Q65 407 113 452Q161 497 242 497H259Q275 497 289.5 494.5Q304 492 317 487H491V432L379 445Q407 423 421 393.5Q435 364 435 328Q435 251 386.5 205Q338 159 259 159H242Q226 159 212.5 160.5Q199 162 186 166Q169 147 160.5 128.5Q152 110 152 93Q152 71 167.5 60Q183 49 215 49H320Q395 49 434.5 18.5Q474 -12 474 -70ZM242 214 259 214Q310 214 341 244.5Q372 275 372 328Q372 381 341 411.5Q310 442 259 442H242Q190 442 159 411.5Q128 381 128 328Q128 275 159 244.5Q190 214 242 214ZM371 579 318 579L247 685L175 579H126L217 740H280Z" glyph-name="gcircumflex" horiz-adv-x="514" unicode="ĝ" /><glyph d="M474 -70Q474 -140 416.5 -181.5Q359 -223 262 -223Q206 -223 152.5 -207Q99 -191 52 -160L76 -114Q120 -142 165.5 -155.5Q211 -169 263 -169Q333 -169 373 -144Q413 -119 413 -75Q413 -42 390 -26Q367 -10 321 -10H210Q156 -10 125.5 15Q95 40 95 81Q95 106 106.5 131.5Q118 157 142 184Q105 205 85 242.5Q65 280 65 328Q65 407 113 452Q161 497 242 497H259Q275 497 289.5 494.5Q304 492 317 487H491V432L379 445Q407 423 421 393.5Q435 364 435 328Q435 251 386.5 205Q338 159 259 159H242Q226 159 212.5 160.5Q199 162 186 166Q169 147 160.5 128.5Q152 110 152 93Q152 71 167.5 60Q183 49 215 49H320Q395 49 434.5 18.5Q474 -12 474 -70ZM242 214 259 214Q310 214 341 244.5Q372 275 372 328Q372 381 341 411.5Q310 442 259 442H242Q190 442 159 411.5Q128 381 128 328Q128 275 159 244.5Q190 214 242 214ZM214 579 282 745L317 734L283 579Z" glyph-name="gcommaaccent" horiz-adv-x="514" unicode="ģ" /><glyph d="M474 -70Q474 -140 416.5 -181.5Q359 -223 262 -223Q206 -223 152.5 -207Q99 -191 52 -160L76 -114Q120 -142 165.5 -155.5Q211 -169 263 -169Q333 -169 373 -144Q413 -119 413 -75Q413 -42 390 -26Q367 -10 321 -10H210Q156 -10 125.5 15Q95 40 95 81Q95 106 106.5 131.5Q118 157 142 184Q105 205 85 242.5Q65 280 65 328Q65 407 113 452Q161 497 242 497H259Q275 497 289.5 494.5Q304 492 317 487H491V432L379 445Q407 423 421 393.5Q435 364 435 328Q435 251 386.5 205Q338 159 259 159H242Q226 159 212.5 160.5Q199 162 186 166Q169 147 160.5 128.5Q152 110 152 93Q152 71 167.5 60Q183 49 215 49H320Q395 49 434.5 18.5Q474 -12 474 -70ZM242 214 259 214Q310 214 341 244.5Q372 275 372 328Q372 381 341 411.5Q310 442 259 442H242Q190 442 159 411.5Q128 381 128 328Q128 275 159 244.5Q190 214 242 214ZM285 699 285 626H213V699Z" glyph-name="gdotaccent" horiz-adv-x="514" unicode="ġ" /><glyph d="M326 440Q287 440 246 421Q205 402 155 361V0H95V587H5V637H95V740H155V637H313V587H155V420Q203 460 246 478.5Q289 497 336 497Q402 497 437.5 456Q473 415 473 338V0H413V327Q413 385 392 412.5Q371 440 326 440Z" glyph-name="hbar" horiz-adv-x="563" unicode="ħ" /><glyph d="M326 440Q287 440 246 421Q205 402 155 361V0H95V740H155V420Q203 460 246 478.5Q289 497 336 497Q402 497 437.5 456Q473 415 473 338V0H413V327Q413 385 392 412.5Q371 440 326 440ZM346 832 293 832L222 938L150 832H101L192 993H255Z" glyph-name="hcircumflex" horiz-adv-x="563" unicode="ĥ" /><glyph d="M155 487 155 0H95V487ZM246 716 152 579H101L187 745Z" glyph-name="iacute" horiz-adv-x="250" unicode="í" /><glyph d="M155 487 155 0H95V487ZM248 579 195 579L124 685L52 579H3L94 740H157Z" glyph-name="icircumflex" horiz-adv-x="250" unicode="î" /><glyph d="M155 487 155 0H95V487ZM66 698 66 627H-5V698ZM255 698 255 627H184V698Z" glyph-name="idieresis" horiz-adv-x="250" unicode="ï" /><glyph d="M155 487 155 0H95V487ZM151 579 100 579L6 716L65 745Z" glyph-name="igrave" horiz-adv-x="250" unicode="ì" /><glyph d="M155 487 155 0H95V487ZM126 636Q163 636 181.5 658.5Q200 681 204 731H255Q250 659 217 622Q184 585 126 585Q68 585 35 622Q2 659 -3 731H48Q52 682 71 659Q90 636 126 636Z" glyph-name="ibreve" horiz-adv-x="250" unicode="ĭ" /><glyph d="M161 699 161 626H89V699ZM155 487 155 0H95V487Z" glyph-name="i.dot" horiz-adv-x="250" unicode="" /><glyph d="M155 487 155 0H95V487ZM-12 659 262 659V609H-12Z" glyph-name="imacron" horiz-adv-x="250" unicode="ī" /><glyph d="M158 696 158 629H92V696ZM171 -157 185 -206Q165 -215 146 -219Q127 -223 108 -223Q64 -223 39 -201Q14 -179 14 -140Q14 -108 33.5 -73.5Q53 -39 95 4V487H155V0Q106 -56 89 -84Q72 -112 72 -134Q72 -152 82.5 -161Q93 -170 114 -170Q126 -170 140.5 -166.5Q155 -163 171 -157Z" glyph-name="iogonek" horiz-adv-x="250" unicode="į" /><glyph d="M155 487 155 0H95V487ZM187 588Q166 588 148 599Q130 610 106 643Q90 665 81.5 671.5Q73 678 64 678Q50 678 42.5 659Q35 640 35 603H-16Q-15 666 5.5 698Q26 730 65 730Q86 730 104 719Q122 708 146 675Q162 653 170.5 646.5Q179 640 188 640Q202 640 209.5 659Q217 678 217 715H268Q267 652 246.5 620Q226 588 187 588Z" glyph-name="itilde" horiz-adv-x="250" unicode="ĩ" /><glyph d="M-18 -223 -18 -166Q45 -166 70 -136.5Q95 -107 95 -37V487H155V-37Q155 -134 113 -178.5Q71 -223 -18 -223ZM247 579 194 579L123 685L51 579H2L93 740H156Z" glyph-name="jcircumflex" horiz-adv-x="250" unicode="ĵ" /><glyph d="M161 699 161 626H89V699ZM155 487 155 0H95V487ZM412 699 412 626H339V699ZM233 -223 233 -166Q296 -166 321 -136.5Q346 -107 346 -37V487H406V-37Q406 -134 364 -178.5Q322 -223 233 -223Z" glyph-name="ij" horiz-adv-x="501" unicode="ĳ" /><glyph d="M474 0 401 0L252 241Q233 221 209.5 199.5Q186 178 155 151V0H95V740H155V220Q230 290 285 354Q340 418 385 487H453Q414 425 377 377Q340 329 295 281ZM302 -77 234 -243L199 -232L233 -77Z" glyph-name="kcommaaccent" horiz-adv-x="493" unicode="ķ" /><glyph d="M474 0 401 0L252 241Q233 221 209.5 199.5Q186 178 155 151V0H95V487H155V220Q230 290 285 354Q340 418 385 487H453Q414 425 377 377Q340 329 295 281Z" glyph-name="kgreenlandic" horiz-adv-x="493" unicode="ĸ" /><glyph d="M95 105 95 740H155V112Q155 75 165 62.5Q175 50 202 50H218V-5H199Q145 -5 120 21.5Q95 48 95 105ZM252 969 158 832H107L193 998Z" glyph-name="lacute" horiz-adv-x="256" unicode="ĺ" /><glyph d="M95 105 95 740H155V112Q155 75 165 62.5Q175 50 202 50H218V-5H199Q145 -5 120 21.5Q95 48 95 105ZM311 740 287 547H247V740Z" glyph-name="lcaron" horiz-adv-x="295" unicode="ľ" /><glyph d="M95 105 95 740H155V112Q155 75 165 62.5Q175 50 202 50H218V-5H199Q145 -5 120 21.5Q95 48 95 105ZM192 -77 124 -243L89 -232L123 -77Z" glyph-name="lcommaaccent" horiz-adv-x="256" unicode="ļ" /><glyph d="M95 105 95 740H155V112Q155 75 165 62.5Q175 50 202 50H218V-5H199Q145 -5 120 21.5Q95 48 95 105ZM289 421 289 348H217V421Z" glyph-name="ldot" horiz-adv-x="256" unicode="ŀ" /><glyph d="M326 440Q287 440 246 421Q205 402 155 361V0H95V487H152V417Q202 458 246 477.5Q290 497 336 497Q402 497 437.5 456Q473 415 473 338V0H413V327Q413 385 392 412.5Q371 440 326 440ZM345 588Q324 588 306 599Q288 610 264 643Q248 665 239.5 671.5Q231 678 222 678Q208 678 200.5 659Q193 640 193 603H142Q143 666 163.5 698Q184 730 223 730Q244 730 262 719Q280 708 304 675Q320 653 328.5 646.5Q337 640 346 640Q360 640 367.5 659Q375 678 375 715H426Q425 652 404.5 620Q384 588 345 588Z" glyph-name="ntilde" horiz-adv-x="563" unicode="ñ" /><glyph d="M326 440Q287 440 246 421Q205 402 155 361V0H95V487H152V417Q202 458 246 477.5Q290 497 336 497Q402 497 437.5 456Q473 415 473 338V0H413V327Q413 385 392 412.5Q371 440 326 440ZM404 716 310 579H259L345 745Z" glyph-name="nacute" horiz-adv-x="563" unicode="ń" /><glyph d="M326 440Q287 440 246 421Q205 402 155 361V0H95V487H152V417Q202 458 246 477.5Q290 497 336 497Q402 497 437.5 456Q473 415 473 338V0H413V327Q413 385 392 412.5Q371 440 326 440ZM358 740 407 740L316 579H253L162 740H215L287 634Z" glyph-name="ncaron" horiz-adv-x="563" unicode="ň" /><glyph d="M326 440Q287 440 246 421Q205 402 155 361V0H95V487H152V417Q202 458 246 477.5Q290 497 336 497Q402 497 437.5 456Q473 415 473 338V0H413V327Q413 385 392 412.5Q371 440 326 440ZM319 -77 251 -243L216 -232L250 -77Z" glyph-name="ncommaaccent" horiz-adv-x="563" unicode="ņ" /><glyph d="M336 497Q402 497 437.5 456Q473 415 473 338V-37Q473 -134 431 -178.5Q389 -223 300 -223V-166Q363 -166 388 -136.5Q413 -107 413 -37V327Q413 385 392 412.5Q371 440 326 440Q287 440 246 421Q205 402 155 361V0H95V487H152V417Q202 458 246 477.5Q290 497 336 497Z" glyph-name="eng" horiz-adv-x="563" unicode="ŋ" /><glyph d="M365 440Q326 440 285 421Q244 402 194 361V0H134V487H191V417Q241 458 285 477.5Q329 497 375 497Q441 497 476.5 456Q512 415 512 338V0H452V327Q452 385 431 412.5Q410 440 365 440ZM16 680 78 680V661Q78 612 63.5 562Q49 512 16 448L-27 468Q-1 526 7.5 570Q16 614 16 680Z" glyph-name="napostrophe" horiz-adv-x="602" unicode="ŉ" /><glyph d="M270 497Q365 497 418.5 437.5Q472 378 472 274V214Q472 108 419 49Q366 -10 270 -10Q174 -10 121 48.5Q68 107 68 214V274Q68 379 121.5 438Q175 497 270 497ZM409 214 409 274Q409 354 372.5 398Q336 442 270 442Q204 442 167.5 398Q131 354 131 274V214Q131 132 166.5 88.5Q202 45 270 45Q338 45 373.5 88.5Q409 132 409 214ZM390 716 296 579H245L331 745Z" glyph-name="oacute" horiz-adv-x="540" unicode="ó" /><glyph d="M270 497Q365 497 418.5 437.5Q472 378 472 274V214Q472 108 419 49Q366 -10 270 -10Q174 -10 121 48.5Q68 107 68 214V274Q68 379 121.5 438Q175 497 270 497ZM409 214 409 274Q409 354 372.5 398Q336 442 270 442Q204 442 167.5 398Q131 354 131 274V214Q131 132 166.5 88.5Q202 45 270 45Q338 45 373.5 88.5Q409 132 409 214ZM393 579 340 579L269 685L197 579H148L239 740H302Z" glyph-name="ocircumflex" horiz-adv-x="540" unicode="ô" /><glyph d="M270 497Q365 497 418.5 437.5Q472 378 472 274V214Q472 108 419 49Q366 -10 270 -10Q174 -10 121 48.5Q68 107 68 214V274Q68 379 121.5 438Q175 497 270 497ZM409 214 409 274Q409 354 372.5 398Q336 442 270 442Q204 442 167.5 398Q131 354 131 274V214Q131 132 166.5 88.5Q202 45 270 45Q338 45 373.5 88.5Q409 132 409 214ZM211 698 211 627H140V698ZM400 698 400 627H329V698Z" glyph-name="odieresis" horiz-adv-x="540" unicode="ö" /><glyph d="M270 497Q365 497 418.5 437.5Q472 378 472 274V214Q472 108 419 49Q366 -10 270 -10Q174 -10 121 48.5Q68 107 68 214V274Q68 379 121.5 438Q175 497 270 497ZM409 214 409 274Q409 354 372.5 398Q336 442 270 442Q204 442 167.5 398Q131 354 131 274V214Q131 132 166.5 88.5Q202 45 270 45Q338 45 373.5 88.5Q409 132 409 214ZM295 579 244 579L150 716L209 745Z" glyph-name="ograve" horiz-adv-x="540" unicode="ò" /><glyph d="M270 497Q365 497 418.5 437.5Q472 378 472 274V214Q472 108 419 49Q366 -10 270 -10Q174 -10 121 48.5Q68 107 68 214V274Q68 379 121.5 438Q175 497 270 497ZM409 214 409 274Q409 354 372.5 398Q336 442 270 442Q204 442 167.5 398Q131 354 131 274V214Q131 132 166.5 88.5Q202 45 270 45Q338 45 373.5 88.5Q409 132 409 214ZM331 588Q310 588 292 599Q274 610 250 643Q234 665 225.5 671.5Q217 678 208 678Q194 678 186.5 659Q179 640 179 603H128Q129 666 149.5 698Q170 730 209 730Q230 730 248 719Q266 708 290 675Q306 653 314.5 646.5Q323 640 332 640Q346 640 353.5 659Q361 678 361 715H412Q411 652 390.5 620Q370 588 331 588Z" glyph-name="otilde" horiz-adv-x="540" unicode="õ" /><glyph d="M270 497Q365 497 418.5 437.5Q472 378 472 274V214Q472 108 419 49Q366 -10 270 -10Q174 -10 121 48.5Q68 107 68 214V274Q68 379 121.5 438Q175 497 270 497ZM409 214 409 274Q409 354 372.5 398Q336 442 270 442Q204 442 167.5 398Q131 354 131 274V214Q131 132 166.5 88.5Q202 45 270 45Q338 45 373.5 88.5Q409 132 409 214ZM270 636Q307 636 325.5 658.5Q344 681 348 731H399Q394 659 361 622Q328 585 270 585Q212 585 179 622Q146 659 141 731H192Q196 682 215 659Q234 636 270 636Z" glyph-name="obreve" horiz-adv-x="540" unicode="ŏ" /><glyph d="M270 497Q365 497 418.5 437.5Q472 378 472 274V214Q472 108 419 49Q366 -10 270 -10Q174 -10 121 48.5Q68 107 68 214V274Q68 379 121.5 438Q175 497 270 497ZM409 214 409 274Q409 354 372.5 398Q336 442 270 442Q204 442 167.5 398Q131 354 131 274V214Q131 132 166.5 88.5Q202 45 270 45Q338 45 373.5 88.5Q409 132 409 214ZM320 716 231 579H180L266 745ZM450 716 361 579H310L396 745Z" glyph-name="ohungarumlaut" horiz-adv-x="540" unicode="ő" /><glyph d="M270 497Q365 497 418.5 437.5Q472 378 472 274V214Q472 108 419 49Q366 -10 270 -10Q174 -10 121 48.5Q68 107 68 214V274Q68 379 121.5 438Q175 497 270 497ZM409 214 409 274Q409 354 372.5 398Q336 442 270 442Q204 442 167.5 398Q131 354 131 274V214Q131 132 166.5 88.5Q202 45 270 45Q338 45 373.5 88.5Q409 132 409 214ZM133 659 407 659V609H133Z" glyph-name="omacron" horiz-adv-x="540" unicode="ō" /><glyph d="M337 497 337 437Q285 437 244 416.5Q203 396 155 350V0H95V487H152V406Q198 454 241.5 475.5Q285 497 337 497ZM339 716 245 579H194L280 745Z" glyph-name="racute" horiz-adv-x="354" unicode="ŕ" /><glyph d="M337 497 337 437Q285 437 244 416.5Q203 396 155 350V0H95V487H152V406Q198 454 241.5 475.5Q285 497 337 497ZM292 740 341 740L250 579H187L96 740H149L221 634Z" glyph-name="rcaron" horiz-adv-x="354" unicode="ř" /><glyph d="M337 497 337 437Q285 437 244 416.5Q203 396 155 350V0H95V487H152V406Q198 454 241.5 475.5Q285 497 337 497ZM159 -77 91 -243L56 -232L90 -77Z" glyph-name="rcommaaccent" horiz-adv-x="354" unicode="ŗ" /><glyph d="M201 45Q258 45 284.5 64Q311 83 311 125Q311 161 289.5 181Q268 201 219 213L165 226Q109 239 79 274.5Q49 310 49 362Q49 425 90 461Q131 497 206 497Q244 497 282 488Q320 479 356 462L336 411Q301 426 268.5 434Q236 442 206 442Q158 442 133 422.5Q108 403 108 366Q108 332 129.5 311Q151 290 195 279L250 266Q311 252 340.5 218Q370 184 370 128Q370 60 328.5 25Q287 -10 206 -10Q162 -10 121 -1Q80 8 39 27L55 78Q99 60 132 52.5Q165 45 201 45ZM282 740 331 740L240 579H177L86 740H139L211 634Z" glyph-name="scaron" horiz-adv-x="415" unicode="š" /><glyph d="M201 45Q258 45 284.5 64Q311 83 311 125Q311 161 289.5 181Q268 201 219 213L165 226Q109 239 79 274.5Q49 310 49 362Q49 425 90 461Q131 497 206 497Q244 497 282 488Q320 479 356 462L336 411Q301 426 268.5 434Q236 442 206 442Q158 442 133 422.5Q108 403 108 366Q108 332 129.5 311Q151 290 195 279L250 266Q311 252 340.5 218Q370 184 370 128Q370 60 328.5 25Q287 -10 206 -10Q162 -10 121 -1Q80 8 39 27L55 78Q99 60 132 52.5Q165 45 201 45ZM329 716 235 579H184L270 745Z" glyph-name="sacute" horiz-adv-x="415" unicode="ś" /><glyph d="M301 -138Q301 -177 273 -200Q245 -223 196 -223Q177 -223 158 -219Q139 -215 121 -208L131 -162Q146 -168 162.5 -171Q179 -174 194 -174Q221 -174 234 -165.5Q247 -157 247 -138Q247 -120 233.5 -112Q220 -104 193 -104Q190 -104 186 -104.5Q182 -105 173 -106L150 -64L161 -7Q130 -4 99.5 4.5Q69 13 39 27L55 78Q99 60 132 52.5Q165 45 201 45Q258 45 284.5 64Q311 83 311 125Q311 161 289.5 181Q268 201 219 213L165 226Q109 239 79 274.5Q49 310 49 362Q49 425 90 461Q131 497 206 497Q244 497 282 488Q320 479 356 462L336 411Q301 426 268.5 434Q236 442 206 442Q158 442 133 422.5Q108 403 108 366Q108 332 129.5 311Q151 290 195 279L250 266Q311 252 340.5 218Q370 184 370 128Q370 60 329 25Q288 -10 208 -10L199 -58H203Q248 -58 274.5 -79.5Q301 -101 301 -138Z" glyph-name="scedilla" horiz-adv-x="415" unicode="ş" /><glyph d="M201 45Q258 45 284.5 64Q311 83 311 125Q311 161 289.5 181Q268 201 219 213L165 226Q109 239 79 274.5Q49 310 49 362Q49 425 90 461Q131 497 206 497Q244 497 282 488Q320 479 356 462L336 411Q301 426 268.5 434Q236 442 206 442Q158 442 133 422.5Q108 403 108 366Q108 332 129.5 311Q151 290 195 279L250 266Q311 252 340.5 218Q370 184 370 128Q370 60 328.5 25Q287 -10 206 -10Q162 -10 121 -1Q80 8 39 27L55 78Q99 60 132 52.5Q165 45 201 45ZM331 579 278 579L207 685L135 579H86L177 740H240Z" glyph-name="scircumflex" horiz-adv-x="415" unicode="ŝ" /><glyph d="M201 45Q258 45 284.5 64Q311 83 311 125Q311 161 289.5 181Q268 201 219 213L165 226Q109 239 79 274.5Q49 310 49 362Q49 425 90 461Q131 497 206 497Q244 497 282 488Q320 479 356 462L336 411Q301 426 268.5 434Q236 442 206 442Q158 442 133 422.5Q108 403 108 366Q108 332 129.5 311Q151 290 195 279L250 266Q311 252 340.5 218Q370 184 370 128Q370 60 328.5 25Q287 -10 206 -10Q162 -10 121 -1Q80 8 39 27L55 78Q99 60 132 52.5Q165 45 201 45ZM226 -77 158 -243L123 -232L157 -77Z" glyph-name="uni0219" horiz-adv-x="415" unicode="ș" /><glyph d="M340 67 361 19Q334 5 306 -2.5Q278 -10 250 -10Q187 -10 154.5 27.5Q122 65 122 137V236H33V286H122V434H33V487H122V629H182V487H347V434H182V286H320V236H182V142Q182 87 198.5 65Q215 43 257 43Q277 43 296.5 48.5Q316 54 340 67Z" glyph-name="tbar" horiz-adv-x="386" unicode="ŧ" /><glyph d="M323 67 344 19Q317 5 289 -2.5Q261 -10 233 -10Q170 -10 137.5 27.5Q105 65 105 137V434H16V487H105V629H165V487H330V434H165V142Q165 87 181.5 65Q198 43 240 43Q260 43 279.5 48.5Q299 54 323 67ZM306 760 282 567H242V760Z" glyph-name="tcaron" horiz-adv-x="369" unicode="ť" /><glyph d="M323 67 344 19Q317 5 289 -2.5Q261 -10 233 -10Q170 -10 137.5 27.5Q105 65 105 137V434H16V487H105V629H165V487H330V434H165V142Q165 87 181.5 65Q198 43 240 43Q260 43 279.5 48.5Q299 54 323 67ZM244 -77 176 -243L141 -232L175 -77Z" glyph-name="uni0163" horiz-adv-x="369" unicode="ţ" /><glyph d="M323 67 344 19Q317 5 289 -2.5Q261 -10 233 -10Q170 -10 137.5 27.5Q105 65 105 137V434H16V487H105V629H165V487H330V434H165V142Q165 87 181.5 65Q198 43 240 43Q260 43 279.5 48.5Q299 54 323 67ZM244 -77 176 -243L141 -232L175 -77Z" glyph-name="uni021B" horiz-adv-x="369" unicode="ț" /><glyph d="M458 0 401 0V70Q351 28 309 9Q267 -10 222 -10Q158 -10 124 31Q90 72 90 149V487H150V160Q150 102 170 74.5Q190 47 232 47Q269 47 308 66Q347 85 398 126V487H458ZM394 716 300 579H249L335 745Z" glyph-name="uacute" horiz-adv-x="553" unicode="ú" /><glyph d="M458 0 401 0V70Q351 28 309 9Q267 -10 222 -10Q158 -10 124 31Q90 72 90 149V487H150V160Q150 102 170 74.5Q190 47 232 47Q269 47 308 66Q347 85 398 126V487H458ZM397 579 344 579L273 685L201 579H152L243 740H306Z" glyph-name="ucircumflex" horiz-adv-x="553" unicode="û" /><glyph d="M458 0 401 0V70Q351 28 309 9Q267 -10 222 -10Q158 -10 124 31Q90 72 90 149V487H150V160Q150 102 170 74.5Q190 47 232 47Q269 47 308 66Q347 85 398 126V487H458ZM215 698 215 627H144V698ZM404 698 404 627H333V698Z" glyph-name="udieresis" horiz-adv-x="553" unicode="ü" /><glyph d="M458 0 401 0V70Q351 28 309 9Q267 -10 222 -10Q158 -10 124 31Q90 72 90 149V487H150V160Q150 102 170 74.5Q190 47 232 47Q269 47 308 66Q347 85 398 126V487H458ZM299 579 248 579L154 716L213 745Z" glyph-name="ugrave" horiz-adv-x="553" unicode="ù" /><glyph d="M458 0 401 0V70Q351 28 309 9Q267 -10 222 -10Q158 -10 124 31Q90 72 90 149V487H150V160Q150 102 170 74.5Q190 47 232 47Q269 47 308 66Q347 85 398 126V487H458ZM274 636Q311 636 329.5 658.5Q348 681 352 731H403Q398 659 365 622Q332 585 274 585Q216 585 183 622Q150 659 145 731H196Q200 682 219 659Q238 636 274 636Z" glyph-name="ubreve" horiz-adv-x="553" unicode="ŭ" /><glyph d="M458 0 401 0V70Q351 28 309 9Q267 -10 222 -10Q158 -10 124 31Q90 72 90 149V487H150V160Q150 102 170 74.5Q190 47 232 47Q269 47 308 66Q347 85 398 126V487H458ZM324 716 235 579H184L270 745ZM454 716 365 579H314L400 745Z" glyph-name="uhungarumlaut" horiz-adv-x="553" unicode="ű" /><glyph d="M458 0 401 0V70Q351 28 309 9Q267 -10 222 -10Q158 -10 124 31Q90 72 90 149V487H150V160Q150 102 170 74.5Q190 47 232 47Q269 47 308 66Q347 85 398 126V487H458ZM137 659 411 659V609H137Z" glyph-name="umacron" horiz-adv-x="553" unicode="ū" /><glyph d="M444 -157 458 -206Q438 -215 419 -219Q400 -223 381 -223Q337 -223 312 -201Q287 -179 287 -140Q287 -101 314 -64.5Q341 -28 401 16V70Q351 28 309 9Q267 -10 222 -10Q158 -10 124 31Q90 72 90 149V487H150V160Q150 102 170 74.5Q190 47 232 47Q269 47 308 66Q347 85 398 126V487H458V0Q394 -49 369.5 -77.5Q345 -106 345 -134Q345 -152 355.5 -161Q366 -170 387 -170Q399 -170 413.5 -166.5Q428 -163 444 -157Z" glyph-name="uogonek" horiz-adv-x="553" unicode="ų" /><glyph d="M458 0 401 0V70Q351 28 309 9Q267 -10 222 -10Q158 -10 124 31Q90 72 90 149V487H150V160Q150 102 170 74.5Q190 47 232 47Q269 47 308 66Q347 85 398 126V487H458ZM274 783Q324 783 354 754.5Q384 726 384 679V668Q384 621 354 592Q324 563 274 563Q224 563 194 592Q164 621 164 668V679Q164 726 194 754.5Q224 783 274 783ZM332 668 332 679Q332 705 316 720.5Q300 736 274 736Q248 736 232 720.5Q216 705 216 679V668Q216 642 232 626.5Q248 611 274 611Q300 611 316 626.5Q332 642 332 668Z" glyph-name="uring" horiz-adv-x="553" unicode="ů" /><glyph d="M458 0 401 0V70Q351 28 309 9Q267 -10 222 -10Q158 -10 124 31Q90 72 90 149V487H150V160Q150 102 170 74.5Q190 47 232 47Q269 47 308 66Q347 85 398 126V487H458ZM335 588Q314 588 296 599Q278 610 254 643Q238 665 229.5 671.5Q221 678 212 678Q198 678 190.5 659Q183 640 183 603H132Q133 666 153.5 698Q174 730 213 730Q234 730 252 719Q270 708 294 675Q310 653 318.5 646.5Q327 640 336 640Q350 640 357.5 659Q365 678 365 715H416Q415 652 394.5 620Q374 588 335 588Z" glyph-name="utilde" horiz-adv-x="553" unicode="ũ" /><glyph d="M608 487 669 487L544 0H469L352 421L233 0H158L34 487H96L147 276L198 64L319 487H388L507 62L558 276ZM472 716 378 579H327L413 745Z" glyph-name="wacute" horiz-adv-x="703" unicode="ẃ" /><glyph d="M608 487 669 487L544 0H469L352 421L233 0H158L34 487H96L147 276L198 64L319 487H388L507 62L558 276ZM474 579 421 579L350 685L278 579H229L320 740H383Z" glyph-name="wcircumflex" horiz-adv-x="703" unicode="ŵ" /><glyph d="M608 487 669 487L544 0H469L352 421L233 0H158L34 487H96L147 276L198 64L319 487H388L507 62L558 276ZM292 698 292 627H221V698ZM481 698 481 627H410V698Z" glyph-name="wdieresis" horiz-adv-x="703" unicode="ẅ" /><glyph d="M608 487 669 487L544 0H469L352 421L233 0H158L34 487H96L147 276L198 64L319 487H388L507 62L558 276ZM377 579 326 579L232 716L291 745Z" glyph-name="wgrave" horiz-adv-x="703" unicode="ẁ" /><glyph d="M430 487 240 -50Q206 -145 161.5 -184Q117 -223 43 -223V-166Q103 -166 131.5 -137Q160 -108 190 -30L201 -2L25 487H88L169 254L230 71L290 254L370 487ZM348 716 254 579H203L289 745Z" glyph-name="yacute" horiz-adv-x="455" unicode="ý" /><glyph d="M430 487 240 -50Q206 -145 161.5 -184Q117 -223 43 -223V-166Q103 -166 131.5 -137Q160 -108 190 -30L201 -2L25 487H88L169 254L230 71L290 254L370 487ZM168 698 168 627H97V698ZM357 698 357 627H286V698Z" glyph-name="ydieresis" horiz-adv-x="455" unicode="ÿ" /><glyph d="M430 487 240 -50Q206 -145 161.5 -184Q117 -223 43 -223V-166Q103 -166 131.5 -137Q160 -108 190 -30L201 -2L25 487H88L169 254L230 71L290 254L370 487ZM350 579 297 579L226 685L154 579H105L196 740H259Z" glyph-name="ycircumflex" horiz-adv-x="455" unicode="ŷ" /><glyph d="M430 487 240 -50Q206 -145 161.5 -184Q117 -223 43 -223V-166Q103 -166 131.5 -137Q160 -108 190 -30L201 -2L25 487H88L169 254L230 71L290 254L370 487ZM253 579 202 579L108 716L167 745Z" glyph-name="ygrave" horiz-adv-x="455" unicode="ỳ" /><glyph d="M105 53 367 53V0H35V48L287 434H45V487H357V439ZM275 740 324 740L233 579H170L79 740H132L204 634Z" glyph-name="zcaron" horiz-adv-x="399" unicode="ž" /><glyph d="M105 53 367 53V0H35V48L287 434H45V487H357V439ZM321 716 227 579H176L262 745Z" glyph-name="zacute" horiz-adv-x="399" unicode="ź" /><glyph d="M105 53 367 53V0H35V48L287 434H45V487H357V439ZM237 699 237 626H165V699Z" glyph-name="zdotaccent" horiz-adv-x="399" unicode="ż" /><glyph d="M321 716 227 579H176L262 745Z" glyph-name="acute" horiz-adv-x="500" unicode="´" /><glyph d="M253 579 202 579L108 716L167 745Z" glyph-name="grave" horiz-adv-x="500" unicode="`" /><glyph d="M350 579 297 579L226 685L154 579H105L196 740H259Z" glyph-name="circumflex" horiz-adv-x="500" unicode="ˆ" /><glyph d="M275 740 324 740L233 579H170L79 740H132L204 634Z" glyph-name="caron" horiz-adv-x="500" unicode="ˇ" /><glyph d="M335 588Q314 588 296 599Q278 610 254 643Q238 665 229.5 671.5Q221 678 212 678Q198 678 190.5 659Q183 640 183 603H132Q133 666 153.5 698Q174 730 213 730Q234 730 252 719Q270 708 294 675Q310 653 318.5 646.5Q327 640 336 640Q350 640 357.5 659Q365 678 365 715H416Q415 652 394.5 620Q374 588 335 588Z" glyph-name="tilde" horiz-adv-x="500" unicode="˜" /><glyph d="M168 698 168 627H97V698ZM357 698 357 627H286V698Z" glyph-name="dieresis" horiz-adv-x="500" unicode="¨" /><glyph d="M274 783Q324 783 354 754.5Q384 726 384 679V668Q384 621 354 592Q324 563 274 563Q224 563 194 592Q164 621 164 668V679Q164 726 194 754.5Q224 783 274 783ZM332 668 332 679Q332 705 316 720.5Q300 736 274 736Q248 736 232 720.5Q216 705 216 679V668Q216 642 232 626.5Q248 611 274 611Q300 611 316 626.5Q332 642 332 668Z" glyph-name="ring" horiz-adv-x="500" unicode="˚" /><glyph d="M340 -138Q340 -177 312 -200Q284 -223 235 -223Q216 -223 197 -219Q178 -215 160 -208L170 -162Q185 -168 201.5 -171Q218 -174 233 -174Q260 -174 273 -165.5Q286 -157 286 -138Q286 -120 272.5 -112Q259 -104 232 -104Q229 -104 225 -104.5Q221 -105 212 -106L189 -64L201 0H249L238 -58H242Q287 -58 313.5 -79.5Q340 -101 340 -138Z" glyph-name="cedilla" horiz-adv-x="500" unicode="¸" /><glyph d="M324 716 235 579H184L270 745ZM454 716 365 579H314L400 745Z" glyph-name="hungarumlaut" horiz-adv-x="500" unicode="˝" /><glyph d="M274 636Q311 636 329.5 658.5Q348 681 352 731H403Q398 659 365 622Q332 585 274 585Q216 585 183 622Q150 659 145 731H196Q200 682 219 659Q238 636 274 636Z" glyph-name="breve" horiz-adv-x="500" unicode="˘" /><glyph d="M137 659 411 659V609H137Z" glyph-name="macron" horiz-adv-x="500" unicode="¯" /><glyph d="M237 699 237 626H165V699Z" glyph-name="dotaccent" horiz-adv-x="500" unicode="˙" /><glyph d="M289 421 289 348H217V421Z" glyph-name="periodcentered" horiz-adv-x="500" unicode="·" /><glyph d="M226 -134Q226 -152 236.5 -161Q247 -170 268 -170Q280 -170 294.5 -166.5Q309 -163 325 -157L339 -206Q319 -215 300 -219Q281 -223 262 -223Q218 -223 193 -201Q168 -179 168 -140Q168 -96 203.5 -54Q239 -12 320 43L339 0Q275 -49 250.5 -77.5Q226 -106 226 -134Z" glyph-name="ogonek" horiz-adv-x="500" unicode="˛" /><glyph d="M244 -77 176 -243L141 -232L175 -77Z" glyph-name="commaaccent" horiz-adv-x="500" unicode="" /><glyph d="M306 760 282 567H242V760Z" glyph-name="caron.alt" horiz-adv-x="500" unicode="" /><glyph d="M214 579 282 745L317 734L283 579Z" glyph-name="revcommaaccent" horiz-adv-x="500" unicode="" /><glyph d="M126 73 126 0H54V73Z" glyph-name="period" horiz-adv-x="180" unicode="." /><glyph d="M59 73 121 73V54Q121 -14 103 -74Q85 -134 44 -199L2 -175Q35 -110 47 -58.5Q59 -7 59 73Z" glyph-name="comma" horiz-adv-x="180" unicode="," /><glyph d="M126 487 126 414H54V487ZM126 73 126 0H54V73Z" glyph-name="colon" horiz-adv-x="180" unicode=":" /><glyph d="M126 487 126 414H54V487ZM59 73 121 73V54Q121 -14 103 -74Q85 -134 44 -199L2 -175Q35 -110 47 -58.5Q59 -7 59 73Z" glyph-name="semicolon" horiz-adv-x="180" unicode=";" /><glyph d="M526 73 526 0H454V73ZM526 73 526 0H454V73ZM526 73 526 0H454V73Z" glyph-name="ellipsis" horiz-adv-x="580" unicode="…" /><glyph d="M193 635Q153 635 113 625.5Q73 616 32 596L10 649Q53 669 100 679.5Q147 690 193 690Q282 690 333 645.5Q384 601 384 526V509Q384 457 367 417Q350 377 311 342L279 313Q246 283 234.5 259.5Q223 236 223 198V172H163V197Q163 247 179 280Q195 313 246 360L278 389Q300 410 310.5 439Q321 468 321 509V526Q321 577 287 606Q253 635 193 635ZM231 73 231 0H159V73Z" glyph-name="question" horiz-adv-x="422" unicode="?" /><glyph d="M170 410 165 172H115L110 410V680H170ZM176 73 176 0H104V73Z" glyph-name="exclam" horiz-adv-x="280" unicode="!" /><glyph d="M204 414 204 487H276V414ZM242 -148Q282 -148 322 -138.5Q362 -129 403 -109L425 -162Q382 -182 335 -192.5Q288 -203 242 -203Q153 -203 102 -158.5Q51 -114 51 -39V-22Q51 30 68 70Q85 110 124 145L156 174Q189 204 200.5 227.5Q212 251 212 289V315H272V290Q272 240 256 207Q240 174 189 127L157 98Q135 77 124.5 48Q114 19 114 -22V-39Q114 -90 148 -119Q182 -148 242 -148Z" glyph-name="questiondown" horiz-adv-x="422" unicode="¿" /><glyph d="M104 414 104 487H176V414ZM110 77 115 315H165L170 77V-193H110Z" glyph-name="exclamdown" horiz-adv-x="280" unicode="¡" /><glyph d="M68 280 68 317Q68 447 116.5 556.5Q165 666 261 750L300 708Q214 626 172.5 530Q131 434 131 317V280Q131 163 172.5 67Q214 -29 300 -111L261 -153Q165 -69 116.5 40.5Q68 150 68 280Z" glyph-name="parenleft" horiz-adv-x="304" unicode="(" /><glyph d="M236 317 236 280Q236 150 187.5 40.5Q139 -69 43 -153L4 -111Q90 -29 131.5 67Q173 163 173 280V317Q173 434 131.5 530Q90 626 4 708L43 750Q139 666 187.5 556.5Q236 447 236 317Z" glyph-name="parenright" horiz-adv-x="304" unicode=")" /><glyph d="M286 -91 371 -91V-144H282Q198 -144 162.5 -96.5Q127 -49 144 41L164 147Q177 213 160 242.5Q143 272 94 272H21V325H94Q143 325 160 354Q177 383 164 449L144 555Q127 645 162.5 692.5Q198 740 282 740H371V687H286Q235 687 213.5 657.5Q192 628 202 574L222 468Q235 400 219.5 356.5Q204 313 163 298Q204 283 219 239.5Q234 196 222 128L202 22Q192 -32 213.5 -61.5Q235 -91 286 -91Z" glyph-name="braceleft" horiz-adv-x="375" unicode="{" /><glyph d="M211 147 231 41Q248 -49 212.5 -96.5Q177 -144 93 -144H4V-91H89Q140 -91 161.5 -61.5Q183 -32 173 22L153 128Q140 196 155.5 239.5Q171 283 212 298Q171 313 156 356.5Q141 400 153 468L173 574Q183 628 161.5 657.5Q140 687 89 687H4V740H93Q177 740 212.5 692.5Q248 645 231 555L211 449Q198 383 215 353.5Q232 324 281 324H354V271H281Q232 271 215 242Q198 213 211 147Z" glyph-name="braceright" horiz-adv-x="375" unicode="}" /><glyph d="M175 -90 340 -90V-143H115V740H340V687H175Z" glyph-name="bracketleft" horiz-adv-x="344" unicode="[" /><glyph d="M4 740 229 740V-143H4V-90H169V687H4Z" glyph-name="bracketright" horiz-adv-x="344" unicode="]" /><glyph d="M-39 -143 292 740H353L22 -143Z" glyph-name="slash" horiz-adv-x="344" unicode="/" /><glyph d="M-9 740 52 740L383 -143H322Z" glyph-name="backslash" horiz-adv-x="344" unicode="\" /><glyph d="M369 -153 5 -153V-100H369Z" glyph-name="underscore" horiz-adv-x="374" unicode="_" /><glyph d="M324 269 60 269V322H324Z" glyph-name="hyphen" horiz-adv-x="384" unicode="-" /><glyph d="" glyph-name="uni00AD" horiz-adv-x="0" unicode="­" /><glyph d="M524 269 60 269V322H524Z" glyph-name="endash" horiz-adv-x="584" unicode="–" /><glyph d="M724 269 60 269V322H724Z" glyph-name="emdash" horiz-adv-x="784" unicode="—" /><glyph d="M112 357 112 740H172V357ZM112 -213 112 170H172V-213Z" glyph-name="brokenbar" horiz-adv-x="284" unicode="¦" /><glyph d="M115 -213 115 740H175V-213Z" glyph-name="bar" horiz-adv-x="290" unicode="|" /><glyph d="M101 249 312 87V14L36 229V266L312 478V409ZM371 249 582 87V14L306 229V266L582 478V409Z" glyph-name="guillemotleft" horiz-adv-x="638" unicode="«" /><glyph d="M602 263 602 226L326 14V83L537 243L326 405V478ZM332 263 332 226L56 14V83L267 243L56 405V478Z" glyph-name="guillemotright" horiz-adv-x="638" unicode="»" /><glyph d="M101 249 312 87V14L36 229V266L312 478V409Z" glyph-name="guilsinglleft" horiz-adv-x="368" unicode="‹" /><glyph d="M332 263 332 226L56 14V83L267 243L56 405V478Z" glyph-name="guilsinglright" horiz-adv-x="368" unicode="›" /><glyph d="M59 73 121 73V54Q121 5 106.5 -45Q92 -95 59 -159L16 -139Q42 -81 50.5 -37Q59 7 59 73Z" glyph-name="quotesinglbase" horiz-adv-x="180" unicode="‚" /><glyph d="M59 73 121 73V54Q121 5 106.5 -45Q92 -95 59 -159L16 -139Q42 -81 50.5 -37Q59 7 59 73ZM209 73 271 73V54Q271 5 256.5 -45Q242 -95 209 -159L166 -139Q192 -81 200.5 -37Q209 7 209 73Z" glyph-name="quotedblbase" horiz-adv-x="330" unicode="„" /><glyph d="M103 458 41 458V477Q41 526 55.5 576Q70 626 103 690L146 670Q120 612 111.5 568Q103 524 103 458Z" glyph-name="quoteleft" horiz-adv-x="180" unicode="‘" /><glyph d="M253 458 191 458V477Q191 526 205.5 576Q220 626 253 690L296 670Q270 612 261.5 568Q253 524 253 458ZM103 458 41 458V477Q41 526 55.5 576Q70 626 103 690L146 670Q120 612 111.5 568Q103 524 103 458Z" glyph-name="quotedblleft" horiz-adv-x="330" unicode="“" /><glyph d="M16 680 78 680V661Q78 612 63.5 562Q49 512 16 448L-27 468Q-1 526 7.5 570Q16 614 16 680Z" glyph-name="quoteright" horiz-adv-x="180" unicode="’" /><glyph d="M77 680 139 680V661Q139 612 124.5 562Q110 512 77 448L34 468Q60 526 68.5 570Q77 614 77 680ZM227 680 289 680V661Q289 612 274.5 562Q260 512 227 448L184 468Q210 526 218.5 570Q227 614 227 680Z" glyph-name="quotedblright" horiz-adv-x="330" unicode="”" /><glyph d="M121 614 113 458H67L59 614V680H121Z" glyph-name="quotesingle" horiz-adv-x="180" unicode="'" /><glyph d="M121 614 113 458H67L59 614V680H121ZM273 614 265 458H219L211 614V680H273Z" glyph-name="quotedbl" horiz-adv-x="332" unicode="&quot;" /><glyph d="M178 390 178 277H66V390Z" glyph-name="bullet" horiz-adv-x="244" unicode="•" /><glyph d="M109 163Q109 107 141.5 76Q174 45 232 45Q315 45 349 102.5Q383 160 343 236L392 266L560 0H490L410 129Q407 67 358.5 28.5Q310 -10 232 -10Q145 -10 95.5 36.5Q46 83 46 163Q46 222 76 266Q106 310 183 357Q135 401 111 446.5Q87 492 87 539Q87 608 132.5 649Q178 690 255 690Q331 690 373.5 650Q416 610 416 537Q416 479 388 436.5Q360 394 296 357L225 316Q161 279 135 244.5Q109 210 109 163ZM256 637Q206 637 177.5 611Q149 585 149 539Q149 503 169 465.5Q189 428 230 385L268 408Q314 435 334 466Q354 497 354 539Q354 587 328.5 612Q303 637 256 637Z" glyph-name="ampersand" horiz-adv-x="560" unicode="&amp;" /><glyph d="M47 444 47 497Q47 582 98.5 631Q150 680 240 680H533V621H443V-143H378V621H307V260H240Q150 260 98.5 309.5Q47 359 47 444Z" glyph-name="paragraph" horiz-adv-x="558" unicode="¶" /><glyph d="M416 443 396 443L238 453L248 289V251L237 -143H193L182 251V289L192 453L34 443H14V507H34L192 497L182 660V680H248V660L238 497L396 507H416Z" glyph-name="dagger" horiz-adv-x="430" unicode="†" /><glyph d="M249 40 259 -123V-143H193V-123L203 40L45 30H25V94H45L203 84L193 248V289L203 453L45 443H25V507H45L203 497L193 660V680H259V660L249 497L407 507H427V443H407L249 453L259 289V248L249 84L407 94H427V30H407Z" glyph-name="daggerdbl" horiz-adv-x="452" unicode="‡" /><glyph d="M370 78Q406 53 424 19Q442 -15 442 -59Q442 -136 389 -179.5Q336 -223 239 -223Q191 -223 141 -211Q91 -199 44 -177L65 -121Q114 -144 156 -155Q198 -166 239 -166Q305 -166 340.5 -140.5Q376 -115 376 -67Q376 -25 349.5 4.5Q323 34 271 50L196 73Q121 96 84 137.5Q47 179 47 239Q47 285 72 325Q97 365 139 388Q108 411 92.5 445Q77 479 77 523Q77 601 126 645.5Q175 690 265 690Q307 690 351.5 680.5Q396 671 438 652L417 597Q376 615 338.5 624Q301 633 265 633Q203 633 173 607Q143 581 143 528Q143 484 164 457.5Q185 431 230 418L306 396Q382 374 421 331Q460 288 460 226Q460 181 436 141Q412 101 370 78ZM220 135 295 112Q302 110 308.5 107.5Q315 105 322 103Q358 124 376 152Q394 180 394 217Q394 261 367 289.5Q340 318 282 334L206 356Q197 358 193 359.5Q189 361 186 363Q150 342 131.5 312Q113 282 113 244Q113 202 137.5 177.5Q162 153 220 135Z" glyph-name="section" horiz-adv-x="502" unicode="§" /><glyph d="M324 374 336 358L287 322L275 338L201 466L127 338L115 322L66 358L78 374L176 484L32 515L13 522L31 579L50 572L186 513L171 660V680H231V660L216 513L352 572L371 579L389 522L370 515L226 484Z" glyph-name="asterisk" horiz-adv-x="402" unicode="*" /><glyph d="M312 680 371 680L480 435L591 680H647V340H599V595L501 380H456L360 595V340H312ZM109 633 5 633V680H264V633H160V340H109Z" glyph-name="trademark" horiz-adv-x="705" unicode="™" /><glyph d="M511 479Q511 377 444 309Q377 241 277 241Q177 241 110 309Q43 377 43 479Q43 582 109.5 649.5Q176 717 277 717Q378 717 444.5 649.5Q511 582 511 479ZM90 479Q90 395 143 339.5Q196 284 277 284Q358 284 411 339.5Q464 395 464 479Q464 564 411 619Q358 674 277 674Q196 674 143 619Q90 564 90 479ZM245 353 200 353V608H282Q319 608 340.5 588.5Q362 569 362 535V518Q362 495 352.5 478Q343 461 325 452Q340 427 353 402.5Q366 378 377 353H326Q316 376 305 398.5Q294 421 281 443H245ZM282 566 245 566V486H282Q297 486 306 494.5Q315 503 315 518V535Q315 549 306 557.5Q297 566 282 566Z" glyph-name="registered" horiz-adv-x="554" unicode="®" /><glyph d="M794 340Q794 177 688.5 70Q583 -37 422 -37Q261 -37 155.5 70Q50 177 50 340Q50 503 155.5 610Q261 717 422 717Q583 717 688.5 610Q794 503 794 340ZM106 340Q106 197 195 105Q284 13 422 13Q560 13 649 105Q738 197 738 340Q738 482 648.5 574.5Q559 667 422 667Q285 667 195.5 574.5Q106 482 106 340ZM426 502Q368 502 339.5 467Q311 432 311 361V320Q311 248 339.5 213Q368 178 426 178Q454 178 483 185Q512 192 543 207L563 158Q530 141 493.5 132Q457 123 421 123Q337 123 292.5 174Q248 225 248 320V361Q248 455 292.5 506Q337 557 421 557Q456 557 490 548.5Q524 540 554 525L534 476Q506 489 479 495.5Q452 502 426 502Z" glyph-name="copyright" horiz-adv-x="844" unicode="©" /><glyph d="M709 -115 733 -167Q673 -194 604 -208.5Q535 -223 467 -223Q275 -223 164.5 -108.5Q54 6 54 202Q54 414 177.5 552Q301 690 493 690Q669 690 783.5 574Q898 458 898 283Q898 161 838 80.5Q778 0 688 0Q637 0 607.5 22Q578 44 572 87Q534 42 491 18.5Q448 -5 404 -5Q334 -5 299.5 53.5Q265 112 278 204L287 265Q301 364 356.5 418Q412 472 499 472Q543 472 587 457.5Q631 443 678 412L633 155Q624 102 638 77Q652 52 692 52Q753 52 795 117.5Q837 183 837 283Q837 435 740 536Q643 637 493 637Q328 637 221.5 514Q115 391 115 202Q115 28 208 -71Q301 -170 467 -170Q530 -170 593.5 -155.5Q657 -141 709 -115ZM350 265 341 204Q330 131 349 89.5Q368 48 412 48Q453 48 496 80Q539 112 577 172L613 385Q583 401 555.5 409Q528 417 501 417Q437 417 399 379Q361 341 350 265Z" glyph-name="at" horiz-adv-x="954" unicode="@" /><glyph d="M313 338 306 338Q278 338 258 350Q238 362 231 382Q201 358 175.5 346.5Q150 335 124 335Q82 335 57.5 361.5Q33 388 33 432Q33 480 62 503.5Q91 527 149 527Q165 527 184.5 525Q204 523 226 519V568Q226 604 210 619.5Q194 635 157 635Q135 635 112 629Q89 623 62 610L43 655Q74 670 102 677.5Q130 685 158 685Q219 685 249 657.5Q279 630 279 575V423Q279 405 285 397.5Q291 390 304 390H313ZM150 482Q118 482 103 470Q88 458 88 432Q88 408 99.5 395Q111 382 132 382Q151 382 175 393.5Q199 405 226 427V475Q207 478 186.5 480Q166 482 150 482Z" glyph-name="ordfeminine" horiz-adv-x="341" unicode="ª" /><glyph d="M176 685Q244 685 282 644Q320 603 320 531V489Q320 416 282.5 375.5Q245 335 176 335Q107 335 69.5 375Q32 415 32 489V531Q32 603 70 644Q108 685 176 685ZM265 489 265 531Q265 581 242 608Q219 635 176 635Q133 635 110 608Q87 581 87 531V489Q87 438 110 411.5Q133 385 176 385Q219 385 242 411.5Q265 438 265 489Z" glyph-name="ordmasculine" horiz-adv-x="352" unicode="º" /><glyph d="M357 0 301 0L365 202H177L113 0H57L121 202H17V254H137L191 426H87V478H207L271 680H327L263 478H451L515 680H571L507 478H611V426H491L437 254H541V202H421ZM247 426 193 254H381L435 426Z" glyph-name="numbersign" horiz-adv-x="628" unicode="#" /><glyph d="M884 685Q955 685 997.5 640Q1040 595 1040 521V479Q1040 403 998 359Q956 315 884 315Q811 315 769.5 359Q728 403 728 479V521Q728 595 770 640Q812 685 884 685ZM180 0 115 0V680H193Q293 529 372.5 387.5Q452 246 524 90L515 388V680H580V0H502Q424 167 345 311Q266 455 176 596L180 291ZM981 479 981 521Q981 572 955 601.5Q929 631 884 631Q839 631 813 601.5Q787 572 787 521V479Q787 426 812 397.5Q837 369 884 369Q931 369 956 397.5Q981 426 981 479ZM1021 168 747 168V221H1021Z" glyph-name="uni2116" horiz-adv-x="1090" unicode="№" /><glyph d="M500 86 523 31Q479 11 436 0.5Q393 -10 351 -10Q250 -10 191.5 47.5Q133 105 122 215H30V271H120V387H30V443H121Q126 563 185.5 626.5Q245 690 351 690Q395 690 439.5 679.5Q484 669 523 649L501 594Q464 612 426 621.5Q388 631 351 631Q274 631 233.5 584Q193 537 189 443H436L425 387H188V271H408L397 215H190Q199 132 239 90.5Q279 49 352 49Q389 49 423 57.5Q457 66 500 86Z" glyph-name="Euro" horiz-adv-x="562" unicode="€" /><glyph d="M454 178Q454 97 411.5 49Q369 1 287 -8V-125H227V-10Q180 -8 132.5 4Q85 16 41 36L62 91Q111 68 155 57.5Q199 47 247 47Q315 47 351.5 79Q388 111 388 170Q388 223 359.5 258.5Q331 294 276 309L196 331Q121 352 84 396.5Q47 441 47 510Q47 592 93 638Q139 684 227 689V805H287V688Q323 684 360.5 673.5Q398 663 435 646L413 590Q367 612 325.5 622.5Q284 633 247 633Q180 633 146.5 603.5Q113 574 113 515Q113 466 139 437Q165 408 220 392L300 370Q376 349 415 300.5Q454 252 454 178Z" glyph-name="dollar" horiz-adv-x="499" unicode="$" /><glyph d="M499 230 499 174H306V0H241V174H48V230H241V270L202 346H48V402H174L33 680H103L276 337L446 680H513L373 402H499V346H344L306 270V230Z" glyph-name="yen" horiz-adv-x="546" unicode="¥" /><glyph d="M460 59 460 0H75V46Q130 111 150.5 149Q171 187 171 224Q171 239 168 254.5Q165 270 160 285H67V344H136Q100 422 91 455.5Q82 489 82 521Q82 601 131 645.5Q180 690 272 690Q315 690 360 679.5Q405 669 448 649L426 592Q384 612 346.5 621.5Q309 631 272 631Q210 631 180 603.5Q150 576 150 520Q150 498 154.5 476Q159 454 168 429Q175 411 188.5 382Q202 353 206 344H391V285H228Q232 269 233.5 256.5Q235 244 235 232Q235 191 217 150.5Q199 110 159 59Z" glyph-name="sterling" horiz-adv-x="486" unicode="£" /><glyph d="M395 78 415 29Q386 14 354 4.5Q322 -5 290 -8V-125H230V-8Q152 0 111 57Q70 114 70 214V274Q70 373 111 430Q152 487 230 495V612H290V495Q321 492 350 483.5Q379 475 406 461L386 411Q354 426 323 434Q292 442 263 442Q197 442 165 400.5Q133 359 133 274V214Q133 128 165 86.5Q197 45 263 45Q294 45 326.5 53Q359 61 395 78Z" glyph-name="cent" horiz-adv-x="451" unicode="¢" /><glyph d="M199 331 164 -68Q157 -148 124 -185.5Q91 -223 30 -223Q6 -223 -18 -217.5Q-42 -212 -64 -202L-44 -153Q-24 -162 -7.5 -166Q9 -170 26 -170Q61 -170 79 -146.5Q97 -123 102 -69L138 331H14V384H142L161 595Q168 675 201 712.5Q234 750 295 750Q319 750 343 744.5Q367 739 389 729L369 680Q349 689 332.5 693Q316 697 299 697Q264 697 246 673.5Q228 650 223 596L204 384H328V331Z" glyph-name="florin" horiz-adv-x="342" unicode="ƒ" /><glyph d="M451 0 366 0Q292 81 221 145.5Q150 210 62 278V331H219Q276 331 310 364.5Q344 398 344 453H62V506H344Q343 562 309 594.5Q275 627 219 627H62V680H502V627H354Q382 606 397 574.5Q412 543 412 506H502V453H412Q410 371 358.5 324.5Q307 278 219 278H155Q237 216 307 150Q377 84 451 0Z" glyph-name="uni20B9" horiz-adv-x="534" unicode="₹" /><glyph d="M448 179 548 75L510 35L408 139Q384 121 355 112Q326 103 294 103Q262 103 233 112Q204 121 179 139L78 35L40 75L140 179Q122 204 112 235Q102 266 102 300Q102 334 111.5 365Q121 396 140 422L40 525L78 565L179 461Q204 479 233 488Q262 497 294 497Q326 497 355 488Q384 479 409 461L510 565L548 525L448 421Q466 396 476 365Q486 334 486 300Q486 266 476.5 235.5Q467 205 448 179ZM159 300Q159 236 197 195.5Q235 155 294 155Q353 155 391 195.5Q429 236 429 300Q429 364 391 404.5Q353 445 294 445Q235 445 197 404.5Q159 364 159 300Z" glyph-name="currency" horiz-adv-x="588" unicode="¤" /><glyph d="M308 690Q416 690 474 619.5Q532 549 532 417V264Q532 131 474 60.5Q416 -10 308 -10Q200 -10 142 60.5Q84 131 84 264V417Q84 549 142 619.5Q200 690 308 690ZM466 264 466 417Q466 524 426.5 578.5Q387 633 308 633Q230 633 190 578.5Q150 524 150 417V264Q150 157 190 102Q230 47 308 47Q386 47 426 102Q466 157 466 264Z" glyph-name="zero" horiz-adv-x="616" unicode="0" /><glyph d="M54 540 25 588L180 680H245V0H182V615Z" glyph-name="one" horiz-adv-x="360" unicode="1" /><glyph d="M425 57 425 0H52V47Q52 148 86.5 216Q121 284 190 320L253 353Q321 389 342.5 419Q364 449 364 493V510Q364 573 330.5 603Q297 633 228 633Q188 633 148 624Q108 615 69 597L47 649Q89 669 135.5 679.5Q182 690 228 690Q327 690 377 645Q427 600 427 510V493Q427 432 396.5 389Q366 346 286 304L223 271Q168 242 142.5 191Q117 140 115 57Z" glyph-name="two" horiz-adv-x="485" unicode="2" /><glyph d="M424 190 424 173Q424 84 370 37Q316 -10 213 -10Q166 -10 118 0.5Q70 11 25 32L45 84Q85 65 126 56Q167 47 213 47Q286 47 322 78.5Q358 110 358 173V190Q358 251 324 283.5Q290 316 226 316H130V371H226Q287 371 319 402Q351 433 351 493V507Q351 570 317.5 601.5Q284 633 216 633Q176 633 137.5 624Q99 615 60 597L38 649Q81 669 126.5 679.5Q172 690 216 690Q314 690 365.5 643Q417 596 417 507V493Q417 441 393 402.5Q369 364 325 344Q372 323 398 283Q424 243 424 190Z" glyph-name="three" horiz-adv-x="497" unicode="3" /><glyph d="M465 226 465 170H388V0H328V170H36V216Q126 352 184.5 462Q243 572 284 680H350Q305 567 247 459Q189 351 106 226H328V364H388V226Z" glyph-name="four" horiz-adv-x="496" unicode="4" /><glyph d="M111 328 70 356L90 680H421V623H147L134 398Q159 407 186 412Q213 417 241 417Q336 417 390 365.5Q444 314 444 222V190Q444 93 390 41.5Q336 -10 233 -10Q186 -10 138 0.5Q90 11 45 32L65 84Q105 65 146 56Q187 47 233 47Q306 47 342 82.5Q378 118 378 190V222Q378 287 341 323.5Q304 360 238 360Q206 360 175 352Q144 344 111 328Z" glyph-name="five" horiz-adv-x="500" unicode="5" /><glyph d="M505 223 505 186Q505 96 449.5 43Q394 -10 300 -10Q196 -10 141 61Q86 132 86 265V418Q86 550 144.5 620Q203 690 313 690Q356 690 400 680Q444 670 485 651L463 599Q425 616 387 624.5Q349 633 315 633Q230 633 188.5 580Q147 527 147 418V345Q190 382 233 400Q276 418 321 418Q406 418 455.5 365.5Q505 313 505 223ZM147 283 147 265Q147 156 185.5 101.5Q224 47 300 47Q368 47 406 84Q444 121 444 186V223Q444 288 410 324.5Q376 361 316 361Q272 361 229 341Q186 321 147 283Z" glyph-name="six" horiz-adv-x="561" unicode="6" /><glyph d="M431 680 431 633Q348 465 294.5 307.5Q241 150 216 0H151Q176 149 229 304Q282 459 364 623H34V680Z" glyph-name="seven" horiz-adv-x="474" unicode="7" /><glyph d="M370 341Q433 313 460.5 274Q488 235 488 175Q488 88 432 39Q376 -10 275 -10Q178 -10 124 37Q70 84 70 166Q70 222 98 266.5Q126 311 186 349Q136 375 111 415.5Q86 456 86 513Q86 592 138 641Q190 690 279 690Q370 690 421 643Q472 596 472 514Q472 461 447 419Q422 377 370 341ZM149 513Q149 463 174.5 434Q200 405 261 383L318 362Q366 396 387.5 430Q409 464 409 509Q409 569 375.5 602Q342 635 279 635Q219 635 184 602.5Q149 570 149 513ZM133 172Q133 111 169.5 78Q206 45 275 45Q347 45 386 77.5Q425 110 425 170Q425 222 400 249.5Q375 277 297 305L237 327Q182 291 157.5 254.5Q133 218 133 172Z" glyph-name="eight" horiz-adv-x="558" unicode="8" /><glyph d="M475 415 475 262Q475 130 416.5 60Q358 -10 248 -10Q205 -10 161 0Q117 10 76 29L98 81Q136 64 174 55.5Q212 47 246 47Q331 47 372.5 100Q414 153 414 262V335Q371 298 328 280Q285 262 240 262Q155 262 105.5 314.5Q56 367 56 457V494Q56 584 111.5 637Q167 690 261 690Q365 690 420 619Q475 548 475 415ZM117 494 117 457Q117 392 151 355.5Q185 319 245 319Q289 319 332 339Q375 359 414 397V415Q414 524 375.5 578.5Q337 633 261 633Q193 633 155 596Q117 559 117 494Z" glyph-name="nine" horiz-adv-x="561" unicode="9" /><glyph d="M256 690Q364 690 422 619.5Q480 549 480 417V264Q480 131 422 60.5Q364 -10 256 -10Q148 -10 90 60.5Q32 131 32 264V417Q32 549 90 619.5Q148 690 256 690ZM414 264 414 417Q414 524 374.5 578.5Q335 633 256 633Q178 633 138 578.5Q98 524 98 417V264Q98 157 138 102Q178 47 256 47Q334 47 374 102Q414 157 414 264Z" glyph-name="zero.tlf" horiz-adv-x="516" unicode="" /><glyph d="M108 527 79 576L255 680H320V59H440V0H93V59H255V613Z" glyph-name="one.tlf" horiz-adv-x="516" unicode="" /><glyph d="M440 57 440 0H67V47Q67 148 101.5 216Q136 284 205 320L268 353Q336 389 357.5 419Q379 449 379 493V510Q379 573 345.5 603Q312 633 243 633Q203 633 163 624Q123 615 84 597L62 649Q104 669 150.5 679.5Q197 690 243 690Q342 690 392 645Q442 600 442 510V493Q442 432 411.5 389Q381 346 301 304L238 271Q183 242 157.5 191Q132 140 130 57Z" glyph-name="two.tlf" horiz-adv-x="516" unicode="" /><glyph d="M434 190 434 173Q434 84 380 37Q326 -10 223 -10Q176 -10 128 0.5Q80 11 35 32L55 84Q95 65 136 56Q177 47 223 47Q296 47 332 78.5Q368 110 368 173V190Q368 251 334 283.5Q300 316 236 316H140V371H236Q297 371 329 402Q361 433 361 493V507Q361 570 327.5 601.5Q294 633 226 633Q186 633 147.5 624Q109 615 70 597L48 649Q91 669 136.5 679.5Q182 690 226 690Q324 690 375.5 643Q427 596 427 507V493Q427 441 403 402.5Q379 364 335 344Q382 323 408 283Q434 243 434 190Z" glyph-name="three.tlf" horiz-adv-x="516" unicode="" /><glyph d="M475 226 475 170H398V0H338V170H46V216Q136 352 194.5 462Q253 572 294 680H360Q315 567 257 459Q199 351 116 226H338V364H398V226Z" glyph-name="four.tlf" horiz-adv-x="516" unicode="" /><glyph d="M118 328 77 356L97 680H428V623H154L141 398Q166 407 193 412Q220 417 248 417Q343 417 397 365.5Q451 314 451 222V190Q451 93 397 41.5Q343 -10 240 -10Q193 -10 145 0.5Q97 11 52 32L72 84Q112 65 153 56Q194 47 240 47Q313 47 349 82.5Q385 118 385 190V222Q385 287 348 323.5Q311 360 245 360Q213 360 182 352Q151 344 118 328Z" glyph-name="five.tlf" horiz-adv-x="516" unicode="" /><glyph d="M478 223 478 186Q478 96 422.5 43Q367 -10 273 -10Q169 -10 114 61Q59 132 59 265V418Q59 550 117.5 620Q176 690 286 690Q329 690 373 680Q417 670 458 651L436 599Q398 616 360 624.5Q322 633 288 633Q203 633 161.5 580Q120 527 120 418V345Q163 382 206 400Q249 418 294 418Q379 418 428.5 365.5Q478 313 478 223ZM120 283 120 265Q120 156 158.5 101.5Q197 47 273 47Q341 47 379 84Q417 121 417 186V223Q417 288 383 324.5Q349 361 289 361Q245 361 202 341Q159 321 120 283Z" glyph-name="six.tlf" horiz-adv-x="516" unicode="" /><glyph d="M458 680 458 633Q375 465 321.5 307.5Q268 150 243 0H178Q203 149 256 304Q309 459 391 623H61V680Z" glyph-name="seven.tlf" horiz-adv-x="516" unicode="" /><glyph d="M349 341Q412 313 439.5 274Q467 235 467 175Q467 88 411 39Q355 -10 254 -10Q157 -10 103 37Q49 84 49 166Q49 222 77 266.5Q105 311 165 349Q115 375 90 415.5Q65 456 65 513Q65 592 117 641Q169 690 258 690Q349 690 400 643Q451 596 451 514Q451 461 426 419Q401 377 349 341ZM128 513Q128 463 153.5 434Q179 405 240 383L297 362Q345 396 366.5 430Q388 464 388 509Q388 569 354.5 602Q321 635 258 635Q198 635 163 602.5Q128 570 128 513ZM112 172Q112 111 148.5 78Q185 45 254 45Q326 45 365 77.5Q404 110 404 170Q404 222 379 249.5Q354 277 276 305L216 327Q161 291 136.5 254.5Q112 218 112 172Z" glyph-name="eight.tlf" horiz-adv-x="516" unicode="" /><glyph d="M457 415 457 262Q457 130 398.5 60Q340 -10 230 -10Q187 -10 143 0Q99 10 58 29L80 81Q118 64 156 55.5Q194 47 228 47Q313 47 354.5 100Q396 153 396 262V335Q353 298 310 280Q267 262 222 262Q137 262 87.5 314.5Q38 367 38 457V494Q38 584 93.5 637Q149 690 243 690Q347 690 402 619Q457 548 457 415ZM99 494 99 457Q99 392 133 355.5Q167 319 227 319Q271 319 314 339Q357 359 396 397V415Q396 524 357.5 578.5Q319 633 243 633Q175 633 137 596Q99 559 99 494Z" glyph-name="nine.tlf" horiz-adv-x="516" unicode="" /><glyph d="M286 497Q388 497 446 437.5Q504 378 504 274V214Q504 108 447 49Q390 -10 286 -10Q182 -10 125 48.5Q68 107 68 214V274Q68 378 125.5 437.5Q183 497 286 497ZM438 214 438 274Q438 355 399 397.5Q360 440 286 440Q212 440 173 397.5Q134 355 134 274V214Q134 131 172 89Q210 47 286 47Q362 47 400 89Q438 131 438 214Z" glyph-name="zero.posf" horiz-adv-x="572" unicode="" /><glyph d="M48 347 19 395L174 487H239V0H176V422Z" glyph-name="one.posf" horiz-adv-x="334" unicode="" /><glyph d="M407 57 407 0H55V47Q55 126 84 172Q113 218 175 238L248 262Q298 278 320 298Q342 318 342 347V358Q342 399 312.5 419.5Q283 440 225 440Q187 440 151 432Q115 424 77 408L56 460Q95 479 137.5 488Q180 497 227 497Q314 497 359 461.5Q404 426 404 358V347Q404 300 371.5 265.5Q339 231 272 209L199 185Q156 171 138 142.5Q120 114 118 57Z" glyph-name="two.posf" horiz-adv-x="464" unicode="" /><glyph d="M406 -3 406 -20Q406 -109 352 -156Q298 -203 195 -203Q148 -203 100 -192.5Q52 -182 7 -161L27 -109Q67 -128 108 -137Q149 -146 195 -146Q268 -146 304 -114.5Q340 -83 340 -20V-3Q340 58 306 90.5Q272 123 208 123H112V178H208Q269 178 301 209Q333 240 333 300V314Q333 377 299.5 408.5Q266 440 198 440Q158 440 119.5 431Q81 422 42 404L20 456Q63 476 108.5 486.5Q154 497 198 497Q296 497 347.5 450Q399 403 399 314V300Q399 248 375 209.5Q351 171 307 151Q354 130 380 90Q406 50 406 -3Z" glyph-name="three.posf" horiz-adv-x="469" unicode="" /><glyph d="M445 56 445 0H368V-193H308V0H16V46Q114 186 170.5 287.5Q227 389 264 487H330Q290 384 232.5 283Q175 182 86 56H308V171H368V56Z" glyph-name="four.posf" horiz-adv-x="462" unicode="" /><glyph d="M103 135 62 163L82 487H413V430H139L126 205Q151 214 178 219Q205 224 233 224Q328 224 382 172.5Q436 121 436 29V-3Q436 -100 382 -151.5Q328 -203 225 -203Q178 -203 130 -192.5Q82 -182 37 -161L57 -109Q97 -128 138 -137Q179 -146 225 -146Q298 -146 334 -110.5Q370 -75 370 -3V29Q370 94 333 130.5Q296 167 230 167Q198 167 167 159Q136 151 103 135Z" glyph-name="five.posf" horiz-adv-x="487" unicode="" /><glyph d="M490 223 490 186Q490 96 434.5 43Q379 -10 285 -10Q181 -10 126 61Q71 132 71 265V418Q71 550 129.5 620Q188 690 298 690Q341 690 385 680Q429 670 470 651L448 599Q410 616 372 624.5Q334 633 300 633Q215 633 173.5 580Q132 527 132 418V345Q175 382 218 400Q261 418 306 418Q391 418 440.5 365.5Q490 313 490 223ZM132 283 132 265Q132 156 170.5 101.5Q209 47 285 47Q353 47 391 84Q429 121 429 186V223Q429 288 395 324.5Q361 361 301 361Q257 361 214 341Q171 321 132 283Z" glyph-name="six.posf" horiz-adv-x="547" unicode="" /><glyph d="M417 487 417 440Q334 272 280.5 114.5Q227 -43 202 -193H137Q162 -44 215 111Q268 266 350 430H20V487Z" glyph-name="seven.posf" horiz-adv-x="436" unicode="" /><glyph d="M353 341Q416 313 443.5 274Q471 235 471 175Q471 88 415 39Q359 -10 258 -10Q161 -10 107 37Q53 84 53 166Q53 222 81 266.5Q109 311 169 349Q119 375 94 415.5Q69 456 69 513Q69 592 121 641Q173 690 262 690Q353 690 404 643Q455 596 455 514Q455 461 430 419Q405 377 353 341ZM132 513Q132 463 157.5 434Q183 405 244 383L301 362Q349 396 370.5 430Q392 464 392 509Q392 569 358.5 602Q325 635 262 635Q202 635 167 602.5Q132 570 132 513ZM116 172Q116 111 152.5 78Q189 45 258 45Q330 45 369 77.5Q408 110 408 170Q408 222 383 249.5Q358 277 280 305L220 327Q165 291 140.5 254.5Q116 218 116 172Z" glyph-name="eight.posf" horiz-adv-x="524" unicode="" /><glyph d="M474 222 474 69Q474 -63 415.5 -133Q357 -203 247 -203Q204 -203 160 -193Q116 -183 75 -164L97 -112Q135 -129 173 -137.5Q211 -146 245 -146Q330 -146 371.5 -93Q413 -40 413 69V142Q370 105 327 87Q284 69 239 69Q154 69 104.5 121.5Q55 174 55 264V301Q55 391 110.5 444Q166 497 260 497Q364 497 419 426Q474 355 474 222ZM116 301 116 264Q116 199 150 162.5Q184 126 244 126Q288 126 331 146Q374 166 413 204V222Q413 331 374.5 385.5Q336 440 260 440Q192 440 154 403Q116 366 116 301Z" glyph-name="nine.posf" horiz-adv-x="547" unicode="" /><glyph d="M344 528Q344 457 300 411.5Q256 366 187 366Q118 366 74 411Q30 456 30 528Q30 600 73.5 645Q117 690 187 690Q256 690 300 645Q344 600 344 528ZM85 528Q85 478 113 448Q141 418 187 418Q233 418 261 448Q289 478 289 528Q289 578 261 608Q233 638 187 638Q141 638 113 608Q85 578 85 528Z" glyph-name="degree" horiz-adv-x="374" unicode="°" /><glyph d="M177 685Q239 685 274 648Q309 611 309 546V515Q309 449 274 412Q239 375 177 375Q115 375 80 412Q45 449 45 515V546Q45 611 80 648Q115 685 177 685ZM180 0 542 680H599L237 0ZM253 515 253 546Q253 588 233 611Q213 634 177 634Q141 634 121 611Q101 588 101 546V515Q101 473 121 450Q141 427 177 427Q213 427 233 450Q253 473 253 515ZM602 305Q664 305 699 268Q734 231 734 166V135Q734 69 699 32Q664 -5 602 -5Q540 -5 505 32Q470 69 470 135V166Q470 231 505 268Q540 305 602 305ZM678 135 678 166Q678 208 658 231Q638 254 602 254Q566 254 546 231Q526 208 526 166V135Q526 93 546 70Q566 47 602 47Q638 47 658 70Q678 93 678 135Z" glyph-name="percent" horiz-adv-x="779" unicode="%" /><glyph d="M177 685Q239 685 274 648Q309 611 309 546V515Q309 449 274 412Q239 375 177 375Q115 375 80 412Q45 449 45 515V546Q45 611 80 648Q115 685 177 685ZM180 0 542 680H599L237 0ZM253 515 253 546Q253 588 233 611Q213 634 177 634Q141 634 121 611Q101 588 101 546V515Q101 473 121 450Q141 427 177 427Q213 427 233 450Q253 473 253 515ZM602 305Q664 305 699 268Q734 231 734 166V135Q734 69 699 32Q664 -5 602 -5Q540 -5 505 32Q470 69 470 135V166Q470 231 505 268Q540 305 602 305ZM936 305Q998 305 1033 268Q1068 231 1068 166V135Q1068 69 1033 32Q998 -5 936 -5Q874 -5 839 32Q804 69 804 135V166Q804 231 839 268Q874 305 936 305ZM678 135 678 166Q678 208 658 231Q638 254 602 254Q566 254 546 231Q526 208 526 166V135Q526 93 546 70Q566 47 602 47Q638 47 658 70Q678 93 678 135ZM1012 135 1012 166Q1012 208 992 231Q972 254 936 254Q900 254 880 231Q860 208 860 166V135Q860 93 880 70Q900 47 936 47Q972 47 992 70Q1012 93 1012 135Z" glyph-name="perthousand" horiz-adv-x="1113" unicode="‰" /><glyph d="M-154 0 208 680H265L-97 0Z" glyph-name="fraction" horiz-adv-x="111" unicode="⁄" /><glyph d="M-154 0 208 680H265L-97 0Z" glyph-name="uni2215" horiz-adv-x="111" unicode="∕" /><glyph d="M172 790Q233 790 266 755Q299 720 299 654V577Q299 511 266 475.5Q233 440 172 440Q111 440 78 475Q45 510 45 577V654Q45 720 78 755Q111 790 172 790ZM243 577 243 654Q243 696 225 717.5Q207 739 172 739Q137 739 119 717.5Q101 696 101 654V577Q101 535 119 513.5Q137 492 172 492Q207 492 225 513.5Q243 535 243 577Z" glyph-name="zerosuperior" horiz-adv-x="344" unicode="⁰" /><glyph d="M49 691 25 734L112 785H166V445H112V728Z" glyph-name="onesuperior" horiz-adv-x="224" unicode="¹" /><glyph d="M239 497 239 445H26V469Q26 521 44 552Q62 583 108 608L140 625Q167 640 176 652Q185 664 185 683V692Q185 716 170.5 727.5Q156 739 126 739Q106 739 82.5 734Q59 729 35 719L24 770Q51 780 76 785Q101 790 127 790Q182 790 211 765Q240 740 240 692V683Q240 650 223.5 627Q207 604 156 577L125 561Q104 551 94.5 536.5Q85 522 82 497Z" glyph-name="twosuperior" horiz-adv-x="271" unicode="²" /><glyph d="M230 544 230 536Q230 490 200.5 465Q171 440 115 440Q89 440 64.5 445.5Q40 451 19 461L34 510Q52 501 71 496.5Q90 492 114 492Q145 492 159.5 502.5Q174 513 174 536V544Q174 567 157.5 579.5Q141 592 109 592H71V642H109Q140 642 155.5 653.5Q171 665 171 688V695Q171 716 156.5 727.5Q142 739 115 739Q96 739 78.5 734.5Q61 730 42 721L25 770Q46 780 69.5 785Q93 790 117 790Q170 790 198.5 765.5Q227 741 227 696V689Q227 663 216 645Q205 627 182 617Q206 607 218 588.5Q230 570 230 544Z" glyph-name="threesuperior" horiz-adv-x="274" unicode="³" /><glyph d="M249 578 249 530H210V445H160V530H12V563Q65 641 92 690Q119 739 136 785H192Q175 741 149 694Q123 647 79 578H160V627H210V578Z" glyph-name="foursuperior" horiz-adv-x="259" unicode="⁴" /><glyph d="M66 597 38 619L48 785H233V734H97L92 654Q102 657 113.5 659Q125 661 136 661Q185 661 214.5 634Q244 607 244 559V543Q244 493 212.5 466.5Q181 440 123 440Q98 440 73.5 445.5Q49 451 25 461L43 510Q61 501 80 496.5Q99 492 120 492Q155 492 171.5 504.5Q188 517 188 543V559Q188 583 171.5 596.5Q155 610 125 610Q111 610 97 607Q83 604 66 597Z" glyph-name="fivesuperior" horiz-adv-x="273" unicode="⁵" /><glyph d="M275 562 275 543Q275 496 244.5 468Q214 440 163 440Q106 440 76 475.5Q46 511 46 578V654Q46 720 78.5 755Q111 790 173 790Q196 790 218.5 784.5Q241 779 265 767L247 720Q229 730 211.5 734.5Q194 739 175 739Q136 739 117.5 718Q99 697 99 654V631Q118 648 138 656Q158 664 180 664Q223 664 249 636.5Q275 609 275 562ZM99 582 99 578Q99 535 115 513.5Q131 492 163 492Q191 492 206.5 505.5Q222 519 222 543V562Q222 586 208.5 599.5Q195 613 171 613Q154 613 135.5 605Q117 597 99 582Z" glyph-name="sixsuperior" horiz-adv-x="305" unicode="⁶" /><glyph d="M217 785 217 740Q182 669 157.5 595Q133 521 121 445H66Q78 520 101.5 592.5Q125 665 159 734H11V785Z" glyph-name="sevensuperior" horiz-adv-x="230" unicode="⁷" /><glyph d="M217 620Q244 604 257 582.5Q270 561 270 533Q270 489 240 464.5Q210 440 156 440Q104 440 75.5 463.5Q47 487 47 528Q47 555 59.5 576Q72 597 99 616Q78 631 66.5 652.5Q55 674 55 700Q55 740 83 765Q111 790 158 790Q206 790 234 765.5Q262 741 262 701Q262 677 251 657.5Q240 638 217 620ZM107 698Q107 681 118 668Q129 655 149 647L179 636Q194 650 201.5 665.5Q209 681 209 697Q209 718 195.5 730Q182 742 158 742Q136 742 121.5 730Q107 718 107 698ZM99 535Q99 512 113.5 500.5Q128 489 156 489Q187 489 202 500Q217 511 217 533Q217 552 205.5 564Q194 576 167 586L134 598Q116 584 107.5 568.5Q99 553 99 535Z" glyph-name="eightsuperior" horiz-adv-x="310" unicode="⁸" /><glyph d="M259 652 259 576Q259 510 226.5 475Q194 440 132 440Q109 440 86.5 445.5Q64 451 40 463L58 510Q76 500 93.5 495.5Q111 491 130 491Q169 491 187.5 512Q206 533 206 576V599Q187 582 167 574Q147 566 125 566Q82 566 56 593.5Q30 621 30 668V687Q30 734 60.5 762Q91 790 142 790Q199 790 229 754.5Q259 719 259 652ZM83 687 83 668Q83 644 96.5 630.5Q110 617 134 617Q151 617 169.5 625Q188 633 206 648V652Q206 695 190 716.5Q174 738 142 738Q114 738 98.5 724.5Q83 711 83 687Z" glyph-name="ninesuperior" horiz-adv-x="305" unicode="⁹" /><glyph d="M172 240Q233 240 266 205Q299 170 299 104V27Q299 -39 266 -74.5Q233 -110 172 -110Q111 -110 78 -75Q45 -40 45 27V104Q45 170 78 205Q111 240 172 240ZM243 27 243 104Q243 146 225 167.5Q207 189 172 189Q137 189 119 167.5Q101 146 101 104V27Q101 -15 119 -36.5Q137 -58 172 -58Q207 -58 225 -36.5Q243 -15 243 27Z" glyph-name="zeroinferior" horiz-adv-x="344" unicode="₀" /><glyph d="M49 141 25 184L112 235H166V-105H112V178Z" glyph-name="oneinferior" horiz-adv-x="224" unicode="₁" /><glyph d="M239 -53 239 -105H26V-81Q26 -29 44 2Q62 33 108 58L140 75Q167 90 176 102Q185 114 185 133V142Q185 166 170.5 177.5Q156 189 126 189Q106 189 82.5 184Q59 179 35 169L24 220Q51 230 76 235Q101 240 127 240Q182 240 211 215Q240 190 240 142V133Q240 100 223.5 77Q207 54 156 27L125 11Q104 1 94.5 -13.5Q85 -28 82 -53Z" glyph-name="twoinferior" horiz-adv-x="271" unicode="₂" /><glyph d="M230 -6 230 -14Q230 -60 200.5 -85Q171 -110 115 -110Q89 -110 64.5 -104.5Q40 -99 19 -89L34 -40Q52 -49 71 -53.5Q90 -58 114 -58Q145 -58 159.5 -47.5Q174 -37 174 -14V-6Q174 17 157.5 29.5Q141 42 109 42H71V92H109Q140 92 155.5 103.5Q171 115 171 138V145Q171 166 156.5 177.5Q142 189 115 189Q96 189 78.5 184.5Q61 180 42 171L25 220Q46 230 69.5 235Q93 240 117 240Q170 240 198.5 215.5Q227 191 227 146V139Q227 113 216 95Q205 77 182 67Q206 57 218 38.5Q230 20 230 -6Z" glyph-name="threeinferior" horiz-adv-x="274" unicode="₃" /><glyph d="M249 28 249 -20H210V-105H160V-20H12V13Q65 91 92 140Q119 189 136 235H192Q175 191 149 144Q123 97 79 28H160V77H210V28Z" glyph-name="fourinferior" horiz-adv-x="259" unicode="₄" /><glyph d="M66 47 38 69L48 235H233V184H97L92 104Q102 107 113.5 109Q125 111 136 111Q185 111 214.5 84Q244 57 244 9V-7Q244 -57 212.5 -83.5Q181 -110 123 -110Q98 -110 73.5 -104.5Q49 -99 25 -89L43 -40Q61 -49 80 -53.5Q99 -58 120 -58Q155 -58 171.5 -45.5Q188 -33 188 -7V9Q188 33 171.5 46.5Q155 60 125 60Q111 60 97 57Q83 54 66 47Z" glyph-name="fiveinferior" horiz-adv-x="273" unicode="₅" /><glyph d="M275 12 275 -7Q275 -54 244.5 -82Q214 -110 163 -110Q106 -110 76 -74.5Q46 -39 46 28V104Q46 170 78.5 205Q111 240 173 240Q196 240 218.5 234.5Q241 229 265 217L247 170Q229 180 211.5 184.5Q194 189 175 189Q136 189 117.5 168Q99 147 99 104V81Q118 98 138 106Q158 114 180 114Q223 114 249 86.5Q275 59 275 12ZM99 32 99 28Q99 -15 115 -36.5Q131 -58 163 -58Q191 -58 206.5 -44.5Q222 -31 222 -7V12Q222 36 208.5 49.5Q195 63 171 63Q154 63 135.5 55Q117 47 99 32Z" glyph-name="sixinferior" horiz-adv-x="305" unicode="₆" /><glyph d="M217 235 217 190Q182 119 157.5 45Q133 -29 121 -105H66Q78 -30 101.5 42.5Q125 115 159 184H11V235Z" glyph-name="seveninferior" horiz-adv-x="230" unicode="₇" /><glyph d="M217 70Q244 54 257 32.5Q270 11 270 -17Q270 -61 240 -85.5Q210 -110 156 -110Q104 -110 75.5 -86.5Q47 -63 47 -22Q47 5 59.5 26Q72 47 99 66Q78 81 66.5 102.5Q55 124 55 150Q55 190 83 215Q111 240 158 240Q206 240 234 215.5Q262 191 262 151Q262 127 251 107.5Q240 88 217 70ZM107 148Q107 131 118 118Q129 105 149 97L179 86Q194 100 201.5 115.5Q209 131 209 147Q209 168 195.5 180Q182 192 158 192Q136 192 121.5 180Q107 168 107 148ZM99 -15Q99 -38 113.5 -49.5Q128 -61 156 -61Q187 -61 202 -50Q217 -39 217 -17Q217 2 205.5 14Q194 26 167 36L134 48Q116 34 107.5 18.5Q99 3 99 -15Z" glyph-name="eightinferior" horiz-adv-x="310" unicode="₈" /><glyph d="M259 102 259 26Q259 -40 226.5 -75Q194 -110 132 -110Q109 -110 86.5 -104.5Q64 -99 40 -87L58 -40Q76 -50 93.5 -54.5Q111 -59 130 -59Q169 -59 187.5 -38Q206 -17 206 26V49Q187 32 167 24Q147 16 125 16Q82 16 56 43.5Q30 71 30 118V137Q30 184 60.5 212Q91 240 142 240Q199 240 229 204.5Q259 169 259 102ZM83 137 83 118Q83 94 96.5 80.5Q110 67 134 67Q151 67 169.5 75Q188 83 206 98V102Q206 145 190 166.5Q174 188 142 188Q114 188 98.5 174.5Q83 161 83 137Z" glyph-name="nineinferior" horiz-adv-x="305" unicode="₉" /><glyph d="M172 240Q233 240 266 205Q299 170 299 104V27Q299 -39 266 -74.5Q233 -110 172 -110Q111 -110 78 -75Q45 -40 45 27V104Q45 170 78 205Q111 240 172 240ZM243 27 243 104Q243 146 225 167.5Q207 189 172 189Q137 189 119 167.5Q101 146 101 104V27Q101 -15 119 -36.5Q137 -58 172 -58Q207 -58 225 -36.5Q243 -15 243 27Z" glyph-name="zero.numerator" horiz-adv-x="344" unicode="" /><glyph d="M49 141 25 184L112 235H166V-105H112V178Z" glyph-name="one.numerator" horiz-adv-x="224" unicode="" /><glyph d="M239 -53 239 -105H26V-81Q26 -29 44 2Q62 33 108 58L140 75Q167 90 176 102Q185 114 185 133V142Q185 166 170.5 177.5Q156 189 126 189Q106 189 82.5 184Q59 179 35 169L24 220Q51 230 76 235Q101 240 127 240Q182 240 211 215Q240 190 240 142V133Q240 100 223.5 77Q207 54 156 27L125 11Q104 1 94.5 -13.5Q85 -28 82 -53Z" glyph-name="two.numerator" horiz-adv-x="271" unicode="" /><glyph d="M230 -6 230 -14Q230 -60 200.5 -85Q171 -110 115 -110Q89 -110 64.5 -104.5Q40 -99 19 -89L34 -40Q52 -49 71 -53.5Q90 -58 114 -58Q145 -58 159.5 -47.5Q174 -37 174 -14V-6Q174 17 157.5 29.5Q141 42 109 42H71V92H109Q140 92 155.5 103.5Q171 115 171 138V145Q171 166 156.5 177.5Q142 189 115 189Q96 189 78.5 184.5Q61 180 42 171L25 220Q46 230 69.5 235Q93 240 117 240Q170 240 198.5 215.5Q227 191 227 146V139Q227 113 216 95Q205 77 182 67Q206 57 218 38.5Q230 20 230 -6Z" glyph-name="three.numerator" horiz-adv-x="274" unicode="" /><glyph d="M249 28 249 -20H210V-105H160V-20H12V13Q65 91 92 140Q119 189 136 235H192Q175 191 149 144Q123 97 79 28H160V77H210V28Z" glyph-name="four.numerator" horiz-adv-x="259" unicode="" /><glyph d="M66 47 38 69L48 235H233V184H97L92 104Q102 107 113.5 109Q125 111 136 111Q185 111 214.5 84Q244 57 244 9V-7Q244 -57 212.5 -83.5Q181 -110 123 -110Q98 -110 73.5 -104.5Q49 -99 25 -89L43 -40Q61 -49 80 -53.5Q99 -58 120 -58Q155 -58 171.5 -45.5Q188 -33 188 -7V9Q188 33 171.5 46.5Q155 60 125 60Q111 60 97 57Q83 54 66 47Z" glyph-name="five.numerator" horiz-adv-x="273" unicode="" /><glyph d="M275 12 275 -7Q275 -54 244.5 -82Q214 -110 163 -110Q106 -110 76 -74.5Q46 -39 46 28V104Q46 170 78.5 205Q111 240 173 240Q196 240 218.5 234.5Q241 229 265 217L247 170Q229 180 211.5 184.5Q194 189 175 189Q136 189 117.5 168Q99 147 99 104V81Q118 98 138 106Q158 114 180 114Q223 114 249 86.5Q275 59 275 12ZM99 32 99 28Q99 -15 115 -36.5Q131 -58 163 -58Q191 -58 206.5 -44.5Q222 -31 222 -7V12Q222 36 208.5 49.5Q195 63 171 63Q154 63 135.5 55Q117 47 99 32Z" glyph-name="six.numerator" horiz-adv-x="305" unicode="" /><glyph d="M217 235 217 190Q182 119 157.5 45Q133 -29 121 -105H66Q78 -30 101.5 42.5Q125 115 159 184H11V235Z" glyph-name="seven.numerator" horiz-adv-x="230" unicode="" /><glyph d="M217 70Q244 54 257 32.5Q270 11 270 -17Q270 -61 240 -85.5Q210 -110 156 -110Q104 -110 75.5 -86.5Q47 -63 47 -22Q47 5 59.5 26Q72 47 99 66Q78 81 66.5 102.5Q55 124 55 150Q55 190 83 215Q111 240 158 240Q206 240 234 215.5Q262 191 262 151Q262 127 251 107.5Q240 88 217 70ZM107 148Q107 131 118 118Q129 105 149 97L179 86Q194 100 201.5 115.5Q209 131 209 147Q209 168 195.5 180Q182 192 158 192Q136 192 121.5 180Q107 168 107 148ZM99 -15Q99 -38 113.5 -49.5Q128 -61 156 -61Q187 -61 202 -50Q217 -39 217 -17Q217 2 205.5 14Q194 26 167 36L134 48Q116 34 107.5 18.5Q99 3 99 -15Z" glyph-name="eight.numerator" horiz-adv-x="310" unicode="" /><glyph d="M259 102 259 26Q259 -40 226.5 -75Q194 -110 132 -110Q109 -110 86.5 -104.5Q64 -99 40 -87L58 -40Q76 -50 93.5 -54.5Q111 -59 130 -59Q169 -59 187.5 -38Q206 -17 206 26V49Q187 32 167 24Q147 16 125 16Q82 16 56 43.5Q30 71 30 118V137Q30 184 60.5 212Q91 240 142 240Q199 240 229 204.5Q259 169 259 102ZM83 137 83 118Q83 94 96.5 80.5Q110 67 134 67Q151 67 169.5 75Q188 83 206 98V102Q206 145 190 166.5Q174 188 142 188Q114 188 98.5 174.5Q83 161 83 137Z" glyph-name="nine.numerator" horiz-adv-x="305" unicode="" /><glyph d="M172 345Q233 345 266 310Q299 275 299 209V132Q299 66 266 30.5Q233 -5 172 -5Q111 -5 78 30Q45 65 45 132V209Q45 275 78 310Q111 345 172 345ZM243 132 243 209Q243 251 225 272.5Q207 294 172 294Q137 294 119 272.5Q101 251 101 209V132Q101 90 119 68.5Q137 47 172 47Q207 47 225 68.5Q243 90 243 132Z" glyph-name="zero.denominator" horiz-adv-x="344" unicode="" /><glyph d="M49 246 25 289L112 340H166V0H112V283Z" glyph-name="one.denominator" horiz-adv-x="224" unicode="" /><glyph d="M239 52 239 0H26V24Q26 76 44 107Q62 138 108 163L140 180Q167 195 176 207Q185 219 185 238V247Q185 271 170.5 282.5Q156 294 126 294Q106 294 82.5 289Q59 284 35 274L24 325Q51 335 76 340Q101 345 127 345Q182 345 211 320Q240 295 240 247V238Q240 205 223.5 182Q207 159 156 132L125 116Q104 106 94.5 91.5Q85 77 82 52Z" glyph-name="two.denominator" horiz-adv-x="271" unicode="" /><glyph d="M230 99 230 91Q230 45 200.5 20Q171 -5 115 -5Q89 -5 64.5 0.5Q40 6 19 16L34 65Q52 56 71 51.5Q90 47 114 47Q145 47 159.5 57.5Q174 68 174 91V99Q174 122 157.5 134.5Q141 147 109 147H71V197H109Q140 197 155.5 208.5Q171 220 171 243V250Q171 271 156.5 282.5Q142 294 115 294Q96 294 78.5 289.5Q61 285 42 276L25 325Q46 335 69.5 340Q93 345 117 345Q170 345 198.5 320.5Q227 296 227 251V244Q227 218 216 200Q205 182 182 172Q206 162 218 143.5Q230 125 230 99Z" glyph-name="three.denominator" horiz-adv-x="274" unicode="" /><glyph d="M249 133 249 85H210V0H160V85H12V118Q65 196 92 245Q119 294 136 340H192Q175 296 149 249Q123 202 79 133H160V182H210V133Z" glyph-name="four.denominator" horiz-adv-x="259" unicode="" /><glyph d="M66 152 38 174L48 340H233V289H97L92 209Q102 212 113.5 214Q125 216 136 216Q185 216 214.5 189Q244 162 244 114V98Q244 48 212.5 21.5Q181 -5 123 -5Q98 -5 73.5 0.5Q49 6 25 16L43 65Q61 56 80 51.5Q99 47 120 47Q155 47 171.5 59.5Q188 72 188 98V114Q188 138 171.5 151.5Q155 165 125 165Q111 165 97 162Q83 159 66 152Z" glyph-name="five.denominator" horiz-adv-x="273" unicode="" /><glyph d="M275 117 275 98Q275 51 244.5 23Q214 -5 163 -5Q106 -5 76 30.5Q46 66 46 133V209Q46 275 78.5 310Q111 345 173 345Q196 345 218.5 339.5Q241 334 265 322L247 275Q229 285 211.5 289.5Q194 294 175 294Q136 294 117.5 273Q99 252 99 209V186Q118 203 138 211Q158 219 180 219Q223 219 249 191.5Q275 164 275 117ZM99 137 99 133Q99 90 115 68.5Q131 47 163 47Q191 47 206.5 60.5Q222 74 222 98V117Q222 141 208.5 154.5Q195 168 171 168Q154 168 135.5 160Q117 152 99 137Z" glyph-name="six.denominator" horiz-adv-x="305" unicode="" /><glyph d="M217 340 217 295Q182 224 157.5 150Q133 76 121 0H66Q78 75 101.5 147.5Q125 220 159 289H11V340Z" glyph-name="seven.denominator" horiz-adv-x="230" unicode="" /><glyph d="M217 175Q244 159 257 137.5Q270 116 270 88Q270 44 240 19.5Q210 -5 156 -5Q104 -5 75.5 18.5Q47 42 47 83Q47 110 59.5 131Q72 152 99 171Q78 186 66.5 207.5Q55 229 55 255Q55 295 83 320Q111 345 158 345Q206 345 234 320.5Q262 296 262 256Q262 232 251 212.5Q240 193 217 175ZM107 253Q107 236 118 223Q129 210 149 202L179 191Q194 205 201.5 220.5Q209 236 209 252Q209 273 195.5 285Q182 297 158 297Q136 297 121.5 285Q107 273 107 253ZM99 90Q99 67 113.5 55.5Q128 44 156 44Q187 44 202 55Q217 66 217 88Q217 107 205.5 119Q194 131 167 141L134 153Q116 139 107.5 123.5Q99 108 99 90Z" glyph-name="eight.denominator" horiz-adv-x="310" unicode="" /><glyph d="M259 207 259 131Q259 65 226.5 30Q194 -5 132 -5Q109 -5 86.5 0.5Q64 6 40 18L58 65Q76 55 93.5 50.5Q111 46 130 46Q169 46 187.5 67Q206 88 206 131V154Q187 137 167 129Q147 121 125 121Q82 121 56 148.5Q30 176 30 223V242Q30 289 60.5 317Q91 345 142 345Q199 345 229 309.5Q259 274 259 207ZM83 242 83 223Q83 199 96.5 185.5Q110 172 134 172Q151 172 169.5 180Q188 188 206 203V207Q206 250 190 271.5Q174 293 142 293Q114 293 98.5 279.5Q83 266 83 242Z" glyph-name="nine.denominator" horiz-adv-x="305" unicode="" /><glyph d="M49 586 25 629L112 680H166V340H112V623ZM85 0 447 680H504L142 0ZM604 52 604 0H391V24Q391 76 409 107Q427 138 473 163L505 180Q532 195 541 207Q550 219 550 238V247Q550 271 535.5 282.5Q521 294 491 294Q471 294 447.5 289Q424 284 400 274L389 325Q416 335 441 340Q466 345 492 345Q547 345 576 320Q605 295 605 247V238Q605 205 588.5 182Q572 159 521 132L490 116Q469 106 459.5 91.5Q450 77 447 52Z" glyph-name="onehalf" horiz-adv-x="636" unicode="½" /><glyph d="M49 586 25 629L112 680H166V340H112V623ZM85 0 447 680H504L142 0ZM590 99 590 91Q590 45 560.5 20Q531 -5 475 -5Q449 -5 424.5 0.5Q400 6 379 16L394 65Q412 56 431 51.5Q450 47 474 47Q505 47 519.5 57.5Q534 68 534 91V99Q534 122 517.5 134.5Q501 147 469 147H431V197H469Q500 197 515.5 208.5Q531 220 531 243V250Q531 271 516.5 282.5Q502 294 475 294Q456 294 438.5 289.5Q421 285 402 276L385 325Q406 335 429.5 340Q453 345 477 345Q530 345 558.5 320.5Q587 296 587 251V244Q587 218 576 200Q565 182 542 172Q566 162 578 143.5Q590 125 590 99Z" glyph-name="onethird" horiz-adv-x="634" unicode="⅓" /><glyph d="M49 586 25 629L112 680H166V340H112V623ZM85 0 447 680H504L142 0ZM579 133 579 85H540V0H490V85H342V118Q395 196 422 245Q449 294 466 340H522Q505 296 479 249Q453 202 409 133H490V182H540V133Z" glyph-name="onequarter" horiz-adv-x="584" unicode="¼" /><glyph d="M49 586 25 629L112 680H166V340H112V623ZM85 0 447 680H504L142 0ZM416 152 388 174L398 340H583V289H447L442 209Q452 212 463.5 214Q475 216 486 216Q535 216 564.5 189Q594 162 594 114V98Q594 48 562.5 21.5Q531 -5 473 -5Q448 -5 423.5 0.5Q399 6 375 16L393 65Q411 56 430 51.5Q449 47 470 47Q505 47 521.5 59.5Q538 72 538 98V114Q538 138 521.5 151.5Q505 165 475 165Q461 165 447 162Q433 159 416 152Z" glyph-name="onefifth" horiz-adv-x="623" unicode="" /><glyph d="M49 586 25 629L112 680H166V340H112V623ZM85 0 447 680H504L142 0ZM611 117 611 98Q611 51 580.5 23Q550 -5 499 -5Q442 -5 412 30.5Q382 66 382 133V209Q382 275 414.5 310Q447 345 509 345Q532 345 554.5 339.5Q577 334 601 322L583 275Q565 285 547.5 289.5Q530 294 511 294Q472 294 453.5 273Q435 252 435 209V186Q454 203 474 211Q494 219 516 219Q559 219 585 191.5Q611 164 611 117ZM435 137 435 133Q435 90 451 68.5Q467 47 499 47Q527 47 542.5 60.5Q558 74 558 98V117Q558 141 544.5 154.5Q531 168 507 168Q490 168 471.5 160Q453 152 435 137Z" glyph-name="onesixth" horiz-adv-x="641" unicode="" /><glyph d="M49 586 25 629L112 680H166V340H112V623ZM85 0 447 680H504L142 0ZM607 340 607 295Q572 224 547.5 150Q523 76 511 0H456Q468 75 491.5 147.5Q515 220 549 289H401V340Z" glyph-name="oneseventh" horiz-adv-x="620" unicode="" /><glyph d="M49 586 25 629L112 680H166V340H112V623ZM85 0 447 680H504L142 0ZM557 175Q584 159 597 137.5Q610 116 610 88Q610 44 580 19.5Q550 -5 496 -5Q444 -5 415.5 18.5Q387 42 387 83Q387 110 399.5 131Q412 152 439 171Q418 186 406.5 207.5Q395 229 395 255Q395 295 423 320Q451 345 498 345Q546 345 574 320.5Q602 296 602 256Q602 232 591 212.5Q580 193 557 175ZM447 253Q447 236 458 223Q469 210 489 202L519 191Q534 205 541.5 220.5Q549 236 549 252Q549 273 535.5 285Q522 297 498 297Q476 297 461.5 285Q447 273 447 253ZM439 90Q439 67 453.5 55.5Q468 44 496 44Q527 44 542 55Q557 66 557 88Q557 107 545.5 119Q534 131 507 141L474 153Q456 139 447.5 123.5Q439 108 439 90Z" glyph-name="oneeighth" horiz-adv-x="650" unicode="⅛" /><glyph d="M49 586 25 629L112 680H166V340H112V623ZM85 0 447 680H504L142 0ZM609 207 609 131Q609 65 576.5 30Q544 -5 482 -5Q459 -5 436.5 0.5Q414 6 390 18L408 65Q426 55 443.5 50.5Q461 46 480 46Q519 46 537.5 67Q556 88 556 131V154Q537 137 517 129Q497 121 475 121Q432 121 406 148.5Q380 176 380 223V242Q380 289 410.5 317Q441 345 492 345Q549 345 579 309.5Q609 274 609 207ZM433 242 433 223Q433 199 446.5 185.5Q460 172 484 172Q501 172 519.5 180Q538 188 556 203V207Q556 250 540 271.5Q524 293 492 293Q464 293 448.5 279.5Q433 266 433 242Z" glyph-name="oneninth" horiz-adv-x="655" unicode="" /><glyph d="M239 392 239 340H26V364Q26 416 44 447Q62 478 108 503L140 520Q167 535 176 547Q185 559 185 578V587Q185 611 170.5 622.5Q156 634 126 634Q106 634 82.5 629Q59 624 35 614L24 665Q51 675 76 680Q101 685 127 685Q182 685 211 660Q240 635 240 587V578Q240 545 223.5 522Q207 499 156 472L125 456Q104 446 94.5 431.5Q85 417 82 392ZM132 0 494 680H551L189 0ZM637 99 637 91Q637 45 607.5 20Q578 -5 522 -5Q496 -5 471.5 0.5Q447 6 426 16L441 65Q459 56 478 51.5Q497 47 521 47Q552 47 566.5 57.5Q581 68 581 91V99Q581 122 564.5 134.5Q548 147 516 147H478V197H516Q547 197 562.5 208.5Q578 220 578 243V250Q578 271 563.5 282.5Q549 294 522 294Q503 294 485.5 289.5Q468 285 449 276L432 325Q453 335 476.5 340Q500 345 524 345Q577 345 605.5 320.5Q634 296 634 251V244Q634 218 623 200Q612 182 589 172Q613 162 625 143.5Q637 125 637 99Z" glyph-name="twothirds" horiz-adv-x="681" unicode="⅔" /><glyph d="M239 392 239 340H26V364Q26 416 44 447Q62 478 108 503L140 520Q167 535 176 547Q185 559 185 578V587Q185 611 170.5 622.5Q156 634 126 634Q106 634 82.5 629Q59 624 35 614L24 665Q51 675 76 680Q101 685 127 685Q182 685 211 660Q240 635 240 587V578Q240 545 223.5 522Q207 499 156 472L125 456Q104 446 94.5 431.5Q85 417 82 392ZM132 0 494 680H551L189 0ZM463 152 435 174L445 340H630V289H494L489 209Q499 212 510.5 214Q522 216 533 216Q582 216 611.5 189Q641 162 641 114V98Q641 48 609.5 21.5Q578 -5 520 -5Q495 -5 470.5 0.5Q446 6 422 16L440 65Q458 56 477 51.5Q496 47 517 47Q552 47 568.5 59.5Q585 72 585 98V114Q585 138 568.5 151.5Q552 165 522 165Q508 165 494 162Q480 159 463 152Z" glyph-name="twofifths" horiz-adv-x="670" unicode="" /><glyph d="M239 392 239 340H26V364Q26 416 44 447Q62 478 108 503L140 520Q167 535 176 547Q185 559 185 578V587Q185 611 170.5 622.5Q156 634 126 634Q106 634 82.5 629Q59 624 35 614L24 665Q51 675 76 680Q101 685 127 685Q182 685 211 660Q240 635 240 587V578Q240 545 223.5 522Q207 499 156 472L125 456Q104 446 94.5 431.5Q85 417 82 392ZM132 0 494 680H551L189 0ZM654 340 654 295Q619 224 594.5 150Q570 76 558 0H503Q515 75 538.5 147.5Q562 220 596 289H448V340Z" glyph-name="twosevenths" horiz-adv-x="667" unicode="" /><glyph d="M239 392 239 340H26V364Q26 416 44 447Q62 478 108 503L140 520Q167 535 176 547Q185 559 185 578V587Q185 611 170.5 622.5Q156 634 126 634Q106 634 82.5 629Q59 624 35 614L24 665Q51 675 76 680Q101 685 127 685Q182 685 211 660Q240 635 240 587V578Q240 545 223.5 522Q207 499 156 472L125 456Q104 446 94.5 431.5Q85 417 82 392ZM132 0 494 680H551L189 0ZM656 207 656 131Q656 65 623.5 30Q591 -5 529 -5Q506 -5 483.5 0.5Q461 6 437 18L455 65Q473 55 490.5 50.5Q508 46 527 46Q566 46 584.5 67Q603 88 603 131V154Q584 137 564 129Q544 121 522 121Q479 121 453 148.5Q427 176 427 223V242Q427 289 457.5 317Q488 345 539 345Q596 345 626 309.5Q656 274 656 207ZM480 242 480 223Q480 199 493.5 185.5Q507 172 531 172Q548 172 566.5 180Q585 188 603 203V207Q603 250 587 271.5Q571 293 539 293Q511 293 495.5 279.5Q480 266 480 242Z" glyph-name="twoninths" horiz-adv-x="702" unicode="" /><glyph d="M230 439 230 431Q230 385 200.5 360Q171 335 115 335Q89 335 64.5 340.5Q40 346 19 356L34 405Q52 396 71 391.5Q90 387 114 387Q145 387 159.5 397.5Q174 408 174 431V439Q174 462 157.5 474.5Q141 487 109 487H71V537H109Q140 537 155.5 548.5Q171 560 171 583V590Q171 611 156.5 622.5Q142 634 115 634Q96 634 78.5 629.5Q61 625 42 616L25 665Q46 675 69.5 680Q93 685 117 685Q170 685 198.5 660.5Q227 636 227 591V584Q227 558 216 540Q205 522 182 512Q206 502 218 483.5Q230 465 230 439ZM120 0 482 680H539L177 0ZM614 133 614 85H575V0H525V85H377V118Q430 196 457 245Q484 294 501 340H557Q540 296 514 249Q488 202 444 133H525V182H575V133Z" glyph-name="threequarters" horiz-adv-x="619" unicode="¾" /><glyph d="M230 439 230 431Q230 385 200.5 360Q171 335 115 335Q89 335 64.5 340.5Q40 346 19 356L34 405Q52 396 71 391.5Q90 387 114 387Q145 387 159.5 397.5Q174 408 174 431V439Q174 462 157.5 474.5Q141 487 109 487H71V537H109Q140 537 155.5 548.5Q171 560 171 583V590Q171 611 156.5 622.5Q142 634 115 634Q96 634 78.5 629.5Q61 625 42 616L25 665Q46 675 69.5 680Q93 685 117 685Q170 685 198.5 660.5Q227 636 227 591V584Q227 558 216 540Q205 522 182 512Q206 502 218 483.5Q230 465 230 439ZM120 0 482 680H539L177 0ZM451 152 423 174L433 340H618V289H482L477 209Q487 212 498.5 214Q510 216 521 216Q570 216 599.5 189Q629 162 629 114V98Q629 48 597.5 21.5Q566 -5 508 -5Q483 -5 458.5 0.5Q434 6 410 16L428 65Q446 56 465 51.5Q484 47 505 47Q540 47 556.5 59.5Q573 72 573 98V114Q573 138 556.5 151.5Q540 165 510 165Q496 165 482 162Q468 159 451 152Z" glyph-name="threefifths" horiz-adv-x="658" unicode="" /><glyph d="M230 439 230 431Q230 385 200.5 360Q171 335 115 335Q89 335 64.5 340.5Q40 346 19 356L34 405Q52 396 71 391.5Q90 387 114 387Q145 387 159.5 397.5Q174 408 174 431V439Q174 462 157.5 474.5Q141 487 109 487H71V537H109Q140 537 155.5 548.5Q171 560 171 583V590Q171 611 156.5 622.5Q142 634 115 634Q96 634 78.5 629.5Q61 625 42 616L25 665Q46 675 69.5 680Q93 685 117 685Q170 685 198.5 660.5Q227 636 227 591V584Q227 558 216 540Q205 522 182 512Q206 502 218 483.5Q230 465 230 439ZM120 0 482 680H539L177 0ZM642 340 642 295Q607 224 582.5 150Q558 76 546 0H491Q503 75 526.5 147.5Q550 220 584 289H436V340Z" glyph-name="threesevenths" horiz-adv-x="655" unicode="" /><glyph d="M230 439 230 431Q230 385 200.5 360Q171 335 115 335Q89 335 64.5 340.5Q40 346 19 356L34 405Q52 396 71 391.5Q90 387 114 387Q145 387 159.5 397.5Q174 408 174 431V439Q174 462 157.5 474.5Q141 487 109 487H71V537H109Q140 537 155.5 548.5Q171 560 171 583V590Q171 611 156.5 622.5Q142 634 115 634Q96 634 78.5 629.5Q61 625 42 616L25 665Q46 675 69.5 680Q93 685 117 685Q170 685 198.5 660.5Q227 636 227 591V584Q227 558 216 540Q205 522 182 512Q206 502 218 483.5Q230 465 230 439ZM120 0 482 680H539L177 0ZM592 175Q619 159 632 137.5Q645 116 645 88Q645 44 615 19.5Q585 -5 531 -5Q479 -5 450.5 18.5Q422 42 422 83Q422 110 434.5 131Q447 152 474 171Q453 186 441.5 207.5Q430 229 430 255Q430 295 458 320Q486 345 533 345Q581 345 609 320.5Q637 296 637 256Q637 232 626 212.5Q615 193 592 175ZM482 253Q482 236 493 223Q504 210 524 202L554 191Q569 205 576.5 220.5Q584 236 584 252Q584 273 570.5 285Q557 297 533 297Q511 297 496.5 285Q482 273 482 253ZM474 90Q474 67 488.5 55.5Q503 44 531 44Q562 44 577 55Q592 66 592 88Q592 107 580.5 119Q569 131 542 141L509 153Q491 139 482.5 123.5Q474 108 474 90Z" glyph-name="threeeighths" horiz-adv-x="685" unicode="⅜" /><glyph d="M249 473 249 425H210V340H160V425H12V458Q65 536 92 585Q119 634 136 680H192Q175 636 149 589Q123 542 79 473H160V522H210V473ZM125 0 487 680H544L182 0ZM456 152 428 174L438 340H623V289H487L482 209Q492 212 503.5 214Q515 216 526 216Q575 216 604.5 189Q634 162 634 114V98Q634 48 602.5 21.5Q571 -5 513 -5Q488 -5 463.5 0.5Q439 6 415 16L433 65Q451 56 470 51.5Q489 47 510 47Q545 47 561.5 59.5Q578 72 578 98V114Q578 138 561.5 151.5Q545 165 515 165Q501 165 487 162Q473 159 456 152Z" glyph-name="fourfifths" horiz-adv-x="663" unicode="" /><glyph d="M249 473 249 425H210V340H160V425H12V458Q65 536 92 585Q119 634 136 680H192Q175 636 149 589Q123 542 79 473H160V522H210V473ZM125 0 487 680H544L182 0ZM647 340 647 295Q612 224 587.5 150Q563 76 551 0H496Q508 75 531.5 147.5Q555 220 589 289H441V340Z" glyph-name="foursevenths" horiz-adv-x="660" unicode="" /><glyph d="M249 473 249 425H210V340H160V425H12V458Q65 536 92 585Q119 634 136 680H192Q175 636 149 589Q123 542 79 473H160V522H210V473ZM125 0 487 680H544L182 0ZM649 207 649 131Q649 65 616.5 30Q584 -5 522 -5Q499 -5 476.5 0.5Q454 6 430 18L448 65Q466 55 483.5 50.5Q501 46 520 46Q559 46 577.5 67Q596 88 596 131V154Q577 137 557 129Q537 121 515 121Q472 121 446 148.5Q420 176 420 223V242Q420 289 450.5 317Q481 345 532 345Q589 345 619 309.5Q649 274 649 207ZM473 242 473 223Q473 199 486.5 185.5Q500 172 524 172Q541 172 559.5 180Q578 188 596 203V207Q596 250 580 271.5Q564 293 532 293Q504 293 488.5 279.5Q473 266 473 242Z" glyph-name="fourninths" horiz-adv-x="695" unicode="" /><glyph d="M66 492 38 514L48 680H233V629H97L92 549Q102 552 113.5 554Q125 556 136 556Q185 556 214.5 529Q244 502 244 454V438Q244 388 212.5 361.5Q181 335 123 335Q98 335 73.5 340.5Q49 346 25 356L43 405Q61 396 80 391.5Q99 387 120 387Q155 387 171.5 399.5Q188 412 188 438V454Q188 478 171.5 491.5Q155 505 125 505Q111 505 97 502Q83 499 66 492ZM119 0 481 680H538L176 0ZM645 117 645 98Q645 51 614.5 23Q584 -5 533 -5Q476 -5 446 30.5Q416 66 416 133V209Q416 275 448.5 310Q481 345 543 345Q566 345 588.5 339.5Q611 334 635 322L617 275Q599 285 581.5 289.5Q564 294 545 294Q506 294 487.5 273Q469 252 469 209V186Q488 203 508 211Q528 219 550 219Q593 219 619 191.5Q645 164 645 117ZM469 137 469 133Q469 90 485 68.5Q501 47 533 47Q561 47 576.5 60.5Q592 74 592 98V117Q592 141 578.5 154.5Q565 168 541 168Q524 168 505.5 160Q487 152 469 137Z" glyph-name="fivesixths" horiz-adv-x="675" unicode="" /><glyph d="M66 492 38 514L48 680H233V629H97L92 549Q102 552 113.5 554Q125 556 136 556Q185 556 214.5 529Q244 502 244 454V438Q244 388 212.5 361.5Q181 335 123 335Q98 335 73.5 340.5Q49 346 25 356L43 405Q61 396 80 391.5Q99 387 120 387Q155 387 171.5 399.5Q188 412 188 438V454Q188 478 171.5 491.5Q155 505 125 505Q111 505 97 502Q83 499 66 492ZM119 0 481 680H538L176 0ZM641 340 641 295Q606 224 581.5 150Q557 76 545 0H490Q502 75 525.5 147.5Q549 220 583 289H435V340Z" glyph-name="fivesevenths" horiz-adv-x="654" unicode="" /><glyph d="M66 492 38 514L48 680H233V629H97L92 549Q102 552 113.5 554Q125 556 136 556Q185 556 214.5 529Q244 502 244 454V438Q244 388 212.5 361.5Q181 335 123 335Q98 335 73.5 340.5Q49 346 25 356L43 405Q61 396 80 391.5Q99 387 120 387Q155 387 171.5 399.5Q188 412 188 438V454Q188 478 171.5 491.5Q155 505 125 505Q111 505 97 502Q83 499 66 492ZM119 0 481 680H538L176 0ZM591 175Q618 159 631 137.5Q644 116 644 88Q644 44 614 19.5Q584 -5 530 -5Q478 -5 449.5 18.5Q421 42 421 83Q421 110 433.5 131Q446 152 473 171Q452 186 440.5 207.5Q429 229 429 255Q429 295 457 320Q485 345 532 345Q580 345 608 320.5Q636 296 636 256Q636 232 625 212.5Q614 193 591 175ZM481 253Q481 236 492 223Q503 210 523 202L553 191Q568 205 575.5 220.5Q583 236 583 252Q583 273 569.5 285Q556 297 532 297Q510 297 495.5 285Q481 273 481 253ZM473 90Q473 67 487.5 55.5Q502 44 530 44Q561 44 576 55Q591 66 591 88Q591 107 579.5 119Q568 131 541 141L508 153Q490 139 481.5 123.5Q473 108 473 90Z" glyph-name="fiveeighths" horiz-adv-x="684" unicode="⅝" /><glyph d="M66 492 38 514L48 680H233V629H97L92 549Q102 552 113.5 554Q125 556 136 556Q185 556 214.5 529Q244 502 244 454V438Q244 388 212.5 361.5Q181 335 123 335Q98 335 73.5 340.5Q49 346 25 356L43 405Q61 396 80 391.5Q99 387 120 387Q155 387 171.5 399.5Q188 412 188 438V454Q188 478 171.5 491.5Q155 505 125 505Q111 505 97 502Q83 499 66 492ZM119 0 481 680H538L176 0ZM643 207 643 131Q643 65 610.5 30Q578 -5 516 -5Q493 -5 470.5 0.5Q448 6 424 18L442 65Q460 55 477.5 50.5Q495 46 514 46Q553 46 571.5 67Q590 88 590 131V154Q571 137 551 129Q531 121 509 121Q466 121 440 148.5Q414 176 414 223V242Q414 289 444.5 317Q475 345 526 345Q583 345 613 309.5Q643 274 643 207ZM467 242 467 223Q467 199 480.5 185.5Q494 172 518 172Q535 172 553.5 180Q572 188 590 203V207Q590 250 574 271.5Q558 293 526 293Q498 293 482.5 279.5Q467 266 467 242Z" glyph-name="fiveninths" horiz-adv-x="689" unicode="" /><glyph d="M275 457 275 438Q275 391 244.5 363Q214 335 163 335Q106 335 76 370.5Q46 406 46 473V549Q46 615 78.5 650Q111 685 173 685Q196 685 218.5 679.5Q241 674 265 662L247 615Q229 625 211.5 629.5Q194 634 175 634Q136 634 117.5 613Q99 592 99 549V526Q118 543 138 551Q158 559 180 559Q223 559 249 531.5Q275 504 275 457ZM99 477 99 473Q99 430 115 408.5Q131 387 163 387Q191 387 206.5 400.5Q222 414 222 438V457Q222 481 208.5 494.5Q195 508 171 508Q154 508 135.5 500Q117 492 99 477ZM151 0 513 680H570L208 0ZM673 340 673 295Q638 224 613.5 150Q589 76 577 0H522Q534 75 557.5 147.5Q581 220 615 289H467V340Z" glyph-name="sixsevenths" horiz-adv-x="686" unicode="" /><glyph d="M217 680 217 635Q182 564 157.5 490Q133 416 121 340H66Q78 415 101.5 487.5Q125 560 159 629H11V680ZM76 0 438 680H495L133 0ZM548 175Q575 159 588 137.5Q601 116 601 88Q601 44 571 19.5Q541 -5 487 -5Q435 -5 406.5 18.5Q378 42 378 83Q378 110 390.5 131Q403 152 430 171Q409 186 397.5 207.5Q386 229 386 255Q386 295 414 320Q442 345 489 345Q537 345 565 320.5Q593 296 593 256Q593 232 582 212.5Q571 193 548 175ZM438 253Q438 236 449 223Q460 210 480 202L510 191Q525 205 532.5 220.5Q540 236 540 252Q540 273 526.5 285Q513 297 489 297Q467 297 452.5 285Q438 273 438 253ZM430 90Q430 67 444.5 55.5Q459 44 487 44Q518 44 533 55Q548 66 548 88Q548 107 536.5 119Q525 131 498 141L465 153Q447 139 438.5 123.5Q430 108 430 90Z" glyph-name="seveneighths" horiz-adv-x="641" unicode="⅞" /><glyph d="M217 680 217 635Q182 564 157.5 490Q133 416 121 340H66Q78 415 101.5 487.5Q125 560 159 629H11V680ZM76 0 438 680H495L133 0ZM600 207 600 131Q600 65 567.5 30Q535 -5 473 -5Q450 -5 427.5 0.5Q405 6 381 18L399 65Q417 55 434.5 50.5Q452 46 471 46Q510 46 528.5 67Q547 88 547 131V154Q528 137 508 129Q488 121 466 121Q423 121 397 148.5Q371 176 371 223V242Q371 289 401.5 317Q432 345 483 345Q540 345 570 309.5Q600 274 600 207ZM424 242 424 223Q424 199 437.5 185.5Q451 172 475 172Q492 172 510.5 180Q529 188 547 203V207Q547 250 531 271.5Q515 293 483 293Q455 293 439.5 279.5Q424 266 424 242Z" glyph-name="sevenninths" horiz-adv-x="646" unicode="" /><glyph d="M217 515Q244 499 257 477.5Q270 456 270 428Q270 384 240 359.5Q210 335 156 335Q104 335 75.5 358.5Q47 382 47 423Q47 450 59.5 471Q72 492 99 511Q78 526 66.5 547.5Q55 569 55 595Q55 635 83 660Q111 685 158 685Q206 685 234 660.5Q262 636 262 596Q262 572 251 552.5Q240 533 217 515ZM107 593Q107 576 118 563Q129 550 149 542L179 531Q194 545 201.5 560.5Q209 576 209 592Q209 613 195.5 625Q182 637 158 637Q136 637 121.5 625Q107 613 107 593ZM99 430Q99 407 113.5 395.5Q128 384 156 384Q187 384 202 395Q217 406 217 428Q217 447 205.5 459Q194 471 167 481L134 493Q116 479 107.5 463.5Q99 448 99 430ZM156 0 518 680H575L213 0ZM680 207 680 131Q680 65 647.5 30Q615 -5 553 -5Q530 -5 507.5 0.5Q485 6 461 18L479 65Q497 55 514.5 50.5Q532 46 551 46Q590 46 608.5 67Q627 88 627 131V154Q608 137 588 129Q568 121 546 121Q503 121 477 148.5Q451 176 451 223V242Q451 289 481.5 317Q512 345 563 345Q620 345 650 309.5Q680 274 680 207ZM504 242 504 223Q504 199 517.5 185.5Q531 172 555 172Q572 172 590.5 180Q609 188 627 203V207Q627 250 611 271.5Q595 293 563 293Q535 293 519.5 279.5Q504 266 504 242Z" glyph-name="eightninths" horiz-adv-x="726" unicode="" /><glyph d="M501 321 501 268H322V83H266V268H87V321H266V506H322V321Z" glyph-name="plus" horiz-adv-x="588" unicode="+" /><glyph d="M501 268 87 268V321H501Z" glyph-name="minus" horiz-adv-x="588" unicode="−" /><glyph d="M332 295 487 139L449 102L294 257L139 102L101 139L256 295L101 451L139 489L294 333L449 489L487 451Z" glyph-name="multiply" horiz-adv-x="588" unicode="×" /><glyph d="M331 535 331 462H258V535ZM501 268 87 268V321H501ZM331 123 331 50H258V123Z" glyph-name="divide" horiz-adv-x="588" unicode="÷" /><glyph d="M501 368 87 368V421H501ZM501 168 87 168V221H501Z" glyph-name="equal" horiz-adv-x="588" unicode="=" /><glyph d="M445 378 87 378V431H501V197H445Z" glyph-name="logicalnot" horiz-adv-x="588" unicode="¬" /><glyph d="M387 208Q357 208 331.5 221Q306 234 272 275Q245 306 230 315Q215 324 199 324Q173 324 156 299.5Q139 275 127 223L77 236Q93 307 123 342Q153 377 200 377Q230 377 255.5 364Q281 351 315 310Q342 279 357 270Q372 261 388 261Q414 261 431 285Q448 309 461 363L511 350Q495 278 464.5 243Q434 208 387 208Z" glyph-name="asciitilde" horiz-adv-x="588" unicode="~" /><glyph d="M178 294 501 170V106L87 274V311L501 476V416Z" glyph-name="less" horiz-adv-x="588" unicode="&lt;" /><glyph d="M501 308 501 271L87 106V166L410 288L87 412V476Z" glyph-name="greater" horiz-adv-x="588" unicode="&gt;" /><glyph d="M501 361 501 308H322V123H266V308H87V361H266V546H322V361ZM501 0 87 0V53H501Z" glyph-name="plusminus" horiz-adv-x="588" unicode="±" /><glyph d="M479 266 415 266L291 589L169 266H109L274 680H311Z" glyph-name="asciicircum" horiz-adv-x="588" unicode="^" /><glyph d="M501 221 501 168H253L183 44L137 71L192 168H87V221H222L305 368H87V421H335L405 544L451 517L397 421H501V368H367L283 221Z" glyph-name="notequal" horiz-adv-x="588" unicode="≠" /><glyph d="M387 308Q357 308 331.5 321Q306 334 272 375Q245 406 230 415Q215 424 199 424Q173 424 156 399.5Q139 375 127 323L77 336Q93 407 123 442Q153 477 200 477Q230 477 255.5 464Q281 451 315 410Q342 379 357 370Q372 361 388 361Q414 361 431 385Q448 409 461 463L511 450Q495 378 464.5 343Q434 308 387 308ZM387 108Q357 108 331.5 121Q306 134 272 175Q245 206 230 215Q215 224 199 224Q173 224 156 199.5Q139 175 127 123L77 136Q93 207 123 242Q153 277 200 277Q230 277 255.5 264Q281 251 315 210Q342 179 357 170Q372 161 388 161Q414 161 431 185Q448 209 461 263L511 250Q495 178 464.5 143Q434 108 387 108Z" glyph-name="approxequal" horiz-adv-x="588" unicode="≈" /><glyph d="M178 334 501 210V146L87 314V351L501 516V456ZM501 0 87 0V53H501Z" glyph-name="lessequal" horiz-adv-x="588" unicode="≤" /><glyph d="M501 348 501 311L87 146V206L410 328L87 452V516ZM501 0 87 0V53H501Z" glyph-name="greaterequal" horiz-adv-x="588" unicode="≥" /><glyph d="M570 497Q645 497 691 445Q737 393 737 303Q737 210 687.5 156.5Q638 103 558 103Q499 103 456 135Q413 167 385 231Q349 166 306.5 134.5Q264 103 212 103Q136 103 90.5 155Q45 207 45 298Q45 391 93 444Q141 497 221 497Q281 497 325.5 464.5Q370 432 397 369Q434 436 475 466.5Q516 497 570 497ZM421 308 431 282Q453 222 483.5 195Q514 168 558 168Q617 168 649.5 204Q682 240 682 303Q682 364 651 398Q620 432 567 432Q524 432 491 403.5Q458 375 421 308ZM221 432Q164 432 132 396Q100 360 100 298Q100 236 131.5 202Q163 168 218 168Q259 168 292 197Q325 226 361 292L351 318Q328 378 297.5 405Q267 432 221 432Z" glyph-name="infinity" horiz-adv-x="782" unicode="∞" /><glyph d="M314 0 277 0L109 340L274 680H311L479 340ZM291 597 173 343L297 83L417 337Z" glyph-name="lozenge" horiz-adv-x="588" unicode="◊" /><glyph d="M137 309 43 309V362H179L283 95L511 680H571L300 0H263Z" glyph-name="radical" horiz-adv-x="588" unicode="√" /><glyph d="M222 596 163 -68Q156 -148 123 -185.5Q90 -223 29 -223Q5 -223 -19 -217.5Q-43 -212 -65 -202L-45 -153Q-25 -162 -8.5 -166Q8 -170 25 -170Q60 -170 78 -146.5Q96 -123 101 -69L160 595Q167 675 200 712.5Q233 750 294 750Q318 750 342 744.5Q366 739 388 729L368 680Q348 689 331.5 693Q315 697 298 697Q263 697 245 673.5Q227 650 222 596Z" glyph-name="integral" horiz-adv-x="335" unicode="∫" /><glyph d="M464 284 461 244Q452 124 394 57Q336 -10 241 -10Q148 -10 96.5 49.5Q45 109 52 208L55 248Q62 340 113 393.5Q164 447 247 447Q291 447 327.5 433Q364 419 394 391Q375 486 314.5 566.5Q254 647 162 700L191 750Q331 668 402.5 544.5Q474 421 464 284ZM118 248 115 208Q109 134 143.5 89.5Q178 45 241 45Q309 45 350 97Q391 149 398 244L401 284Q402 290 402 296.5Q402 303 402 317Q366 355 329 373.5Q292 392 250 392Q193 392 158 353Q123 314 118 248Z" glyph-name="partialdiff" horiz-adv-x="535" unicode="∂" /><glyph d="M125 621 35 621V680H670V621H580V-143H515V621H190V-143H125Z" glyph-name="product" horiz-adv-x="705" unicode="∏" /><glyph d="M110 434 33 434V487H512V434H435V123Q435 80 446.5 65Q458 50 490 50H512V-5H492Q428 -5 401.5 24Q375 53 375 123V434H170V0H110Z" glyph-name="pi" horiz-adv-x="547" unicode="π" /><glyph d="M155 -125 155 -213H95V487H155V160Q155 102 175 74.5Q195 47 237 47Q274 47 313 66Q352 85 403 126V487H463V112Q463 78 474 64Q485 50 510 50H522V-5H512Q471 -5 442 16Q413 37 408 71Q359 30 316 10Q273 -10 232 -10Q204 -10 182.5 -1.5Q161 7 145 23Z" glyph-name="mu" horiz-adv-x="562" unicode="µ" /><glyph d="M32 -143 32 -96L322 272L37 633V680H487V621H125L379 300V247L117 -84H504V-143Z" glyph-name="summation" horiz-adv-x="522" unicode="∑" /><glyph d="M139 417 139 374Q139 288 174.5 233.5Q210 179 276 164V0H67V59H217V120Q147 148 109 214Q71 280 71 374V417Q71 544 139 617Q207 690 326 690Q445 690 513 617Q581 544 581 417V374Q581 280 543 214Q505 148 435 120V59H585V0H376V164Q442 179 477.5 233.5Q513 288 513 374V417Q513 519 464 575Q415 631 326 631Q237 631 188 575Q139 519 139 417Z" glyph-name="Omega" horiz-adv-x="652" unicode="Ω" /><glyph d="M310 680 518 46V0H38V46L245 680ZM275 591 201 363L105 58H445L349 363Z" glyph-name="Delta" horiz-adv-x="556" unicode="∆" /><glyph d="M298 72 318 23Q290 7 260 -1.5Q230 -10 199 -10Q139 -10 109 22.5Q79 55 79 119V535Q79 605 115 647.5Q151 690 215 690Q279 690 315 651.5Q351 613 351 542Q351 471 306 399Q261 327 139 207V124Q139 82 154 62.5Q169 43 202 43Q226 43 250 50.5Q274 58 298 72ZM217 637Q179 637 159 611Q139 585 139 536V281Q221 363 256 422.5Q291 482 291 540Q291 586 271 611.5Q251 637 217 637Z" glyph-name="uni2113" horiz-adv-x="378" unicode="ℓ" /><glyph d="M145 331 303 184L276 149L50 339V376L276 563L303 528L144 384H591V331Z" glyph-name="arrowleft" horiz-adv-x="651" unicode="←" /><glyph d="M528 401 493 374L349 533V86H296V532L149 374L114 401L304 627H341Z" glyph-name="arrowup" horiz-adv-x="651" unicode="↑" /><glyph d="M591 374 591 337L365 150L338 185L497 329H50V382H496L338 529L365 564Z" glyph-name="arrowright" horiz-adv-x="651" unicode="→" /><glyph d="M493 340 528 313L338 87H301L114 313L149 340L293 181V628H346V182Z" glyph-name="arrowdown" horiz-adv-x="651" unicode="↓" /><glyph d="M145 331 303 184L276 149L50 339V376L276 563L303 528L144 384H629L471 531L498 566L724 376V339L498 152L471 187L630 331Z" glyph-name="uni2194" horiz-adv-x="774" unicode="↔" /><glyph d="M499 274 534 247L344 21H307L120 247L155 274L299 115V600L152 442L117 469L307 695H344L531 469L496 442L352 601V116Z" glyph-name="uni2195" horiz-adv-x="651" unicode="↕" /><glyph d="M216 501 532 185L494 147L179 462L187 247L143 241L117 536L144 562L436 534L430 490Z" glyph-name="uni2196" horiz-adv-x="651" unicode="↖" /><glyph d="M498 242 455 247L465 462L149 146L112 183L427 498L211 491L206 534L500 560L526 534Z" glyph-name="uni2197" horiz-adv-x="651" unicode="↗" /><glyph d="M498 472 524 178L498 152L206 180L211 223L426 213L110 529L147 566L462 251L455 467Z" glyph-name="uni2198" horiz-adv-x="651" unicode="↘" /><glyph d="M430 224 436 180L141 154L115 181L143 473L187 467L176 253L492 569L530 531L215 216Z" glyph-name="uni2199" horiz-adv-x="651" unicode="↙" /><glyph d="M774 314 774 305H191Q188 305 187 304Q186 303 186 301V125Q186 119 188 114Q190 109 194 105Q238 59 295 34Q352 9 415 9Q482 9 542 37Q602 65 647 116H699Q648 57 573 23.5Q498 -10 414 -10Q265 -10 159.5 85Q54 180 54 314Q54 448 159.5 543Q265 638 414 638Q563 638 668.5 543Q774 448 774 314ZM642 328 642 506Q642 512 640 517.5Q638 523 633 527Q589 571 532.5 595Q476 619 415 619Q353 619 296 594.5Q239 570 195 524Q190 519 188 514Q186 509 186 502V328Q186 326 187.5 324.5Q189 323 191 323H638Q640 323 641 324.5Q642 326 642 328Z" glyph-name="estimated" horiz-adv-x="813" unicode="℮" /><glyph d="M709 -45 733 -97Q673 -124 604 -138.5Q535 -153 467 -153Q275 -153 164.5 -38.5Q54 76 54 272Q54 484 177.5 622Q301 760 493 760Q669 760 783.5 644Q898 528 898 353Q898 231 838 150.5Q778 70 688 70Q637 70 607.5 92Q578 114 572 157Q534 112 491 88.5Q448 65 404 65Q334 65 299.5 123.5Q265 182 278 274L287 335Q301 434 356.5 488Q412 542 499 542Q543 542 587 527.5Q631 513 678 482L633 225Q624 172 638 147Q652 122 692 122Q753 122 795 187.5Q837 253 837 353Q837 505 740 606Q643 707 493 707Q328 707 221.5 584Q115 461 115 272Q115 98 208 -1Q301 -100 467 -100Q530 -100 593.5 -85.5Q657 -71 709 -45ZM350 335 341 274Q330 201 349 159.5Q368 118 412 118Q453 118 496 150Q539 182 577 242L613 455Q583 471 555.5 479Q528 487 501 487Q437 487 399 449Q361 411 350 335Z" glyph-name="at.case" horiz-adv-x="954" unicode="" /><glyph d="M187 607 187 680H259V607ZM225 45Q265 45 305 54.5Q345 64 386 84L408 31Q365 11 318 0.5Q271 -10 225 -10Q136 -10 85 34.5Q34 79 34 154V171Q34 223 51 263Q68 303 107 338L139 367Q172 397 183.5 420.5Q195 444 195 482V508H255V483Q255 433 239 400Q223 367 172 320L140 291Q118 270 107.5 241Q97 212 97 171V154Q97 103 131 74Q165 45 225 45Z" glyph-name="questiondown.case" horiz-adv-x="422" unicode="" /><glyph d="M104 607 104 680H176V607ZM110 270 115 508H165L170 270V0H110Z" glyph-name="exclamdown.case" horiz-adv-x="280" unicode="" /><glyph d="M68 322 68 359Q68 489 116.5 598.5Q165 708 261 792L300 750Q214 668 172.5 572Q131 476 131 359V322Q131 205 172.5 109Q214 13 300 -69L261 -111Q165 -27 116.5 82.5Q68 192 68 322Z" glyph-name="parenleft.case" horiz-adv-x="304" unicode="" /><glyph d="M236 358 236 321Q236 191 187.5 81.5Q139 -28 43 -112L4 -70Q90 12 131.5 108Q173 204 173 321V358Q173 475 131.5 571Q90 667 4 749L43 791Q139 707 187.5 597.5Q236 488 236 358Z" glyph-name="parenright.case" horiz-adv-x="304" unicode="" /><glyph d="M286 -49 371 -49V-102H282Q198 -102 162.5 -54.5Q127 -7 144 83L164 189Q177 255 160 284.5Q143 314 94 314H21V367H94Q143 367 160 396Q177 425 164 491L144 597Q127 687 162.5 734.5Q198 782 282 782H371V729H286Q235 729 213.5 699.5Q192 670 202 616L222 510Q235 442 219.5 398.5Q204 355 163 340Q204 325 219 281.5Q234 238 222 170L202 64Q192 10 213.5 -19.5Q235 -49 286 -49Z" glyph-name="braceleft.case" horiz-adv-x="375" unicode="" /><glyph d="M211 189 231 83Q248 -7 212.5 -54.5Q177 -102 93 -102H4V-49H89Q140 -49 161.5 -19.5Q183 10 173 64L153 170Q140 238 155.5 281.5Q171 325 212 340Q171 355 156 398.5Q141 442 153 510L173 616Q183 670 161.5 699.5Q140 729 89 729H4V782H93Q177 782 212.5 734.5Q248 687 231 597L211 491Q198 425 215 395.5Q232 366 281 366H354V313H281Q232 313 215 284Q198 255 211 189Z" glyph-name="braceright.case" horiz-adv-x="375" unicode="" /><glyph d="M175 -49 340 -49V-102H115V781H340V728H175Z" glyph-name="bracketleft.case" horiz-adv-x="344" unicode="" /><glyph d="M4 781 229 781V-102H4V-49H169V728H4Z" glyph-name="bracketright.case" horiz-adv-x="344" unicode="" /><glyph d="M324 289 60 289V342H324Z" glyph-name="hyphen.case" horiz-adv-x="384" unicode="" /><glyph d="M524 289 60 289V342H524Z" glyph-name="endash.case" horiz-adv-x="584" unicode="" /><glyph d="M724 289 60 289V342H724Z" glyph-name="emdash.case" horiz-adv-x="784" unicode="" /><glyph d="M112 433 112 816H172V433ZM112 -137 112 246H172V-137Z" glyph-name="brokenbar.case" horiz-adv-x="284" unicode="" /><glyph d="M115 -137 115 816H175V-137Z" glyph-name="bar.case" horiz-adv-x="290" unicode="" /><glyph d="M101 339 312 177V104L36 319V356L312 568V499ZM371 339 582 177V104L306 319V356L582 568V499Z" glyph-name="guillemotleft.case" horiz-adv-x="638" unicode="" /><glyph d="M602 353 602 316L326 104V173L537 333L326 495V568ZM332 353 332 316L56 104V173L267 333L56 495V568Z" glyph-name="guillemotright.case" horiz-adv-x="638" unicode="" /><glyph d="M101 339 312 177V104L36 319V356L312 568V499Z" glyph-name="guilsinglleft.case" horiz-adv-x="368" unicode="" /><glyph d="M332 353 332 316L56 104V173L267 333L56 495V568Z" glyph-name="guilsinglright.case" horiz-adv-x="368" unicode="" /><glyph d="M78 422 14 422Q14 549 79 614.5Q144 680 270 680H437L664 0H598L540 175H266L252 130Q226 48 200.5 -10.5Q175 -69 148 -108Q108 -169 57.5 -196Q7 -223 -71 -223V-161Q-6 -161 35.5 -134.5Q77 -108 113 -46Q135 -9 156.5 43.5Q178 96 202 167L352 621H270Q172 621 125 572Q78 523 78 422ZM402 595 327 363L285 233H520L477 363Z" glyph-name="A.alt" horiz-adv-x="686" unicode="" /><glyph d="M78 422 14 422Q14 549 79 614.5Q144 680 270 680H474Q560 680 608.5 634Q657 588 657 507V489Q657 440 634.5 405Q612 370 570 351Q626 335 656.5 295Q687 255 687 197V179Q687 96 637 48Q587 0 499 0H279V621H270Q172 621 125 572Q78 523 78 422ZM474 621 344 621V375H474Q529 375 559 404.5Q589 434 589 489V507Q589 562 559 591.5Q529 621 474 621ZM499 316 344 316V59H499Q557 59 588 90Q619 121 619 179V197Q619 254 587.5 285Q556 316 499 316Z" glyph-name="B.alt" horiz-adv-x="749" unicode="" /><glyph d="M78 422 14 422Q14 549 79 614.5Q144 680 270 680H477Q588 680 651.5 609.5Q715 539 715 417V264Q715 141 651.5 70.5Q588 0 477 0H279V621H270Q172 621 125 572Q78 523 78 422ZM477 621 344 621V59H477Q559 59 603 112.5Q647 166 647 264V417Q647 515 603 568Q559 621 477 621Z" glyph-name="D.alt" horiz-adv-x="801" unicode="" /><glyph d="M78 422 14 422Q14 549 79 614.5Q144 680 270 680H639V621H344V374H609V315H344V59H649V0H279V621H270Q172 621 125 572Q78 523 78 422Z" glyph-name="E.alt" horiz-adv-x="692" unicode="" /><glyph d="M78 422 14 422Q14 549 79 614.5Q144 680 270 680H633V621H344V363H603V304H344V0H279V621H270Q172 621 125 572Q78 523 78 422Z" glyph-name="F.alt" horiz-adv-x="671" unicode="" /><glyph d="M333 286 333 345H531V-6Q531 -117 476 -170Q421 -223 308 -223V-161Q396 -161 433 -125Q470 -89 470 -6V17Q438 4 401.5 -3Q365 -10 325 -10Q213 -10 149.5 63Q86 136 86 264V417Q86 548 148.5 619Q211 690 326 690Q375 690 425.5 679.5Q476 669 518 649L496 594Q455 612 411.5 621.5Q368 631 326 631Q240 631 197 577.5Q154 524 154 417V264Q154 160 199.5 103.5Q245 47 330 47Q369 47 405.5 56.5Q442 66 470 83V286Z" glyph-name="G.alt" horiz-adv-x="605" unicode="" /><glyph d="M78 422 14 422Q14 549 79 614.5Q144 680 270 680H344V374H669V680H734V0H669V315H344V0H279V621H270Q172 621 125 572Q78 523 78 422Z" glyph-name="H.alt" horiz-adv-x="849" unicode="" /><glyph d="M78 422 14 422Q14 549 79 614.5Q144 680 270 680H345V212Q345 101 290 48Q235 -5 122 -5V57Q207 57 243.5 93Q280 129 280 212V621H270Q172 621 125 572Q78 523 78 422Z" glyph-name="J.alt" horiz-adv-x="449" unicode="" /><glyph d="M78 422 14 422Q14 549 79 614.5Q144 680 270 680H344V312Q442 403 512 491.5Q582 580 635 680H704Q661 598 613.5 530Q566 462 494 380L737 0H657L446 337Q423 313 397.5 288.5Q372 264 344 238V0H279V621H270Q172 621 125 572Q78 523 78 422Z" glyph-name="K.alt" horiz-adv-x="748" unicode="" /><glyph d="M78 422 14 422Q14 549 79 614.5Q144 680 270 680H344V59H638V0H279V621H270Q172 621 125 572Q78 523 78 422Z" glyph-name="L.alt" horiz-adv-x="670" unicode="" /><glyph d="M270 680 362 680L579 151L800 680H878V0H813V312L820 586L609 80H544L337 588L344 312V0H279V621H270Q172 621 125 572Q78 523 78 422H14Q14 549 79 614.5Q144 680 270 680Z" glyph-name="M.alt" horiz-adv-x="993" unicode="" /><glyph d="M78 422 14 422Q14 549 79 614.5Q144 680 270 680H357Q457 529 536.5 387.5Q616 246 688 90L679 388V680H744V0H666Q588 167 509 311Q430 455 340 596L344 291V0H279V621H270Q172 621 125 572Q78 523 78 422Z" glyph-name="N.alt" horiz-adv-x="859" unicode="" /><glyph d="M78 422 14 422Q14 549 79 614.5Q144 680 270 680H482Q572 680 623.5 631Q675 582 675 497V444Q675 359 623.5 309.5Q572 260 482 260H344V0H279V621H270Q172 621 125 572Q78 523 78 422ZM482 621 344 621V319H482Q542 319 574.5 351.5Q607 384 607 444V497Q607 556 574.5 588.5Q542 621 482 621Z" glyph-name="P.alt" horiz-adv-x="722" unicode="" /><glyph d="M497 278 344 278V0H279V621H270Q172 621 125 572Q78 523 78 422H14Q14 549 79 614.5Q144 680 270 680H482Q572 680 623.5 632.5Q675 585 675 501V458Q675 396 645.5 352.5Q616 309 562 290Q604 225 642.5 152Q681 79 716 0H640Q612 68 576 137Q540 206 497 278ZM482 621 344 621V337H482Q539 337 573 370Q607 403 607 458V501Q607 557 573.5 589Q540 621 482 621Z" glyph-name="R.alt" horiz-adv-x="761" unicode="" /><glyph d="M78 422 14 422Q14 549 79 614.5Q144 680 270 680H590V621H386V0H321V621H270Q172 621 125 572Q78 523 78 422Z" glyph-name="T.alt" horiz-adv-x="603" unicode="" /><glyph d="M78 422 14 422Q14 549 79 614.5Q144 680 270 680H345V244Q345 148 384 98.5Q423 49 500 49Q577 49 616 98Q655 147 655 244V680H723V244Q723 120 666 55Q609 -10 500 -10Q391 -10 334 55Q277 120 277 244V621H270Q172 621 125 572Q78 523 78 422Z" glyph-name="U.alt" horiz-adv-x="825" unicode="" /><glyph d="M78 422 14 422Q14 549 79 614.5Q144 680 270 680H314L425 334L502 90L579 334L646 547Q672 629 697.5 688Q723 747 749 788Q790 849 840.5 876Q891 903 970 903V841Q905 841 863 814.5Q821 788 785 726Q763 689 741.5 636.5Q720 584 697 513L532 0H467L267 621Q171 620 124.5 571.5Q78 523 78 422Z" glyph-name="V.alt" horiz-adv-x="774" unicode="" /><glyph d="M332 680 396 380L451 95L622 680H685L857 93L912 380L951 567Q988 744 1061.5 823.5Q1135 903 1274 903V841Q1162 841 1100 763Q1038 685 1001 513L890 0H824L653 587L480 0H413L280 621H270Q172 621 125 572Q78 523 78 422H14Q14 549 79 614.5Q144 680 270 680Z" glyph-name="W.alt" horiz-adv-x="1080" unicode="" /><glyph d="M78 422 14 422Q14 549 79 614.5Q144 680 270 680H294L458 402L620 680H687L492 347L697 0H624L450 295L278 0H211L416 349L256 621Q166 617 122 568Q78 519 78 422Z" glyph-name="X.alt" horiz-adv-x="721" unicode="" /><glyph d="M78 422 14 422Q14 549 79 614.5Q144 680 270 680H310L483 337L653 680H720L513 270V0H448V270L270 621Q172 621 125 572Q78 523 78 422Z" glyph-name="Y.alt" horiz-adv-x="736" unicode="" /><glyph d="M78 422 14 422Q14 549 79 614.5Q144 680 270 680H437L664 0H598L540 175H266L252 130Q226 48 200.5 -10.5Q175 -69 148 -108Q108 -169 57.5 -196Q7 -223 -71 -223V-161Q-6 -161 35.5 -134.5Q77 -108 113 -46Q135 -9 156.5 43.5Q178 96 202 167L352 621H270Q172 621 125 572Q78 523 78 422ZM402 595 327 363L285 233H520L477 363ZM525 909 431 772H380L466 938Z" glyph-name="Aacute.alt" horiz-adv-x="686" unicode="" /><glyph d="M78 422 14 422Q14 549 79 614.5Q144 680 270 680H437L664 0H598L540 175H266L252 130Q226 48 200.5 -10.5Q175 -69 148 -108Q108 -169 57.5 -196Q7 -223 -71 -223V-161Q-6 -161 35.5 -134.5Q77 -108 113 -46Q135 -9 156.5 43.5Q178 96 202 167L352 621H270Q172 621 125 572Q78 523 78 422ZM402 595 327 363L285 233H520L477 363ZM528 772 475 772L404 878L332 772H283L374 933H437Z" glyph-name="Acircumflex.alt" horiz-adv-x="686" unicode="" /><glyph d="M78 422 14 422Q14 549 79 614.5Q144 680 270 680H437L664 0H598L540 175H266L252 130Q226 48 200.5 -10.5Q175 -69 148 -108Q108 -169 57.5 -196Q7 -223 -71 -223V-161Q-6 -161 35.5 -134.5Q77 -108 113 -46Q135 -9 156.5 43.5Q178 96 202 167L352 621H270Q172 621 125 572Q78 523 78 422ZM402 595 327 363L285 233H520L477 363ZM346 891 346 820H275V891ZM535 891 535 820H464V891Z" glyph-name="Adieresis.alt" horiz-adv-x="686" unicode="" /><glyph d="M78 422 14 422Q14 549 79 614.5Q144 680 270 680H437L664 0H598L540 175H266L252 130Q226 48 200.5 -10.5Q175 -69 148 -108Q108 -169 57.5 -196Q7 -223 -71 -223V-161Q-6 -161 35.5 -134.5Q77 -108 113 -46Q135 -9 156.5 43.5Q178 96 202 167L352 621H270Q172 621 125 572Q78 523 78 422ZM402 595 327 363L285 233H520L477 363ZM430 772 379 772L285 909L344 938Z" glyph-name="Agrave.alt" horiz-adv-x="686" unicode="" /><glyph d="M167 175 164 167Q135 78 109 15.5Q83 -47 57 -91Q14 -162 -38 -192.5Q-90 -223 -171 -223V-161Q-106 -161 -64.5 -134.5Q-23 -108 13 -46Q35 -9 56.5 43.5Q78 96 102 167L259 640Q229 651 212 677Q195 703 195 737V748Q195 795 225 823.5Q255 852 305 852Q355 852 385 823.5Q415 795 415 748V737Q415 702 398 676.5Q381 651 350 640L564 0H498L440 175ZM363 737 363 748Q363 774 347 789.5Q331 805 305 805Q279 805 263 789.5Q247 774 247 748V737Q247 711 263 695.5Q279 680 305 680Q331 680 347 695.5Q363 711 363 737ZM302 595 227 363L185 233H420L377 363Z" glyph-name="Aring.alt" horiz-adv-x="586" unicode="" /><glyph d="M78 422 14 422Q14 549 79 614.5Q144 680 270 680H437L664 0H598L540 175H266L252 130Q226 48 200.5 -10.5Q175 -69 148 -108Q108 -169 57.5 -196Q7 -223 -71 -223V-161Q-6 -161 35.5 -134.5Q77 -108 113 -46Q135 -9 156.5 43.5Q178 96 202 167L352 621H270Q172 621 125 572Q78 523 78 422ZM402 595 327 363L285 233H520L477 363ZM466 781Q445 781 427 792Q409 803 385 836Q369 858 360.5 864.5Q352 871 343 871Q329 871 321.5 852Q314 833 314 796H263Q264 859 284.5 891Q305 923 344 923Q365 923 383 912Q401 901 425 868Q441 846 449.5 839.5Q458 833 467 833Q481 833 488.5 852Q496 871 496 908H547Q546 845 525.5 813Q505 781 466 781Z" glyph-name="Atilde.alt" horiz-adv-x="686" unicode="" /><glyph d="M78 422 14 422Q14 549 79 614.5Q144 680 270 680H437L664 0H598L540 175H266L252 130Q226 48 200.5 -10.5Q175 -69 148 -108Q108 -169 57.5 -196Q7 -223 -71 -223V-161Q-6 -161 35.5 -134.5Q77 -108 113 -46Q135 -9 156.5 43.5Q178 96 202 167L352 621H270Q172 621 125 572Q78 523 78 422ZM402 595 327 363L285 233H520L477 363ZM405 829Q442 829 460.5 851.5Q479 874 483 924H534Q529 852 496 815Q463 778 405 778Q347 778 314 815Q281 852 276 924H327Q331 875 350 852Q369 829 405 829Z" glyph-name="Abreve.alt" horiz-adv-x="686" unicode="" /><glyph d="M78 422 14 422Q14 549 79 614.5Q144 680 270 680H437L664 0H598L540 175H266L252 130Q226 48 200.5 -10.5Q175 -69 148 -108Q108 -169 57.5 -196Q7 -223 -71 -223V-161Q-6 -161 35.5 -134.5Q77 -108 113 -46Q135 -9 156.5 43.5Q178 96 202 167L352 621H270Q172 621 125 572Q78 523 78 422ZM402 595 327 363L285 233H520L477 363ZM268 852 542 852V802H268Z" glyph-name="Amacron.alt" horiz-adv-x="686" unicode="" /><glyph d="M78 422 14 422Q14 549 79 614.5Q144 680 270 680H437L664 0Q600 -49 575.5 -77.5Q551 -106 551 -134Q551 -152 561.5 -161Q572 -170 593 -170Q605 -170 619.5 -166.5Q634 -163 650 -157L664 -206Q644 -215 625 -219Q606 -223 587 -223Q543 -223 518 -201Q493 -179 493 -140Q493 -103 517.5 -68.5Q542 -34 596 7L540 175H267L264 167Q235 78 209 15.5Q183 -47 157 -91Q114 -162 62 -192.5Q10 -223 -71 -223V-161Q-6 -161 35.5 -134.5Q77 -108 113 -46Q135 -9 156.5 43.5Q178 96 202 167L352 621H270Q172 621 125 572Q78 523 78 422ZM402 595 327 363L285 233H520L477 363Z" glyph-name="Aogonek.alt" horiz-adv-x="686" unicode="" /><glyph d="M78 422 14 422Q14 549 79 614.5Q144 680 270 680H477Q588 680 651.5 609.5Q715 539 715 417V264Q715 141 651.5 70.5Q588 0 477 0H279V621H270Q172 621 125 572Q78 523 78 422ZM477 621 344 621V59H477Q559 59 603 112.5Q647 166 647 264V417Q647 515 603 568Q559 621 477 621ZM546 933 595 933L504 772H441L350 933H403L475 827Z" glyph-name="Dcaron.alt" horiz-adv-x="801" unicode="" /><glyph d="M78 422 14 422Q14 549 79 614.5Q144 680 270 680H639V621H344V374H609V315H344V59H649V0H279V621H270Q172 621 125 572Q78 523 78 422ZM578 909 484 772H433L519 938Z" glyph-name="Eacute.alt" horiz-adv-x="692" unicode="" /><glyph d="M78 422 14 422Q14 549 79 614.5Q144 680 270 680H639V621H344V374H609V315H344V59H649V0H279V621H270Q172 621 125 572Q78 523 78 422ZM581 772 528 772L457 878L385 772H336L427 933H490Z" glyph-name="Ecircumflex.alt" horiz-adv-x="692" unicode="" /><glyph d="M78 422 14 422Q14 549 79 614.5Q144 680 270 680H639V621H344V374H609V315H344V59H649V0H279V621H270Q172 621 125 572Q78 523 78 422ZM399 891 399 820H328V891ZM588 891 588 820H517V891Z" glyph-name="Edieresis.alt" horiz-adv-x="692" unicode="" /><glyph d="M78 422 14 422Q14 549 79 614.5Q144 680 270 680H639V621H344V374H609V315H344V59H649V0H279V621H270Q172 621 125 572Q78 523 78 422ZM483 772 432 772L338 909L397 938Z" glyph-name="Egrave.alt" horiz-adv-x="692" unicode="" /><glyph d="M78 422 14 422Q14 549 79 614.5Q144 680 270 680H639V621H344V374H609V315H344V59H649V0H279V621H270Q172 621 125 572Q78 523 78 422ZM458 829Q495 829 513.5 851.5Q532 874 536 924H587Q582 852 549 815Q516 778 458 778Q400 778 367 815Q334 852 329 924H380Q384 875 403 852Q422 829 458 829Z" glyph-name="Ebreve.alt" horiz-adv-x="692" unicode="" /><glyph d="M78 422 14 422Q14 549 79 614.5Q144 680 270 680H639V621H344V374H609V315H344V59H649V0H279V621H270Q172 621 125 572Q78 523 78 422ZM532 933 581 933L490 772H427L336 933H389L461 827Z" glyph-name="Ecaron.alt" horiz-adv-x="692" unicode="" /><glyph d="M78 422 14 422Q14 549 79 614.5Q144 680 270 680H639V621H344V374H609V315H344V59H649V0H279V621H270Q172 621 125 572Q78 523 78 422ZM494 892 494 819H422V892Z" glyph-name="Edotaccent.alt" horiz-adv-x="692" unicode="" /><glyph d="M78 422 14 422Q14 549 79 614.5Q144 680 270 680H639V621H344V374H609V315H344V59H649V0H279V621H270Q172 621 125 572Q78 523 78 422ZM321 852 595 852V802H321Z" glyph-name="Emacron.alt" horiz-adv-x="692" unicode="" /><glyph d="M78 422 14 422Q14 549 79 614.5Q144 680 270 680H639V621H344V374H609V315H344V59H649V0Q585 -49 560.5 -77.5Q536 -106 536 -134Q536 -152 546.5 -161Q557 -170 578 -170Q590 -170 604.5 -166.5Q619 -163 635 -157L649 -206Q629 -215 610 -219Q591 -223 572 -223Q528 -223 503 -201Q478 -179 478 -140Q478 -106 501 -73Q524 -40 576 0H279V621H270Q172 621 125 572Q78 523 78 422Z" glyph-name="Eogonek.alt" horiz-adv-x="692" unicode="" /><glyph d="M333 286 333 345H531V-6Q531 -117 476 -170Q421 -223 308 -223V-161Q396 -161 433 -125Q470 -89 470 -6V17Q438 4 401.5 -3Q365 -10 325 -10Q213 -10 149.5 63Q86 136 86 264V417Q86 548 148.5 619Q211 690 326 690Q375 690 425.5 679.5Q476 669 518 649L496 594Q455 612 411.5 621.5Q368 631 326 631Q240 631 197 577.5Q154 524 154 417V264Q154 160 199.5 103.5Q245 47 330 47Q369 47 405.5 56.5Q442 66 470 83V286ZM331 829Q368 829 386.5 851.5Q405 874 409 924H460Q455 852 422 815Q389 778 331 778Q273 778 240 815Q207 852 202 924H253Q257 875 276 852Q295 829 331 829Z" glyph-name="Gbreve.alt" horiz-adv-x="605" unicode="" /><glyph d="M333 286 333 345H531V-6Q531 -117 476 -170Q421 -223 308 -223V-161Q396 -161 433 -125Q470 -89 470 -6V17Q438 4 401.5 -3Q365 -10 325 -10Q213 -10 149.5 63Q86 136 86 264V417Q86 548 148.5 619Q211 690 326 690Q375 690 425.5 679.5Q476 669 518 649L496 594Q455 612 411.5 621.5Q368 631 326 631Q240 631 197 577.5Q154 524 154 417V264Q154 160 199.5 103.5Q245 47 330 47Q369 47 405.5 56.5Q442 66 470 83V286ZM453 772 400 772L329 878L257 772H208L299 933H362Z" glyph-name="Gcircumflex.alt" horiz-adv-x="605" unicode="" /><glyph d="M333 286 333 345H531V-6Q531 -117 476 -170Q421 -223 308 -223V-161Q396 -161 433 -125Q470 -89 470 -6V17Q438 4 401.5 -3Q365 -10 325 -10Q213 -10 149.5 63Q86 136 86 264V417Q86 548 148.5 619Q211 690 326 690Q375 690 425.5 679.5Q476 669 518 649L496 594Q455 612 411.5 621.5Q368 631 326 631Q240 631 197 577.5Q154 524 154 417V264Q154 160 199.5 103.5Q245 47 330 47Q369 47 405.5 56.5Q442 66 470 83V286ZM366 892 366 819H294V892Z" glyph-name="Gdotaccent.alt" horiz-adv-x="605" unicode="" /><glyph d="M78 422 14 422Q14 549 79 614.5Q144 680 270 680H344V374H669V680H734V0H669V315H344V0H279V621H270Q172 621 125 572Q78 523 78 422ZM629 772 576 772L505 878L433 772H384L475 933H538Z" glyph-name="Hcircumflex.alt" horiz-adv-x="849" unicode="" /><glyph d="M78 422 14 422Q14 549 79 614.5Q144 680 270 680H345V212Q345 101 290 48Q235 -5 122 -5V57Q207 57 243.5 93Q280 129 280 212V621H270Q172 621 125 572Q78 523 78 422ZM434 772 381 772L310 878L238 772H189L280 933H343Z" glyph-name="Jcircumflex.alt" horiz-adv-x="449" unicode="" /><glyph d="M78 422 14 422Q14 549 79 614.5Q144 680 270 680H344V312Q442 403 512 491.5Q582 580 635 680H704Q661 598 613.5 530Q566 462 494 380L737 0H657L446 337Q423 313 397.5 288.5Q372 264 344 238V0H279V621H270Q172 621 125 572Q78 523 78 422ZM518 -77 450 -243L415 -232L449 -77Z" glyph-name="Kcommaaccent.alt" horiz-adv-x="748" unicode="" /><glyph d="M78 422 14 422Q14 549 79 614.5Q144 680 270 680H344V59H638V0H279V621H270Q172 621 125 572Q78 523 78 422ZM439 909 345 772H294L380 938Z" glyph-name="Lacute.alt" horiz-adv-x="670" unicode="" /><glyph d="M78 422 14 422Q14 549 79 614.5Q144 680 270 680H344V59H638V0H279V621H270Q172 621 125 572Q78 523 78 422ZM500 680 476 487H436V680Z" glyph-name="Lcaron.alt" horiz-adv-x="670" unicode="" /><glyph d="M78 422 14 422Q14 549 79 614.5Q144 680 270 680H344V59H638V0H279V621H270Q172 621 125 572Q78 523 78 422ZM492 -77 424 -243L389 -232L423 -77Z" glyph-name="Lcommaaccent.alt" horiz-adv-x="670" unicode="" /><glyph d="M78 422 14 422Q14 549 79 614.5Q144 680 270 680H357Q457 529 536.5 387.5Q616 246 688 90L679 388V680H744V0H666Q588 167 509 311Q430 455 340 596L344 291V0H279V621H270Q172 621 125 572Q78 523 78 422ZM573 781Q552 781 534 792Q516 803 492 836Q476 858 467.5 864.5Q459 871 450 871Q436 871 428.5 852Q421 833 421 796H370Q371 859 391.5 891Q412 923 451 923Q472 923 490 912Q508 901 532 868Q548 846 556.5 839.5Q565 833 574 833Q588 833 595.5 852Q603 871 603 908H654Q653 845 632.5 813Q612 781 573 781Z" glyph-name="Ntilde.alt" horiz-adv-x="859" unicode="" /><glyph d="M78 422 14 422Q14 549 79 614.5Q144 680 270 680H357Q457 529 536.5 387.5Q616 246 688 90L679 388V680H744V0H666Q588 167 509 311Q430 455 340 596L344 291V0H279V621H270Q172 621 125 572Q78 523 78 422ZM632 909 538 772H487L573 938Z" glyph-name="Nacute.alt" horiz-adv-x="859" unicode="" /><glyph d="M78 422 14 422Q14 549 79 614.5Q144 680 270 680H357Q457 529 536.5 387.5Q616 246 688 90L679 388V680H744V0H666Q588 167 509 311Q430 455 340 596L344 291V0H279V621H270Q172 621 125 572Q78 523 78 422ZM585 933 634 933L543 772H480L389 933H442L514 827Z" glyph-name="Ncaron.alt" horiz-adv-x="859" unicode="" /><glyph d="M78 422 14 422Q14 549 79 614.5Q144 680 270 680H357Q457 529 536.5 387.5Q616 246 688 90L679 388V680H744V0H666Q588 167 509 311Q430 455 340 596L344 291V0H279V621H270Q172 621 125 572Q78 523 78 422ZM546 -77 478 -243L443 -232L477 -77Z" glyph-name="Ncommaaccent.alt" horiz-adv-x="859" unicode="" /><glyph d="M679 388 679 680H744V-6Q744 -117 689 -170Q634 -223 521 -223V-161Q605 -161 642 -126.5Q679 -92 679 -13Q606 142 521.5 293.5Q437 445 340 595L344 291V0H279V621H270Q172 621 125 572Q78 523 78 422H14Q14 549 79 614.5Q144 680 270 680H357Q466 515 544.5 379.5Q623 244 688 106Z" glyph-name="Eng.alt" horiz-adv-x="859" unicode="" /><glyph d="M497 278 344 278V0H279V621H270Q172 621 125 572Q78 523 78 422H14Q14 549 79 614.5Q144 680 270 680H482Q572 680 623.5 632.5Q675 585 675 501V458Q675 396 645.5 352.5Q616 309 562 290Q604 225 642.5 152Q681 79 716 0H640Q612 68 576 137Q540 206 497 278ZM482 621 344 621V337H482Q539 337 573 370Q607 403 607 458V501Q607 557 573.5 589Q540 621 482 621ZM583 909 489 772H438L524 938Z" glyph-name="Racute.alt" horiz-adv-x="761" unicode="" /><glyph d="M497 278 344 278V0H279V621H270Q172 621 125 572Q78 523 78 422H14Q14 549 79 614.5Q144 680 270 680H482Q572 680 623.5 632.5Q675 585 675 501V458Q675 396 645.5 352.5Q616 309 562 290Q604 225 642.5 152Q681 79 716 0H640Q612 68 576 137Q540 206 497 278ZM482 621 344 621V337H482Q539 337 573 370Q607 403 607 458V501Q607 557 573.5 589Q540 621 482 621ZM536 933 585 933L494 772H431L340 933H393L465 827Z" glyph-name="Rcaron.alt" horiz-adv-x="761" unicode="" /><glyph d="M497 278 344 278V0H279V621H270Q172 621 125 572Q78 523 78 422H14Q14 549 79 614.5Q144 680 270 680H482Q572 680 623.5 632.5Q675 585 675 501V458Q675 396 645.5 352.5Q616 309 562 290Q604 225 642.5 152Q681 79 716 0H640Q612 68 576 137Q540 206 497 278ZM482 621 344 621V337H482Q539 337 573 370Q607 403 607 458V501Q607 557 573.5 589Q540 621 482 621ZM524 -77 456 -243L421 -232L455 -77Z" glyph-name="Rcommaaccent.alt" horiz-adv-x="761" unicode="" /><glyph d="M527 365 527 306H386V0H321V306H180V365H321V621H270Q172 621 125 572Q78 523 78 422H14Q14 549 79 614.5Q144 680 270 680H590V621H386V365Z" glyph-name="Tbar.alt" horiz-adv-x="603" unicode="" /><glyph d="M78 422 14 422Q14 549 79 614.5Q144 680 270 680H590V621H386V0H321V621H270Q172 621 125 572Q78 523 78 422ZM427 933 476 933L385 772H322L231 933H284L356 827Z" glyph-name="Tcaron.alt" horiz-adv-x="603" unicode="" /><glyph d="M78 422 14 422Q14 549 79 614.5Q144 680 270 680H590V621H386V0H321V621H270Q172 621 125 572Q78 523 78 422ZM388 -77 320 -243L285 -232L319 -77Z" glyph-name="uni0162.alt" horiz-adv-x="603" unicode="" /><glyph d="M78 422 14 422Q14 549 79 614.5Q144 680 270 680H590V621H386V0H321V621H270Q172 621 125 572Q78 523 78 422ZM388 -77 320 -243L285 -232L319 -77Z" glyph-name="uni021A.alt" horiz-adv-x="603" unicode="" /><glyph d="M78 422 14 422Q14 549 79 614.5Q144 680 270 680H345V244Q345 148 384 98.5Q423 49 500 49Q577 49 616 98Q655 147 655 244V680H723V244Q723 120 666 55Q609 -10 500 -10Q391 -10 334 55Q277 120 277 244V621H270Q172 621 125 572Q78 523 78 422ZM620 909 526 772H475L561 938Z" glyph-name="Uacute.alt" horiz-adv-x="825" unicode="" /><glyph d="M78 422 14 422Q14 549 79 614.5Q144 680 270 680H345V244Q345 148 384 98.5Q423 49 500 49Q577 49 616 98Q655 147 655 244V680H723V244Q723 120 666 55Q609 -10 500 -10Q391 -10 334 55Q277 120 277 244V621H270Q172 621 125 572Q78 523 78 422ZM623 772 570 772L499 878L427 772H378L469 933H532Z" glyph-name="Ucircumflex.alt" horiz-adv-x="825" unicode="" /><glyph d="M78 422 14 422Q14 549 79 614.5Q144 680 270 680H345V244Q345 148 384 98.5Q423 49 500 49Q577 49 616 98Q655 147 655 244V680H723V244Q723 120 666 55Q609 -10 500 -10Q391 -10 334 55Q277 120 277 244V621H270Q172 621 125 572Q78 523 78 422ZM441 891 441 820H370V891ZM630 891 630 820H559V891Z" glyph-name="Udieresis.alt" horiz-adv-x="825" unicode="" /><glyph d="M78 422 14 422Q14 549 79 614.5Q144 680 270 680H345V244Q345 148 384 98.5Q423 49 500 49Q577 49 616 98Q655 147 655 244V680H723V244Q723 120 666 55Q609 -10 500 -10Q391 -10 334 55Q277 120 277 244V621H270Q172 621 125 572Q78 523 78 422ZM525 772 474 772L380 909L439 938Z" glyph-name="Ugrave.alt" horiz-adv-x="825" unicode="" /><glyph d="M78 422 14 422Q14 549 79 614.5Q144 680 270 680H345V244Q345 148 384 98.5Q423 49 500 49Q577 49 616 98Q655 147 655 244V680H723V244Q723 120 666 55Q609 -10 500 -10Q391 -10 334 55Q277 120 277 244V621H270Q172 621 125 572Q78 523 78 422ZM500 829Q537 829 555.5 851.5Q574 874 578 924H629Q624 852 591 815Q558 778 500 778Q442 778 409 815Q376 852 371 924H422Q426 875 445 852Q464 829 500 829Z" glyph-name="Ubreve.alt" horiz-adv-x="825" unicode="" /><glyph d="M78 422 14 422Q14 549 79 614.5Q144 680 270 680H345V244Q345 148 384 98.5Q423 49 500 49Q577 49 616 98Q655 147 655 244V680H723V244Q723 120 666 55Q609 -10 500 -10Q391 -10 334 55Q277 120 277 244V621H270Q172 621 125 572Q78 523 78 422ZM550 909 461 772H410L496 938ZM680 909 591 772H540L626 938Z" glyph-name="Uhungarumlaut.alt" horiz-adv-x="825" unicode="" /><glyph d="M78 422 14 422Q14 549 79 614.5Q144 680 270 680H345V244Q345 148 384 98.5Q423 49 500 49Q577 49 616 98Q655 147 655 244V680H723V244Q723 120 666 55Q609 -10 500 -10Q391 -10 334 55Q277 120 277 244V621H270Q172 621 125 572Q78 523 78 422ZM363 852 637 852V802H363Z" glyph-name="Umacron.alt" horiz-adv-x="825" unicode="" /><glyph d="M78 422 14 422Q14 549 79 614.5Q144 680 270 680H345V244Q345 148 384 98.5Q423 49 500 49Q577 49 616 98Q655 147 655 244V680H723V244Q723 176 706 126.5Q689 77 653 42Q585 -25 555 -65.5Q525 -106 525 -134Q525 -152 535.5 -161Q546 -170 567 -170Q579 -170 593.5 -166.5Q608 -163 624 -157L638 -206Q618 -215 599 -219Q580 -223 561 -223Q517 -223 492 -201Q467 -179 467 -140Q467 -110 483.5 -78.5Q500 -47 536 -8Q523 -9 515 -9.5Q507 -10 500 -10Q391 -10 334 55Q277 120 277 244V621H270Q172 621 125 572Q78 523 78 422Z" glyph-name="Uogonek.alt" horiz-adv-x="825" unicode="" /><glyph d="M78 422 14 422Q14 549 79 614.5Q144 680 270 680H345V244Q345 148 384 98.5Q423 49 500 49Q577 49 616 98Q655 147 655 244V680H723V244Q723 120 666 55Q609 -10 500 -10Q391 -10 334 55Q277 120 277 244V621H270Q172 621 125 572Q78 523 78 422ZM500 976Q550 976 580 947.5Q610 919 610 872V861Q610 814 580 785Q550 756 500 756Q450 756 420 785Q390 814 390 861V872Q390 919 420 947.5Q450 976 500 976ZM558 861 558 872Q558 898 542 913.5Q526 929 500 929Q474 929 458 913.5Q442 898 442 872V861Q442 835 458 819.5Q474 804 500 804Q526 804 542 819.5Q558 835 558 861Z" glyph-name="Uring.alt" horiz-adv-x="825" unicode="" /><glyph d="M78 422 14 422Q14 549 79 614.5Q144 680 270 680H345V244Q345 148 384 98.5Q423 49 500 49Q577 49 616 98Q655 147 655 244V680H723V244Q723 120 666 55Q609 -10 500 -10Q391 -10 334 55Q277 120 277 244V621H270Q172 621 125 572Q78 523 78 422ZM561 781Q540 781 522 792Q504 803 480 836Q464 858 455.5 864.5Q447 871 438 871Q424 871 416.5 852Q409 833 409 796H358Q359 859 379.5 891Q400 923 439 923Q460 923 478 912Q496 901 520 868Q536 846 544.5 839.5Q553 833 562 833Q576 833 583.5 852Q591 871 591 908H642Q641 845 620.5 813Q600 781 561 781Z" glyph-name="Utilde.alt" horiz-adv-x="825" unicode="" /><glyph d="M332 680 396 380L451 95L622 680H685L857 93L912 380L951 567Q988 744 1061.5 823.5Q1135 903 1274 903V841Q1162 841 1100 763Q1038 685 1001 513L890 0H824L653 587L480 0H413L280 621H270Q172 621 125 572Q78 523 78 422H14Q14 549 79 614.5Q144 680 270 680ZM772 909 678 772H627L713 938Z" glyph-name="Wacute.alt" horiz-adv-x="1080" unicode="" /><glyph d="M332 680 396 380L451 95L622 680H685L857 93L912 380L951 567Q988 744 1061.5 823.5Q1135 903 1274 903V841Q1162 841 1100 763Q1038 685 1001 513L890 0H824L653 587L480 0H413L280 621H270Q172 621 125 572Q78 523 78 422H14Q14 549 79 614.5Q144 680 270 680ZM775 772 722 772L651 878L579 772H530L621 933H684Z" glyph-name="Wcircumflex.alt" horiz-adv-x="1080" unicode="" /><glyph d="M332 680 396 380L451 95L622 680H685L857 93L912 380L951 567Q988 744 1061.5 823.5Q1135 903 1274 903V841Q1162 841 1100 763Q1038 685 1001 513L890 0H824L653 587L480 0H413L280 621H270Q172 621 125 572Q78 523 78 422H14Q14 549 79 614.5Q144 680 270 680ZM593 891 593 820H522V891ZM782 891 782 820H711V891Z" glyph-name="Wdieresis.alt" horiz-adv-x="1080" unicode="" /><glyph d="M332 680 396 380L451 95L622 680H685L857 93L912 380L951 567Q988 744 1061.5 823.5Q1135 903 1274 903V841Q1162 841 1100 763Q1038 685 1001 513L890 0H824L653 587L480 0H413L280 621H270Q172 621 125 572Q78 523 78 422H14Q14 549 79 614.5Q144 680 270 680ZM677 772 626 772L532 909L591 938Z" glyph-name="Wgrave.alt" horiz-adv-x="1080" unicode="" /><glyph d="M78 422 14 422Q14 549 79 614.5Q144 680 270 680H310L483 337L653 680H720L513 270V0H448V270L270 621Q172 621 125 572Q78 523 78 422ZM600 909 506 772H455L541 938Z" glyph-name="Yacute.alt" horiz-adv-x="736" unicode="" /><glyph d="M78 422 14 422Q14 549 79 614.5Q144 680 270 680H310L483 337L653 680H720L513 270V0H448V270L270 621Q172 621 125 572Q78 523 78 422ZM421 891 421 820H350V891ZM610 891 610 820H539V891Z" glyph-name="Ydieresis.alt" horiz-adv-x="736" unicode="" /><glyph d="M78 422 14 422Q14 549 79 614.5Q144 680 270 680H310L483 337L653 680H720L513 270V0H448V270L270 621Q172 621 125 572Q78 523 78 422ZM603 772 550 772L479 878L407 772H358L449 933H512Z" glyph-name="Ycircumflex.alt" horiz-adv-x="736" unicode="" /><glyph d="M78 422 14 422Q14 549 79 614.5Q144 680 270 680H310L483 337L653 680H720L513 270V0H448V270L270 621Q172 621 125 572Q78 523 78 422ZM505 772 454 772L360 909L419 938Z" glyph-name="Ygrave.alt" horiz-adv-x="736" unicode="" /></font>
</defs>
</svg>
