<?xml version="1.0" standalone="no"?>
<!DOCTYPE svg
  PUBLIC '-//W3C//DTD SVG 1.1//EN'
  'http://www.w3.org/Graphics/SVG/1.1/DTD/svg11.dtd'><svg version="1.1" xmlns="http://www.w3.org/2000/svg"><defs><font horiz-adv-x="0" id="font"><font-face ascent="650" bbox="-268 -256 1406 978" cap-height="680" descent="-200" font-family="Inria Sans" font-stretch="normal" font-style="normal" font-weight="680" units-per-em="1000" x-height="507" /><missing-glyph d="M497 0 49 0L169 680H617ZM269 565 189 115H397L477 565Z" horiz-adv-x="636" /><glyph d="" glyph-name=".null" horiz-adv-x="0" unicode="" /><glyph d="" glyph-name="CR" horiz-adv-x="0" unicode="" /><glyph d="" glyph-name="space" horiz-adv-x="200" unicode=" " /><glyph d="" glyph-name="uni00A0" horiz-adv-x="200" unicode=" " /><glyph d="M536 0 416 0L397 133H164L99 0H-25L322 680H428ZM348 513 266 341L218 243H382L368 341Z" glyph-name="A" horiz-adv-x="601" unicode="A" /><glyph d="M294 0 49 0L169 680H366Q464 680 513.5 629Q563 578 548 492L543 462Q537 424 517 395Q497 366 464 348Q502 325 518 287.5Q534 250 526 202L521 172Q506 80 452 40Q398 0 294 0ZM357 570 270 570L240 400H327Q366 400 390 415.5Q414 431 419 459L425 492Q432 528 414 549Q396 570 357 570ZM332 290 220 290L188 110H300Q341 110 367 127Q393 144 398 174L404 207Q411 246 392 268Q373 290 332 290Z" glyph-name="B" horiz-adv-x="586" unicode="B" /><glyph d="M212 402 192 280Q178 196 205.5 149.5Q233 103 298 103Q329 103 364.5 109Q400 115 442 128L467 23Q419 7 373 -1.5Q327 -10 286 -10Q167 -10 107.5 71Q48 152 69 280L89 402Q113 548 185 619Q257 690 380 690Q424 690 466 680Q508 670 552 648L507 542Q462 562 432.5 569.5Q403 577 372 577Q308 577 267 532Q226 487 212 402Z" glyph-name="C" horiz-adv-x="538" unicode="C" /><glyph d="M290 0 49 0L169 680H379Q498 680 559.5 602Q621 524 600 402L578 279Q554 141 481 70.5Q408 0 290 0ZM371 565 269 565L189 115H296Q361 115 400.5 156Q440 197 455 279L477 402Q491 480 463.5 522.5Q436 565 371 565Z" glyph-name="D" horiz-adv-x="639" unicode="D" /><glyph d="M189 115 463 115L443 0H49L169 680H553L533 565H269L240 402H474L454 287H220Z" glyph-name="E" horiz-adv-x="536" unicode="E" /><glyph d="M463 376 443 261H215L169 0H49L169 680H547L527 565H269L235 376Z" glyph-name="F" horiz-adv-x="505" unicode="F" /><glyph d="M565 374 507 43Q456 17 401.5 3.5Q347 -10 298 -10Q174 -10 111.5 71Q49 152 70 280L90 402Q114 547 190 618.5Q266 690 396 690Q444 690 490.5 679.5Q537 669 585 648L540 543Q495 561 459.5 569Q424 577 391 577Q319 577 273 531.5Q227 486 213 402L193 280Q179 195 209.5 149Q240 103 312 103Q334 103 358 107.5Q382 112 412 121L438 269H327L346 374Z" glyph-name="G" horiz-adv-x="603" unicode="G" /><glyph d="M543 0 423 0L474 287H220L169 0H49L169 680H289L240 402H494L543 680H663Z" glyph-name="H" horiz-adv-x="682" unicode="H" /><glyph d="M289 680 169 0H49L169 680Z" glyph-name="I" horiz-adv-x="308" unicode="I" /><glyph d="M-21 -10 0 105Q93 105 128.5 134Q164 163 178 244L255 680H375L298 244Q272 95 202.5 42.5Q133 -10 -21 -10Z" glyph-name="J" horiz-adv-x="376" unicode="J" /><glyph d="M553 0 416 0L297 303Q286 293 273.5 281Q261 269 208 222L169 0H49L169 680H289L234 367Q320 449 386.5 525.5Q453 602 505 680H643Q586 598 523.5 523Q461 448 392 379Z" glyph-name="K" horiz-adv-x="614" unicode="K" /><glyph d="M189 115 461 115L441 0H49L169 680H289Z" glyph-name="L" horiz-adv-x="507" unicode="L" /><glyph d="M169 680 295 680L403 212L677 680H810L690 0H575L621 260L677 492L435 80H328L237 498L210 260L164 0H49Z" glyph-name="M" horiz-adv-x="829" unicode="M" /><glyph d="M164 0 49 0L169 680H279Q345 547 390 439.5Q435 332 477 209L503 420L549 680H664L544 0H434Q394 133 347.5 254.5Q301 376 244 501L210 260Z" glyph-name="N" horiz-adv-x="683" unicode="N" /><glyph d="M380 690Q500 690 562 609Q624 528 601 402L579 279Q553 135 480.5 62.5Q408 -10 291 -10Q170 -10 108 70.5Q46 151 69 279L91 402Q116 544 189.5 617Q263 690 380 690ZM456 279 478 402Q493 485 465.5 531Q438 577 372 577Q309 577 269 532.5Q229 488 214 402L192 279Q177 194 204 148.5Q231 103 297 103Q361 103 400.5 146.5Q440 190 456 279Z" glyph-name="O" horiz-adv-x="640" unicode="O" /><glyph d="M169 0 49 0L169 680H380Q484 680 534.5 623.5Q585 567 570 470L561 414Q547 324 487 277Q427 230 327 230H210ZM373 565 269 565L230 345H334Q378 345 405.5 364.5Q433 384 439 419L448 472Q456 516 436 540.5Q416 565 373 565Z" glyph-name="P" horiz-adv-x="575" unicode="P" /><glyph d="M377 1Q383 -43 408 -58Q433 -73 503 -73L481 -198Q387 -198 335.5 -157Q284 -116 268 -27L265 -9Q156 0 102 79.5Q48 159 69 279L91 402Q116 544 189.5 617Q263 690 380 690Q500 690 562 609Q624 528 601 402L579 279Q558 164 507.5 94.5Q457 25 377 1ZM456 279 478 402Q493 485 465.5 531Q438 577 372 577Q309 577 269 532.5Q229 488 214 402L192 279Q177 194 204 148.5Q231 103 297 103Q361 103 400.5 146.5Q440 190 456 279Z" glyph-name="Q" horiz-adv-x="640" unicode="Q" /><glyph d="M169 0 49 0L169 680H383Q487 680 539 623Q591 566 574 473L566 428Q556 372 524.5 331.5Q493 291 443 270Q472 203 494.5 135.5Q517 68 533 0H403Q389 63 370.5 126Q352 189 328 250H213ZM377 570 270 570L233 360H339Q382 360 409.5 379.5Q437 399 444 435L452 478Q460 521 440.5 545.5Q421 570 377 570Z" glyph-name="R" horiz-adv-x="609" unicode="R" /><glyph d="M211 101Q274 101 307.5 125Q341 149 341 194Q341 221 325.5 240Q310 259 274 275L201 308Q140 335 111.5 377Q83 419 83 481Q83 579 145.5 634.5Q208 690 322 690Q365 690 407.5 679.5Q450 669 503 646L461 543Q411 564 381.5 571.5Q352 579 322 579Q266 579 237.5 557Q209 535 209 492Q209 466 223.5 448.5Q238 431 275 414L348 381Q409 353 438 310Q467 267 467 204Q467 104 400 47Q333 -10 211 -10Q157 -10 106.5 2.5Q56 15 2 41L44 144Q96 120 133 110.5Q170 101 211 101Z" glyph-name="S" horiz-adv-x="518" unicode="S" /><glyph d="M258 565 68 565L88 680H588L568 565H378L278 0H158Z" glyph-name="T" horiz-adv-x="526" unicode="T" /><glyph d="M76 244 153 680H276L199 244Q187 174 211.5 138.5Q236 103 296 103Q357 103 394 138.5Q431 174 443 244L520 680H643L566 244Q543 114 475.5 52Q408 -10 292 -10Q173 -10 114.5 59.5Q56 129 76 244Z" glyph-name="U" horiz-adv-x="646" unicode="U" /><glyph d="M515 680 645 680L309 0H186L89 680H213L256 338L272 161L353 339Z" glyph-name="V" horiz-adv-x="584" unicode="V" /><glyph d="M228 680 232 411L226 159L454 680H562L606 164L691 411L791 680H916L643 0H520L478 506L257 0H134L101 680Z" glyph-name="W" horiz-adv-x="867" unicode="W" /><glyph d="M502 0 373 0L276 243L103 0H-30L230 354L101 680H230L321 450L484 680H617L367 339Z" glyph-name="X" horiz-adv-x="562" unicode="X" /><glyph d="M485 680 616 680L337 274L288 0H168L216 271L78 680H202L295 391Z" glyph-name="Y" horiz-adv-x="544" unicode="Y" /><glyph d="M163 115 448 115L428 0H-7L12 105L368 565H103L123 680H538L519 575Z" glyph-name="Z" horiz-adv-x="509" unicode="Z" /><glyph d="M92 0 -44 0L406 680H860L840 565H576L547 402H781L761 287H527L496 115H770L750 0H356L379 133H178ZM454 558 250 243H399Z" glyph-name="AE" horiz-adv-x="843" unicode="Æ" /><glyph d="M69 278 91 401Q115 539 188 609.5Q261 680 379 680H884L864 565H600L571 402H805L785 287H551L520 115H794L774 0H290Q171 0 109.5 78Q48 156 69 278ZM298 115 400 115L480 565H373Q308 565 268.5 524Q229 483 214 401L192 278Q178 200 205.5 157.5Q233 115 298 115Z" glyph-name="OE" horiz-adv-x="867" unicode="Œ" /><glyph d="M199 115 471 115L451 0H59L105 259L17 222L37 346L127 384L179 680H299L256 438L385 492L365 368L234 313Z" glyph-name="Lslash" horiz-adv-x="517" unicode="Ł" /><glyph d="M291 -10Q254 -10 221 -2Q188 6 162 22L125 -30H16L98 85Q74 123 66.5 172.5Q59 222 69 279L91 402Q116 544 189.5 617Q263 690 380 690Q416 690 449 681.5Q482 673 509 657L547 710H656L572 593Q596 555 603.5 506Q611 457 601 402L579 279Q553 135 480.5 62.5Q408 -10 291 -10ZM214 402 192 279Q189 262 187.5 244Q186 226 187 209L439 559Q426 568 409 572.5Q392 577 372 577Q309 577 269 532.5Q229 488 214 402ZM456 279 478 402Q481 421 482.5 438Q484 455 483 469L232 119Q245 111 261.5 107Q278 103 297 103Q361 103 400.5 146.5Q440 190 456 279Z" glyph-name="Oslash" horiz-adv-x="641" unicode="Ø" /><glyph d="M27 290 46 399H128L178 680H388Q507 680 568.5 602Q630 524 609 402L587 279Q563 141 490 70.5Q417 0 299 0H58L109 290ZM368 399 349 290H229L198 115H305Q370 115 409.5 156Q449 197 464 279L486 402Q500 480 472.5 522.5Q445 565 380 565H278L248 399Z" glyph-name="Eth" horiz-adv-x="648" unicode="Ð" /><glyph d="M307 118 190 118L169 0H49L169 680H289L269 568H360Q464 568 514.5 511.5Q565 455 550 358L541 302Q527 212 467 165Q407 118 307 118ZM353 453 249 453L210 233H314Q358 233 385.5 252.5Q413 272 419 307L428 360Q436 404 416 428.5Q396 453 353 453Z" glyph-name="Thorn" horiz-adv-x="575" unicode="Þ" /><glyph d="M558 165 555 151Q537 68 487.5 29Q438 -10 352 -10Q314 -10 277 -1.5Q240 7 206 24L244 127Q269 114 297 107.5Q325 101 354 101Q389 101 410 117.5Q431 134 436 166L439 180Q445 215 433.5 235Q422 255 386 272L302 311L316 394L440 562Q421 571 401 575Q381 579 358 579Q303 579 272 549Q241 519 230 457L149 0H29L110 457Q131 576 191 633Q251 690 358 690Q417 690 470 672Q523 654 566 620L552 537L434 379L444 374Q520 339 547 288.5Q574 238 558 165Z" glyph-name="uni1E9E" horiz-adv-x="611" unicode="ẞ" /><glyph d="M484 -5 465 -5Q416 -5 387 15.5Q358 36 349 76Q304 33 261 11.5Q218 -10 176 -10Q103 -10 68.5 58.5Q34 127 51 236L58 280Q77 399 136 458Q195 517 295 517Q351 517 407 500.5Q463 484 511 452L457 143Q454 123 463 112Q472 101 491 101H503ZM176 280 169 236Q158 168 170 132.5Q182 97 215 97Q245 97 279.5 121Q314 145 351 192L386 394Q365 404 345.5 409Q326 414 305 414Q252 414 219 380Q186 346 176 280Z" glyph-name="a" horiz-adv-x="558" unicode="a" /><glyph d="M508 271 501 227Q482 108 422 49Q362 -10 260 -10Q209 -10 156 6Q103 22 40 58L160 740H275L221 431Q264 475 303.5 496Q343 517 382 517Q456 517 491 448.5Q526 380 508 271ZM340 410Q311 410 276.5 383Q242 356 198 301L166 115Q188 104 208.5 98.5Q229 93 250 93Q305 93 338.5 127Q372 161 383 227L390 271Q401 340 388.5 375Q376 410 340 410Z" glyph-name="b" horiz-adv-x="560" unicode="b" /><glyph d="M293 411Q245 411 213.5 380.5Q182 350 172 294L161 234Q148 165 170.5 130.5Q193 96 251 96Q276 96 303 101.5Q330 107 366 120L383 21Q339 5 304.5 -2.5Q270 -10 237 -10Q130 -10 80 58Q30 126 50 242L59 294Q78 401 138.5 459Q199 517 292 517Q327 517 363.5 508.5Q400 500 441 483L403 384Q372 397 344 404Q316 411 293 411Z" glyph-name="c" horiz-adv-x="450" unicode="c" /><glyph d="M440 0 331 0L346 85Q301 37 260 13.5Q219 -10 177 -10Q103 -10 68 58.5Q33 127 51 236L58 280Q77 399 137 458Q197 517 299 517Q327 517 354.5 511Q382 505 412 493L455 740H570ZM176 280 169 236Q158 167 170.5 132Q183 97 219 97Q247 97 282 124Q317 151 362 207L394 392Q372 403 351.5 408.5Q331 414 309 414Q254 414 220.5 380Q187 346 176 280Z" glyph-name="d" horiz-adv-x="564" unicode="d" /><glyph d="M408 122 424 24Q378 6 336.5 -2Q295 -10 250 -10Q136 -10 82 57.5Q28 125 48 242L57 294Q75 397 138.5 457Q202 517 294 517Q380 517 431 472Q482 427 482 346Q482 314 472 281.5Q462 249 443 218H154Q146 155 173.5 124.5Q201 94 265 94Q294 94 331.5 101Q369 108 408 122ZM372 346Q372 380 350.5 398.5Q329 417 290 417Q244 417 213.5 389Q183 361 170 306H365Q369 317 370.5 326.5Q372 336 372 346Z" glyph-name="e" horiz-adv-x="522" unicode="e" /><glyph d="M416 507 399 407H241L169 0H54L126 407H44L61 507H144L153 560Q170 657 222 703.5Q274 750 363 750Q396 750 428 743.5Q460 737 490 724L448 626Q426 634 405 638Q384 642 366 642Q322 642 299 622.5Q276 603 268 560L258 507Z" glyph-name="f" horiz-adv-x="373" unicode="f" /><glyph d="M519 452 441 0Q420 -122 365 -172.5Q310 -223 207 -223Q168 -223 124.5 -215.5Q81 -208 36 -193L61 -95Q97 -107 133.5 -114Q170 -121 201 -121Q257 -121 285.5 -95Q314 -69 326 0L338 69Q295 29 255 9.5Q215 -10 177 -10Q103 -10 68.5 58Q34 126 51 236L58 280Q77 399 137 458Q197 517 299 517Q356 517 413 500Q470 483 519 452ZM176 280 169 236Q158 167 170.5 132Q183 97 219 97Q250 97 285.5 121.5Q321 146 359 193L394 393Q371 404 351 409Q331 414 309 414Q254 414 220 380Q186 346 176 280Z" glyph-name="g" horiz-adv-x="561" unicode="g" /><glyph d="M361 410Q330 410 291.5 386.5Q253 363 204 314L149 0H34L164 740H279L224 428Q271 473 313.5 495Q356 517 400 517Q472 517 505.5 465Q539 413 524 328L466 0H351L408 326Q416 367 404 388.5Q392 410 361 410Z" glyph-name="h" horiz-adv-x="584" unicode="h" /><glyph d="M279 722 258 603H137L158 722ZM238 507 149 0H34L123 507Z" glyph-name="i" horiz-adv-x="273" unicode="i" /><glyph d="M279 722 258 603H137L158 722ZM-109 -223 -90 -115Q-36 -115 -6.5 -88.5Q23 -62 33 -4L123 507H238L148 -4Q126 -128 67 -175.5Q8 -223 -109 -223Z" glyph-name="j" horiz-adv-x="273" unicode="j" /><glyph d="M476 0 342 0L251 214Q235 200 217 185Q199 170 176 153L149 0H34L164 740H279L199 285Q267 344 316 396Q365 448 408 507H545Q507 454 460 401Q413 348 347 283Z" glyph-name="k" horiz-adv-x="532" unicode="k" /><glyph d="M57 148 161 740H276L171 143Q168 123 177 112Q186 101 205 101H217L198 -5H179Q106 -5 75 34.5Q44 74 57 148Z" glyph-name="l" horiz-adv-x="276" unicode="l" /><glyph d="M356 410Q327 410 290.5 387Q254 364 205 315L149 0H34L123 507H232L217 421Q265 470 308 493.5Q351 517 395 517Q444 517 475 491Q506 465 515 417Q565 468 610.5 492.5Q656 517 702 517Q772 517 804 465Q836 413 821 328L763 0H648L705 326Q712 367 701.5 388.5Q691 410 663 410Q634 410 597.5 387Q561 364 512 315L456 0H341L398 326Q405 367 394.5 388.5Q384 410 356 410Z" glyph-name="m" horiz-adv-x="881" unicode="m" /><glyph d="M361 410Q330 410 291.5 386.5Q253 363 204 314L149 0H34L123 507H232L217 421Q265 470 309.5 493.5Q354 517 400 517Q472 517 505.5 465Q539 413 524 328L466 0H351L408 326Q416 367 404 388.5Q392 410 361 410Z" glyph-name="n" horiz-adv-x="584" unicode="n" /><glyph d="M297 517Q403 517 458 447Q513 377 496 266L488 214Q472 107 409 48.5Q346 -10 247 -10Q141 -10 86 60.5Q31 131 49 242L57 294Q74 401 136 459Q198 517 297 517ZM370 214 379 271Q390 337 367 375.5Q344 414 293 414Q246 414 215 382.5Q184 351 175 294L166 237Q155 171 178.5 132Q202 93 252 93Q298 93 329.5 125Q361 157 370 214Z" glyph-name="o" horiz-adv-x="545" unicode="o" /><glyph d="M264 -10Q235 -10 207 -4Q179 2 151 14L111 -213H-4L123 507H232L217 422Q262 470 303 493.5Q344 517 386 517Q460 517 495 448.5Q530 380 512 271L505 227Q486 108 426 49Q366 -10 264 -10ZM344 410Q316 410 281 383Q246 356 201 300L169 115Q192 104 213 98.5Q234 93 254 93Q309 93 342.5 127Q376 161 387 227L394 271Q405 340 392.5 375Q380 410 344 410Z" glyph-name="p" horiz-adv-x="564" unicode="p" /><glyph d="M299 517Q350 517 403 501Q456 485 519 449L402 -213H287L338 76Q295 32 255.5 11Q216 -10 177 -10Q103 -10 68 58.5Q33 127 51 236L58 280Q77 399 137 458Q197 517 299 517ZM176 280 169 236Q158 167 170.5 132Q183 97 219 97Q248 97 282.5 123.5Q317 150 360 205L393 392Q371 403 350.5 408.5Q330 414 309 414Q254 414 220.5 380Q187 346 176 280Z" glyph-name="q" horiz-adv-x="561" unicode="q" /><glyph d="M411 517 391 402Q336 402 292 381Q248 360 205 317L149 0H34L123 507H232L217 420Q266 469 313.5 493Q361 517 411 517Z" glyph-name="r" horiz-adv-x="387" unicode="r" /><glyph d="M201 91Q244 91 265.5 103.5Q287 116 287 141Q287 160 273.5 173Q260 186 228 197L173 216Q119 235 92 270.5Q65 306 65 360Q65 434 115 475.5Q165 517 257 517Q298 517 338 508.5Q378 500 422 481L385 383Q349 400 316.5 408Q284 416 254 416Q217 416 198.5 404.5Q180 393 180 369Q180 351 192 339.5Q204 328 231 318L286 299Q344 279 372.5 243Q401 207 401 153Q401 76 347.5 33Q294 -10 195 -10Q148 -10 104 -0.5Q60 9 14 30L50 128Q92 109 128.5 100Q165 91 201 91Z" glyph-name="s" horiz-adv-x="461" unicode="s" /><glyph d="M327 112 344 11Q320 1 287 -4.5Q254 -10 222 -10Q139 -10 102.5 37.5Q66 85 81 169L123 407H41L58 507H141L164 639H279L256 507H413L396 407H238L196 169Q190 131 202 114.5Q214 98 248 98Q267 98 287.5 101.5Q308 105 327 112Z" glyph-name="t" horiz-adv-x="400" unicode="t" /><glyph d="M446 0 337 0L352 86Q304 37 261.5 13.5Q219 -10 176 -10Q107 -10 75 42Q43 94 59 179L117 507H232L175 181Q168 140 178 118.5Q188 97 215 97Q243 97 279.5 120.5Q316 144 365 193L420 507H535Z" glyph-name="u" horiz-adv-x="570" unicode="u" /><glyph d="M410 507 526 507L257 0H152L61 507H171L214 254L229 142L283 254Z" glyph-name="v" horiz-adv-x="499" unicode="v" /><glyph d="M637 507 754 507L535 0H410L394 381L237 0H112L71 507H183L197 306L198 115L355 507H471L491 126L554 305Z" glyph-name="w" horiz-adv-x="737" unicode="w" /><glyph d="M420 0 303 0L229 167L100 0H-26L184 262L74 507H191L259 354L377 507H503L304 259Z" glyph-name="x" horiz-adv-x="484" unicode="x" /><glyph d="M257 0 230 -50Q180 -143 121.5 -183Q63 -223 -24 -223L-4 -108Q55 -103 82.5 -86.5Q110 -70 135 -25L151 5L61 507H175L218 254L233 149L284 254L411 507H526Z" glyph-name="y" horiz-adv-x="499" unicode="y" /><glyph d="M151 100 370 100L352 0H-10L6 90L271 407H72L89 507H431L416 417Z" glyph-name="z" horiz-adv-x="432" unicode="z" /><glyph d="M684 122 700 24Q655 7 614 -1.5Q573 -10 530 -10Q460 -10 411 15Q362 40 339 88Q290 37 244.5 13.5Q199 -10 149 -10Q86 -10 52 24.5Q18 59 18 122Q18 202 65.5 246Q113 290 203 290Q231 290 264.5 287Q298 284 331 279L339 322Q347 365 323.5 388Q300 411 249 411Q222 411 189 405Q156 399 122 388L95 486Q141 502 181.5 509.5Q222 517 258 517Q317 517 355 496.5Q393 476 411 436Q441 476 483 496.5Q525 517 576 517Q655 517 706.5 471Q758 425 758 346Q758 314 748 281.5Q738 249 719 218H430Q422 155 449.5 124.5Q477 94 541 94Q570 94 607.5 101Q645 108 684 122ZM645 346Q645 380 624 398.5Q603 417 566 417Q520 417 489.5 389Q459 361 446 306H638Q642 317 643.5 326.5Q645 336 645 346ZM206 206Q170 206 151 187Q132 168 132 134Q132 110 143 98Q154 86 175 86Q210 86 245 106Q280 126 319 168V196Q291 201 261 203.5Q231 206 206 206Z" glyph-name="ae" horiz-adv-x="798" unicode="æ" /><glyph d="M734 122 750 24Q705 7 664.5 -1.5Q624 -10 585 -10Q525 -10 482 11Q439 32 415 73Q384 32 341 11Q298 -10 244 -10Q141 -10 86.5 60.5Q32 131 49 242L57 294Q73 401 134.5 459Q196 517 292 517Q347 517 389 494Q431 471 454 428Q485 472 528.5 494.5Q572 517 625 517Q704 517 756 471Q808 425 808 346Q808 314 798 281.5Q788 249 769 218H480Q472 155 499.5 124.5Q527 94 591 94Q620 94 657.5 101Q695 108 734 122ZM695 346Q695 380 674 398.5Q653 417 616 417Q570 417 539.5 389Q509 361 496 306H688Q692 317 693.5 326.5Q695 336 695 346ZM370 214 379 271Q390 337 367 375.5Q344 414 293 414Q246 414 215 382.5Q184 351 175 294L166 237Q155 171 178.5 132Q202 93 252 93Q298 93 329.5 125Q361 157 370 214Z" glyph-name="oe" horiz-adv-x="848" unicode="œ" /><glyph d="M234 101 246 101L227 -5H208Q135 -5 104 34.5Q73 74 86 148L111 293L22 250L42 363L131 405L190 740H305L257 465L349 509L329 396L237 352L200 143Q197 123 206 112Q215 101 234 101Z" glyph-name="lslash" horiz-adv-x="329" unicode="ł" /><glyph d="M247 -10Q216 -10 189 -3.5Q162 3 139 16L104 -30H1L79 71Q57 104 49.5 148Q42 192 49 242L57 294Q74 401 136 459Q198 517 297 517Q328 517 355.5 510.5Q383 504 406 491L442 537H545L466 436Q488 403 495.5 359.5Q503 316 496 266L488 214Q472 107 409 48.5Q346 -10 247 -10ZM175 294 166 237Q164 220 163.5 206Q163 192 164 179L338 404Q328 409 316.5 411.5Q305 414 293 414Q246 414 215 382.5Q184 351 175 294ZM370 214 379 271Q381 286 382 300Q383 314 382 327L208 104Q217 99 228.5 96Q240 93 252 93Q298 93 329.5 125Q361 157 370 214Z" glyph-name="oslash" horiz-adv-x="545" unicode="ø" /><glyph d="M493 284 486 244Q465 121 397 55.5Q329 -10 222 -10Q124 -10 72.5 55.5Q21 121 39 226L44 256Q58 339 111.5 387.5Q165 436 240 436Q286 436 323.5 414Q361 392 383 351Q385 405 371.5 453Q358 501 331 543L177 458L194 559L278 605Q263 620 244 635Q225 650 202 665L261 750Q295 727 323 704Q351 681 373 657L542 750L525 649L424 594Q471 524 489 443.5Q507 363 493 284ZM158 239 153 209Q144 157 166 125Q188 93 233 93Q281 93 314.5 129Q348 165 365 234Q347 279 316.5 304Q286 329 250 329Q216 329 190.5 304.5Q165 280 158 239Z" glyph-name="eth" horiz-adv-x="536" unicode="ð" /><glyph d="M264 -10Q235 -10 207 -4Q179 2 151 14L111 -213H-4L164 740H279L224 430Q268 474 307.5 495.5Q347 517 386 517Q460 517 495 448.5Q530 380 512 271L505 227Q486 108 426 49Q366 -10 264 -10ZM344 410Q316 410 281 383Q246 356 201 300L169 115Q191 104 211.5 98.5Q232 93 254 93Q309 93 342.5 127Q376 161 387 227L394 271Q405 340 392.5 375Q380 410 344 410Z" glyph-name="thorn" horiz-adv-x="564" unicode="þ" /><glyph d="M588 161Q588 83 537.5 36.5Q487 -10 397 -10Q360 -10 322 -2Q284 6 251 22L281 120Q312 105 342.5 97Q373 89 398 89Q432 89 452.5 106.5Q473 124 473 150Q473 167 464 183.5Q455 200 438 216L404 248Q371 279 356.5 307.5Q342 336 342 367Q342 394 352.5 422.5Q363 451 396 501Q421 540 428.5 558.5Q436 577 436 592Q436 617 417.5 629.5Q399 642 364 642Q321 642 298.5 622Q276 602 268 560L169 0H54L126 407H44L61 507H144L153 560Q170 657 223.5 703.5Q277 750 369 750Q453 750 502.5 712Q552 674 552 606Q552 575 540 543Q528 511 493 460Q471 428 464.5 414Q458 400 458 389Q458 373 467 358Q476 343 499 321L533 288Q561 261 574.5 229.5Q588 198 588 161Z" glyph-name="germandbls" horiz-adv-x="634" unicode="ß" /><glyph d="M238 507 149 0H34L123 507Z" glyph-name="dotlessi" horiz-adv-x="273" unicode="ı" /><glyph d="M-109 -223 -90 -115Q-36 -115 -6.5 -88.5Q23 -62 33 -4L123 507H238L148 -4Q126 -128 67 -175.5Q8 -223 -109 -223Z" glyph-name="dotlessj" horiz-adv-x="273" unicode="ȷ" /><glyph d="M380 642Q328 642 301 620Q274 598 266 550L258 507H565L476 0H361L433 407H241L169 0H54L126 407H44L61 507H143L151 550Q169 653 226 701.5Q283 750 384 750Q431 750 476 739.5Q521 729 562 708L516 612Q479 627 445.5 634.5Q412 642 380 642Z" glyph-name="fi" horiz-adv-x="600" unicode="ﬁ" /><glyph d="M476 0 361 0L433 407H241L169 0H54L126 407H44L61 507H144L153 560Q170 653 216 696.5Q262 740 343 740Q369 740 395.5 734.5Q422 729 450 717L408 619Q390 625 374 628.5Q358 632 346 632Q311 632 293 615Q275 598 268 560L259 507H450L458 550Q476 653 533 701.5Q590 750 691 750Q738 750 783 739.5Q828 729 869 708L823 612Q786 627 752.5 634.5Q719 642 687 642Q635 642 608 620Q581 598 573 550L565 507H872L783 0H668L739 407H548Z" glyph-name="ffi" horiz-adv-x="907" unicode="ﬃ" /><glyph d="M545 101 557 101L538 -5H519Q446 -5 415 34.5Q384 74 397 148L482 627Q456 635 432.5 638.5Q409 642 383 642Q329 642 301.5 620Q274 598 266 550L258 507H396L379 407H241L169 0H54L126 407H44L61 507H143L151 550Q169 652 227 701Q285 750 387 750Q443 750 498.5 736Q554 722 609 695L511 143Q507 124 516 112.5Q525 101 545 101Z" glyph-name="fl" horiz-adv-x="616" unicode="ﬂ" /><glyph d="M346 632Q311 632 293 615Q275 598 268 560L259 507H450L458 550Q476 652 534 701Q592 750 694 750Q750 750 805.5 736Q861 722 916 695L818 143Q814 124 823 112.5Q832 101 852 101H864L845 -5H826Q753 -5 722 34.5Q691 74 704 148L789 627Q763 635 739.5 638.5Q716 642 690 642Q636 642 608.5 620Q581 598 573 550L565 507H703L686 407H548L476 0H361L433 407H241L169 0H54L126 407H44L61 507H144L153 560Q170 653 216 696.5Q262 740 343 740Q369 740 395.5 734.5Q422 729 450 717L408 619Q390 625 374 628.5Q358 632 346 632Z" glyph-name="ffl" horiz-adv-x="923" unicode="ﬄ" /><glyph d="M542 -10Q459 -10 422.5 37.5Q386 85 401 169L443 407H241L169 0H54L126 407H44L61 507H143L151 550Q169 652 227 701Q285 750 387 750Q443 750 498.5 736Q554 722 609 695L576 507H733L716 407H558L516 169Q510 132 522 115Q534 98 568 98Q587 98 607.5 101.5Q628 105 647 112L664 11Q640 1 607 -4.5Q574 -10 542 -10ZM383 642Q329 642 301.5 620Q274 598 266 550L258 507H461L482 627Q456 635 432.5 638.5Q409 642 383 642Z" glyph-name="ft" horiz-adv-x="720" unicode="" /><glyph d="M346 632Q311 632 293 615Q275 598 268 560L259 507H450L458 550Q476 652 534 701Q592 750 694 750Q750 750 805.5 736Q861 722 916 695L883 507H1040L1023 407H865L823 169Q817 132 829 115Q841 98 875 98Q894 98 914.5 101.5Q935 105 954 112L971 11Q947 1 914 -4.5Q881 -10 849 -10Q766 -10 729.5 37.5Q693 85 708 169L750 407H548L476 0H361L433 407H241L169 0H54L126 407H44L61 507H144L153 560Q170 653 216 696.5Q262 740 343 740Q369 740 395.5 734.5Q422 729 450 717L408 619Q390 625 374 628.5Q358 632 346 632ZM690 642Q636 642 608.5 620Q581 598 573 550L565 507H768L789 627Q763 635 739.5 638.5Q716 642 690 642Z" glyph-name="fft" horiz-adv-x="1027" unicode="" /><glyph d="M850 271 843 227Q824 108 764 49Q704 -10 602 -10Q551 -10 498 6Q445 22 382 58L482 627Q456 635 432.5 638.5Q409 642 383 642Q329 642 301.5 620Q274 598 266 550L258 507H396L379 407H241L169 0H54L126 407H44L61 507H143L151 550Q169 652 227 701Q285 750 387 750Q443 750 498.5 736Q554 722 609 695L563 431Q606 475 645.5 496Q685 517 724 517Q798 517 833 448.5Q868 380 850 271ZM682 410Q653 410 618.5 383Q584 356 540 301L508 115Q530 104 550.5 98.5Q571 93 592 93Q647 93 680.5 127Q714 161 725 227L732 271Q743 340 730.5 375Q718 410 682 410Z" glyph-name="fb" horiz-adv-x="902" unicode="" /><glyph d="M346 632Q311 632 293 615Q275 598 268 560L259 507H450L458 550Q476 652 534 701Q592 750 694 750Q750 750 805.5 736Q861 722 916 695L870 431Q913 475 952.5 496Q992 517 1031 517Q1105 517 1140 448.5Q1175 380 1157 271L1150 227Q1131 108 1071 49Q1011 -10 909 -10Q858 -10 805 6Q752 22 689 58L789 627Q763 635 739.5 638.5Q716 642 690 642Q636 642 608.5 620Q581 598 573 550L565 507H703L686 407H548L476 0H361L433 407H241L169 0H54L126 407H44L61 507H144L153 560Q170 653 216 696.5Q262 740 343 740Q369 740 395.5 734.5Q422 729 450 717L408 619Q390 625 374 628.5Q358 632 346 632ZM989 410Q960 410 925.5 383Q891 356 847 301L815 115Q837 104 857.5 98.5Q878 93 899 93Q954 93 987.5 127Q1021 161 1032 227L1039 271Q1050 340 1037.5 375Q1025 410 989 410Z" glyph-name="ffb" horiz-adv-x="1209" unicode="" /><glyph d="M476 0 361 0L433 407H241L169 0H54L126 407H44L61 507H144L153 560Q170 653 216 696.5Q262 740 343 740Q369 740 395.5 734.5Q422 729 450 717L408 619Q390 625 374 628.5Q358 632 346 632Q311 632 293 615Q275 598 268 560L259 507H451L460 560Q477 657 529 703.5Q581 750 670 750Q703 750 735 743.5Q767 737 797 724L755 626Q733 634 712 638Q691 642 673 642Q629 642 606 622.5Q583 603 575 560L566 507H723L706 407H548Z" glyph-name="ff" horiz-adv-x="680" unicode="ﬀ" /><glyph d="M476 0 361 0L433 407H241L169 0H54L126 407H44L61 507H144L153 560Q170 653 216 696.5Q262 740 343 740Q369 740 395.5 734.5Q422 729 450 717L408 619Q390 625 374 628.5Q358 632 346 632Q311 632 293 615Q275 598 268 560L259 507H451L460 560Q477 653 523 696.5Q569 740 650 740Q676 740 702.5 734.5Q729 729 757 717L715 619Q697 625 681 628.5Q665 632 653 632Q618 632 600 615Q582 598 575 560L566 507H758L767 560Q784 657 836 703.5Q888 750 977 750Q1010 750 1042 743.5Q1074 737 1104 724L1062 626Q1040 634 1019 638Q998 642 980 642Q936 642 913 622.5Q890 603 882 560L873 507H1030L1013 407H855L783 0H668L740 407H548Z" glyph-name="fff" horiz-adv-x="987" unicode="" /><glyph d="M396 507 379 407H241L169 0H54L126 407H44L61 507H143L151 550Q169 652 227 701Q285 750 387 750Q443 750 498.5 736Q554 722 609 695L562 428Q609 473 651.5 495Q694 517 738 517Q810 517 843.5 465Q877 413 862 328L804 0H689L746 326Q754 367 742 388.5Q730 410 699 410Q668 410 629.5 386.5Q591 363 542 314L487 0H372L482 627Q456 635 432.5 638.5Q409 642 383 642Q329 642 301.5 620Q274 598 266 550L258 507Z" glyph-name="fh" horiz-adv-x="922" unicode="" /><glyph d="M476 0 361 0L433 407H241L169 0H54L126 407H44L61 507H144L153 560Q170 653 216 696.5Q262 740 343 740Q369 740 395.5 734.5Q422 729 450 717L408 619Q390 625 374 628.5Q358 632 346 632Q311 632 293 615Q275 598 268 560L259 507H450L458 550Q476 652 534 701Q592 750 694 750Q750 750 805.5 736Q861 722 916 695L869 428Q916 473 958.5 495Q1001 517 1045 517Q1117 517 1150.5 465Q1184 413 1169 328L1111 0H996L1053 326Q1061 367 1049 388.5Q1037 410 1006 410Q975 410 936.5 386.5Q898 363 849 314L794 0H679L789 627Q763 635 739.5 638.5Q716 642 690 642Q636 642 608.5 620Q581 598 573 550L565 507H703L686 407H548Z" glyph-name="ffh" horiz-adv-x="1229" unicode="" /><glyph d="M380 642Q328 642 301 620Q274 598 266 550L258 507H565L475 -4Q453 -128 394 -175.5Q335 -223 218 -223L237 -115Q291 -115 320.5 -88.5Q350 -62 360 -4L432 407H241L169 0H54L126 407H44L61 507H143L151 550Q169 653 226 701.5Q283 750 384 750Q431 750 476 739.5Q521 729 562 708L516 612Q479 627 445.5 634.5Q412 642 380 642Z" glyph-name="fj" horiz-adv-x="600" unicode="" /><glyph d="M687 642Q635 642 608 620Q581 598 573 550L565 507H872L782 -4Q760 -128 701 -175.5Q642 -223 525 -223L544 -115Q598 -115 627.5 -88.5Q657 -62 667 -4L739 407H548L476 0H361L433 407H241L169 0H54L126 407H44L61 507H144L153 560Q170 653 216 696.5Q262 740 343 740Q369 740 395.5 734.5Q422 729 450 717L408 619Q390 625 374 628.5Q358 632 346 632Q311 632 293 615Q275 598 268 560L259 507H450L458 550Q476 653 533 701.5Q590 750 691 750Q738 750 783 739.5Q828 729 869 708L823 612Q786 627 752.5 634.5Q719 642 687 642Z" glyph-name="ffj" horiz-adv-x="907" unicode="" /><glyph d="M396 507 379 407H241L169 0H54L126 407H44L61 507H143L151 550Q169 652 227 701Q285 750 387 750Q443 750 498.5 736Q554 722 609 695L536 285Q607 346 655.5 397.5Q704 449 745 507H882Q844 454 797 401Q750 348 684 283L813 0H679L588 214Q572 200 554 185Q536 170 513 153L486 0H371L482 627Q456 635 432.5 638.5Q409 642 383 642Q329 642 301.5 620Q274 598 266 550L258 507Z" glyph-name="fk" horiz-adv-x="869" unicode="" /><glyph d="M476 0 361 0L433 407H241L169 0H54L126 407H44L61 507H144L153 560Q170 653 216 696.5Q262 740 343 740Q369 740 395.5 734.5Q422 729 450 717L408 619Q390 625 374 628.5Q358 632 346 632Q311 632 293 615Q275 598 268 560L259 507H450L458 550Q476 652 534 701Q592 750 694 750Q750 750 805.5 736Q861 722 916 695L843 285Q914 346 962.5 397.5Q1011 449 1052 507H1189Q1151 454 1104 401Q1057 348 991 283L1120 0H986L895 214Q879 200 861 185Q843 170 820 153L793 0H678L789 627Q763 635 739.5 638.5Q716 642 690 642Q636 642 608.5 620Q581 598 573 550L565 507H703L686 407H548Z" glyph-name="ffk" horiz-adv-x="1176" unicode="" /><glyph d="M536 0 416 0L397 133H164L99 0H-25L322 680H428ZM348 513 266 341L218 243H382L368 341ZM562 872 438 752H332L457 918Z" glyph-name="Aacute" horiz-adv-x="601" unicode="Á" /><glyph d="M536 0 416 0L397 133H164L99 0H-25L322 680H428ZM348 513 266 341L218 243H382L368 341ZM537 752 449 752L402 832L327 752H233L357 913H469Z" glyph-name="Acircumflex" horiz-adv-x="601" unicode="Â" /><glyph d="M536 0 416 0L397 133H164L99 0H-25L322 680H428ZM348 513 266 341L218 243H382L368 341ZM367 889 348 782H239L258 889ZM561 889 542 782H433L452 889Z" glyph-name="Adieresis" horiz-adv-x="601" unicode="Ä" /><glyph d="M536 0 416 0L397 133H164L99 0H-25L322 680H428ZM348 513 266 341L218 243H382L368 341ZM432 752 336 752L254 872L365 918Z" glyph-name="Agrave" horiz-adv-x="601" unicode="À" /><glyph d="M397 133 164 133L99 0H-25L298 633Q275 649 266.5 675Q258 701 264 733L267 748Q277 797 311.5 825Q346 853 397 853Q453 853 483.5 818.5Q514 784 503 732L500 717Q494 687 477.5 664Q461 641 436 629L536 0H416ZM431 726 434 741Q438 762 426.5 774.5Q415 787 392 787Q371 787 356 774.5Q341 762 336 741L333 726Q329 705 339.5 692.5Q350 680 373 680Q395 680 410.5 692.5Q426 705 431 726ZM348 513 266 341L218 243H382L368 341Z" glyph-name="Aring" horiz-adv-x="601" unicode="Å" /><glyph d="M536 0 416 0L397 133H164L99 0H-25L322 680H428ZM348 513 266 341L218 243H382L368 341ZM456 761Q432 761 413.5 771Q395 781 373 809Q363 823 357.5 827Q352 831 347 831Q337 831 330.5 816.5Q324 802 317 769H236Q249 848 276 885.5Q303 923 348 923Q372 923 390 913Q408 903 429 875Q439 861 444.5 857Q450 853 455 853Q465 853 471.5 867.5Q478 882 485 915H566Q553 836 526.5 798.5Q500 761 456 761Z" glyph-name="Atilde" horiz-adv-x="601" unicode="Ã" /><glyph d="M536 0 416 0L397 133H164L99 0H-25L322 680H428ZM348 513 266 341L218 243H382L368 341ZM399 839Q421 839 434.5 854.5Q448 870 456 904H546Q528 829 491.5 793.5Q455 758 394 758Q329 758 299.5 795Q270 832 278 904H362Q357 871 366 855Q375 839 399 839Z" glyph-name="Abreve" horiz-adv-x="601" unicode="Ă" /><glyph d="M536 0 416 0L397 133H164L99 0H-25L322 680H428ZM348 513 266 341L218 243H382L368 341ZM254 865 557 865L542 782H239Z" glyph-name="Amacron" horiz-adv-x="601" unicode="Ā" /><glyph d="M498 -124 509 -207Q487 -215 465.5 -219Q444 -223 422 -223Q372 -223 345 -201.5Q318 -180 318 -141Q318 -107 342 -73.5Q366 -40 416 -1L398 133H164L99 0H-25L322 680H428L536 0Q473 -46 448.5 -70.5Q424 -95 424 -114Q424 -123 430.5 -128Q437 -133 450 -133Q460 -133 471.5 -131Q483 -129 498 -124ZM348 513 266 341L218 243H382L368 341Z" glyph-name="Aogonek" horiz-adv-x="601" unicode="Ą" /><glyph d="M346 -117Q346 -164 309 -193.5Q272 -223 211 -223Q192 -223 173.5 -220Q155 -217 126 -208L143 -139Q162 -144 180.5 -147Q199 -150 212 -150Q233 -150 245 -142.5Q257 -135 257 -123Q257 -113 248 -107.5Q239 -102 222 -102Q216 -102 210 -102.5Q204 -103 194 -105L175 -73L201 3Q123 30 87.5 104Q52 178 69 280L89 402Q113 548 185 619Q257 690 380 690Q424 690 466 680Q508 670 552 648L507 542Q462 562 432.5 569.5Q403 577 372 577Q308 577 267 532Q226 487 212 402L192 280Q178 196 205.5 149.5Q233 103 298 103Q329 103 364.5 109Q400 115 442 128L467 23Q419 7 373 -1.5Q327 -10 286 -10H274L263 -39Q301 -42 323.5 -63.5Q346 -85 346 -117Z" glyph-name="Ccedilla" horiz-adv-x="538" unicode="Ç" /><glyph d="M212 402 192 280Q178 196 205.5 149.5Q233 103 298 103Q329 103 364.5 109Q400 115 442 128L467 23Q419 7 373 -1.5Q327 -10 286 -10Q167 -10 107.5 71Q48 152 69 280L89 402Q113 548 185 619Q257 690 380 690Q424 690 466 680Q508 670 552 648L507 542Q462 562 432.5 569.5Q403 577 372 577Q308 577 267 532Q226 487 212 402ZM572 872 448 752H342L467 918Z" glyph-name="Cacute" horiz-adv-x="538" unicode="Ć" /><glyph d="M212 402 192 280Q178 196 205.5 149.5Q233 103 298 103Q329 103 364.5 109Q400 115 442 128L467 23Q419 7 373 -1.5Q327 -10 286 -10Q167 -10 107.5 71Q48 152 69 280L89 402Q113 548 185 619Q257 690 380 690Q424 690 466 680Q508 670 552 648L507 542Q462 562 432.5 569.5Q403 577 372 577Q308 577 267 532Q226 487 212 402ZM480 913 574 913L450 752H338L270 913H358L405 833Z" glyph-name="Ccaron" horiz-adv-x="538" unicode="Č" /><glyph d="M212 402 192 280Q178 196 205.5 149.5Q233 103 298 103Q329 103 364.5 109Q400 115 442 128L467 23Q419 7 373 -1.5Q327 -10 286 -10Q167 -10 107.5 71Q48 152 69 280L89 402Q113 548 185 619Q257 690 380 690Q424 690 466 680Q508 670 552 648L507 542Q462 562 432.5 569.5Q403 577 372 577Q308 577 267 532Q226 487 212 402ZM546 752 458 752L411 832L336 752H242L366 913H478Z" glyph-name="Ccircumflex" horiz-adv-x="538" unicode="Ĉ" /><glyph d="M212 402 192 280Q178 196 205.5 149.5Q233 103 298 103Q329 103 364.5 109Q400 115 442 128L467 23Q419 7 373 -1.5Q327 -10 286 -10Q167 -10 107.5 71Q48 152 69 280L89 402Q113 548 185 619Q257 690 380 690Q424 690 466 680Q508 670 552 648L507 542Q462 562 432.5 569.5Q403 577 372 577Q308 577 267 532Q226 487 212 402ZM481 895 460 776H339L360 895Z" glyph-name="Cdotaccent" horiz-adv-x="538" unicode="Ċ" /><glyph d="M290 0 49 0L169 680H379Q498 680 559.5 602Q621 524 600 402L578 279Q554 141 481 70.5Q408 0 290 0ZM371 565 269 565L189 115H296Q361 115 400.5 156Q440 197 455 279L477 402Q491 480 463.5 522.5Q436 565 371 565ZM489 913 583 913L459 752H347L279 913H367L414 833Z" glyph-name="Dcaron" horiz-adv-x="639" unicode="Ď" /><glyph d="M27 290 46 399H128L178 680H388Q507 680 568.5 602Q630 524 609 402L587 279Q563 141 490 70.5Q417 0 299 0H58L109 290ZM368 399 349 290H229L198 115H305Q370 115 409.5 156Q449 197 464 279L486 402Q500 480 472.5 522.5Q445 565 380 565H278L248 399Z" glyph-name="Dcroat" horiz-adv-x="648" unicode="Đ" /><glyph d="M189 115 463 115L443 0H49L169 680H553L533 565H269L240 402H474L454 287H220ZM548 872 424 752H318L443 918Z" glyph-name="Eacute" horiz-adv-x="536" unicode="É" /><glyph d="M189 115 463 115L443 0H49L169 680H553L533 565H269L240 402H474L454 287H220ZM522 752 434 752L387 832L312 752H218L342 913H454Z" glyph-name="Ecircumflex" horiz-adv-x="536" unicode="Ê" /><glyph d="M189 115 463 115L443 0H49L169 680H553L533 565H269L240 402H474L454 287H220ZM353 889 334 782H225L244 889ZM547 889 528 782H419L438 889Z" glyph-name="Edieresis" horiz-adv-x="536" unicode="Ë" /><glyph d="M189 115 463 115L443 0H49L169 680H553L533 565H269L240 402H474L454 287H220ZM418 752 322 752L240 872L351 918Z" glyph-name="Egrave" horiz-adv-x="536" unicode="È" /><glyph d="M189 115 463 115L443 0H49L169 680H553L533 565H269L240 402H474L454 287H220ZM385 839Q407 839 420.5 854.5Q434 870 442 904H532Q514 829 477.5 793.5Q441 758 380 758Q315 758 285.5 795Q256 832 264 904H348Q343 871 352 855Q361 839 385 839Z" glyph-name="Ebreve" horiz-adv-x="536" unicode="Ĕ" /><glyph d="M189 115 463 115L443 0H49L169 680H553L533 565H269L240 402H474L454 287H220ZM456 913 550 913L426 752H314L246 913H334L381 833Z" glyph-name="Ecaron" horiz-adv-x="536" unicode="Ě" /><glyph d="M189 115 463 115L443 0H49L169 680H553L533 565H269L240 402H474L454 287H220ZM457 895 436 776H315L336 895Z" glyph-name="Edotaccent" horiz-adv-x="536" unicode="Ė" /><glyph d="M189 115 463 115L443 0H49L169 680H553L533 565H269L240 402H474L454 287H220ZM240 865 543 865L528 782H225Z" glyph-name="Emacron" horiz-adv-x="536" unicode="Ē" /><glyph d="M405 -124 416 -207Q394 -215 372.5 -219Q351 -223 329 -223Q279 -223 252 -201.5Q225 -180 225 -141Q225 -108 251 -74.5Q277 -41 332 0H49L169 680H553L533 565H269L240 402H474L454 287H220L189 115H463L443 0Q380 -46 355.5 -70.5Q331 -95 331 -114Q331 -123 337.5 -128Q344 -133 357 -133Q367 -133 378.5 -131Q390 -129 405 -124Z" glyph-name="Eogonek" horiz-adv-x="536" unicode="Ę" /><glyph d="M565 374 507 43Q456 17 401.5 3.5Q347 -10 298 -10Q174 -10 111.5 71Q49 152 70 280L90 402Q114 547 190 618.5Q266 690 396 690Q444 690 490.5 679.5Q537 669 585 648L540 543Q495 561 459.5 569Q424 577 391 577Q319 577 273 531.5Q227 486 213 402L193 280Q179 195 209.5 149Q240 103 312 103Q334 103 358 107.5Q382 112 412 121L438 269H327L346 374ZM425 839Q447 839 460.5 854.5Q474 870 482 904H572Q554 829 517.5 793.5Q481 758 420 758Q355 758 325.5 795Q296 832 304 904H388Q383 871 392 855Q401 839 425 839Z" glyph-name="Gbreve" horiz-adv-x="603" unicode="Ğ" /><glyph d="M565 374 507 43Q456 17 401.5 3.5Q347 -10 298 -10Q174 -10 111.5 71Q49 152 70 280L90 402Q114 547 190 618.5Q266 690 396 690Q444 690 490.5 679.5Q537 669 585 648L540 543Q495 561 459.5 569Q424 577 391 577Q319 577 273 531.5Q227 486 213 402L193 280Q179 195 209.5 149Q240 103 312 103Q334 103 358 107.5Q382 112 412 121L438 269H327L346 374ZM563 752 475 752L428 832L353 752H259L383 913H495Z" glyph-name="Gcircumflex" horiz-adv-x="603" unicode="Ĝ" /><glyph d="M565 374 507 43Q456 17 401.5 3.5Q347 -10 298 -10Q174 -10 111.5 71Q49 152 70 280L90 402Q114 547 190 618.5Q266 690 396 690Q444 690 490.5 679.5Q537 669 585 648L540 543Q495 561 459.5 569Q424 577 391 577Q319 577 273 531.5Q227 486 213 402L193 280Q179 195 209.5 149Q240 103 312 103Q334 103 358 107.5Q382 112 412 121L438 269H327L346 374ZM331 -77 223 -256L149 -239L207 -77Z" glyph-name="Gcommaaccent" horiz-adv-x="603" unicode="Ģ" /><glyph d="M565 374 507 43Q456 17 401.5 3.5Q347 -10 298 -10Q174 -10 111.5 71Q49 152 70 280L90 402Q114 547 190 618.5Q266 690 396 690Q444 690 490.5 679.5Q537 669 585 648L540 543Q495 561 459.5 569Q424 577 391 577Q319 577 273 531.5Q227 486 213 402L193 280Q179 195 209.5 149Q240 103 312 103Q334 103 358 107.5Q382 112 412 121L438 269H327L346 374ZM497 895 476 776H355L376 895Z" glyph-name="Gdotaccent" horiz-adv-x="603" unicode="Ġ" /><glyph d="M483 287 229 287L178 0H58L146 501H64L80 588H162L178 680H298L282 588H536L552 680H672L656 588H738L722 501H640L552 0H432ZM266 501 249 402H503L520 501Z" glyph-name="Hbar" horiz-adv-x="700" unicode="Ħ" /><glyph d="M543 0 423 0L474 287H220L169 0H49L169 680H289L240 402H494L543 680H663ZM577 752 489 752L442 832L367 752H273L397 913H509Z" glyph-name="Hcircumflex" horiz-adv-x="682" unicode="Ĥ" /><glyph d="M289 680 169 0H49L169 680ZM416 872 292 752H186L311 918Z" glyph-name="Iacute" horiz-adv-x="308" unicode="Í" /><glyph d="M289 680 169 0H49L169 680ZM390 752 302 752L255 832L180 752H86L210 913H322Z" glyph-name="Icircumflex" horiz-adv-x="308" unicode="Î" /><glyph d="M289 680 169 0H49L169 680ZM221 889 202 782H93L112 889ZM415 889 396 782H287L306 889Z" glyph-name="Idieresis" horiz-adv-x="308" unicode="Ï" /><glyph d="M289 680 169 0H49L169 680ZM286 752 190 752L108 872L219 918Z" glyph-name="Igrave" horiz-adv-x="308" unicode="Ì" /><glyph d="M289 680 169 0H49L169 680ZM253 839Q275 839 288.5 854.5Q302 870 310 904H400Q382 829 345.5 793.5Q309 758 248 758Q183 758 153.5 795Q124 832 132 904H216Q211 871 220 855Q229 839 253 839Z" glyph-name="Ibreve" horiz-adv-x="308" unicode="Ĭ" /><glyph d="M289 680 169 0H49L169 680ZM325 895 304 776H183L204 895Z" glyph-name="Idotaccent" horiz-adv-x="308" unicode="İ" /><glyph d="M289 680 169 0H49L169 680ZM108 865 411 865L396 782H93Z" glyph-name="Imacron" horiz-adv-x="308" unicode="Ī" /><glyph d="M147 -124 158 -207Q136 -215 114.5 -219Q93 -223 71 -223Q21 -223 -6 -201.5Q-33 -180 -33 -141Q-33 -109 -13 -76Q7 -43 48 -8L169 680H289L169 0Q117 -43 95 -68.5Q73 -94 73 -114Q73 -123 79.5 -128Q86 -133 99 -133Q109 -133 120.5 -131Q132 -129 147 -124Z" glyph-name="Iogonek" horiz-adv-x="308" unicode="Į" /><glyph d="M289 680 169 0H49L169 680ZM310 761Q286 761 267.5 771Q249 781 227 809Q217 823 211.5 827Q206 831 201 831Q191 831 184.5 816.5Q178 802 171 769H90Q103 848 130 885.5Q157 923 202 923Q226 923 244 913Q262 903 283 875Q293 861 298.5 857Q304 853 309 853Q319 853 325.5 867.5Q332 882 339 915H420Q407 836 380.5 798.5Q354 761 310 761Z" glyph-name="Itilde" horiz-adv-x="308" unicode="Ĩ" /><glyph d="M-21 -10 0 105Q93 105 128.5 134Q164 163 178 244L255 680H375L298 244Q272 95 202.5 42.5Q133 -10 -21 -10ZM476 752 388 752L341 832L266 752H172L296 913H408Z" glyph-name="Jcircumflex" horiz-adv-x="376" unicode="Ĵ" /><glyph d="M289 680 169 0H49L169 680ZM287 -10 308 105Q401 105 436.5 134Q472 163 486 244L563 680H683L606 244Q580 95 510.5 42.5Q441 -10 287 -10Z" glyph-name="IJ" horiz-adv-x="684" unicode="Ĳ" /><glyph d="M553 0 416 0L297 303Q286 293 273.5 281Q261 269 208 222L169 0H49L169 680H289L234 367Q320 449 386.5 525.5Q453 602 505 680H643Q586 598 523.5 523Q461 448 392 379ZM336 -77 228 -256L154 -239L212 -77Z" glyph-name="Kcommaaccent" horiz-adv-x="614" unicode="Ķ" /><glyph d="M619 474 735 685L809 668L743 474ZM553 0 416 0L297 303Q286 293 273.5 281Q261 269 208 222L169 0H49L169 680H289L234 367Q320 449 386.5 525.5Q453 602 505 680H643Q586 598 523.5 523Q461 448 392 379Z" glyph-name="kgreenlandic.case" horiz-adv-x="726" unicode="" /><glyph d="M189 115 461 115L441 0H49L169 680H289ZM415 872 291 752H185L310 918Z" glyph-name="Lacute" horiz-adv-x="507" unicode="Ĺ" /><glyph d="M189 115 461 115L441 0H49L169 680H289ZM477 680 407 486H330L364 680Z" glyph-name="Lcaron" horiz-adv-x="507" unicode="Ľ" /><glyph d="M189 115 461 115L441 0H49L169 680H289ZM297 -77 189 -256L115 -239L173 -77Z" glyph-name="Lcommaaccent" horiz-adv-x="507" unicode="Ļ" /><glyph d="M189 115 461 115L441 0H49L169 680H289ZM501 444 480 325H359L380 444Z" glyph-name="Ldot" horiz-adv-x="507" unicode="Ŀ" /><glyph d="M164 0 49 0L169 680H279Q345 547 390 439.5Q435 332 477 209L503 420L549 680H664L544 0H434Q394 133 347.5 254.5Q301 376 244 501L210 260ZM498 761Q474 761 455.5 771Q437 781 415 809Q405 823 399.5 827Q394 831 389 831Q379 831 372.5 816.5Q366 802 359 769H278Q291 848 318 885.5Q345 923 390 923Q414 923 432 913Q450 903 471 875Q481 861 486.5 857Q492 853 497 853Q507 853 513.5 867.5Q520 882 527 915H608Q595 836 568.5 798.5Q542 761 498 761Z" glyph-name="Ntilde" horiz-adv-x="683" unicode="Ñ" /><glyph d="M164 0 49 0L169 680H279Q345 547 390 439.5Q435 332 477 209L503 420L549 680H664L544 0H434Q394 133 347.5 254.5Q301 376 244 501L210 260ZM604 872 480 752H374L499 918Z" glyph-name="Nacute" horiz-adv-x="683" unicode="Ń" /><glyph d="M164 0 49 0L169 680H279Q345 547 390 439.5Q435 332 477 209L503 420L549 680H664L544 0H434Q394 133 347.5 254.5Q301 376 244 501L210 260ZM511 913 605 913L481 752H369L301 913H389L436 833Z" glyph-name="Ncaron" horiz-adv-x="683" unicode="Ň" /><glyph d="M164 0 49 0L169 680H279Q345 547 390 439.5Q435 332 477 209L503 420L549 680H664L544 0H434Q394 133 347.5 254.5Q301 376 244 501L210 260ZM345 -77 237 -256L163 -239L221 -77Z" glyph-name="Ncommaaccent" horiz-adv-x="683" unicode="Ņ" /><glyph d="M164 0 49 0L169 680H279Q345 547 390 439.5Q435 332 477 209L503 420L549 680H664L549 31Q523 -117 453.5 -170Q384 -223 230 -223L251 -108Q340 -108 376.5 -80.5Q413 -53 427 22Q387 150 342.5 267Q298 384 244 501L210 260Z" glyph-name="Eng" horiz-adv-x="683" unicode="Ŋ" /><glyph d="M315 0 200 0L320 680H430Q496 547 541 439.5Q586 332 628 209L654 420L700 680H815L695 0H585Q545 133 498.5 254.5Q452 376 395 501L361 260ZM113 681 225 681L222 662Q208 588 175 522Q142 456 80 379L15 418Q59 491 78.5 543Q98 595 113 681Z" glyph-name="napostrophe.case" horiz-adv-x="834" unicode="" /><glyph d="M380 690Q500 690 562 609Q624 528 601 402L579 279Q553 135 480.5 62.5Q408 -10 291 -10Q170 -10 108 70.5Q46 151 69 279L91 402Q116 544 189.5 617Q263 690 380 690ZM456 279 478 402Q493 485 465.5 531Q438 577 372 577Q309 577 269 532.5Q229 488 214 402L192 279Q177 194 204 148.5Q231 103 297 103Q361 103 400.5 146.5Q440 190 456 279ZM582 872 458 752H352L477 918Z" glyph-name="Oacute" horiz-adv-x="640" unicode="Ó" /><glyph d="M380 690Q500 690 562 609Q624 528 601 402L579 279Q553 135 480.5 62.5Q408 -10 291 -10Q170 -10 108 70.5Q46 151 69 279L91 402Q116 544 189.5 617Q263 690 380 690ZM456 279 478 402Q493 485 465.5 531Q438 577 372 577Q309 577 269 532.5Q229 488 214 402L192 279Q177 194 204 148.5Q231 103 297 103Q361 103 400.5 146.5Q440 190 456 279ZM556 752 468 752L421 832L346 752H252L376 913H488Z" glyph-name="Ocircumflex" horiz-adv-x="640" unicode="Ô" /><glyph d="M380 690Q500 690 562 609Q624 528 601 402L579 279Q553 135 480.5 62.5Q408 -10 291 -10Q170 -10 108 70.5Q46 151 69 279L91 402Q116 544 189.5 617Q263 690 380 690ZM456 279 478 402Q493 485 465.5 531Q438 577 372 577Q309 577 269 532.5Q229 488 214 402L192 279Q177 194 204 148.5Q231 103 297 103Q361 103 400.5 146.5Q440 190 456 279ZM387 889 368 782H259L278 889ZM581 889 562 782H453L472 889Z" glyph-name="Odieresis" horiz-adv-x="640" unicode="Ö" /><glyph d="M380 690Q500 690 562 609Q624 528 601 402L579 279Q553 135 480.5 62.5Q408 -10 291 -10Q170 -10 108 70.5Q46 151 69 279L91 402Q116 544 189.5 617Q263 690 380 690ZM456 279 478 402Q493 485 465.5 531Q438 577 372 577Q309 577 269 532.5Q229 488 214 402L192 279Q177 194 204 148.5Q231 103 297 103Q361 103 400.5 146.5Q440 190 456 279ZM452 752 356 752L274 872L385 918Z" glyph-name="Ograve" horiz-adv-x="640" unicode="Ò" /><glyph d="M380 690Q500 690 562 609Q624 528 601 402L579 279Q553 135 480.5 62.5Q408 -10 291 -10Q170 -10 108 70.5Q46 151 69 279L91 402Q116 544 189.5 617Q263 690 380 690ZM456 279 478 402Q493 485 465.5 531Q438 577 372 577Q309 577 269 532.5Q229 488 214 402L192 279Q177 194 204 148.5Q231 103 297 103Q361 103 400.5 146.5Q440 190 456 279ZM476 761Q452 761 433.5 771Q415 781 393 809Q383 823 377.5 827Q372 831 367 831Q357 831 350.5 816.5Q344 802 337 769H256Q269 848 296 885.5Q323 923 368 923Q392 923 410 913Q428 903 449 875Q459 861 464.5 857Q470 853 475 853Q485 853 491.5 867.5Q498 882 505 915H586Q573 836 546.5 798.5Q520 761 476 761Z" glyph-name="Otilde" horiz-adv-x="640" unicode="Õ" /><glyph d="M380 690Q500 690 562 609Q624 528 601 402L579 279Q553 135 480.5 62.5Q408 -10 291 -10Q170 -10 108 70.5Q46 151 69 279L91 402Q116 544 189.5 617Q263 690 380 690ZM456 279 478 402Q493 485 465.5 531Q438 577 372 577Q309 577 269 532.5Q229 488 214 402L192 279Q177 194 204 148.5Q231 103 297 103Q361 103 400.5 146.5Q440 190 456 279ZM419 839Q441 839 454.5 854.5Q468 870 476 904H566Q548 829 511.5 793.5Q475 758 414 758Q349 758 319.5 795Q290 832 298 904H382Q377 871 386 855Q395 839 419 839Z" glyph-name="Obreve" horiz-adv-x="640" unicode="Ŏ" /><glyph d="M380 690Q500 690 562 609Q624 528 601 402L579 279Q553 135 480.5 62.5Q408 -10 291 -10Q170 -10 108 70.5Q46 151 69 279L91 402Q116 544 189.5 617Q263 690 380 690ZM456 279 478 402Q493 485 465.5 531Q438 577 372 577Q309 577 269 532.5Q229 488 214 402L192 279Q177 194 204 148.5Q231 103 297 103Q361 103 400.5 146.5Q440 190 456 279ZM472 872 378 752H282L387 918ZM622 872 528 752H432L537 918Z" glyph-name="Ohungarumlaut" horiz-adv-x="640" unicode="Ő" /><glyph d="M380 690Q500 690 562 609Q624 528 601 402L579 279Q553 135 480.5 62.5Q408 -10 291 -10Q170 -10 108 70.5Q46 151 69 279L91 402Q116 544 189.5 617Q263 690 380 690ZM456 279 478 402Q493 485 465.5 531Q438 577 372 577Q309 577 269 532.5Q229 488 214 402L192 279Q177 194 204 148.5Q231 103 297 103Q361 103 400.5 146.5Q440 190 456 279ZM274 865 577 865L562 782H259Z" glyph-name="Omacron" horiz-adv-x="640" unicode="Ō" /><glyph d="M169 0 49 0L169 680H383Q487 680 539 623Q591 566 574 473L566 428Q556 372 524.5 331.5Q493 291 443 270Q472 203 494.5 135.5Q517 68 533 0H403Q389 63 370.5 126Q352 189 328 250H213ZM377 570 270 570L233 360H339Q382 360 409.5 379.5Q437 399 444 435L452 478Q460 521 440.5 545.5Q421 570 377 570ZM567 872 443 752H337L462 918Z" glyph-name="Racute" horiz-adv-x="609" unicode="Ŕ" /><glyph d="M169 0 49 0L169 680H383Q487 680 539 623Q591 566 574 473L566 428Q556 372 524.5 331.5Q493 291 443 270Q472 203 494.5 135.5Q517 68 533 0H403Q389 63 370.5 126Q352 189 328 250H213ZM377 570 270 570L233 360H339Q382 360 409.5 379.5Q437 399 444 435L452 478Q460 521 440.5 545.5Q421 570 377 570ZM475 913 569 913L445 752H333L265 913H353L400 833Z" glyph-name="Rcaron" horiz-adv-x="609" unicode="Ř" /><glyph d="M169 0 49 0L169 680H383Q487 680 539 623Q591 566 574 473L566 428Q556 372 524.5 331.5Q493 291 443 270Q472 203 494.5 135.5Q517 68 533 0H403Q389 63 370.5 126Q352 189 328 250H213ZM377 570 270 570L233 360H339Q382 360 409.5 379.5Q437 399 444 435L452 478Q460 521 440.5 545.5Q421 570 377 570ZM333 -77 225 -256L151 -239L209 -77Z" glyph-name="Rcommaaccent" horiz-adv-x="609" unicode="Ŗ" /><glyph d="M211 101Q274 101 307.5 125Q341 149 341 194Q341 221 325.5 240Q310 259 274 275L201 308Q140 335 111.5 377Q83 419 83 481Q83 579 145.5 634.5Q208 690 322 690Q365 690 407.5 679.5Q450 669 503 646L461 543Q411 564 381.5 571.5Q352 579 322 579Q266 579 237.5 557Q209 535 209 492Q209 466 223.5 448.5Q238 431 275 414L348 381Q409 353 438 310Q467 267 467 204Q467 104 400 47Q333 -10 211 -10Q157 -10 106.5 2.5Q56 15 2 41L44 144Q96 120 133 110.5Q170 101 211 101ZM437 913 531 913L407 752H295L227 913H315L362 833Z" glyph-name="Scaron" horiz-adv-x="518" unicode="Š" /><glyph d="M211 101Q274 101 307.5 125Q341 149 341 194Q341 221 325.5 240Q310 259 274 275L201 308Q140 335 111.5 377Q83 419 83 481Q83 579 145.5 634.5Q208 690 322 690Q365 690 407.5 679.5Q450 669 503 646L461 543Q411 564 381.5 571.5Q352 579 322 579Q266 579 237.5 557Q209 535 209 492Q209 466 223.5 448.5Q238 431 275 414L348 381Q409 353 438 310Q467 267 467 204Q467 104 400 47Q333 -10 211 -10Q157 -10 106.5 2.5Q56 15 2 41L44 144Q96 120 133 110.5Q170 101 211 101ZM528 872 404 752H298L423 918Z" glyph-name="Sacute" horiz-adv-x="518" unicode="Ś" /><glyph d="M303 -117Q303 -164 266 -193.5Q229 -223 168 -223Q149 -223 130.5 -220Q112 -217 83 -208L100 -139Q119 -144 137.5 -147Q156 -150 169 -150Q190 -150 202 -142.5Q214 -135 214 -123Q214 -113 205 -107.5Q196 -102 179 -102Q173 -102 167 -102.5Q161 -103 151 -105L132 -73L155 -7Q117 -2 79.5 9.5Q42 21 2 41L44 144Q96 120 133 110.5Q170 101 211 101Q274 101 307.5 125Q341 149 341 194Q341 221 325.5 240Q310 259 274 275L201 308Q140 335 111.5 377Q83 419 83 481Q83 579 145.5 634.5Q208 690 322 690Q365 690 407.5 679.5Q450 669 503 646L461 543Q411 564 381.5 571.5Q352 579 322 579Q266 579 237.5 557Q209 535 209 492Q209 466 223.5 448.5Q238 431 275 414L348 381Q409 353 438 310Q467 267 467 204Q467 108 405.5 51.5Q344 -5 231 -10L220 -39Q258 -42 280.5 -63.5Q303 -85 303 -117Z" glyph-name="Scedilla" horiz-adv-x="518" unicode="Ş" /><glyph d="M211 101Q274 101 307.5 125Q341 149 341 194Q341 221 325.5 240Q310 259 274 275L201 308Q140 335 111.5 377Q83 419 83 481Q83 579 145.5 634.5Q208 690 322 690Q365 690 407.5 679.5Q450 669 503 646L461 543Q411 564 381.5 571.5Q352 579 322 579Q266 579 237.5 557Q209 535 209 492Q209 466 223.5 448.5Q238 431 275 414L348 381Q409 353 438 310Q467 267 467 204Q467 104 400 47Q333 -10 211 -10Q157 -10 106.5 2.5Q56 15 2 41L44 144Q96 120 133 110.5Q170 101 211 101ZM503 752 415 752L368 832L293 752H199L323 913H435Z" glyph-name="Scircumflex" horiz-adv-x="518" unicode="Ŝ" /><glyph d="M211 101Q274 101 307.5 125Q341 149 341 194Q341 221 325.5 240Q310 259 274 275L201 308Q140 335 111.5 377Q83 419 83 481Q83 579 145.5 634.5Q208 690 322 690Q365 690 407.5 679.5Q450 669 503 646L461 543Q411 564 381.5 571.5Q352 579 322 579Q266 579 237.5 557Q209 535 209 492Q209 466 223.5 448.5Q238 431 275 414L348 381Q409 353 438 310Q467 267 467 204Q467 104 400 47Q333 -10 211 -10Q157 -10 106.5 2.5Q56 15 2 41L44 144Q96 120 133 110.5Q170 101 211 101ZM264 -77 156 -256L82 -239L140 -77Z" glyph-name="uni0218" horiz-adv-x="518" unicode="Ș" /><glyph d="M456 377 437 268H325L278 0H158L205 268H93L112 377H225L258 565H68L88 680H588L568 565H378L345 377Z" glyph-name="Tbar" horiz-adv-x="526" unicode="Ŧ" /><glyph d="M258 565 68 565L88 680H588L568 565H378L278 0H158ZM433 913 527 913L403 752H291L223 913H311L358 833Z" glyph-name="Tcaron" horiz-adv-x="526" unicode="Ť" /><glyph d="M258 565 68 565L88 680H588L568 565H378L278 0H158ZM266 -77 158 -256L84 -239L142 -77Z" glyph-name="uni0162" horiz-adv-x="526" unicode="Ţ" /><glyph d="M258 565 68 565L88 680H588L568 565H378L278 0H158ZM266 -77 158 -256L84 -239L142 -77Z" glyph-name="uni021A" horiz-adv-x="526" unicode="Ț" /><glyph d="M76 244 153 680H276L199 244Q187 174 211.5 138.5Q236 103 296 103Q357 103 394 138.5Q431 174 443 244L520 680H643L566 244Q543 114 475.5 52Q408 -10 292 -10Q173 -10 114.5 59.5Q56 129 76 244ZM585 872 461 752H355L480 918Z" glyph-name="Uacute" horiz-adv-x="646" unicode="Ú" /><glyph d="M76 244 153 680H276L199 244Q187 174 211.5 138.5Q236 103 296 103Q357 103 394 138.5Q431 174 443 244L520 680H643L566 244Q543 114 475.5 52Q408 -10 292 -10Q173 -10 114.5 59.5Q56 129 76 244ZM559 752 471 752L424 832L349 752H255L379 913H491Z" glyph-name="Ucircumflex" horiz-adv-x="646" unicode="Û" /><glyph d="M76 244 153 680H276L199 244Q187 174 211.5 138.5Q236 103 296 103Q357 103 394 138.5Q431 174 443 244L520 680H643L566 244Q543 114 475.5 52Q408 -10 292 -10Q173 -10 114.5 59.5Q56 129 76 244ZM390 889 371 782H262L281 889ZM584 889 565 782H456L475 889Z" glyph-name="Udieresis" horiz-adv-x="646" unicode="Ü" /><glyph d="M76 244 153 680H276L199 244Q187 174 211.5 138.5Q236 103 296 103Q357 103 394 138.5Q431 174 443 244L520 680H643L566 244Q543 114 475.5 52Q408 -10 292 -10Q173 -10 114.5 59.5Q56 129 76 244ZM455 752 359 752L277 872L388 918Z" glyph-name="Ugrave" horiz-adv-x="646" unicode="Ù" /><glyph d="M76 244 153 680H276L199 244Q187 174 211.5 138.5Q236 103 296 103Q357 103 394 138.5Q431 174 443 244L520 680H643L566 244Q543 114 475.5 52Q408 -10 292 -10Q173 -10 114.5 59.5Q56 129 76 244ZM422 839Q444 839 457.5 854.5Q471 870 479 904H569Q551 829 514.5 793.5Q478 758 417 758Q352 758 322.5 795Q293 832 301 904H385Q380 871 389 855Q398 839 422 839Z" glyph-name="Ubreve" horiz-adv-x="646" unicode="Ŭ" /><glyph d="M76 244 153 680H276L199 244Q187 174 211.5 138.5Q236 103 296 103Q357 103 394 138.5Q431 174 443 244L520 680H643L566 244Q543 114 475.5 52Q408 -10 292 -10Q173 -10 114.5 59.5Q56 129 76 244ZM475 872 381 752H285L390 918ZM625 872 531 752H435L540 918Z" glyph-name="Uhungarumlaut" horiz-adv-x="646" unicode="Ű" /><glyph d="M76 244 153 680H276L199 244Q187 174 211.5 138.5Q236 103 296 103Q357 103 394 138.5Q431 174 443 244L520 680H643L566 244Q543 114 475.5 52Q408 -10 292 -10Q173 -10 114.5 59.5Q56 129 76 244ZM276 865 579 865L564 782H261Z" glyph-name="Umacron" horiz-adv-x="646" unicode="Ū" /><glyph d="M366 -124 377 -207Q355 -215 333.5 -219Q312 -223 290 -223Q240 -223 213 -201.5Q186 -180 186 -141Q186 -110 207.5 -79Q229 -48 275 -10Q164 -4 110.5 64.5Q57 133 76 244L153 680H276L199 244Q187 174 211.5 138.5Q236 103 296 103Q357 103 394 138.5Q431 174 443 244L520 680H643L566 244Q553 170 526 118.5Q499 67 458 38Q346 -42 319 -67Q292 -92 292 -114Q292 -123 298.5 -128Q305 -133 318 -133Q328 -133 339.5 -131Q351 -129 366 -124Z" glyph-name="Uogonek" horiz-adv-x="646" unicode="Ų" /><glyph d="M76 244 153 680H276L199 244Q187 174 211.5 138.5Q236 103 296 103Q357 103 394 138.5Q431 174 443 244L520 680H643L566 244Q543 114 475.5 52Q408 -10 292 -10Q173 -10 114.5 59.5Q56 129 76 244ZM441 976Q497 976 527.5 941.5Q558 907 547 855L544 840Q535 792 499.5 764Q464 736 413 736Q357 736 327.5 769.5Q298 803 308 856L311 871Q321 920 355.5 948Q390 976 441 976ZM475 849 478 864Q482 885 470.5 897.5Q459 910 436 910Q415 910 400 897.5Q385 885 380 864L377 849Q373 828 383.5 815.5Q394 803 417 803Q439 803 454.5 815.5Q470 828 475 849Z" glyph-name="Uring" horiz-adv-x="646" unicode="Ů" /><glyph d="M76 244 153 680H276L199 244Q187 174 211.5 138.5Q236 103 296 103Q357 103 394 138.5Q431 174 443 244L520 680H643L566 244Q543 114 475.5 52Q408 -10 292 -10Q173 -10 114.5 59.5Q56 129 76 244ZM479 761Q455 761 436.5 771Q418 781 396 809Q386 823 380.5 827Q375 831 370 831Q360 831 353.5 816.5Q347 802 340 769H259Q272 848 299 885.5Q326 923 371 923Q395 923 413 913Q431 903 452 875Q462 861 467.5 857Q473 853 478 853Q488 853 494.5 867.5Q501 882 508 915H589Q576 836 549.5 798.5Q523 761 479 761Z" glyph-name="Utilde" horiz-adv-x="646" unicode="Ũ" /><glyph d="M228 680 232 411L226 159L454 680H562L606 164L691 411L791 680H916L643 0H520L478 506L257 0H134L101 680ZM696 872 572 752H466L591 918Z" glyph-name="Wacute" horiz-adv-x="867" unicode="Ẃ" /><glyph d="M228 680 232 411L226 159L454 680H562L606 164L691 411L791 680H916L643 0H520L478 506L257 0H134L101 680ZM669 752 581 752L534 832L459 752H365L489 913H601Z" glyph-name="Wcircumflex" horiz-adv-x="867" unicode="Ŵ" /><glyph d="M228 680 232 411L226 159L454 680H562L606 164L691 411L791 680H916L643 0H520L478 506L257 0H134L101 680ZM500 889 481 782H372L391 889ZM694 889 675 782H566L585 889Z" glyph-name="Wdieresis" horiz-adv-x="867" unicode="Ẅ" /><glyph d="M228 680 232 411L226 159L454 680H562L606 164L691 411L791 680H916L643 0H520L478 506L257 0H134L101 680ZM566 752 470 752L388 872L499 918Z" glyph-name="Wgrave" horiz-adv-x="867" unicode="Ẁ" /><glyph d="M485 680 616 680L337 274L288 0H168L216 271L78 680H202L295 391ZM534 872 410 752H304L429 918Z" glyph-name="Yacute" horiz-adv-x="544" unicode="Ý" /><glyph d="M485 680 616 680L337 274L288 0H168L216 271L78 680H202L295 391ZM339 889 320 782H211L230 889ZM533 889 514 782H405L424 889Z" glyph-name="Ydieresis" horiz-adv-x="544" unicode="Ÿ" /><glyph d="M485 680 616 680L337 274L288 0H168L216 271L78 680H202L295 391ZM508 752 420 752L373 832L298 752H204L328 913H440Z" glyph-name="Ycircumflex" horiz-adv-x="544" unicode="Ŷ" /><glyph d="M485 680 616 680L337 274L288 0H168L216 271L78 680H202L295 391ZM404 752 308 752L226 872L337 918Z" glyph-name="Ygrave" horiz-adv-x="544" unicode="Ỳ" /><glyph d="M163 115 448 115L428 0H-7L12 105L368 565H103L123 680H538L519 575ZM425 913 519 913L395 752H283L215 913H303L350 833Z" glyph-name="Zcaron" horiz-adv-x="509" unicode="Ž" /><glyph d="M163 115 448 115L428 0H-7L12 105L368 565H103L123 680H538L519 575ZM516 872 392 752H286L411 918Z" glyph-name="Zacute" horiz-adv-x="509" unicode="Ź" /><glyph d="M163 115 448 115L428 0H-7L12 105L368 565H103L123 680H538L519 575ZM425 895 404 776H283L304 895Z" glyph-name="Zdotaccent" horiz-adv-x="509" unicode="Ż" /><glyph d="M484 -5 465 -5Q416 -5 387 15.5Q358 36 349 76Q304 33 261 11.5Q218 -10 176 -10Q103 -10 68.5 58.5Q34 127 51 236L58 280Q77 399 136 458Q195 517 295 517Q351 517 407 500.5Q463 484 511 452L457 143Q454 123 463 112Q472 101 491 101H503ZM176 280 169 236Q158 168 170 132.5Q182 97 215 97Q245 97 279.5 121Q314 145 351 192L386 394Q365 404 345.5 409Q326 414 305 414Q252 414 219 380Q186 346 176 280ZM508 699 384 579H278L403 745Z" glyph-name="aacute" horiz-adv-x="558" unicode="á" /><glyph d="M484 -5 465 -5Q416 -5 387 15.5Q358 36 349 76Q304 33 261 11.5Q218 -10 176 -10Q103 -10 68.5 58.5Q34 127 51 236L58 280Q77 399 136 458Q195 517 295 517Q351 517 407 500.5Q463 484 511 452L457 143Q454 123 463 112Q472 101 491 101H503ZM176 280 169 236Q158 168 170 132.5Q182 97 215 97Q245 97 279.5 121Q314 145 351 192L386 394Q365 404 345.5 409Q326 414 305 414Q252 414 219 380Q186 346 176 280ZM483 579 395 579L348 659L273 579H179L303 740H415Z" glyph-name="acircumflex" horiz-adv-x="558" unicode="â" /><glyph d="M484 -5 465 -5Q416 -5 387 15.5Q358 36 349 76Q304 33 261 11.5Q218 -10 176 -10Q103 -10 68.5 58.5Q34 127 51 236L58 280Q77 399 136 458Q195 517 295 517Q351 517 407 500.5Q463 484 511 452L457 143Q454 123 463 112Q472 101 491 101H503ZM176 280 169 236Q158 168 170 132.5Q182 97 215 97Q245 97 279.5 121Q314 145 351 192L386 394Q365 404 345.5 409Q326 414 305 414Q252 414 219 380Q186 346 176 280ZM313 716 294 609H185L204 716ZM507 716 488 609H379L398 716Z" glyph-name="adieresis" horiz-adv-x="558" unicode="ä" /><glyph d="M484 -5 465 -5Q416 -5 387 15.5Q358 36 349 76Q304 33 261 11.5Q218 -10 176 -10Q103 -10 68.5 58.5Q34 127 51 236L58 280Q77 399 136 458Q195 517 295 517Q351 517 407 500.5Q463 484 511 452L457 143Q454 123 463 112Q472 101 491 101H503ZM176 280 169 236Q158 168 170 132.5Q182 97 215 97Q245 97 279.5 121Q314 145 351 192L386 394Q365 404 345.5 409Q326 414 305 414Q252 414 219 380Q186 346 176 280ZM378 579 282 579L200 699L311 745Z" glyph-name="agrave" horiz-adv-x="558" unicode="à" /><glyph d="M484 -5 465 -5Q416 -5 387 15.5Q358 36 349 76Q304 33 261 11.5Q218 -10 176 -10Q103 -10 68.5 58.5Q34 127 51 236L58 280Q77 399 136 458Q195 517 295 517Q351 517 407 500.5Q463 484 511 452L457 143Q454 123 463 112Q472 101 491 101H503ZM176 280 169 236Q158 168 170 132.5Q182 97 215 97Q245 97 279.5 121Q314 145 351 192L386 394Q365 404 345.5 409Q326 414 305 414Q252 414 219 380Q186 346 176 280ZM364 803Q420 803 450.5 768.5Q481 734 470 682L467 667Q458 619 422.5 591Q387 563 336 563Q280 563 250.5 596.5Q221 630 231 683L234 698Q244 747 278.5 775Q313 803 364 803ZM398 676 401 691Q405 712 393.5 724.5Q382 737 359 737Q338 737 323 724.5Q308 712 303 691L300 676Q296 655 306.5 642.5Q317 630 340 630Q362 630 377.5 642.5Q393 655 398 676Z" glyph-name="aring" horiz-adv-x="558" unicode="å" /><glyph d="M484 -5 465 -5Q416 -5 387 15.5Q358 36 349 76Q304 33 261 11.5Q218 -10 176 -10Q103 -10 68.5 58.5Q34 127 51 236L58 280Q77 399 136 458Q195 517 295 517Q351 517 407 500.5Q463 484 511 452L457 143Q454 123 463 112Q472 101 491 101H503ZM176 280 169 236Q158 168 170 132.5Q182 97 215 97Q245 97 279.5 121Q314 145 351 192L386 394Q365 404 345.5 409Q326 414 305 414Q252 414 219 380Q186 346 176 280ZM402 588Q378 588 359.5 598Q341 608 319 636Q309 650 303.5 654Q298 658 293 658Q283 658 276.5 643.5Q270 629 263 596H182Q195 675 222 712.5Q249 750 294 750Q318 750 336 740Q354 730 375 702Q385 688 390.5 684Q396 680 401 680Q411 680 417.5 694.5Q424 709 431 742H512Q499 663 472.5 625.5Q446 588 402 588Z" glyph-name="atilde" horiz-adv-x="558" unicode="ã" /><glyph d="M484 -5 465 -5Q416 -5 387 15.5Q358 36 349 76Q304 33 261 11.5Q218 -10 176 -10Q103 -10 68.5 58.5Q34 127 51 236L58 280Q77 399 136 458Q195 517 295 517Q351 517 407 500.5Q463 484 511 452L457 143Q454 123 463 112Q472 101 491 101H503ZM176 280 169 236Q158 168 170 132.5Q182 97 215 97Q245 97 279.5 121Q314 145 351 192L386 394Q365 404 345.5 409Q326 414 305 414Q252 414 219 380Q186 346 176 280ZM345 666Q367 666 380.5 681.5Q394 697 402 731H492Q474 656 437.5 620.5Q401 585 340 585Q275 585 245.5 622Q216 659 224 731H308Q303 698 312 682Q321 666 345 666Z" glyph-name="abreve" horiz-adv-x="558" unicode="ă" /><glyph d="M484 -5 465 -5Q416 -5 387 15.5Q358 36 349 76Q304 33 261 11.5Q218 -10 176 -10Q103 -10 68.5 58.5Q34 127 51 236L58 280Q77 399 136 458Q195 517 295 517Q351 517 407 500.5Q463 484 511 452L457 143Q454 123 463 112Q472 101 491 101H503ZM176 280 169 236Q158 168 170 132.5Q182 97 215 97Q245 97 279.5 121Q314 145 351 192L386 394Q365 404 345.5 409Q326 414 305 414Q252 414 219 380Q186 346 176 280ZM200 692 503 692L488 609H185Z" glyph-name="amacron" horiz-adv-x="558" unicode="ā" /><glyph d="M447 -124 458 -207Q436 -215 414.5 -219Q393 -223 371 -223Q321 -223 294 -201.5Q267 -180 267 -141Q267 -105 297 -68Q327 -31 391 13Q375 22 364.5 37.5Q354 53 349 76Q304 33 261 11.5Q218 -10 176 -10Q103 -10 68.5 58.5Q34 127 51 236L58 280Q77 399 136 458Q195 517 295 517Q351 517 407 500.5Q463 484 511 452L457 143Q454 123 463 112Q472 101 491 101H503L484 -5Q418 -53 395.5 -75Q373 -97 373 -114Q373 -123 379.5 -128Q386 -133 399 -133Q409 -133 420.5 -131Q432 -129 447 -124ZM176 280 169 236Q158 168 170 132.5Q182 97 215 97Q245 97 279.5 121Q314 145 351 192L386 394Q365 404 345.5 409Q326 414 305 414Q252 414 219 380Q186 346 176 280Z" glyph-name="aogonek" horiz-adv-x="558" unicode="ą" /><glyph d="M306 -117Q306 -164 269 -193.5Q232 -223 171 -223Q152 -223 133.5 -220Q115 -217 86 -208L103 -139Q122 -144 140.5 -147Q159 -150 172 -150Q193 -150 205 -142.5Q217 -135 217 -123Q217 -113 208 -107.5Q199 -102 182 -102Q176 -102 170 -102.5Q164 -103 154 -105L135 -73L160 1Q91 24 62.5 87Q34 150 50 242L59 294Q78 401 138.5 459Q199 517 292 517Q327 517 363.5 508.5Q400 500 441 483L403 384Q372 397 344 404Q316 411 293 411Q245 411 213.5 380.5Q182 350 172 294L161 234Q148 165 170.5 130.5Q193 96 251 96Q276 96 303 101.5Q330 107 366 120L383 21Q339 5 304.5 -2.5Q270 -10 237 -10H233L223 -39Q261 -42 283.5 -63.5Q306 -85 306 -117Z" glyph-name="ccedilla" horiz-adv-x="450" unicode="ç" /><glyph d="M293 411Q245 411 213.5 380.5Q182 350 172 294L161 234Q148 165 170.5 130.5Q193 96 251 96Q276 96 303 101.5Q330 107 366 120L383 21Q339 5 304.5 -2.5Q270 -10 237 -10Q130 -10 80 58Q30 126 50 242L59 294Q78 401 138.5 459Q199 517 292 517Q327 517 363.5 508.5Q400 500 441 483L403 384Q372 397 344 404Q316 411 293 411ZM492 699 368 579H262L387 745Z" glyph-name="cacute" horiz-adv-x="450" unicode="ć" /><glyph d="M293 411Q245 411 213.5 380.5Q182 350 172 294L161 234Q148 165 170.5 130.5Q193 96 251 96Q276 96 303 101.5Q330 107 366 120L383 21Q339 5 304.5 -2.5Q270 -10 237 -10Q130 -10 80 58Q30 126 50 242L59 294Q78 401 138.5 459Q199 517 292 517Q327 517 363.5 508.5Q400 500 441 483L403 384Q372 397 344 404Q316 411 293 411ZM400 740 494 740L370 579H258L190 740H278L325 660Z" glyph-name="ccaron" horiz-adv-x="450" unicode="č" /><glyph d="M293 411Q245 411 213.5 380.5Q182 350 172 294L161 234Q148 165 170.5 130.5Q193 96 251 96Q276 96 303 101.5Q330 107 366 120L383 21Q339 5 304.5 -2.5Q270 -10 237 -10Q130 -10 80 58Q30 126 50 242L59 294Q78 401 138.5 459Q199 517 292 517Q327 517 363.5 508.5Q400 500 441 483L403 384Q372 397 344 404Q316 411 293 411ZM466 579 378 579L331 659L256 579H162L286 740H398Z" glyph-name="ccircumflex" horiz-adv-x="450" unicode="ĉ" /><glyph d="M293 411Q245 411 213.5 380.5Q182 350 172 294L161 234Q148 165 170.5 130.5Q193 96 251 96Q276 96 303 101.5Q330 107 366 120L383 21Q339 5 304.5 -2.5Q270 -10 237 -10Q130 -10 80 58Q30 126 50 242L59 294Q78 401 138.5 459Q199 517 292 517Q327 517 363.5 508.5Q400 500 441 483L403 384Q372 397 344 404Q316 411 293 411ZM401 722 380 603H259L280 722Z" glyph-name="cdotaccent" horiz-adv-x="450" unicode="ċ" /><glyph d="M440 0 331 0L346 85Q301 37 260 13.5Q219 -10 177 -10Q103 -10 68 58.5Q33 127 51 236L58 280Q77 399 137 458Q197 517 299 517Q327 517 354.5 511Q382 505 412 493L455 740H570ZM176 280 169 236Q158 167 170.5 132Q183 97 219 97Q247 97 282 124Q317 151 362 207L394 392Q372 403 351.5 408.5Q331 414 309 414Q254 414 220.5 380Q187 346 176 280ZM754 740 684 546H607L641 740Z" glyph-name="dcaron" horiz-adv-x="651" unicode="ď" /><glyph d="M440 0 331 0L346 85Q301 37 260 13.5Q219 -10 177 -10Q103 -10 68 58.5Q33 127 51 236L58 280Q77 399 137 458Q197 517 299 517Q327 517 354.5 511Q382 505 412 493L429 590H276L289 665H442L455 740H570L557 665H635L622 590H544ZM176 280 169 236Q158 167 170.5 132Q183 97 219 97Q247 97 282 124Q317 151 362 207L394 392Q372 403 351.5 408.5Q331 414 309 414Q254 414 220.5 380Q187 346 176 280Z" glyph-name="dcroat" horiz-adv-x="560" unicode="đ" /><glyph d="M408 122 424 24Q378 6 336.5 -2Q295 -10 250 -10Q136 -10 82 57.5Q28 125 48 242L57 294Q75 397 138.5 457Q202 517 294 517Q380 517 431 472Q482 427 482 346Q482 314 472 281.5Q462 249 443 218H154Q146 155 173.5 124.5Q201 94 265 94Q294 94 331.5 101Q369 108 408 122ZM372 346Q372 380 350.5 398.5Q329 417 290 417Q244 417 213.5 389Q183 361 170 306H365Q369 317 370.5 326.5Q372 336 372 346ZM498 699 374 579H268L393 745Z" glyph-name="eacute" horiz-adv-x="522" unicode="é" /><glyph d="M408 122 424 24Q378 6 336.5 -2Q295 -10 250 -10Q136 -10 82 57.5Q28 125 48 242L57 294Q75 397 138.5 457Q202 517 294 517Q380 517 431 472Q482 427 482 346Q482 314 472 281.5Q462 249 443 218H154Q146 155 173.5 124.5Q201 94 265 94Q294 94 331.5 101Q369 108 408 122ZM372 346Q372 380 350.5 398.5Q329 417 290 417Q244 417 213.5 389Q183 361 170 306H365Q369 317 370.5 326.5Q372 336 372 346ZM471 579 383 579L336 659L261 579H167L291 740H403Z" glyph-name="ecircumflex" horiz-adv-x="522" unicode="ê" /><glyph d="M408 122 424 24Q378 6 336.5 -2Q295 -10 250 -10Q136 -10 82 57.5Q28 125 48 242L57 294Q75 397 138.5 457Q202 517 294 517Q380 517 431 472Q482 427 482 346Q482 314 472 281.5Q462 249 443 218H154Q146 155 173.5 124.5Q201 94 265 94Q294 94 331.5 101Q369 108 408 122ZM372 346Q372 380 350.5 398.5Q329 417 290 417Q244 417 213.5 389Q183 361 170 306H365Q369 317 370.5 326.5Q372 336 372 346ZM302 716 283 609H174L193 716ZM496 716 477 609H368L387 716Z" glyph-name="edieresis" horiz-adv-x="522" unicode="ë" /><glyph d="M408 122 424 24Q378 6 336.5 -2Q295 -10 250 -10Q136 -10 82 57.5Q28 125 48 242L57 294Q75 397 138.5 457Q202 517 294 517Q380 517 431 472Q482 427 482 346Q482 314 472 281.5Q462 249 443 218H154Q146 155 173.5 124.5Q201 94 265 94Q294 94 331.5 101Q369 108 408 122ZM372 346Q372 380 350.5 398.5Q329 417 290 417Q244 417 213.5 389Q183 361 170 306H365Q369 317 370.5 326.5Q372 336 372 346ZM368 579 272 579L190 699L301 745Z" glyph-name="egrave" horiz-adv-x="522" unicode="è" /><glyph d="M408 122 424 24Q378 6 336.5 -2Q295 -10 250 -10Q136 -10 82 57.5Q28 125 48 242L57 294Q75 397 138.5 457Q202 517 294 517Q380 517 431 472Q482 427 482 346Q482 314 472 281.5Q462 249 443 218H154Q146 155 173.5 124.5Q201 94 265 94Q294 94 331.5 101Q369 108 408 122ZM372 346Q372 380 350.5 398.5Q329 417 290 417Q244 417 213.5 389Q183 361 170 306H365Q369 317 370.5 326.5Q372 336 372 346ZM335 666Q357 666 370.5 681.5Q384 697 392 731H482Q464 656 427.5 620.5Q391 585 330 585Q265 585 235.5 622Q206 659 214 731H298Q293 698 302 682Q311 666 335 666Z" glyph-name="ebreve" horiz-adv-x="522" unicode="ĕ" /><glyph d="M408 122 424 24Q378 6 336.5 -2Q295 -10 250 -10Q136 -10 82 57.5Q28 125 48 242L57 294Q75 397 138.5 457Q202 517 294 517Q380 517 431 472Q482 427 482 346Q482 314 472 281.5Q462 249 443 218H154Q146 155 173.5 124.5Q201 94 265 94Q294 94 331.5 101Q369 108 408 122ZM372 346Q372 380 350.5 398.5Q329 417 290 417Q244 417 213.5 389Q183 361 170 306H365Q369 317 370.5 326.5Q372 336 372 346ZM405 740 499 740L375 579H263L195 740H283L330 660Z" glyph-name="ecaron" horiz-adv-x="522" unicode="ě" /><glyph d="M408 122 424 24Q378 6 336.5 -2Q295 -10 250 -10Q136 -10 82 57.5Q28 125 48 242L57 294Q75 397 138.5 457Q202 517 294 517Q380 517 431 472Q482 427 482 346Q482 314 472 281.5Q462 249 443 218H154Q146 155 173.5 124.5Q201 94 265 94Q294 94 331.5 101Q369 108 408 122ZM372 346Q372 380 350.5 398.5Q329 417 290 417Q244 417 213.5 389Q183 361 170 306H365Q369 317 370.5 326.5Q372 336 372 346ZM406 722 385 603H264L285 722Z" glyph-name="edotaccent" horiz-adv-x="522" unicode="ė" /><glyph d="M408 122 424 24Q378 6 336.5 -2Q295 -10 250 -10Q136 -10 82 57.5Q28 125 48 242L57 294Q75 397 138.5 457Q202 517 294 517Q380 517 431 472Q482 427 482 346Q482 314 472 281.5Q462 249 443 218H154Q146 155 173.5 124.5Q201 94 265 94Q294 94 331.5 101Q369 108 408 122ZM372 346Q372 380 350.5 398.5Q329 417 290 417Q244 417 213.5 389Q183 361 170 306H365Q369 317 370.5 326.5Q372 336 372 346ZM189 692 492 692L477 609H174Z" glyph-name="emacron" horiz-adv-x="522" unicode="ē" /><glyph d="M371 -124 382 -207Q360 -215 338.5 -219Q317 -223 295 -223Q245 -223 218 -201.5Q191 -180 191 -141Q191 -110 210 -78Q229 -46 269 -10H250Q136 -10 82 57.5Q28 125 48 242L57 294Q75 397 138.5 457Q202 517 294 517Q380 517 431 472Q482 427 482 346Q482 314 472 281.5Q462 249 443 218H154Q146 155 173.5 124.5Q201 94 265 94Q294 94 331.5 101Q369 108 408 122L424 24Q357 -28 327 -60Q297 -92 297 -114Q297 -123 303.5 -128Q310 -133 323 -133Q333 -133 344.5 -131Q356 -129 371 -124ZM372 346Q372 380 350.5 398.5Q329 417 290 417Q244 417 213.5 389Q183 361 170 306H365Q369 317 370.5 326.5Q372 336 372 346Z" glyph-name="eogonek" horiz-adv-x="522" unicode="ę" /><glyph d="M519 452 441 0Q420 -122 365 -172.5Q310 -223 207 -223Q168 -223 124.5 -215.5Q81 -208 36 -193L61 -95Q97 -107 133.5 -114Q170 -121 201 -121Q257 -121 285.5 -95Q314 -69 326 0L338 69Q295 29 255 9.5Q215 -10 177 -10Q103 -10 68.5 58Q34 126 51 236L58 280Q77 399 137 458Q197 517 299 517Q356 517 413 500Q470 483 519 452ZM176 280 169 236Q158 167 170.5 132Q183 97 219 97Q250 97 285.5 121.5Q321 146 359 193L394 393Q371 404 351 409Q331 414 309 414Q254 414 220 380Q186 346 176 280ZM349 666Q371 666 384.5 681.5Q398 697 406 731H496Q478 656 441.5 620.5Q405 585 344 585Q279 585 249.5 622Q220 659 228 731H312Q307 698 316 682Q325 666 349 666Z" glyph-name="gbreve" horiz-adv-x="560" unicode="ğ" /><glyph d="M519 452 441 0Q420 -122 365 -172.5Q310 -223 207 -223Q168 -223 124.5 -215.5Q81 -208 36 -193L61 -95Q97 -107 133.5 -114Q170 -121 201 -121Q257 -121 285.5 -95Q314 -69 326 0L338 69Q295 29 255 9.5Q215 -10 177 -10Q103 -10 68.5 58Q34 126 51 236L58 280Q77 399 137 458Q197 517 299 517Q356 517 413 500Q470 483 519 452ZM176 280 169 236Q158 167 170.5 132Q183 97 219 97Q250 97 285.5 121.5Q321 146 359 193L394 393Q371 404 351 409Q331 414 309 414Q254 414 220 380Q186 346 176 280ZM485 579 397 579L350 659L275 579H181L305 740H417Z" glyph-name="gcircumflex" horiz-adv-x="560" unicode="ĝ" /><glyph d="M519 452 441 0Q420 -122 365 -172.5Q310 -223 207 -223Q168 -223 124.5 -215.5Q81 -208 36 -193L61 -95Q97 -107 133.5 -114Q170 -121 201 -121Q257 -121 285.5 -95Q314 -69 326 0L338 69Q295 29 255 9.5Q215 -10 177 -10Q103 -10 68.5 58Q34 126 51 236L58 280Q77 399 137 458Q197 517 299 517Q356 517 413 500Q470 483 519 452ZM176 280 169 236Q158 167 170.5 132Q183 97 219 97Q250 97 285.5 121.5Q321 146 359 193L394 393Q371 404 351 409Q331 414 309 414Q254 414 220 380Q186 346 176 280ZM272 579 380 758L454 741L396 579Z" glyph-name="gcommaaccent" horiz-adv-x="560" unicode="ģ" /><glyph d="M519 452 441 0Q420 -122 365 -172.5Q310 -223 207 -223Q168 -223 124.5 -215.5Q81 -208 36 -193L61 -95Q97 -107 133.5 -114Q170 -121 201 -121Q257 -121 285.5 -95Q314 -69 326 0L338 69Q295 29 255 9.5Q215 -10 177 -10Q103 -10 68.5 58Q34 126 51 236L58 280Q77 399 137 458Q197 517 299 517Q356 517 413 500Q470 483 519 452ZM176 280 169 236Q158 167 170.5 132Q183 97 219 97Q250 97 285.5 121.5Q321 146 359 193L394 393Q371 404 351 409Q331 414 309 414Q254 414 220 380Q186 346 176 280ZM420 722 399 603H278L299 722Z" glyph-name="gdotaccent" horiz-adv-x="560" unicode="ġ" /><glyph d="M361 410Q330 410 291.5 386.5Q253 363 204 314L149 0H34L138 590H56L69 665H151L164 740H279L266 665H415L402 590H253L224 428Q271 473 313.5 495Q356 517 400 517Q472 517 505.5 465Q539 413 524 328L466 0H351L408 326Q416 367 404 388.5Q392 410 361 410Z" glyph-name="hbar" horiz-adv-x="584" unicode="ħ" /><glyph d="M361 410Q330 410 291.5 386.5Q253 363 204 314L149 0H34L164 740H279L224 428Q271 473 313.5 495Q356 517 400 517Q472 517 505.5 465Q539 413 524 328L466 0H351L408 326Q416 367 404 388.5Q392 410 361 410ZM489 812 401 812L354 892L279 812H185L309 973H421Z" glyph-name="hcircumflex" horiz-adv-x="584" unicode="ĥ" /><glyph d="M238 507 149 0H34L123 507ZM370 699 246 579H140L265 745Z" glyph-name="iacute" horiz-adv-x="273" unicode="í" /><glyph d="M238 507 149 0H34L123 507ZM345 579 257 579L210 659L135 579H41L165 740H277Z" glyph-name="icircumflex" horiz-adv-x="273" unicode="î" /><glyph d="M238 507 149 0H34L123 507ZM175 716 156 609H47L66 716ZM369 716 350 609H241L260 716Z" glyph-name="idieresis" horiz-adv-x="273" unicode="ï" /><glyph d="M238 507 149 0H34L123 507ZM240 579 144 579L62 699L173 745Z" glyph-name="igrave" horiz-adv-x="273" unicode="ì" /><glyph d="M238 507 149 0H34L123 507ZM207 666Q229 666 242.5 681.5Q256 697 264 731H354Q336 656 299.5 620.5Q263 585 202 585Q137 585 107.5 622Q78 659 86 731H170Q165 698 174 682Q183 666 207 666Z" glyph-name="ibreve" horiz-adv-x="273" unicode="ĭ" /><glyph d="M279 722 258 603H137L158 722ZM238 507 149 0H34L123 507Z" glyph-name="i.dot" horiz-adv-x="273" unicode="" /><glyph d="M238 507 149 0H34L123 507ZM62 692 365 692L350 609H47Z" glyph-name="imacron" horiz-adv-x="273" unicode="ī" /><glyph d="M276 719 256 606H141L161 719ZM127 -124 138 -207Q116 -215 94.5 -219Q73 -223 51 -223Q1 -223 -26 -201.5Q-53 -180 -53 -141Q-53 -108 -31.5 -74Q-10 -40 34 -3L123 507H238L149 0Q97 -43 75 -68.5Q53 -94 53 -114Q53 -123 59.5 -128Q66 -133 79 -133Q89 -133 100.5 -131Q112 -129 127 -124Z" glyph-name="iogonek" horiz-adv-x="273" unicode="į" /><glyph d="M238 507 149 0H34L123 507ZM264 588Q240 588 221.5 598Q203 608 181 636Q171 650 165.5 654Q160 658 155 658Q145 658 138.5 643.5Q132 629 125 596H44Q57 675 84 712.5Q111 750 156 750Q180 750 198 740Q216 730 237 702Q247 688 252.5 684Q258 680 263 680Q273 680 279.5 694.5Q286 709 293 742H374Q361 663 334.5 625.5Q308 588 264 588Z" glyph-name="itilde" horiz-adv-x="273" unicode="ĩ" /><glyph d="M-109 -223 -90 -115Q-36 -115 -6.5 -88.5Q23 -62 33 -4L123 507H238L148 -4Q126 -128 67 -175.5Q8 -223 -109 -223ZM345 579 257 579L210 659L135 579H41L165 740H277Z" glyph-name="jcircumflex" horiz-adv-x="273" unicode="ĵ" /><glyph d="M279 722 258 603H137L158 722ZM238 507 149 0H34L123 507ZM552 722 531 603H410L431 722ZM164 -223 183 -115Q237 -115 266.5 -88.5Q296 -62 306 -4L396 507H511L421 -4Q399 -128 340 -175.5Q281 -223 164 -223Z" glyph-name="ij" horiz-adv-x="546" unicode="ĳ" /><glyph d="M476 0 342 0L251 214Q235 200 217 185Q199 170 176 153L149 0H34L164 740H279L199 285Q267 344 316 396Q365 448 408 507H545Q507 454 460 401Q413 348 347 283ZM289 -77 181 -256L107 -239L165 -77Z" glyph-name="kcommaaccent" horiz-adv-x="532" unicode="ķ" /><glyph d="M476 0 342 0L251 214Q235 200 217 185Q199 170 176 153L149 0H34L123 507H238L199 285Q270 346 318.5 397.5Q367 449 408 507H545Q507 454 460 401Q413 348 347 283Z" glyph-name="kgreenlandic" horiz-adv-x="532" unicode="ĸ" /><glyph d="M57 148 161 740H276L171 143Q168 123 177 112Q186 101 205 101H217L198 -5H179Q106 -5 75 34.5Q44 74 57 148ZM404 932 280 812H174L299 978Z" glyph-name="lacute" horiz-adv-x="276" unicode="ĺ" /><glyph d="M57 148 161 740H276L171 143Q168 123 177 112Q186 101 205 101H217L198 -5H179Q106 -5 75 34.5Q44 74 57 148ZM467 740 397 546H320L354 740Z" glyph-name="lcaron" horiz-adv-x="360" unicode="ľ" /><glyph d="M57 148 161 740H276L171 143Q168 123 177 112Q186 101 205 101H217L198 -5H179Q106 -5 75 34.5Q44 74 57 148ZM171 -77 63 -256L-11 -239L47 -77Z" glyph-name="lcommaaccent" horiz-adv-x="276" unicode="ļ" /><glyph d="M57 148 161 740H276L171 143Q168 123 177 112Q186 101 205 101H217L198 -5H179Q106 -5 75 34.5Q44 74 57 148ZM395 444 374 325H253L274 444Z" glyph-name="ldot" horiz-adv-x="336" unicode="ŀ" /><glyph d="M361 410Q330 410 291.5 386.5Q253 363 204 314L149 0H34L123 507H232L217 421Q265 470 309.5 493.5Q354 517 400 517Q472 517 505.5 465Q539 413 524 328L466 0H351L408 326Q416 367 404 388.5Q392 410 361 410ZM428 588Q404 588 385.5 598Q367 608 345 636Q335 650 329.5 654Q324 658 319 658Q309 658 302.5 643.5Q296 629 289 596H208Q221 675 248 712.5Q275 750 320 750Q344 750 362 740Q380 730 401 702Q411 688 416.5 684Q422 680 427 680Q437 680 443.5 694.5Q450 709 457 742H538Q525 663 498.5 625.5Q472 588 428 588Z" glyph-name="ntilde" horiz-adv-x="584" unicode="ñ" /><glyph d="M361 410Q330 410 291.5 386.5Q253 363 204 314L149 0H34L123 507H232L217 421Q265 470 309.5 493.5Q354 517 400 517Q472 517 505.5 465Q539 413 524 328L466 0H351L408 326Q416 367 404 388.5Q392 410 361 410ZM534 699 410 579H304L429 745Z" glyph-name="nacute" horiz-adv-x="584" unicode="ń" /><glyph d="M361 410Q330 410 291.5 386.5Q253 363 204 314L149 0H34L123 507H232L217 421Q265 470 309.5 493.5Q354 517 400 517Q472 517 505.5 465Q539 413 524 328L466 0H351L408 326Q416 367 404 388.5Q392 410 361 410ZM442 740 536 740L412 579H300L232 740H320L367 660Z" glyph-name="ncaron" horiz-adv-x="584" unicode="ň" /><glyph d="M361 410Q330 410 291.5 386.5Q253 363 204 314L149 0H34L123 507H232L217 421Q265 470 309.5 493.5Q354 517 400 517Q472 517 505.5 465Q539 413 524 328L466 0H351L408 326Q416 367 404 388.5Q392 410 361 410ZM296 -77 188 -256L114 -239L172 -77Z" glyph-name="ncommaaccent" horiz-adv-x="584" unicode="ņ" /><glyph d="M524 328 465 -4Q443 -129 384.5 -176Q326 -223 208 -223L227 -115Q282 -115 311 -88.5Q340 -62 350 -4L408 326Q415 368 403.5 389Q392 410 361 410Q330 410 291.5 386.5Q253 363 204 314L149 0H34L123 507H232L217 421Q265 470 309.5 493.5Q354 517 400 517Q473 517 506.5 465Q540 413 524 328Z" glyph-name="eng" horiz-adv-x="584" unicode="ŋ" /><glyph d="M500 410Q469 410 430.5 386.5Q392 363 343 314L288 0H173L262 507H371L356 421Q404 470 448.5 493.5Q493 517 539 517Q611 517 644.5 465Q678 413 663 328L605 0H490L547 326Q555 367 543 388.5Q531 410 500 410ZM131 681 243 681L240 662Q226 588 193 522Q160 456 98 379L33 418Q77 491 96.5 543Q116 595 131 681Z" glyph-name="napostrophe" horiz-adv-x="723" unicode="ŉ" /><glyph d="M297 517Q403 517 458 447Q513 377 496 266L488 214Q472 107 409 48.5Q346 -10 247 -10Q141 -10 86 60.5Q31 131 49 242L57 294Q74 401 136 459Q198 517 297 517ZM370 214 379 271Q390 337 367 375.5Q344 414 293 414Q246 414 215 382.5Q184 351 175 294L166 237Q155 171 178.5 132Q202 93 252 93Q298 93 329.5 125Q361 157 370 214ZM498 699 374 579H268L393 745Z" glyph-name="oacute" horiz-adv-x="545" unicode="ó" /><glyph d="M297 517Q403 517 458 447Q513 377 496 266L488 214Q472 107 409 48.5Q346 -10 247 -10Q141 -10 86 60.5Q31 131 49 242L57 294Q74 401 136 459Q198 517 297 517ZM370 214 379 271Q390 337 367 375.5Q344 414 293 414Q246 414 215 382.5Q184 351 175 294L166 237Q155 171 178.5 132Q202 93 252 93Q298 93 329.5 125Q361 157 370 214ZM472 579 384 579L337 659L262 579H168L292 740H404Z" glyph-name="ocircumflex" horiz-adv-x="545" unicode="ô" /><glyph d="M297 517Q403 517 458 447Q513 377 496 266L488 214Q472 107 409 48.5Q346 -10 247 -10Q141 -10 86 60.5Q31 131 49 242L57 294Q74 401 136 459Q198 517 297 517ZM370 214 379 271Q390 337 367 375.5Q344 414 293 414Q246 414 215 382.5Q184 351 175 294L166 237Q155 171 178.5 132Q202 93 252 93Q298 93 329.5 125Q361 157 370 214ZM303 716 284 609H175L194 716ZM497 716 478 609H369L388 716Z" glyph-name="odieresis" horiz-adv-x="545" unicode="ö" /><glyph d="M297 517Q403 517 458 447Q513 377 496 266L488 214Q472 107 409 48.5Q346 -10 247 -10Q141 -10 86 60.5Q31 131 49 242L57 294Q74 401 136 459Q198 517 297 517ZM370 214 379 271Q390 337 367 375.5Q344 414 293 414Q246 414 215 382.5Q184 351 175 294L166 237Q155 171 178.5 132Q202 93 252 93Q298 93 329.5 125Q361 157 370 214ZM368 579 272 579L190 699L301 745Z" glyph-name="ograve" horiz-adv-x="545" unicode="ò" /><glyph d="M297 517Q403 517 458 447Q513 377 496 266L488 214Q472 107 409 48.5Q346 -10 247 -10Q141 -10 86 60.5Q31 131 49 242L57 294Q74 401 136 459Q198 517 297 517ZM370 214 379 271Q390 337 367 375.5Q344 414 293 414Q246 414 215 382.5Q184 351 175 294L166 237Q155 171 178.5 132Q202 93 252 93Q298 93 329.5 125Q361 157 370 214ZM392 588Q368 588 349.5 598Q331 608 309 636Q299 650 293.5 654Q288 658 283 658Q273 658 266.5 643.5Q260 629 253 596H172Q185 675 212 712.5Q239 750 284 750Q308 750 326 740Q344 730 365 702Q375 688 380.5 684Q386 680 391 680Q401 680 407.5 694.5Q414 709 421 742H502Q489 663 462.5 625.5Q436 588 392 588Z" glyph-name="otilde" horiz-adv-x="545" unicode="õ" /><glyph d="M297 517Q403 517 458 447Q513 377 496 266L488 214Q472 107 409 48.5Q346 -10 247 -10Q141 -10 86 60.5Q31 131 49 242L57 294Q74 401 136 459Q198 517 297 517ZM370 214 379 271Q390 337 367 375.5Q344 414 293 414Q246 414 215 382.5Q184 351 175 294L166 237Q155 171 178.5 132Q202 93 252 93Q298 93 329.5 125Q361 157 370 214ZM335 666Q357 666 370.5 681.5Q384 697 392 731H482Q464 656 427.5 620.5Q391 585 330 585Q265 585 235.5 622Q206 659 214 731H298Q293 698 302 682Q311 666 335 666Z" glyph-name="obreve" horiz-adv-x="545" unicode="ŏ" /><glyph d="M297 517Q403 517 458 447Q513 377 496 266L488 214Q472 107 409 48.5Q346 -10 247 -10Q141 -10 86 60.5Q31 131 49 242L57 294Q74 401 136 459Q198 517 297 517ZM370 214 379 271Q390 337 367 375.5Q344 414 293 414Q246 414 215 382.5Q184 351 175 294L166 237Q155 171 178.5 132Q202 93 252 93Q298 93 329.5 125Q361 157 370 214ZM388 699 294 579H198L303 745ZM538 699 444 579H348L453 745Z" glyph-name="ohungarumlaut" horiz-adv-x="545" unicode="ő" /><glyph d="M297 517Q403 517 458 447Q513 377 496 266L488 214Q472 107 409 48.5Q346 -10 247 -10Q141 -10 86 60.5Q31 131 49 242L57 294Q74 401 136 459Q198 517 297 517ZM370 214 379 271Q390 337 367 375.5Q344 414 293 414Q246 414 215 382.5Q184 351 175 294L166 237Q155 171 178.5 132Q202 93 252 93Q298 93 329.5 125Q361 157 370 214ZM190 692 493 692L478 609H175Z" glyph-name="omacron" horiz-adv-x="545" unicode="ō" /><glyph d="M411 517 391 402Q336 402 292 381Q248 360 205 317L149 0H34L123 507H232L217 420Q266 469 313.5 493Q361 517 411 517ZM454 699 330 579H224L349 745Z" glyph-name="racute" horiz-adv-x="387" unicode="ŕ" /><glyph d="M411 517 391 402Q336 402 292 381Q248 360 205 317L149 0H34L123 507H232L217 420Q266 469 313.5 493Q361 517 411 517ZM361 740 455 740L331 579H219L151 740H239L286 660Z" glyph-name="rcaron" horiz-adv-x="387" unicode="ř" /><glyph d="M411 517 391 402Q336 402 292 381Q248 360 205 317L149 0H34L123 507H232L217 420Q266 469 313.5 493Q361 517 411 517ZM139 -77 31 -256L-43 -239L15 -77Z" glyph-name="rcommaaccent" horiz-adv-x="387" unicode="ŗ" /><glyph d="M201 91Q244 91 265.5 103.5Q287 116 287 141Q287 160 273.5 173Q260 186 228 197L173 216Q119 235 92 270.5Q65 306 65 360Q65 434 115 475.5Q165 517 257 517Q298 517 338 508.5Q378 500 422 481L385 383Q349 400 316.5 408Q284 416 254 416Q217 416 198.5 404.5Q180 393 180 369Q180 351 192 339.5Q204 328 231 318L286 299Q344 279 372.5 243Q401 207 401 153Q401 76 347.5 33Q294 -10 195 -10Q148 -10 104 -0.5Q60 9 14 30L50 128Q92 109 128.5 100Q165 91 201 91ZM368 740 462 740L338 579H226L158 740H246L293 660Z" glyph-name="scaron" horiz-adv-x="461" unicode="š" /><glyph d="M201 91Q244 91 265.5 103.5Q287 116 287 141Q287 160 273.5 173Q260 186 228 197L173 216Q119 235 92 270.5Q65 306 65 360Q65 434 115 475.5Q165 517 257 517Q298 517 338 508.5Q378 500 422 481L385 383Q349 400 316.5 408Q284 416 254 416Q217 416 198.5 404.5Q180 393 180 369Q180 351 192 339.5Q204 328 231 318L286 299Q344 279 372.5 243Q401 207 401 153Q401 76 347.5 33Q294 -10 195 -10Q148 -10 104 -0.5Q60 9 14 30L50 128Q92 109 128.5 100Q165 91 201 91ZM460 699 336 579H230L355 745Z" glyph-name="sacute" horiz-adv-x="461" unicode="ś" /><glyph d="M285 -117Q285 -164 248 -193.5Q211 -223 150 -223Q131 -223 112.5 -220Q94 -217 65 -208L82 -139Q101 -144 119.5 -147Q138 -150 151 -150Q172 -150 184 -142.5Q196 -135 196 -123Q196 -113 187 -107.5Q178 -102 161 -102Q155 -102 149 -102.5Q143 -103 133 -105L114 -73L137 -6Q108 -2 77.5 6.5Q47 15 14 30L50 128Q92 109 128.5 100Q165 91 201 91Q244 91 265.5 103.5Q287 116 287 141Q287 160 273.5 173Q260 186 228 197L173 216Q119 235 92 270.5Q65 306 65 360Q65 434 115 475.5Q165 517 257 517Q298 517 338 508.5Q378 500 422 481L385 383Q349 400 316.5 408Q284 416 254 416Q217 416 198.5 404.5Q180 393 180 369Q180 351 192 339.5Q204 328 231 318L286 299Q344 279 372.5 243Q401 207 401 153Q401 80 352 37Q303 -6 213 -10L202 -39Q240 -42 262.5 -63.5Q285 -85 285 -117Z" glyph-name="scedilla" horiz-adv-x="461" unicode="ş" /><glyph d="M201 91Q244 91 265.5 103.5Q287 116 287 141Q287 160 273.5 173Q260 186 228 197L173 216Q119 235 92 270.5Q65 306 65 360Q65 434 115 475.5Q165 517 257 517Q298 517 338 508.5Q378 500 422 481L385 383Q349 400 316.5 408Q284 416 254 416Q217 416 198.5 404.5Q180 393 180 369Q180 351 192 339.5Q204 328 231 318L286 299Q344 279 372.5 243Q401 207 401 153Q401 76 347.5 33Q294 -10 195 -10Q148 -10 104 -0.5Q60 9 14 30L50 128Q92 109 128.5 100Q165 91 201 91ZM434 579 346 579L299 659L224 579H130L254 740H366Z" glyph-name="scircumflex" horiz-adv-x="461" unicode="ŝ" /><glyph d="M201 91Q244 91 265.5 103.5Q287 116 287 141Q287 160 273.5 173Q260 186 228 197L173 216Q119 235 92 270.5Q65 306 65 360Q65 434 115 475.5Q165 517 257 517Q298 517 338 508.5Q378 500 422 481L385 383Q349 400 316.5 408Q284 416 254 416Q217 416 198.5 404.5Q180 393 180 369Q180 351 192 339.5Q204 328 231 318L286 299Q344 279 372.5 243Q401 207 401 153Q401 76 347.5 33Q294 -10 195 -10Q148 -10 104 -0.5Q60 9 14 30L50 128Q92 109 128.5 100Q165 91 201 91ZM232 -77 124 -256L50 -239L108 -77Z" glyph-name="uni0219" horiz-adv-x="461" unicode="ș" /><glyph d="M345 112 362 11Q338 1 305 -4.5Q272 -10 240 -10Q157 -10 120.5 37.5Q84 85 99 169L109 227H27L40 302H122L141 407H59L76 507H159L182 639H297L274 507H431L414 407H256L237 302H356L343 227H224L214 169Q208 131 220 114.5Q232 98 266 98Q285 98 305.5 101.5Q326 105 345 112Z" glyph-name="tbar" horiz-adv-x="420" unicode="ŧ" /><glyph d="M327 112 344 11Q320 1 287 -4.5Q254 -10 222 -10Q139 -10 102.5 37.5Q66 85 81 169L123 407H41L58 507H141L164 639H279L256 507H413L396 407H238L196 169Q190 131 202 114.5Q214 98 248 98Q267 98 287.5 101.5Q308 105 327 112ZM479 765 409 571H332L366 765Z" glyph-name="tcaron" horiz-adv-x="398" unicode="ť" /><glyph d="M327 112 344 11Q320 1 287 -4.5Q254 -10 222 -10Q139 -10 102.5 37.5Q66 85 81 169L123 407H41L58 507H141L164 639H279L256 507H413L396 407H238L196 169Q190 131 202 114.5Q214 98 248 98Q267 98 287.5 101.5Q308 105 327 112ZM243 -77 135 -256L61 -239L119 -77Z" glyph-name="uni0163" horiz-adv-x="400" unicode="ţ" /><glyph d="M327 112 344 11Q320 1 287 -4.5Q254 -10 222 -10Q139 -10 102.5 37.5Q66 85 81 169L123 407H41L58 507H141L164 639H279L256 507H413L396 407H238L196 169Q190 131 202 114.5Q214 98 248 98Q267 98 287.5 101.5Q308 105 327 112ZM243 -77 135 -256L61 -239L119 -77Z" glyph-name="uni021B" horiz-adv-x="400" unicode="ț" /><glyph d="M446 0 337 0L352 86Q304 37 261.5 13.5Q219 -10 176 -10Q107 -10 75 42Q43 94 59 179L117 507H232L175 181Q168 140 178 118.5Q188 97 215 97Q243 97 279.5 120.5Q316 144 365 193L420 507H535ZM514 699 390 579H284L409 745Z" glyph-name="uacute" horiz-adv-x="570" unicode="ú" /><glyph d="M446 0 337 0L352 86Q304 37 261.5 13.5Q219 -10 176 -10Q107 -10 75 42Q43 94 59 179L117 507H232L175 181Q168 140 178 118.5Q188 97 215 97Q243 97 279.5 120.5Q316 144 365 193L420 507H535ZM489 579 401 579L354 659L279 579H185L309 740H421Z" glyph-name="ucircumflex" horiz-adv-x="570" unicode="û" /><glyph d="M446 0 337 0L352 86Q304 37 261.5 13.5Q219 -10 176 -10Q107 -10 75 42Q43 94 59 179L117 507H232L175 181Q168 140 178 118.5Q188 97 215 97Q243 97 279.5 120.5Q316 144 365 193L420 507H535ZM319 716 300 609H191L210 716ZM513 716 494 609H385L404 716Z" glyph-name="udieresis" horiz-adv-x="570" unicode="ü" /><glyph d="M446 0 337 0L352 86Q304 37 261.5 13.5Q219 -10 176 -10Q107 -10 75 42Q43 94 59 179L117 507H232L175 181Q168 140 178 118.5Q188 97 215 97Q243 97 279.5 120.5Q316 144 365 193L420 507H535ZM384 579 288 579L206 699L317 745Z" glyph-name="ugrave" horiz-adv-x="570" unicode="ù" /><glyph d="M446 0 337 0L352 86Q304 37 261.5 13.5Q219 -10 176 -10Q107 -10 75 42Q43 94 59 179L117 507H232L175 181Q168 140 178 118.5Q188 97 215 97Q243 97 279.5 120.5Q316 144 365 193L420 507H535ZM351 666Q373 666 386.5 681.5Q400 697 408 731H498Q480 656 443.5 620.5Q407 585 346 585Q281 585 251.5 622Q222 659 230 731H314Q309 698 318 682Q327 666 351 666Z" glyph-name="ubreve" horiz-adv-x="570" unicode="ŭ" /><glyph d="M446 0 337 0L352 86Q304 37 261.5 13.5Q219 -10 176 -10Q107 -10 75 42Q43 94 59 179L117 507H232L175 181Q168 140 178 118.5Q188 97 215 97Q243 97 279.5 120.5Q316 144 365 193L420 507H535ZM404 699 310 579H214L319 745ZM554 699 460 579H364L469 745Z" glyph-name="uhungarumlaut" horiz-adv-x="570" unicode="ű" /><glyph d="M446 0 337 0L352 86Q304 37 261.5 13.5Q219 -10 176 -10Q107 -10 75 42Q43 94 59 179L117 507H232L175 181Q168 140 178 118.5Q188 97 215 97Q243 97 279.5 120.5Q316 144 365 193L420 507H535ZM206 692 509 692L494 609H191Z" glyph-name="umacron" horiz-adv-x="570" unicode="ū" /><glyph d="M407 -124 418 -207Q396 -215 374.5 -219Q353 -223 331 -223Q281 -223 254 -201.5Q227 -180 227 -141Q227 -105 254 -69.5Q281 -34 338 8L352 86Q304 37 261.5 13.5Q219 -10 176 -10Q107 -10 75 42Q43 94 59 179L117 507H232L175 181Q168 140 178 118.5Q188 97 215 97Q243 97 279.5 120.5Q316 144 365 193L420 507H535L446 0Q382 -46 357.5 -70.5Q333 -95 333 -114Q333 -123 339.5 -128Q346 -133 359 -133Q369 -133 380.5 -131Q392 -129 407 -124Z" glyph-name="uogonek" horiz-adv-x="570" unicode="ų" /><glyph d="M446 0 337 0L352 86Q304 37 261.5 13.5Q219 -10 176 -10Q107 -10 75 42Q43 94 59 179L117 507H232L175 181Q168 140 178 118.5Q188 97 215 97Q243 97 279.5 120.5Q316 144 365 193L420 507H535ZM370 803Q426 803 456.5 768.5Q487 734 476 682L473 667Q464 619 428.5 591Q393 563 342 563Q286 563 256.5 596.5Q227 630 237 683L240 698Q250 747 284.5 775Q319 803 370 803ZM404 676 407 691Q411 712 399.5 724.5Q388 737 365 737Q344 737 329 724.5Q314 712 309 691L306 676Q302 655 312.5 642.5Q323 630 346 630Q368 630 383.5 642.5Q399 655 404 676Z" glyph-name="uring" horiz-adv-x="570" unicode="ů" /><glyph d="M446 0 337 0L352 86Q304 37 261.5 13.5Q219 -10 176 -10Q107 -10 75 42Q43 94 59 179L117 507H232L175 181Q168 140 178 118.5Q188 97 215 97Q243 97 279.5 120.5Q316 144 365 193L420 507H535ZM408 588Q384 588 365.5 598Q347 608 325 636Q315 650 309.5 654Q304 658 299 658Q289 658 282.5 643.5Q276 629 269 596H188Q201 675 228 712.5Q255 750 300 750Q324 750 342 740Q360 730 381 702Q391 688 396.5 684Q402 680 407 680Q417 680 423.5 694.5Q430 709 437 742H518Q505 663 478.5 625.5Q452 588 408 588Z" glyph-name="utilde" horiz-adv-x="570" unicode="ũ" /><glyph d="M637 507 754 507L535 0H410L394 381L237 0H112L71 507H183L197 306L198 115L355 507H471L491 126L554 305ZM602 699 478 579H372L497 745Z" glyph-name="wacute" horiz-adv-x="737" unicode="ẃ" /><glyph d="M637 507 754 507L535 0H410L394 381L237 0H112L71 507H183L197 306L198 115L355 507H471L491 126L554 305ZM577 579 489 579L442 659L367 579H273L397 740H509Z" glyph-name="wcircumflex" horiz-adv-x="737" unicode="ŵ" /><glyph d="M637 507 754 507L535 0H410L394 381L237 0H112L71 507H183L197 306L198 115L355 507H471L491 126L554 305ZM407 716 388 609H279L298 716ZM601 716 582 609H473L492 716Z" glyph-name="wdieresis" horiz-adv-x="737" unicode="ẅ" /><glyph d="M637 507 754 507L535 0H410L394 381L237 0H112L71 507H183L197 306L198 115L355 507H471L491 126L554 305ZM472 579 376 579L294 699L405 745Z" glyph-name="wgrave" horiz-adv-x="737" unicode="ẁ" /><glyph d="M257 0 230 -50Q180 -143 121.5 -183Q63 -223 -24 -223L-4 -108Q55 -103 82.5 -86.5Q110 -70 135 -25L151 5L61 507H175L218 254L233 149L284 254L411 507H526ZM484 699 360 579H254L379 745Z" glyph-name="yacute" horiz-adv-x="499" unicode="ý" /><glyph d="M257 0 230 -50Q180 -143 121.5 -183Q63 -223 -24 -223L-4 -108Q55 -103 82.5 -86.5Q110 -70 135 -25L151 5L61 507H175L218 254L233 149L284 254L411 507H526ZM288 716 269 609H160L179 716ZM482 716 463 609H354L373 716Z" glyph-name="ydieresis" horiz-adv-x="499" unicode="ÿ" /><glyph d="M257 0 230 -50Q180 -143 121.5 -183Q63 -223 -24 -223L-4 -108Q55 -103 82.5 -86.5Q110 -70 135 -25L151 5L61 507H175L218 254L233 149L284 254L411 507H526ZM457 579 369 579L322 659L247 579H153L277 740H389Z" glyph-name="ycircumflex" horiz-adv-x="499" unicode="ŷ" /><glyph d="M257 0 230 -50Q180 -143 121.5 -183Q63 -223 -24 -223L-4 -108Q55 -103 82.5 -86.5Q110 -70 135 -25L151 5L61 507H175L218 254L233 149L284 254L411 507H526ZM354 579 258 579L176 699L287 745Z" glyph-name="ygrave" horiz-adv-x="499" unicode="ỳ" /><glyph d="M151 100 370 100L352 0H-10L6 90L271 407H72L89 507H431L416 417ZM352 740 446 740L322 579H210L142 740H230L277 660Z" glyph-name="zcaron" horiz-adv-x="432" unicode="ž" /><glyph d="M151 100 370 100L352 0H-10L6 90L271 407H72L89 507H431L416 417ZM444 699 320 579H214L339 745Z" glyph-name="zacute" horiz-adv-x="432" unicode="ź" /><glyph d="M151 100 370 100L352 0H-10L6 90L271 407H72L89 507H431L416 417ZM353 722 332 603H211L232 722Z" glyph-name="zdotaccent" horiz-adv-x="432" unicode="ż" /><glyph d="M444 699 320 579H214L339 745Z" glyph-name="acute" horiz-adv-x="500" unicode="´" /><glyph d="M354 579 258 579L176 699L287 745Z" glyph-name="grave" horiz-adv-x="500" unicode="`" /><glyph d="M457 579 369 579L322 659L247 579H153L277 740H389Z" glyph-name="circumflex" horiz-adv-x="500" unicode="ˆ" /><glyph d="M352 740 446 740L322 579H210L142 740H230L277 660Z" glyph-name="caron" horiz-adv-x="500" unicode="ˇ" /><glyph d="M408 588Q384 588 365.5 598Q347 608 325 636Q315 650 309.5 654Q304 658 299 658Q289 658 282.5 643.5Q276 629 269 596H188Q201 675 228 712.5Q255 750 300 750Q324 750 342 740Q360 730 381 702Q391 688 396.5 684Q402 680 407 680Q417 680 423.5 694.5Q430 709 437 742H518Q505 663 478.5 625.5Q452 588 408 588Z" glyph-name="tilde" horiz-adv-x="500" unicode="˜" /><glyph d="M288 716 269 609H160L179 716ZM482 716 463 609H354L373 716Z" glyph-name="dieresis" horiz-adv-x="500" unicode="¨" /><glyph d="M370 803Q426 803 456.5 768.5Q487 734 476 682L473 667Q464 619 428.5 591Q393 563 342 563Q286 563 256.5 596.5Q227 630 237 683L240 698Q250 747 284.5 775Q319 803 370 803ZM404 676 407 691Q411 712 399.5 724.5Q388 737 365 737Q344 737 329 724.5Q314 712 309 691L306 676Q302 655 312.5 642.5Q323 630 346 630Q368 630 383.5 642.5Q399 655 404 676Z" glyph-name="ring" horiz-adv-x="500" unicode="˚" /><glyph d="M299 -117Q299 -164 262 -193.5Q225 -223 164 -223Q145 -223 126.5 -220Q108 -217 79 -208L96 -139Q115 -144 133.5 -147Q152 -150 165 -150Q186 -150 198 -142.5Q210 -135 210 -123Q210 -113 201 -107.5Q192 -102 175 -102Q169 -102 163 -102.5Q157 -103 147 -105L128 -73L153 0H230L216 -39Q254 -42 276.5 -63.5Q299 -85 299 -117Z" glyph-name="cedilla" horiz-adv-x="500" unicode="¸" /><glyph d="M404 699 310 579H214L319 745ZM554 699 460 579H364L469 745Z" glyph-name="hungarumlaut" horiz-adv-x="500" unicode="˝" /><glyph d="M351 666Q373 666 386.5 681.5Q400 697 408 731H498Q480 656 443.5 620.5Q407 585 346 585Q281 585 251.5 622Q222 659 230 731H314Q309 698 318 682Q327 666 351 666Z" glyph-name="breve" horiz-adv-x="500" unicode="˘" /><glyph d="M206 692 509 692L494 609H191Z" glyph-name="macron" horiz-adv-x="500" unicode="¯" /><glyph d="M353 722 332 603H211L232 722Z" glyph-name="dotaccent" horiz-adv-x="500" unicode="˙" /><glyph d="M395 444 374 325H253L274 444Z" glyph-name="periodcentered" horiz-adv-x="500" unicode="·" /><glyph d="M182 -114Q182 -123 188.5 -128Q195 -133 208 -133Q218 -133 229.5 -131Q241 -129 256 -124L267 -207Q245 -215 223.5 -219Q202 -223 180 -223Q130 -223 103 -201.5Q76 -180 76 -141Q76 -98 115.5 -54Q155 -10 240 44L294 0Q231 -46 206.5 -70.5Q182 -95 182 -114Z" glyph-name="ogonek" horiz-adv-x="500" unicode="˛" /><glyph d="M243 -77 135 -256L61 -239L119 -77Z" glyph-name="commaaccent" horiz-adv-x="500" unicode="" /><glyph d="M479 765 409 571H332L366 765Z" glyph-name="caron.alt" horiz-adv-x="500" unicode="" /><glyph d="M272 579 380 758L454 741L396 579Z" glyph-name="revcommaaccent" horiz-adv-x="500" unicode="" /><glyph d="M142 119 121 0H0L21 119Z" glyph-name="period" horiz-adv-x="211" unicode="." /><glyph d="M25 119 137 119L134 100Q116 2 82 -71.5Q48 -145 -15 -223L-80 -184Q-38 -112 -16.5 -52Q5 8 25 119Z" glyph-name="comma" horiz-adv-x="211" unicode="," /><glyph d="M210 507 189 388H68L89 507ZM142 119 121 0H0L21 119Z" glyph-name="colon" horiz-adv-x="211" unicode=":" /><glyph d="M210 507 189 388H68L89 507ZM25 119 137 119L134 100Q116 2 82 -71.5Q48 -145 -15 -223L-80 -184Q-38 -112 -16.5 -52Q5 8 25 119Z" glyph-name="semicolon" horiz-adv-x="211" unicode=";" /><glyph d="M542 119 521 0H400L421 119ZM542 119 521 0H400L421 119ZM542 119 521 0H400L421 119Z" glyph-name="ellipsis" horiz-adv-x="611" unicode="…" /><glyph d="M271 583Q238 583 199 574Q160 565 108 545L79 644Q134 667 184.5 678.5Q235 690 285 690Q393 690 443.5 636Q494 582 476 492L472 472Q464 433 444.5 403.5Q425 374 375 330L337 297Q303 267 289.5 249.5Q276 232 272 208L271 199H151L154 217Q161 260 181.5 290.5Q202 321 252 364L291 398Q328 431 340.5 448Q353 465 356 486L359 504Q367 543 344.5 563Q322 583 271 583ZM258 119 237 0H116L137 119Z" glyph-name="question" horiz-adv-x="464" unicode="?" /><glyph d="M235 460 176 199H86L120 460L159 680H274ZM177 119 156 0H35L56 119Z" glyph-name="exclam" horiz-adv-x="281" unicode="!" /><glyph d="M219 388 240 507H361L340 388ZM205 -76Q239 -76 278 -67Q317 -58 369 -38L398 -137Q342 -161 291.5 -172Q241 -183 192 -183Q84 -183 33.5 -129Q-17 -75 1 15L5 35Q13 74 32.5 103.5Q52 133 102 177L140 210Q174 240 187 257.5Q200 275 204 299L206 308H326L323 290Q316 247 295.5 216.5Q275 186 225 143L186 109Q150 78 137 60.5Q124 43 120 21L117 3Q110 -36 132 -56Q154 -76 205 -76Z" glyph-name="questiondown" horiz-adv-x="464" unicode="¿" /><glyph d="M103 388 124 507H245L224 388ZM45 47 104 308H194L160 47L121 -173H6Z" glyph-name="exclamdown" horiz-adv-x="281" unicode="¡" /><glyph d="M166 206 166 184Q166 118 193 47Q220 -24 270 -88L181 -153Q120 -79 84.5 13Q49 105 49 190V221Q49 367 120.5 497Q192 627 340 750L406 665Q277 551 221.5 443.5Q166 336 166 206Z" glyph-name="parenleft" horiz-adv-x="335" unicode="(" /><glyph d="M184 391 184 413Q184 479 157 550Q130 621 80 685L169 750Q230 676 265.5 584Q301 492 301 407V376Q301 230 229.5 100Q158 -30 10 -153L-56 -68Q73 46 128.5 153.5Q184 261 184 391Z" glyph-name="parenright" horiz-adv-x="335" unicode=")" /><glyph d="M238 -44 327 -44L310 -144H229Q129 -144 91 -86.5Q53 -29 89 61L124 147Q146 201 133 224.5Q120 248 72 248H19L36 348H89Q138 348 159.5 372Q181 396 177 449L172 535Q167 633 216 686.5Q265 740 361 740H465L448 640H359Q324 640 306 617Q288 594 290 554L295 468Q299 399 272.5 354Q246 309 192 293Q240 278 251 236.5Q262 195 235 128L199 42Q183 2 193 -21Q203 -44 238 -44Z" glyph-name="braceleft" horiz-adv-x="381" unicode="{" /><glyph d="M219 147 224 61Q229 -37 180 -90.5Q131 -144 35 -144H-69L-52 -44H37Q72 -44 90 -21Q108 2 106 42L101 128Q97 197 123.5 242Q150 287 204 303Q156 318 145 359.5Q134 401 161 468L197 554Q213 594 203 617Q193 640 158 640H69L86 740H167Q267 740 305 682.5Q343 625 307 535L272 449Q250 395 263 371.5Q276 348 324 348H377L360 248H307Q258 248 236.5 224Q215 200 219 147Z" glyph-name="braceright" horiz-adv-x="381" unicode="}" /><glyph d="M156 -43 296 -43L279 -143H24L179 740H434L417 640H277Z" glyph-name="bracketleft" horiz-adv-x="350" unicode="[" /><glyph d="M86 740 341 740L186 -143H-69L-52 -43H89L208 640H69Z" glyph-name="bracketright" horiz-adv-x="350" unicode="]" /><glyph d="M-109 -143 367 740H488L12 -143Z" glyph-name="slash" horiz-adv-x="394" unicode="/" /><glyph d="M76 740 190 740L363 -143H249Z" glyph-name="backslash" horiz-adv-x="394" unicode="\" /><glyph d="M335 -163 -69 -163L-56 -90H348Z" glyph-name="underscore" horiz-adv-x="414" unicode="_" /><glyph d="M356 265 52 265L69 365H373Z" glyph-name="hyphen" horiz-adv-x="404" unicode="-" /><glyph d="" glyph-name="uni00AD" horiz-adv-x="0" unicode="­" /><glyph d="M556 265 52 265L69 365H573Z" glyph-name="endash" horiz-adv-x="604" unicode="–" /><glyph d="M756 265 52 265L69 365H773Z" glyph-name="emdash" horiz-adv-x="804" unicode="—" /><glyph d="M101 357 168 740H283L216 357ZM0 -213 68 170H183L115 -213Z" glyph-name="brokenbar" horiz-adv-x="281" unicode="¦" /><glyph d="M11 -213 179 740H294L126 -213Z" glyph-name="bar" horiz-adv-x="303" unicode="|" /><glyph d="M152 241 316 126L295 14L34 209L47 286L377 478L356 354ZM472 241 636 126L615 14L354 209L367 286L697 478L676 354Z" glyph-name="guillemotleft" horiz-adv-x="712" unicode="«" /><glyph d="M355 283 342 206L12 14L33 138L237 251L73 366L94 478ZM675 283 662 206L332 14L353 138L557 251L393 366L414 478Z" glyph-name="guillemotright" horiz-adv-x="713" unicode="»" /><glyph d="M152 241 316 126L295 14L34 209L47 286L377 478L356 354Z" glyph-name="guilsinglleft" horiz-adv-x="392" unicode="‹" /><glyph d="M355 283 342 206L12 14L33 138L237 251L73 366L94 478Z" glyph-name="guilsinglright" horiz-adv-x="393" unicode="›" /><glyph d="M26 119 138 119L135 100Q121 26 88 -40Q55 -106 -7 -183L-72 -144Q-28 -71 -8.5 -19Q11 33 26 119Z" glyph-name="quotesinglbase" horiz-adv-x="211" unicode="‚" /><glyph d="M26 119 138 119L135 100Q121 26 88 -40Q55 -106 -7 -183L-72 -144Q-28 -71 -8.5 -19Q11 33 26 119ZM211 119 323 119L320 100Q306 26 273 -40Q240 -106 178 -183L113 -144Q157 -71 176.5 -19Q196 33 211 119Z" glyph-name="quotedblbase" horiz-adv-x="396" unicode="„" /><glyph d="M167 388 55 388L58 407Q72 481 105 547Q138 613 200 690L265 651Q221 578 201.5 526Q182 474 167 388Z" glyph-name="quoteleft" horiz-adv-x="211" unicode="‘" /><glyph d="M352 388 240 388L243 407Q257 481 290 547Q323 613 385 690L450 651Q406 578 386.5 526Q367 474 352 388ZM167 388 55 388L58 407Q72 481 105 547Q138 613 200 690L265 651Q221 578 201.5 526Q182 474 167 388Z" glyph-name="quotedblleft" horiz-adv-x="396" unicode="“" /><glyph d="M131 681 243 681L240 662Q226 588 193 522Q160 456 98 379L33 418Q77 491 96.5 543Q116 595 131 681Z" glyph-name="quoteright" horiz-adv-x="211" unicode="’" /><glyph d="M143 680 255 680L252 661Q238 587 205 521Q172 455 110 378L45 417Q89 490 108.5 542Q128 594 143 680ZM328 680 440 680L437 661Q423 587 390 521Q357 455 295 378L230 417Q274 490 293.5 542Q313 594 328 680Z" glyph-name="quotedblright" horiz-adv-x="396" unicode="”" /><glyph d="M217 584 162 388H95L110 584L127 680H234Z" glyph-name="quotesingle" horiz-adv-x="211" unicode="'" /><glyph d="M217 584 162 388H95L110 584L127 680H234ZM392 584 337 388H270L285 584L302 680H409Z" glyph-name="quotedbl" horiz-adv-x="386" unicode="&quot;" /><glyph d="M220 405 195 262H50L75 405Z" glyph-name="bullet" horiz-adv-x="243" unicode="•" /><glyph d="M462 186Q462 97 393.5 43.5Q325 -10 214 -10Q115 -10 59.5 35.5Q4 81 4 163Q4 235 45.5 284.5Q87 334 171 362Q130 402 109 444.5Q88 487 88 530Q88 604 139 647Q190 690 279 690Q380 690 430 631.5Q480 573 453 493L343 478Q357 531 340 558.5Q323 586 277 586Q241 586 222 569.5Q203 553 203 520Q203 490 220 457Q237 424 271 387L387 412Q437 423 473 433Q509 443 542 454L575 352Q542 342 509 334Q476 326 439 319L416 315Q440 283 451 251.5Q462 220 462 186ZM119 171Q119 135 144.5 115.5Q170 96 216 96Q274 96 310.5 124.5Q347 153 347 201Q347 222 339.5 246Q332 270 317 295L269 286Q194 271 156.5 242Q119 213 119 171Z" glyph-name="ampersand" horiz-adv-x="555" unicode="&amp;" /><glyph d="M70 440 79 496Q93 586 153 633Q213 680 313 680H635L619 593H535L405 -143H285L415 593H352L288 230H260Q156 230 105.5 286.5Q55 343 70 440Z" glyph-name="paragraph" horiz-adv-x="572" unicode="¶" /><glyph d="M282 308 263 199L180 -143H110L148 199L167 308L208 439L105 423H45L64 532H124L221 516L223 620L234 680H349L338 620L303 515L407 531H467L447 422H387L289 439Z" glyph-name="dagger" horiz-adv-x="433" unicode="†" /><glyph d="M226 21 224 -83L214 -143H99L109 -83L145 22L41 6H-19L0 115H60L159 98L165 229L179 308L220 439L117 423H57L76 532H136L233 516L235 620L246 680H361L350 620L315 515L419 531H479L459 422H399L301 439L294 308L280 229L240 98L343 114H403L384 5H324Z" glyph-name="daggerdbl" horiz-adv-x="455" unicode="‡" /><glyph d="M357 100Q379 78 389.5 47.5Q400 17 400 -22Q400 -116 336.5 -169.5Q273 -223 157 -223Q105 -223 57 -211Q9 -199 -45 -172L1 -69Q57 -94 90.5 -103Q124 -112 161 -112Q216 -112 245 -91Q274 -70 274 -32Q274 -8 261.5 7.5Q249 23 221 36L148 69Q87 97 57 135.5Q27 174 27 225Q27 274 57 315.5Q87 357 140 383Q121 404 111.5 431.5Q102 459 102 494Q102 585 163 637.5Q224 690 335 690Q378 690 420.5 679.5Q463 669 516 646L470 543Q420 564 390.5 571.5Q361 579 331 579Q281 579 254.5 560Q228 541 228 505Q228 483 240.5 468.5Q253 454 284 440L357 407Q417 380 444 343Q471 306 471 253Q471 206 441 165.5Q411 125 357 100ZM153 244Q153 222 166 208Q179 194 222 175L275 151Q308 166 326.5 187.5Q345 209 345 233Q345 255 331 270.5Q317 286 283 301L215 332Q186 318 169.5 293.5Q153 269 153 244Z" glyph-name="section" horiz-adv-x="516" unicode="§" /><glyph d="M353 387 374 342L289 300L267 346L241 448L181 360L146 325L80 394L115 428L203 484L103 514L59 538L104 621L147 598L229 531L225 636L234 686L327 669L319 620L280 523L379 558L429 565L442 471L393 464L288 470Z" glyph-name="asterisk" horiz-adv-x="413" unicode="*" /><glyph d="M417 680 504 680L554 503L668 680H760L700 340H622L637 427L668 564L559 391H514L468 563L450 427L435 340H357ZM170 603 66 603L80 680H369L355 603H251L205 340H124Z" glyph-name="trademark" horiz-adv-x="734" unicode="™" /><glyph d="M542 479Q542 377 475 309Q408 241 308 241Q208 241 141 309Q74 377 74 479Q74 582 140.5 649.5Q207 717 308 717Q409 717 475.5 649.5Q542 582 542 479ZM136 479Q136 402 185 350.5Q234 299 308 299Q382 299 431 350.5Q480 402 480 479Q480 557 431 608Q382 659 308 659Q234 659 185 608Q136 557 136 479ZM280 353 219 353V608H314Q353 608 375.5 586Q398 564 398 526V517Q398 494 389 475.5Q380 457 364 447Q378 425 390 401.5Q402 378 413 353H346Q336 376 326 396Q316 416 306 434H280ZM314 550 280 550V493H314Q324 493 329.5 499.5Q335 506 335 517V526Q335 537 329.5 543.5Q324 550 314 550Z" glyph-name="registered" horiz-adv-x="537" unicode="®" /><glyph d="M804 340Q804 177 698.5 70Q593 -37 432 -37Q271 -37 165.5 70Q60 177 60 340Q60 503 165.5 610Q271 717 432 717Q593 717 698.5 610Q804 503 804 340ZM136 340Q136 206 219.5 119.5Q303 33 432 33Q561 33 644.5 119.5Q728 206 728 340Q728 473 644 560Q560 647 432 647Q304 647 220 560Q136 473 136 340ZM433 472Q390 472 369 445Q348 418 348 361V320Q348 263 368.5 235.5Q389 208 433 208Q457 208 484 215Q511 222 541 237L570 158Q537 141 500.5 132Q464 123 428 123Q344 123 299.5 174Q255 225 255 320V361Q255 455 299.5 506Q344 557 428 557Q463 557 497 548.5Q531 540 561 525L532 446Q504 459 479.5 465.5Q455 472 433 472Z" glyph-name="copyright" horiz-adv-x="834" unicode="©" /><glyph d="M699 -75 729 -167Q669 -194 601 -208.5Q533 -223 467 -223Q271 -223 155.5 -106Q40 11 40 207Q40 419 167 554.5Q294 690 496 690Q680 690 797 577.5Q914 465 914 289Q914 162 848 78.5Q782 -5 682 -5Q633 -5 601.5 15Q570 35 558 73Q517 30 479 10Q441 -10 399 -10Q331 -10 299.5 51Q268 112 284 211L291 255Q308 362 361 414.5Q414 467 504 467Q551 467 600.5 450.5Q650 434 701 402L659 162Q652 126 661.5 106.5Q671 87 695 87Q742 87 776.5 145.5Q811 204 811 289Q811 424 723.5 509.5Q636 595 496 595Q338 595 240.5 486.5Q143 378 143 207Q143 52 230 -38Q317 -128 467 -128Q526 -128 587.5 -114Q649 -100 699 -75ZM407 255 400 211Q391 153 401 124Q411 95 441 95Q466 95 492.5 115Q519 135 549 176L579 348Q558 358 543 362Q528 366 514 366Q470 366 443 337.5Q416 309 407 255Z" glyph-name="at" horiz-adv-x="946" unicode="@" /><glyph d="M355 340 343 340Q312 340 291 354.5Q270 369 262 395Q231 365 203 350Q175 335 149 335Q101 335 77.5 381Q54 427 67 498L72 527Q86 607 127 646Q168 685 238 685Q271 685 306 674Q341 663 373 642L338 445Q336 430 341 423.5Q346 417 361 417H369ZM153 527 148 498Q141 456 149 434Q157 412 179 412Q197 412 218.5 426.5Q240 441 264 469L286 598Q273 604 260.5 607Q248 610 236 610Q202 610 181 589Q160 568 153 527Z" glyph-name="ordfeminine" horiz-adv-x="353" unicode="ª" /><glyph d="M235 685Q306 685 343.5 638Q381 591 370 518L365 484Q354 413 311.5 374Q269 335 202 335Q129 335 91.5 381.5Q54 428 66 502L71 536Q81 607 124 646Q167 685 235 685ZM284 484 290 521Q296 563 281 586.5Q266 610 232 610Q200 610 179 590.5Q158 571 152 536L146 499Q139 458 155 434Q171 410 205 410Q237 410 257.5 429.5Q278 449 284 484Z" glyph-name="ordmasculine" horiz-adv-x="346" unicode="º" /><glyph d="M353 0 251 0L338 185H199L112 0H10L97 185H3L18 272H138L203 408H112L127 495H244L331 680H433L346 495H485L572 680H674L587 495H681L666 408H546L481 272H572L557 185H440ZM305 408 240 272H379L444 408Z" glyph-name="numbersign" horiz-adv-x="654" unicode="#" /><glyph d="M946 685Q1022 685 1062.5 635.5Q1103 586 1091 508L1086 474Q1075 398 1029 356.5Q983 315 910 315Q833 315 793 364Q753 413 765 492L770 526Q781 602 827 643.5Q873 685 946 685ZM164 0 49 0L169 680H279Q345 547 390 439.5Q435 332 477 209L503 420L549 680H664L544 0H434Q394 133 347.5 254.5Q301 376 244 501L210 260ZM998 474 1004 511Q1011 555 994.5 579Q978 603 941 603Q908 603 886 582.5Q864 562 858 526L852 489Q845 446 862 421.5Q879 397 915 397Q948 397 970 417.5Q992 438 998 474ZM1009 159 725 159L739 241H1023Z" glyph-name="uni2116" horiz-adv-x="1088" unicode="№" /><glyph d="M506 128 531 23Q483 7 437 -1.5Q391 -10 350 -10Q250 -10 191 48.5Q132 107 128 207H36L52 294H135L148 370H65L81 457H164Q194 575 263.5 632.5Q333 690 444 690Q488 690 530 680Q572 670 616 648L571 542Q526 562 496.5 569.5Q467 577 436 577Q384 577 347 546.5Q310 516 289 457H504L470 370H271L258 294H444L410 207H252Q257 156 285 129.5Q313 103 362 103Q393 103 428.5 109Q464 115 506 128Z" glyph-name="Euro" horiz-adv-x="602" unicode="€" /><glyph d="M467 204Q467 116 415 60.5Q363 5 266 -7L242 -145H132L156 -7Q119 -2 81 9.5Q43 21 2 41L44 144Q96 120 133 110.5Q170 101 211 101Q274 101 307.5 125Q341 149 341 194Q341 221 325.5 240Q310 259 274 275L201 308Q140 335 111.5 377Q83 419 83 481Q83 569 134 623.5Q185 678 279 688L303 825H413L388 684Q414 679 441.5 670Q469 661 503 646L461 543Q411 564 381.5 571.5Q352 579 322 579Q266 579 237.5 557Q209 535 209 492Q209 466 223.5 448.5Q238 431 275 414L348 381Q409 353 438 310Q467 267 467 204Z" glyph-name="dollar" horiz-adv-x="518" unicode="$" /><glyph d="M506 236 490 149H325L299 0H179L205 149H40L56 236H221L227 271L213 312H69L84 399H184L89 680H213L306 391L496 680H627L434 399H534L519 312H374L348 274L341 236Z" glyph-name="yen" horiz-adv-x="566" unicode="¥" /><glyph d="M178 115 436 115L416 0H16L35 105Q96 149 124.5 188Q153 227 154 272H56L74 372H134Q120 416 115.5 440.5Q111 465 111 490Q111 585 168 637.5Q225 690 331 690Q376 690 419.5 680Q463 670 513 648L468 542Q427 560 394.5 568.5Q362 577 333 577Q284 577 258.5 553Q233 529 233 483Q233 468 236 450.5Q239 433 257 372H413L395 272H272Q268 233 245 194Q222 155 178 115Z" glyph-name="sterling" horiz-adv-x="487" unicode="£" /><glyph d="M366 120 383 21Q349 8 321 1Q293 -6 268 -8L248 -125H138L160 1Q91 24 62.5 87Q34 150 50 242L59 294Q76 389 125 445.5Q174 502 251 514L271 632H381L360 510Q380 506 400 499Q420 492 441 483L403 384Q372 397 344 404Q316 411 293 411Q245 411 213.5 380.5Q182 350 172 294L161 234Q148 165 170.5 130.5Q193 96 251 96Q276 96 303 101.5Q330 107 366 120Z" glyph-name="cent" horiz-adv-x="450" unicode="¢" /><glyph d="M254 307 163 -33Q133 -144 92 -183.5Q51 -223 -23 -223Q-52 -223 -82 -217.5Q-112 -212 -135 -203L-99 -104Q-85 -109 -68 -112Q-51 -115 -35 -115Q-1 -115 17 -97.5Q35 -80 48 -33L139 307H22L40 407H165L206 560Q236 671 277 710.5Q318 750 392 750Q421 750 451 744.5Q481 739 504 730L468 631Q454 636 437 639Q420 642 404 642Q370 642 352 624.5Q334 607 321 560L280 407H395L377 307Z" glyph-name="florin" horiz-adv-x="393" unicode="ƒ" /><glyph d="M427 0 280 0Q234 62 186.5 116Q139 170 58 250L73 337H229Q272 337 302 359Q332 381 345 422H88L104 509H360Q362 549 339.5 571Q317 593 275 593H119L134 680H586L571 593H439Q454 576 462 555Q470 534 471 509H556L540 422H459Q442 338 379.5 294Q317 250 214 250H208Q275 185 325 128Q375 71 427 0Z" glyph-name="uni20B9" horiz-adv-x="552" unicode="₹" /><glyph d="M272 103Q240 103 211.5 111.5Q183 120 160 136L31 25L-18 87L109 198Q101 216 96.5 237.5Q92 259 92 282Q92 318 103 352Q114 386 135 415L57 513L121 569L199 471Q223 484 249.5 490.5Q276 497 303 497Q335 497 363.5 488.5Q392 480 414 464L542 576L591 513L465 403Q474 384 478.5 363Q483 342 483 318Q483 281 472 247Q461 213 439 184L516 87L453 32L375 129Q352 116 326 109.5Q300 103 272 103ZM388 314Q388 357 364.5 382Q341 407 300 407Q251 407 219 372.5Q187 338 187 286Q187 243 210.5 218Q234 193 275 193Q324 193 356 227.5Q388 262 388 314Z" glyph-name="currency" horiz-adv-x="558" unicode="¤" /><glyph d="M364 690Q479 690 536.5 610.5Q594 531 571 402L549 279Q523 131 456 60.5Q389 -10 277 -10Q160 -10 102.5 69.5Q45 149 69 279L91 402Q117 548 184.5 619Q252 690 364 690ZM428 279 450 402Q465 488 441 533.5Q417 579 357 579Q299 579 263.5 536.5Q228 494 212 402L190 279Q174 192 197.5 146.5Q221 101 282 101Q342 101 376.5 143Q411 185 428 279Z" glyph-name="zero" horiz-adv-x="610" unicode="0" /><glyph d="M106 489 68 583L258 680H358L238 0H120L216 544Z" glyph-name="one" horiz-adv-x="377" unicode="1" /><glyph d="M143 113 437 113L417 0H5L22 95Q40 191 79 245Q118 299 203 340L277 376Q339 406 358.5 424Q378 442 383 469L387 491Q394 534 370 556.5Q346 579 293 579Q261 579 225.5 570.5Q190 562 137 541L109 644Q167 668 213.5 679Q260 690 306 690Q411 690 465.5 633.5Q520 577 505 491L501 468Q490 404 455 364Q420 324 312 272L238 236Q197 217 175.5 189.5Q154 162 143 113Z" glyph-name="two" horiz-adv-x="514" unicode="2" /><glyph d="M437 193 435 179Q421 85 360 37.5Q299 -10 192 -10Q142 -10 94.5 1.5Q47 13 -4 38L39 141Q88 119 123.5 110Q159 101 195 101Q251 101 281.5 121.5Q312 142 318 183L320 197Q326 242 305.5 265.5Q285 289 240 289H134L153 397H259Q303 397 330 417Q357 437 363 474L366 493Q373 537 352 558Q331 579 281 579Q248 579 211 570.5Q174 562 119 541L89 644Q145 667 194.5 678.5Q244 690 291 690Q396 690 447.5 638Q499 586 485 498L482 479Q475 432 449 395.5Q423 359 381 336Q415 313 429 276.5Q443 240 437 193Z" glyph-name="three" horiz-adv-x="504" unicode="3" /><glyph d="M506 261 487 154H416L389 0H273L300 154H8L25 251Q146 400 217 498.5Q288 597 333 680H474Q431 601 364 507.5Q297 414 170 261H319L337 364H453L435 261Z" glyph-name="four" horiz-adv-x="527" unicode="4" /><glyph d="M130 294 76 351L154 680H505L485 567H239L205 420Q220 423 235 424.5Q250 426 266 426Q369 426 421 367Q473 308 454 214L448 184Q428 86 365 38Q302 -10 195 -10Q144 -10 96.5 1.5Q49 13 -2 38L43 141Q97 118 131.5 109.5Q166 101 202 101Q255 101 287 122Q319 143 327 184L333 214Q343 264 319 291.5Q295 319 241 319Q219 319 192 313Q165 307 130 294Z" glyph-name="five" horiz-adv-x="510" unicode="5" /><glyph d="M516 219 512 197Q494 97 433 43.5Q372 -10 276 -10Q161 -10 105 73Q49 156 72 291L94 422Q117 560 185.5 625Q254 690 377 690Q424 690 469 679Q514 668 562 644L513 541Q475 560 442 569.5Q409 579 378 579Q305 579 264 540.5Q223 502 209 422L201 374Q240 406 279 421.5Q318 437 357 437Q442 437 487.5 374Q533 311 516 219ZM321 329Q289 329 250.5 314.5Q212 300 183 275Q171 190 196 145.5Q221 101 280 101Q325 101 356 127Q387 153 395 197L399 217Q409 268 388.5 298.5Q368 329 321 329Z" glyph-name="six" horiz-adv-x="568" unicode="6" /><glyph d="M526 680 507 577Q416 437 345 294Q274 151 221 0H89Q140 146 210 286.5Q280 427 370 567H74L94 680Z" glyph-name="seven" horiz-adv-x="474" unicode="7" /><glyph d="M422 351Q463 323 483 287Q503 251 503 204Q503 106 436.5 48Q370 -10 251 -10Q149 -10 92 32.5Q35 75 35 148Q35 205 70.5 256Q106 307 173 342Q138 369 121 403.5Q104 438 104 483Q104 575 168 632.5Q232 690 340 690Q437 690 491 648Q545 606 545 531Q545 478 513.5 431Q482 384 422 351ZM224 494Q224 468 240 449.5Q256 431 296 413L346 391Q385 419 404.5 448.5Q424 478 424 510Q424 546 401.5 565Q379 584 336 584Q285 584 254.5 559.5Q224 535 224 494ZM157 177Q157 138 183 117Q209 96 257 96Q316 96 348.5 120.5Q381 145 381 189Q381 216 362.5 236.5Q344 257 302 276L250 299Q201 268 179 239.5Q157 211 157 177Z" glyph-name="eight" horiz-adv-x="567" unicode="8" /><glyph d="M528 389 506 258Q483 120 414.5 55Q346 -10 223 -10Q176 -10 131 1Q86 12 38 36L87 139Q125 120 158 110.5Q191 101 222 101Q295 101 336 139.5Q377 178 391 258L399 306Q360 274 321 258.5Q282 243 243 243Q160 243 115.5 304.5Q71 366 84 461L87 483Q100 580 162.5 635Q225 690 324 690Q439 690 495 607Q551 524 528 389ZM204 483 201 463Q193 410 213 380.5Q233 351 279 351Q311 351 349.5 365.5Q388 380 417 405Q429 490 404 534.5Q379 579 320 579Q275 579 243 552.5Q211 526 204 483Z" glyph-name="nine" horiz-adv-x="570" unicode="9" /><glyph d="M334 690Q449 690 506.5 610.5Q564 531 541 402L519 279Q493 131 426 60.5Q359 -10 247 -10Q130 -10 72.5 69.5Q15 149 39 279L61 402Q87 548 154.5 619Q222 690 334 690ZM398 279 420 402Q435 488 411 533.5Q387 579 327 579Q269 579 233.5 536.5Q198 494 182 402L160 279Q144 192 167.5 146.5Q191 101 252 101Q312 101 346.5 143Q381 185 398 279Z" glyph-name="zero.tlf" horiz-adv-x="550" unicode="" /><glyph d="M164 480 126 574L333 680H433L333 113H455L435 0H43L63 113H215L291 544Z" glyph-name="one.tlf" horiz-adv-x="550" unicode="" /><glyph d="M169 113 463 113L443 0H31L48 95Q66 191 105 245Q144 299 229 340L303 376Q365 406 384.5 424Q404 442 409 469L413 491Q420 534 396 556.5Q372 579 319 579Q287 579 251.5 570.5Q216 562 163 541L135 644Q193 668 239.5 679Q286 690 332 690Q437 690 491.5 633.5Q546 577 531 491L527 468Q516 404 481 364Q446 324 338 272L264 236Q223 217 201.5 189.5Q180 162 169 113Z" glyph-name="two.tlf" horiz-adv-x="550" unicode="" /><glyph d="M463 193 461 179Q447 85 386 37.5Q325 -10 218 -10Q168 -10 120.5 1.5Q73 13 22 38L65 141Q114 119 149.5 110Q185 101 221 101Q277 101 307.5 121.5Q338 142 344 183L346 197Q352 242 331.5 265.5Q311 289 266 289H160L179 397H285Q329 397 356 417Q383 437 389 474L392 493Q399 537 378 558Q357 579 307 579Q274 579 237 570.5Q200 562 145 541L115 644Q171 667 220.5 678.5Q270 690 317 690Q422 690 473.5 638Q525 586 511 498L508 479Q501 432 475 395.5Q449 359 407 336Q441 313 455 276.5Q469 240 463 193Z" glyph-name="three.tlf" horiz-adv-x="550" unicode="" /><glyph d="M519 261 500 154H429L402 0H286L313 154H21L38 251Q159 400 230 498.5Q301 597 346 680H487Q444 601 377 507.5Q310 414 183 261H332L350 364H466L448 261Z" glyph-name="four.tlf" horiz-adv-x="550" unicode="" /><glyph d="M145 294 91 351L169 680H520L500 567H254L220 420Q235 423 250 424.5Q265 426 281 426Q384 426 436 367Q488 308 469 214L463 184Q443 86 380 38Q317 -10 210 -10Q159 -10 111.5 1.5Q64 13 13 38L58 141Q112 118 146.5 109.5Q181 101 217 101Q270 101 302 122Q334 143 342 184L348 214Q358 264 334 291.5Q310 319 256 319Q234 319 207 313Q180 307 145 294Z" glyph-name="five.tlf" horiz-adv-x="550" unicode="" /><glyph d="M505 219 501 197Q483 97 422 43.5Q361 -10 265 -10Q150 -10 94 73Q38 156 61 291L83 422Q106 560 174.5 625Q243 690 366 690Q413 690 458 679Q503 668 551 644L502 541Q464 560 431 569.5Q398 579 367 579Q294 579 253 540.5Q212 502 198 422L190 374Q229 406 268 421.5Q307 437 346 437Q431 437 476.5 374Q522 311 505 219ZM310 329Q278 329 239.5 314.5Q201 300 172 275Q160 190 185 145.5Q210 101 269 101Q314 101 345 127Q376 153 384 197L388 217Q398 268 377.5 298.5Q357 329 310 329Z" glyph-name="six.tlf" horiz-adv-x="550" unicode="" /><glyph d="M563 680 544 577Q453 437 382 294Q311 151 258 0H126Q177 146 247 286.5Q317 427 407 567H111L131 680Z" glyph-name="seven.tlf" horiz-adv-x="550" unicode="" /><glyph d="M417 351Q458 323 478 287Q498 251 498 204Q498 106 431.5 48Q365 -10 246 -10Q144 -10 87 32.5Q30 75 30 148Q30 205 65.5 256Q101 307 168 342Q133 369 116 403.5Q99 438 99 483Q99 575 163 632.5Q227 690 335 690Q432 690 486 648Q540 606 540 531Q540 478 508.5 431Q477 384 417 351ZM219 494Q219 468 235 449.5Q251 431 291 413L341 391Q380 419 399.5 448.5Q419 478 419 510Q419 546 396.5 565Q374 584 331 584Q280 584 249.5 559.5Q219 535 219 494ZM152 177Q152 138 178 117Q204 96 252 96Q311 96 343.5 120.5Q376 145 376 189Q376 216 357.5 236.5Q339 257 297 276L245 299Q196 268 174 239.5Q152 211 152 177Z" glyph-name="eight.tlf" horiz-adv-x="550" unicode="" /><glyph d="M520 389 498 258Q475 120 406.5 55Q338 -10 215 -10Q168 -10 123 1Q78 12 30 36L79 139Q117 120 150 110.5Q183 101 214 101Q287 101 328 139.5Q369 178 383 258L391 306Q352 274 313 258.5Q274 243 235 243Q152 243 107.5 304.5Q63 366 76 461L79 483Q92 580 154.5 635Q217 690 316 690Q431 690 487 607Q543 524 520 389ZM196 483 193 463Q185 410 205 380.5Q225 351 271 351Q303 351 341.5 365.5Q380 380 409 405Q421 490 396 534.5Q371 579 312 579Q267 579 235 552.5Q203 526 196 483Z" glyph-name="nine.tlf" horiz-adv-x="550" unicode="" /><glyph d="M307 517Q417 517 475 447.5Q533 378 516 266L508 214Q492 107 426 48.5Q360 -10 257 -10Q147 -10 89 60Q31 130 49 242L57 294Q73 401 138 459Q203 517 307 517ZM390 214 399 271Q410 338 384.5 376Q359 414 303 414Q252 414 218 382.5Q184 351 175 294L166 237Q155 171 181 132Q207 93 262 93Q312 93 346.5 125Q381 157 390 214Z" glyph-name="zero.posf" horiz-adv-x="565" unicode="" /><glyph d="M84 316 46 410L236 507H336L247 0H129L194 371Z" glyph-name="one.posf" horiz-adv-x="371" unicode="" /><glyph d="M156 105 406 105L387 0H19L36 95Q49 169 84 210Q119 251 193 276L265 300Q297 310 313.5 323Q330 336 334 353L335 361Q339 385 321.5 397.5Q304 410 267 410Q233 410 201 402.5Q169 395 123 376L91 473Q146 496 190.5 506.5Q235 517 278 517Q373 517 419.5 470Q466 423 451 348L449 338Q440 291 404.5 258Q369 225 301 203L229 179Q192 167 176.5 151Q161 135 156 105Z" glyph-name="two.posf" horiz-adv-x="492" unicode="" /><glyph d="M388 20 386 6Q372 -88 311 -135.5Q250 -183 143 -183Q93 -183 45.5 -171.5Q-2 -160 -53 -135L-10 -32Q39 -54 74.5 -63Q110 -72 146 -72Q202 -72 232.5 -51.5Q263 -31 269 10L271 24Q277 69 256.5 92.5Q236 116 191 116H85L104 224H210Q254 224 281 244Q308 264 314 301L317 320Q324 364 303 385Q282 406 232 406Q199 406 162 397.5Q125 389 70 368L40 471Q96 494 145.5 505.5Q195 517 242 517Q347 517 398.5 465Q450 413 436 325L433 306Q426 259 400 222.5Q374 186 332 163Q366 140 380 103.5Q394 67 388 20Z" glyph-name="three.posf" horiz-adv-x="472" unicode="" /><glyph d="M483 107 464 0H393L362 -173H246L277 0H-15L2 97Q105 216 177 313.5Q249 411 306 507H447Q395 418 322.5 321Q250 224 148 107H296L312 200H428L412 107Z" glyph-name="four.posf" horiz-adv-x="528" unicode="" /><glyph d="M88 121 34 178L112 507H463L443 394H197L163 247Q178 250 193 251.5Q208 253 224 253Q327 253 379 194Q431 135 412 41L406 11Q386 -87 323 -135Q260 -183 153 -183Q102 -183 54.5 -171.5Q7 -160 -44 -135L1 -32Q55 -55 89.5 -63.5Q124 -72 160 -72Q213 -72 245 -51Q277 -30 285 11L291 41Q301 91 277 118.5Q253 146 199 146Q177 146 150 140Q123 134 88 121Z" glyph-name="five.posf" horiz-adv-x="478" unicode="" /><glyph d="M507 219 503 197Q485 97 424 43.5Q363 -10 267 -10Q152 -10 96 73Q40 156 63 291L85 422Q108 560 176.5 625Q245 690 368 690Q415 690 460 679Q505 668 553 644L504 541Q466 560 433 569.5Q400 579 369 579Q296 579 255 540.5Q214 502 200 422L192 374Q231 406 270 421.5Q309 437 348 437Q433 437 478.5 374Q524 311 507 219ZM312 329Q280 329 241.5 314.5Q203 300 174 275Q162 190 187 145.5Q212 101 271 101Q316 101 347 127Q378 153 386 197L390 217Q400 268 379.5 298.5Q359 329 312 329Z" glyph-name="six.posf" horiz-adv-x="559" unicode="" /><glyph d="M497 507 478 404Q387 264 316 121Q245 -22 192 -173H60Q111 -27 181 113.5Q251 254 341 394H45L65 507Z" glyph-name="seven.posf" horiz-adv-x="476" unicode="" /><glyph d="M406 351Q447 323 467 287Q487 251 487 204Q487 106 420.5 48Q354 -10 235 -10Q133 -10 76 32.5Q19 75 19 148Q19 205 54.5 256Q90 307 157 342Q122 369 105 403.5Q88 438 88 483Q88 575 152 632.5Q216 690 324 690Q421 690 475 648Q529 606 529 531Q529 478 497.5 431Q466 384 406 351ZM208 494Q208 468 224 449.5Q240 431 280 413L330 391Q369 419 388.5 448.5Q408 478 408 510Q408 546 385.5 565Q363 584 320 584Q269 584 238.5 559.5Q208 535 208 494ZM141 177Q141 138 167 117Q193 96 241 96Q300 96 332.5 120.5Q365 145 365 189Q365 216 346.5 236.5Q328 257 286 276L234 299Q185 268 163 239.5Q141 211 141 177Z" glyph-name="eight.posf" horiz-adv-x="535" unicode="" /><glyph d="M493 216 471 85Q448 -53 379.5 -118Q311 -183 188 -183Q141 -183 96 -172Q51 -161 3 -137L52 -34Q90 -53 123 -62.5Q156 -72 187 -72Q260 -72 301 -33.5Q342 5 356 85L364 133Q325 101 286 85.5Q247 70 208 70Q125 70 80.5 131.5Q36 193 49 288L52 310Q65 407 127.5 462Q190 517 289 517Q404 517 460 434Q516 351 493 216ZM169 310 166 290Q158 237 178 207.5Q198 178 244 178Q276 178 314.5 192.5Q353 207 382 232Q394 317 369 361.5Q344 406 285 406Q240 406 208 379.5Q176 353 169 310Z" glyph-name="nine.posf" horiz-adv-x="552" unicode="" /><glyph d="M386 546Q386 470 335.5 418Q285 366 210 366Q144 366 104.5 405Q65 444 65 510Q65 586 115.5 638Q166 690 241 690Q307 690 346.5 651Q386 612 386 546ZM304 542Q304 575 286.5 594Q269 613 238 613Q199 613 173 585Q147 557 147 514Q147 481 164.5 462Q182 443 213 443Q252 443 278 471Q304 499 304 542Z" glyph-name="degree" horiz-adv-x="355" unicode="°" /><glyph d="M362 538 357 504Q348 443 309.5 409Q271 375 209 375Q144 375 109.5 416Q75 457 84 522L89 556Q98 617 136.5 651Q175 685 237 685Q303 685 337 644.5Q371 604 362 538ZM112 0 557 680H651L206 0ZM212 449Q238 449 255 463.5Q272 478 276 504L282 541Q287 574 274.5 592.5Q262 611 234 611Q208 611 191 596.5Q174 582 170 556L164 519Q159 486 171.5 467.5Q184 449 212 449ZM680 158 675 124Q666 63 627.5 29Q589 -5 527 -5Q462 -5 427.5 36Q393 77 402 142L407 176Q416 237 454.5 271Q493 305 555 305Q621 305 655 264.5Q689 224 680 158ZM530 69Q556 69 573 83.5Q590 98 594 124L600 161Q605 194 592.5 212.5Q580 231 552 231Q526 231 509 216.5Q492 202 488 176L482 139Q477 106 489.5 87.5Q502 69 530 69Z" glyph-name="percent" horiz-adv-x="734" unicode="%" /><glyph d="M362 538 357 504Q348 443 309.5 409Q271 375 209 375Q144 375 109.5 416Q75 457 84 522L89 556Q98 617 136.5 651Q175 685 237 685Q303 685 337 644.5Q371 604 362 538ZM112 0 557 680H651L206 0ZM212 449Q238 449 255 463.5Q272 478 276 504L282 541Q287 574 274.5 592.5Q262 611 234 611Q208 611 191 596.5Q174 582 170 556L164 519Q159 486 171.5 467.5Q184 449 212 449ZM680 158 675 124Q666 63 627.5 29Q589 -5 527 -5Q462 -5 427.5 36Q393 77 402 142L407 176Q416 237 454.5 271Q493 305 555 305Q621 305 655 264.5Q689 224 680 158ZM1023 158 1018 124Q1009 63 970.5 29Q932 -5 870 -5Q805 -5 770.5 36Q736 77 745 142L750 176Q759 237 797.5 271Q836 305 898 305Q964 305 998 264.5Q1032 224 1023 158ZM530 69Q556 69 573 83.5Q590 98 594 124L600 161Q605 194 592.5 212.5Q580 231 552 231Q526 231 509 216.5Q492 202 488 176L482 139Q477 106 489.5 87.5Q502 69 530 69ZM873 69Q899 69 916 83.5Q933 98 937 124L943 161Q948 194 935.5 212.5Q923 231 895 231Q869 231 852 216.5Q835 202 831 176L825 139Q820 106 832.5 87.5Q845 69 873 69Z" glyph-name="perthousand" horiz-adv-x="1077" unicode="‰" /><glyph d="M-199 0 246 680H340L-105 0Z" glyph-name="fraction" horiz-adv-x="111" unicode="⁄" /><glyph d="M-199 0 246 680H340L-105 0Z" glyph-name="uni2215" horiz-adv-x="111" unicode="∕" /><glyph d="M245 790Q309 790 341 751Q373 712 362 646L352 585Q340 511 305 475.5Q270 440 210 440Q145 440 113 479.5Q81 519 92 585L102 646Q114 719 149.5 754.5Q185 790 245 790ZM272 585 282 646Q287 681 277.5 698Q268 715 243 715Q219 715 204 698Q189 681 183 646L173 585Q167 551 176.5 533.5Q186 516 211 516Q237 516 251.5 532.5Q266 549 272 585Z" glyph-name="zerosuperior" horiz-adv-x="326" unicode="⁰" /><glyph d="M124 673 101 737L206 785H266L206 445H127L171 694Z" glyph-name="onesuperior" horiz-adv-x="220" unicode="¹" /><glyph d="M146 518 288 518L275 445H54L66 513Q74 561 95 587.5Q116 614 162 633L199 648Q219 656 228 664.5Q237 673 239 685L240 688Q242 701 232.5 708Q223 715 202 715Q187 715 168.5 711Q150 707 117 696L104 767Q132 779 158.5 784.5Q185 790 211 790Q270 790 297.5 764Q325 738 319 691L318 682Q314 649 291.5 624.5Q269 600 225 583L188 568Q169 561 159 549Q149 537 146 518Z" glyph-name="twosuperior" horiz-adv-x="269" unicode="²" /><glyph d="M293 542 291 530Q283 484 251 462Q219 440 160 440Q132 440 106.5 445.5Q81 451 60 461L83 531Q102 523 121 519.5Q140 516 160 516Q186 516 199 523Q212 530 215 545L216 552Q218 567 208.5 576Q199 585 179 585H128L139 649H190Q209 649 221 657Q233 665 235 679L236 686Q239 701 229.5 708Q220 715 196 715Q180 715 161.5 711.5Q143 708 120 700L103 770Q130 780 155 785Q180 790 204 790Q264 790 293.5 764Q323 738 317 694L316 687Q313 662 298 643.5Q283 625 257 615Q279 602 288 583.5Q297 565 293 542Z" glyph-name="threesuperior" horiz-adv-x="275" unicode="³" /><glyph d="M320 581 308 512H274L262 445H189L201 512H58L69 576Q115 632 151.5 684.5Q188 737 215 785H300Q272 733 236.5 682Q201 631 158 581H213L221 627H294L286 581Z" glyph-name="foursuperior" horiz-adv-x="274" unicode="⁴" /><glyph d="M132 584 100 621L139 785H330L318 716H192L178 658Q186 660 193.5 660.5Q201 661 209 661Q263 661 288.5 632.5Q314 604 305 553L302 537Q293 488 259.5 464Q226 440 169 440Q142 440 117 445.5Q92 451 66 462L89 533Q110 524 129.5 520Q149 516 170 516Q195 516 207.5 524Q220 532 223 549L226 563Q228 579 218.5 587Q209 595 187 595Q174 595 161 592.5Q148 590 132 584Z" glyph-name="fivesuperior" horiz-adv-x="276" unicode="⁵" /><glyph d="M331 560 329 544Q322 494 289.5 467Q257 440 203 440Q139 440 109.5 479Q80 518 92 587L103 651Q116 722 151.5 756Q187 790 251 790Q277 790 300 785.5Q323 781 346 771L323 700Q305 708 287.5 712Q270 716 250 716Q220 716 202.5 699.5Q185 683 179 651L177 642Q194 653 211.5 658.5Q229 664 248 664Q293 664 315 636Q337 608 331 560ZM220 595Q207 595 194 590Q181 585 166 574Q162 544 172 528.5Q182 513 206 513Q225 513 237 521.5Q249 530 251 545L253 561Q255 577 246.5 586Q238 595 220 595Z" glyph-name="sixsuperior" horiz-adv-x="303" unicode="⁶" /><glyph d="M332 785 319 714Q268 636 233.5 570Q199 504 177 445H93Q119 514 153.5 579.5Q188 645 231 709H88L101 785Z" glyph-name="sevensuperior" horiz-adv-x="253" unicode="⁷" /><glyph d="M285 626Q305 612 315.5 593Q326 574 326 551Q326 502 289 471Q252 440 189 440Q135 440 105.5 461Q76 482 76 520Q76 546 92.5 568.5Q109 591 143 610Q127 624 118.5 642Q110 660 110 683Q110 731 143.5 760.5Q177 790 235 790Q287 790 316.5 768.5Q346 747 346 709Q346 684 331.5 664Q317 644 285 626ZM187 685Q187 675 194 667.5Q201 660 215 655L237 647Q253 659 260 670Q267 681 267 695Q267 707 258 713.5Q249 720 232 720Q211 720 199 710.5Q187 701 187 685ZM156 537Q156 524 166.5 517Q177 510 196 510Q219 510 233.5 520Q248 530 248 547Q248 557 240 564Q232 571 216 577L190 586Q172 573 164 562Q156 551 156 537Z" glyph-name="eightsuperior" horiz-adv-x="303" unicode="⁸" /><glyph d="M337 643 326 579Q313 508 277.5 474Q242 440 178 440Q152 440 129 444.5Q106 449 83 459L106 530Q124 522 141.5 518Q159 514 179 514Q209 514 226.5 530.5Q244 547 250 579L252 588Q235 577 217.5 571.5Q200 566 181 566Q136 566 114 594Q92 622 98 670L100 686Q107 736 139.5 763Q172 790 226 790Q290 790 319.5 751Q349 712 337 643ZM178 685 176 669Q174 653 182.5 644Q191 635 209 635Q222 635 235 640Q248 645 263 656Q267 686 257 701.5Q247 717 223 717Q204 717 192 708.5Q180 700 178 685Z" glyph-name="ninesuperior" horiz-adv-x="303" unicode="⁹" /><glyph d="M149 240Q213 240 245 201Q277 162 266 96L256 35Q244 -39 209 -74.5Q174 -110 114 -110Q49 -110 17 -70.5Q-15 -31 -4 35L6 96Q18 169 53.5 204.5Q89 240 149 240ZM176 35 186 96Q191 131 181.5 148Q172 165 147 165Q123 165 108 148Q93 131 87 96L77 35Q71 1 80.5 -16.5Q90 -34 115 -34Q141 -34 155.5 -17.5Q170 -1 176 35Z" glyph-name="zeroinferior" horiz-adv-x="326" unicode="₀" /><glyph d="M28 123 5 187L110 235H170L110 -105H31L75 144Z" glyph-name="oneinferior" horiz-adv-x="220" unicode="₁" /><glyph d="M50 -32 192 -32L179 -105H-42L-30 -37Q-22 11 -1 37.5Q20 64 66 83L103 98Q123 106 132 114.5Q141 123 143 135L144 138Q146 151 136.5 158Q127 165 106 165Q91 165 72.5 161Q54 157 21 146L8 217Q36 229 62.5 234.5Q89 240 115 240Q174 240 201.5 214Q229 188 223 141L222 132Q218 99 195.5 74.5Q173 50 129 33L92 18Q73 11 63 -1Q53 -13 50 -32Z" glyph-name="twoinferior" horiz-adv-x="269" unicode="₂" /><glyph d="M197 -8 195 -20Q187 -66 155 -88Q123 -110 64 -110Q36 -110 10.5 -104.5Q-15 -99 -36 -89L-13 -19Q6 -27 25 -30.5Q44 -34 64 -34Q90 -34 103 -27Q116 -20 119 -5L120 2Q122 17 112.5 26Q103 35 83 35H32L43 99H94Q113 99 125 107Q137 115 139 129L140 136Q143 151 133.5 158Q124 165 100 165Q84 165 65.5 161.5Q47 158 24 150L7 220Q34 230 59 235Q84 240 108 240Q168 240 197.5 214Q227 188 221 144L220 137Q217 112 202 93.5Q187 75 161 65Q183 52 192 33.5Q201 15 197 -8Z" glyph-name="threeinferior" horiz-adv-x="275" unicode="₃" /><glyph d="M224 31 212 -38H178L166 -105H93L105 -38H-38L-27 26Q19 82 55.5 134.5Q92 187 119 235H204Q176 183 140.5 132Q105 81 62 31H117L125 77H198L190 31Z" glyph-name="fourinferior" horiz-adv-x="274" unicode="₄" /><glyph d="M36 34 4 71L43 235H234L222 166H96L82 108Q90 110 97.5 110.5Q105 111 113 111Q167 111 192.5 82.5Q218 54 209 3L206 -13Q197 -62 163.5 -86Q130 -110 73 -110Q46 -110 21 -104.5Q-4 -99 -30 -88L-7 -17Q14 -26 33.5 -30Q53 -34 74 -34Q99 -34 111.5 -26Q124 -18 127 -1L130 13Q132 29 122.5 37Q113 45 91 45Q78 45 65 42.5Q52 40 36 34Z" glyph-name="fiveinferior" horiz-adv-x="276" unicode="₅" /><glyph d="M235 10 233 -6Q226 -56 193.5 -83Q161 -110 107 -110Q43 -110 13.5 -71Q-16 -32 -4 37L7 101Q20 172 55.5 206Q91 240 155 240Q181 240 204 235.5Q227 231 250 221L227 150Q209 158 191.5 162Q174 166 154 166Q124 166 106.5 149.5Q89 133 83 101L81 92Q98 103 115.5 108.5Q133 114 152 114Q197 114 219 86Q241 58 235 10ZM124 45Q111 45 98 40Q85 35 70 24Q66 -6 76 -21.5Q86 -37 110 -37Q129 -37 141 -28.5Q153 -20 155 -5L157 11Q159 27 150.5 36Q142 45 124 45Z" glyph-name="sixinferior" horiz-adv-x="303" unicode="₆" /><glyph d="M236 235 223 164Q172 86 137.5 20Q103 -46 81 -105H-3Q23 -36 57.5 29.5Q92 95 135 159H-8L5 235Z" glyph-name="seveninferior" horiz-adv-x="253" unicode="₇" /><glyph d="M189 76Q209 62 219.5 43Q230 24 230 1Q230 -48 193 -79Q156 -110 93 -110Q39 -110 9.5 -89Q-20 -68 -20 -30Q-20 -4 -3.5 18.5Q13 41 47 60Q31 74 22.5 92Q14 110 14 133Q14 181 47.5 210.5Q81 240 139 240Q191 240 220.5 218.5Q250 197 250 159Q250 134 235.5 114Q221 94 189 76ZM91 135Q91 125 98 117.5Q105 110 119 105L141 97Q157 109 164 120Q171 131 171 145Q171 157 162 163.5Q153 170 136 170Q115 170 103 160.5Q91 151 91 135ZM60 -13Q60 -26 70.5 -33Q81 -40 100 -40Q123 -40 137.5 -30Q152 -20 152 -3Q152 7 144 14Q136 21 120 27L94 36Q76 23 68 12Q60 1 60 -13Z" glyph-name="eightinferior" horiz-adv-x="303" unicode="₈" /><glyph d="M241 93 230 29Q217 -42 181.5 -76Q146 -110 82 -110Q56 -110 33 -105.5Q10 -101 -13 -91L10 -20Q28 -28 45.5 -32Q63 -36 83 -36Q113 -36 130.5 -19.5Q148 -3 154 29L156 38Q139 27 121.5 21.5Q104 16 85 16Q40 16 18 44Q-4 72 2 120L4 136Q11 186 43.5 213Q76 240 130 240Q194 240 223.5 201Q253 162 241 93ZM82 135 80 119Q78 103 86.5 94Q95 85 113 85Q126 85 139 90Q152 95 167 106Q171 136 161 151.5Q151 167 127 167Q108 167 96 158.5Q84 150 82 135Z" glyph-name="nineinferior" horiz-adv-x="303" unicode="₉" /><glyph d="M149 240Q213 240 245 201Q277 162 266 96L256 35Q244 -39 209 -74.5Q174 -110 114 -110Q49 -110 17 -70.5Q-15 -31 -4 35L6 96Q18 169 53.5 204.5Q89 240 149 240ZM176 35 186 96Q191 131 181.5 148Q172 165 147 165Q123 165 108 148Q93 131 87 96L77 35Q71 1 80.5 -16.5Q90 -34 115 -34Q141 -34 155.5 -17.5Q170 -1 176 35Z" glyph-name="zero.numerator" horiz-adv-x="326" unicode="" /><glyph d="M28 123 5 187L110 235H170L110 -105H31L75 144Z" glyph-name="one.numerator" horiz-adv-x="220" unicode="" /><glyph d="M50 -32 192 -32L179 -105H-42L-30 -37Q-22 11 -1 37.5Q20 64 66 83L103 98Q123 106 132 114.5Q141 123 143 135L144 138Q146 151 136.5 158Q127 165 106 165Q91 165 72.5 161Q54 157 21 146L8 217Q36 229 62.5 234.5Q89 240 115 240Q174 240 201.5 214Q229 188 223 141L222 132Q218 99 195.5 74.5Q173 50 129 33L92 18Q73 11 63 -1Q53 -13 50 -32Z" glyph-name="two.numerator" horiz-adv-x="269" unicode="" /><glyph d="M197 -8 195 -20Q187 -66 155 -88Q123 -110 64 -110Q36 -110 10.5 -104.5Q-15 -99 -36 -89L-13 -19Q6 -27 25 -30.5Q44 -34 64 -34Q90 -34 103 -27Q116 -20 119 -5L120 2Q122 17 112.5 26Q103 35 83 35H32L43 99H94Q113 99 125 107Q137 115 139 129L140 136Q143 151 133.5 158Q124 165 100 165Q84 165 65.5 161.5Q47 158 24 150L7 220Q34 230 59 235Q84 240 108 240Q168 240 197.5 214Q227 188 221 144L220 137Q217 112 202 93.5Q187 75 161 65Q183 52 192 33.5Q201 15 197 -8Z" glyph-name="three.numerator" horiz-adv-x="275" unicode="" /><glyph d="M224 31 212 -38H178L166 -105H93L105 -38H-38L-27 26Q19 82 55.5 134.5Q92 187 119 235H204Q176 183 140.5 132Q105 81 62 31H117L125 77H198L190 31Z" glyph-name="four.numerator" horiz-adv-x="274" unicode="" /><glyph d="M36 34 4 71L43 235H234L222 166H96L82 108Q90 110 97.5 110.5Q105 111 113 111Q167 111 192.5 82.5Q218 54 209 3L206 -13Q197 -62 163.5 -86Q130 -110 73 -110Q46 -110 21 -104.5Q-4 -99 -30 -88L-7 -17Q14 -26 33.5 -30Q53 -34 74 -34Q99 -34 111.5 -26Q124 -18 127 -1L130 13Q132 29 122.5 37Q113 45 91 45Q78 45 65 42.5Q52 40 36 34Z" glyph-name="five.numerator" horiz-adv-x="276" unicode="" /><glyph d="M235 10 233 -6Q226 -56 193.5 -83Q161 -110 107 -110Q43 -110 13.5 -71Q-16 -32 -4 37L7 101Q20 172 55.5 206Q91 240 155 240Q181 240 204 235.5Q227 231 250 221L227 150Q209 158 191.5 162Q174 166 154 166Q124 166 106.5 149.5Q89 133 83 101L81 92Q98 103 115.5 108.5Q133 114 152 114Q197 114 219 86Q241 58 235 10ZM124 45Q111 45 98 40Q85 35 70 24Q66 -6 76 -21.5Q86 -37 110 -37Q129 -37 141 -28.5Q153 -20 155 -5L157 11Q159 27 150.5 36Q142 45 124 45Z" glyph-name="six.numerator" horiz-adv-x="303" unicode="" /><glyph d="M236 235 223 164Q172 86 137.5 20Q103 -46 81 -105H-3Q23 -36 57.5 29.5Q92 95 135 159H-8L5 235Z" glyph-name="seven.numerator" horiz-adv-x="253" unicode="" /><glyph d="M189 76Q209 62 219.5 43Q230 24 230 1Q230 -48 193 -79Q156 -110 93 -110Q39 -110 9.5 -89Q-20 -68 -20 -30Q-20 -4 -3.5 18.5Q13 41 47 60Q31 74 22.5 92Q14 110 14 133Q14 181 47.5 210.5Q81 240 139 240Q191 240 220.5 218.5Q250 197 250 159Q250 134 235.5 114Q221 94 189 76ZM91 135Q91 125 98 117.5Q105 110 119 105L141 97Q157 109 164 120Q171 131 171 145Q171 157 162 163.5Q153 170 136 170Q115 170 103 160.5Q91 151 91 135ZM60 -13Q60 -26 70.5 -33Q81 -40 100 -40Q123 -40 137.5 -30Q152 -20 152 -3Q152 7 144 14Q136 21 120 27L94 36Q76 23 68 12Q60 1 60 -13Z" glyph-name="eight.numerator" horiz-adv-x="303" unicode="" /><glyph d="M241 93 230 29Q217 -42 181.5 -76Q146 -110 82 -110Q56 -110 33 -105.5Q10 -101 -13 -91L10 -20Q28 -28 45.5 -32Q63 -36 83 -36Q113 -36 130.5 -19.5Q148 -3 154 29L156 38Q139 27 121.5 21.5Q104 16 85 16Q40 16 18 44Q-4 72 2 120L4 136Q11 186 43.5 213Q76 240 130 240Q194 240 223.5 201Q253 162 241 93ZM82 135 80 119Q78 103 86.5 94Q95 85 113 85Q126 85 139 90Q152 95 167 106Q171 136 161 151.5Q151 167 127 167Q108 167 96 158.5Q84 150 82 135Z" glyph-name="nine.numerator" horiz-adv-x="303" unicode="" /><glyph d="M168 345Q232 345 264 306Q296 267 285 201L275 140Q263 66 228 30.5Q193 -5 133 -5Q68 -5 36 34.5Q4 74 15 140L25 201Q37 274 72.5 309.5Q108 345 168 345ZM195 140 205 201Q210 236 200.5 253Q191 270 166 270Q142 270 127 253Q112 236 106 201L96 140Q90 106 99.5 88.5Q109 71 134 71Q160 71 174.5 87.5Q189 104 195 140Z" glyph-name="zero.denominator" horiz-adv-x="326" unicode="" /><glyph d="M47 228 24 292L129 340H189L129 0H50L94 249Z" glyph-name="one.denominator" horiz-adv-x="220" unicode="" /><glyph d="M69 73 211 73L198 0H-23L-11 68Q-3 116 18 142.5Q39 169 85 188L122 203Q142 211 151 219.5Q160 228 162 240L163 243Q165 256 155.5 263Q146 270 125 270Q110 270 91.5 266Q73 262 40 251L27 322Q55 334 81.5 339.5Q108 345 134 345Q193 345 220.5 319Q248 293 242 246L241 237Q237 204 214.5 179.5Q192 155 148 138L111 123Q92 116 82 104Q72 92 69 73Z" glyph-name="two.denominator" horiz-adv-x="269" unicode="" /><glyph d="M216 97 214 85Q206 39 174 17Q142 -5 83 -5Q55 -5 29.5 0.5Q4 6 -17 16L6 86Q25 78 44 74.5Q63 71 83 71Q109 71 122 78Q135 85 138 100L139 107Q141 122 131.5 131Q122 140 102 140H51L62 204H113Q132 204 144 212Q156 220 158 234L159 241Q162 256 152.5 263Q143 270 119 270Q103 270 84.5 266.5Q66 263 43 255L26 325Q53 335 78 340Q103 345 127 345Q187 345 216.5 319Q246 293 240 249L239 242Q236 217 221 198.5Q206 180 180 170Q202 157 211 138.5Q220 120 216 97Z" glyph-name="three.denominator" horiz-adv-x="275" unicode="" /><glyph d="M243 136 231 67H197L185 0H112L124 67H-19L-8 131Q38 187 74.5 239.5Q111 292 138 340H223Q195 288 159.5 237Q124 186 81 136H136L144 182H217L209 136Z" glyph-name="four.denominator" horiz-adv-x="274" unicode="" /><glyph d="M55 139 23 176L62 340H253L241 271H115L101 213Q109 215 116.5 215.5Q124 216 132 216Q186 216 211.5 187.5Q237 159 228 108L225 92Q216 43 182.5 19Q149 -5 92 -5Q65 -5 40 0.5Q15 6 -11 17L12 88Q33 79 52.5 75Q72 71 93 71Q118 71 130.5 79Q143 87 146 104L149 118Q151 134 141.5 142Q132 150 110 150Q97 150 84 147.5Q71 145 55 139Z" glyph-name="five.denominator" horiz-adv-x="276" unicode="" /><glyph d="M254 115 252 99Q245 49 212.5 22Q180 -5 126 -5Q62 -5 32.5 34Q3 73 15 142L26 206Q39 277 74.5 311Q110 345 174 345Q200 345 223 340.5Q246 336 269 326L246 255Q228 263 210.5 267Q193 271 173 271Q143 271 125.5 254.5Q108 238 102 206L100 197Q117 208 134.5 213.5Q152 219 171 219Q216 219 238 191Q260 163 254 115ZM143 150Q130 150 117 145Q104 140 89 129Q85 99 95 83.5Q105 68 129 68Q148 68 160 76.5Q172 85 174 100L176 116Q178 132 169.5 141Q161 150 143 150Z" glyph-name="six.denominator" horiz-adv-x="303" unicode="" /><glyph d="M255 340 242 269Q191 191 156.5 125Q122 59 100 0H16Q42 69 76.5 134.5Q111 200 154 264H11L24 340Z" glyph-name="seven.denominator" horiz-adv-x="253" unicode="" /><glyph d="M208 181Q228 167 238.5 148Q249 129 249 106Q249 57 212 26Q175 -5 112 -5Q58 -5 28.5 16Q-1 37 -1 75Q-1 101 15.5 123.5Q32 146 66 165Q50 179 41.5 197Q33 215 33 238Q33 286 66.5 315.5Q100 345 158 345Q210 345 239.5 323.5Q269 302 269 264Q269 239 254.5 219Q240 199 208 181ZM110 240Q110 230 117 222.5Q124 215 138 210L160 202Q176 214 183 225Q190 236 190 250Q190 262 181 268.5Q172 275 155 275Q134 275 122 265.5Q110 256 110 240ZM79 92Q79 79 89.5 72Q100 65 119 65Q142 65 156.5 75Q171 85 171 102Q171 112 163 119Q155 126 139 132L113 141Q95 128 87 117Q79 106 79 92Z" glyph-name="eight.denominator" horiz-adv-x="303" unicode="" /><glyph d="M260 198 249 134Q236 63 200.5 29Q165 -5 101 -5Q75 -5 52 -0.5Q29 4 6 14L29 85Q47 77 64.5 73Q82 69 102 69Q132 69 149.5 85.5Q167 102 173 134L175 143Q158 132 140.5 126.5Q123 121 104 121Q59 121 37 149Q15 177 21 225L23 241Q30 291 62.5 318Q95 345 149 345Q213 345 242.5 306Q272 267 260 198ZM101 240 99 224Q97 208 105.5 199Q114 190 132 190Q145 190 158 195Q171 200 186 211Q190 241 180 256.5Q170 272 146 272Q127 272 115 263.5Q103 255 101 240Z" glyph-name="nine.denominator" horiz-adv-x="303" unicode="" /><glyph d="M106 568 83 632L188 680H248L188 340H109L153 589ZM51 0 496 680H590L145 0ZM470 73 612 73L599 0H378L390 68Q398 116 419 142.5Q440 169 486 188L523 203Q543 211 552 219.5Q561 228 563 240L564 243Q566 256 556.5 263Q547 270 526 270Q511 270 492.5 266Q474 262 441 251L428 322Q456 334 482.5 339.5Q509 345 535 345Q594 345 621.5 319Q649 293 643 246L642 237Q638 204 615.5 179.5Q593 155 549 138L512 123Q493 116 483 104Q473 92 470 73Z" glyph-name="onehalf" horiz-adv-x="670" unicode="½" /><glyph d="M106 568 83 632L188 680H248L188 340H109L153 589ZM51 0 496 680H590L145 0ZM607 97 605 85Q597 39 565 17Q533 -5 474 -5Q446 -5 420.5 0.5Q395 6 374 16L397 86Q416 78 435 74.5Q454 71 474 71Q500 71 513 78Q526 85 529 100L530 107Q532 122 522.5 131Q513 140 493 140H442L453 204H504Q523 204 535 212Q547 220 549 234L550 241Q553 256 543.5 263Q534 270 510 270Q494 270 475.5 266.5Q457 263 434 255L417 325Q444 335 469 340Q494 345 518 345Q578 345 607.5 319Q637 293 631 249L630 242Q627 217 612 198.5Q597 180 571 170Q593 157 602 138.5Q611 120 607 97Z" glyph-name="onethird" horiz-adv-x="666" unicode="⅓" /><glyph d="M106 568 83 632L188 680H248L188 340H109L153 589ZM51 0 496 680H590L145 0ZM600 136 588 67H554L542 0H469L481 67H338L349 131Q395 187 431.5 239.5Q468 292 495 340H580Q552 288 516.5 237Q481 186 438 136H493L501 182H574L566 136Z" glyph-name="onequarter" horiz-adv-x="631" unicode="¼" /><glyph d="M106 568 83 632L188 680H248L188 340H109L153 589ZM51 0 496 680H590L145 0ZM436 139 404 176L443 340H634L622 271H496L482 213Q490 215 497.5 215.5Q505 216 513 216Q567 216 592.5 187.5Q618 159 609 108L606 92Q597 43 563.5 19Q530 -5 473 -5Q446 -5 421 0.5Q396 6 370 17L393 88Q414 79 433.5 75Q453 71 474 71Q499 71 511.5 79Q524 87 527 104L530 118Q532 134 522.5 142Q513 150 491 150Q478 150 465 147.5Q452 145 436 139Z" glyph-name="onefifth" horiz-adv-x="657" unicode="" /><glyph d="M106 568 83 632L188 680H248L188 340H109L153 589ZM51 0 496 680H590L145 0ZM627 115 625 99Q618 49 585.5 22Q553 -5 499 -5Q435 -5 405.5 34Q376 73 388 142L399 206Q412 277 447.5 311Q483 345 547 345Q573 345 596 340.5Q619 336 642 326L619 255Q601 263 583.5 267Q566 271 546 271Q516 271 498.5 254.5Q481 238 475 206L473 197Q490 208 507.5 213.5Q525 219 544 219Q589 219 611 191Q633 163 627 115ZM516 150Q503 150 490 145Q477 140 462 129Q458 99 468 83.5Q478 68 502 68Q521 68 533 76.5Q545 85 547 100L549 116Q551 132 542.5 141Q534 150 516 150Z" glyph-name="onesixth" horiz-adv-x="676" unicode="" /><glyph d="M106 568 83 632L188 680H248L188 340H109L153 589ZM51 0 496 680H590L145 0ZM666 340 653 269Q602 191 567.5 125Q533 59 511 0H427Q453 69 487.5 134.5Q522 200 565 264H422L435 340Z" glyph-name="oneseventh" horiz-adv-x="664" unicode="" /><glyph d="M106 568 83 632L188 680H248L188 340H109L153 589ZM51 0 496 680H590L145 0ZM584 181Q604 167 614.5 148Q625 129 625 106Q625 57 588 26Q551 -5 488 -5Q434 -5 404.5 16Q375 37 375 75Q375 101 391.5 123.5Q408 146 442 165Q426 179 417.5 197Q409 215 409 238Q409 286 442.5 315.5Q476 345 534 345Q586 345 615.5 323.5Q645 302 645 264Q645 239 630.5 219Q616 199 584 181ZM486 240Q486 230 493 222.5Q500 215 514 210L536 202Q552 214 559 225Q566 236 566 250Q566 262 557 268.5Q548 275 531 275Q510 275 498 265.5Q486 256 486 240ZM455 92Q455 79 465.5 72Q476 65 495 65Q518 65 532.5 75Q547 85 547 102Q547 112 539 119Q531 126 515 132L489 141Q471 128 463 117Q455 106 455 92Z" glyph-name="oneeighth" horiz-adv-x="679" unicode="⅛" /><glyph d="M106 568 83 632L188 680H248L188 340H109L153 589ZM51 0 496 680H590L145 0ZM641 198 630 134Q617 63 581.5 29Q546 -5 482 -5Q456 -5 433 -0.5Q410 4 387 14L410 85Q428 77 445.5 73Q463 69 483 69Q513 69 530.5 85.5Q548 102 554 134L556 143Q539 132 521.5 126.5Q504 121 485 121Q440 121 418 149Q396 177 402 225L404 241Q411 291 443.5 318Q476 345 530 345Q594 345 623.5 306Q653 267 641 198ZM482 240 480 224Q478 208 486.5 199Q495 190 513 190Q526 190 539 195Q552 200 567 211Q571 241 561 256.5Q551 272 527 272Q508 272 496 263.5Q484 255 482 240Z" glyph-name="oneninth" horiz-adv-x="684" unicode="" /><glyph d="M128 413 270 413L257 340H36L48 408Q56 456 77 482.5Q98 509 144 528L181 543Q201 551 210 559.5Q219 568 221 580L222 583Q224 596 214.5 603Q205 610 184 610Q169 610 150.5 606Q132 602 99 591L86 662Q114 674 140.5 679.5Q167 685 193 685Q252 685 279.5 659Q307 633 301 586L300 577Q296 544 273.5 519.5Q251 495 207 478L170 463Q151 456 141 444Q131 432 128 413ZM100 0 545 680H639L194 0ZM656 97 654 85Q646 39 614 17Q582 -5 523 -5Q495 -5 469.5 0.5Q444 6 423 16L446 86Q465 78 484 74.5Q503 71 523 71Q549 71 562 78Q575 85 578 100L579 107Q581 122 571.5 131Q562 140 542 140H491L502 204H553Q572 204 584 212Q596 220 598 234L599 241Q602 256 592.5 263Q583 270 559 270Q543 270 524.5 266.5Q506 263 483 255L466 325Q493 335 518 340Q543 345 567 345Q627 345 656.5 319Q686 293 680 249L679 242Q676 217 661 198.5Q646 180 620 170Q642 157 651 138.5Q660 120 656 97Z" glyph-name="twothirds" horiz-adv-x="715" unicode="⅔" /><glyph d="M128 413 270 413L257 340H36L48 408Q56 456 77 482.5Q98 509 144 528L181 543Q201 551 210 559.5Q219 568 221 580L222 583Q224 596 214.5 603Q205 610 184 610Q169 610 150.5 606Q132 602 99 591L86 662Q114 674 140.5 679.5Q167 685 193 685Q252 685 279.5 659Q307 633 301 586L300 577Q296 544 273.5 519.5Q251 495 207 478L170 463Q151 456 141 444Q131 432 128 413ZM100 0 545 680H639L194 0ZM485 139 453 176L492 340H683L671 271H545L531 213Q539 215 546.5 215.5Q554 216 562 216Q616 216 641.5 187.5Q667 159 658 108L655 92Q646 43 612.5 19Q579 -5 522 -5Q495 -5 470 0.5Q445 6 419 17L442 88Q463 79 482.5 75Q502 71 523 71Q548 71 560.5 79Q573 87 576 104L579 118Q581 134 571.5 142Q562 150 540 150Q527 150 514 147.5Q501 145 485 139Z" glyph-name="twofifths" horiz-adv-x="706" unicode="" /><glyph d="M128 413 270 413L257 340H36L48 408Q56 456 77 482.5Q98 509 144 528L181 543Q201 551 210 559.5Q219 568 221 580L222 583Q224 596 214.5 603Q205 610 184 610Q169 610 150.5 606Q132 602 99 591L86 662Q114 674 140.5 679.5Q167 685 193 685Q252 685 279.5 659Q307 633 301 586L300 577Q296 544 273.5 519.5Q251 495 207 478L170 463Q151 456 141 444Q131 432 128 413ZM100 0 545 680H639L194 0ZM715 340 702 269Q651 191 616.5 125Q582 59 560 0H476Q502 69 536.5 134.5Q571 200 614 264H471L484 340Z" glyph-name="twosevenths" horiz-adv-x="713" unicode="" /><glyph d="M128 413 270 413L257 340H36L48 408Q56 456 77 482.5Q98 509 144 528L181 543Q201 551 210 559.5Q219 568 221 580L222 583Q224 596 214.5 603Q205 610 184 610Q169 610 150.5 606Q132 602 99 591L86 662Q114 674 140.5 679.5Q167 685 193 685Q252 685 279.5 659Q307 633 301 586L300 577Q296 544 273.5 519.5Q251 495 207 478L170 463Q151 456 141 444Q131 432 128 413ZM100 0 545 680H639L194 0ZM690 198 679 134Q666 63 630.5 29Q595 -5 531 -5Q505 -5 482 -0.5Q459 4 436 14L459 85Q477 77 494.5 73Q512 69 532 69Q562 69 579.5 85.5Q597 102 603 134L605 143Q588 132 570.5 126.5Q553 121 534 121Q489 121 467 149Q445 177 451 225L453 241Q460 291 492.5 318Q525 345 579 345Q643 345 672.5 306Q702 267 690 198ZM531 240 529 224Q527 208 535.5 199Q544 190 562 190Q575 190 588 195Q601 200 616 211Q620 241 610 256.5Q600 272 576 272Q557 272 545 263.5Q533 255 531 240Z" glyph-name="twoninths" horiz-adv-x="733" unicode="" /><glyph d="M275 437 273 425Q265 379 233 357Q201 335 142 335Q114 335 88.5 340.5Q63 346 42 356L65 426Q84 418 103 414.5Q122 411 142 411Q168 411 181 418Q194 425 197 440L198 447Q200 462 190.5 471Q181 480 161 480H110L121 544H172Q191 544 203 552Q215 560 217 574L218 581Q221 596 211.5 603Q202 610 178 610Q162 610 143.5 606.5Q125 603 102 595L85 665Q112 675 137 680Q162 685 186 685Q246 685 275.5 659Q305 633 299 589L298 582Q295 557 280 538.5Q265 520 239 510Q261 497 270 478.5Q279 460 275 437ZM91 0 536 680H630L185 0ZM640 136 628 67H594L582 0H509L521 67H378L389 131Q435 187 471.5 239.5Q508 292 535 340H620Q592 288 556.5 237Q521 186 478 136H533L541 182H614L606 136Z" glyph-name="threequarters" horiz-adv-x="671" unicode="¾" /><glyph d="M275 437 273 425Q265 379 233 357Q201 335 142 335Q114 335 88.5 340.5Q63 346 42 356L65 426Q84 418 103 414.5Q122 411 142 411Q168 411 181 418Q194 425 197 440L198 447Q200 462 190.5 471Q181 480 161 480H110L121 544H172Q191 544 203 552Q215 560 217 574L218 581Q221 596 211.5 603Q202 610 178 610Q162 610 143.5 606.5Q125 603 102 595L85 665Q112 675 137 680Q162 685 186 685Q246 685 275.5 659Q305 633 299 589L298 582Q295 557 280 538.5Q265 520 239 510Q261 497 270 478.5Q279 460 275 437ZM91 0 536 680H630L185 0ZM476 139 444 176L483 340H674L662 271H536L522 213Q530 215 537.5 215.5Q545 216 553 216Q607 216 632.5 187.5Q658 159 649 108L646 92Q637 43 603.5 19Q570 -5 513 -5Q486 -5 461 0.5Q436 6 410 17L433 88Q454 79 473.5 75Q493 71 514 71Q539 71 551.5 79Q564 87 567 104L570 118Q572 134 562.5 142Q553 150 531 150Q518 150 505 147.5Q492 145 476 139Z" glyph-name="threefifths" horiz-adv-x="697" unicode="" /><glyph d="M275 437 273 425Q265 379 233 357Q201 335 142 335Q114 335 88.5 340.5Q63 346 42 356L65 426Q84 418 103 414.5Q122 411 142 411Q168 411 181 418Q194 425 197 440L198 447Q200 462 190.5 471Q181 480 161 480H110L121 544H172Q191 544 203 552Q215 560 217 574L218 581Q221 596 211.5 603Q202 610 178 610Q162 610 143.5 606.5Q125 603 102 595L85 665Q112 675 137 680Q162 685 186 685Q246 685 275.5 659Q305 633 299 589L298 582Q295 557 280 538.5Q265 520 239 510Q261 497 270 478.5Q279 460 275 437ZM91 0 536 680H630L185 0ZM706 340 693 269Q642 191 607.5 125Q573 59 551 0H467Q493 69 527.5 134.5Q562 200 605 264H462L475 340Z" glyph-name="threesevenths" horiz-adv-x="704" unicode="" /><glyph d="M275 437 273 425Q265 379 233 357Q201 335 142 335Q114 335 88.5 340.5Q63 346 42 356L65 426Q84 418 103 414.5Q122 411 142 411Q168 411 181 418Q194 425 197 440L198 447Q200 462 190.5 471Q181 480 161 480H110L121 544H172Q191 544 203 552Q215 560 217 574L218 581Q221 596 211.5 603Q202 610 178 610Q162 610 143.5 606.5Q125 603 102 595L85 665Q112 675 137 680Q162 685 186 685Q246 685 275.5 659Q305 633 299 589L298 582Q295 557 280 538.5Q265 520 239 510Q261 497 270 478.5Q279 460 275 437ZM91 0 536 680H630L185 0ZM624 181Q644 167 654.5 148Q665 129 665 106Q665 57 628 26Q591 -5 528 -5Q474 -5 444.5 16Q415 37 415 75Q415 101 431.5 123.5Q448 146 482 165Q466 179 457.5 197Q449 215 449 238Q449 286 482.5 315.5Q516 345 574 345Q626 345 655.5 323.5Q685 302 685 264Q685 239 670.5 219Q656 199 624 181ZM526 240Q526 230 533 222.5Q540 215 554 210L576 202Q592 214 599 225Q606 236 606 250Q606 262 597 268.5Q588 275 571 275Q550 275 538 265.5Q526 256 526 240ZM495 92Q495 79 505.5 72Q516 65 535 65Q558 65 572.5 75Q587 85 587 102Q587 112 579 119Q571 126 555 132L529 141Q511 128 503 117Q495 106 495 92Z" glyph-name="threeeighths" horiz-adv-x="719" unicode="⅜" /><glyph d="M302 476 290 407H256L244 340H171L183 407H40L51 471Q97 527 133.5 579.5Q170 632 197 680H282Q254 628 218.5 577Q183 526 140 476H195L203 522H276L268 476ZM115 0 560 680H654L209 0ZM500 139 468 176L507 340H698L686 271H560L546 213Q554 215 561.5 215.5Q569 216 577 216Q631 216 656.5 187.5Q682 159 673 108L670 92Q661 43 627.5 19Q594 -5 537 -5Q510 -5 485 0.5Q460 6 434 17L457 88Q478 79 497.5 75Q517 71 538 71Q563 71 575.5 79Q588 87 591 104L594 118Q596 134 586.5 142Q577 150 555 150Q542 150 529 147.5Q516 145 500 139Z" glyph-name="fourfifths" horiz-adv-x="721" unicode="" /><glyph d="M302 476 290 407H256L244 340H171L183 407H40L51 471Q97 527 133.5 579.5Q170 632 197 680H282Q254 628 218.5 577Q183 526 140 476H195L203 522H276L268 476ZM115 0 560 680H654L209 0ZM730 340 717 269Q666 191 631.5 125Q597 59 575 0H491Q517 69 551.5 134.5Q586 200 629 264H486L499 340Z" glyph-name="foursevenths" horiz-adv-x="728" unicode="" /><glyph d="M302 476 290 407H256L244 340H171L183 407H40L51 471Q97 527 133.5 579.5Q170 632 197 680H282Q254 628 218.5 577Q183 526 140 476H195L203 522H276L268 476ZM115 0 560 680H654L209 0ZM705 198 694 134Q681 63 645.5 29Q610 -5 546 -5Q520 -5 497 -0.5Q474 4 451 14L474 85Q492 77 509.5 73Q527 69 547 69Q577 69 594.5 85.5Q612 102 618 134L620 143Q603 132 585.5 126.5Q568 121 549 121Q504 121 482 149Q460 177 466 225L468 241Q475 291 507.5 318Q540 345 594 345Q658 345 687.5 306Q717 267 705 198ZM546 240 544 224Q542 208 550.5 199Q559 190 577 190Q590 190 603 195Q616 200 631 211Q635 241 625 256.5Q615 272 591 272Q572 272 560 263.5Q548 255 546 240Z" glyph-name="fourninths" horiz-adv-x="748" unicode="" /><glyph d="M114 479 82 516L121 680H312L300 611H174L160 553Q168 555 175.5 555.5Q183 556 191 556Q245 556 270.5 527.5Q296 499 287 448L284 432Q275 383 241.5 359Q208 335 151 335Q124 335 99 340.5Q74 346 48 357L71 428Q92 419 111.5 415Q131 411 152 411Q177 411 189.5 419Q202 427 205 444L208 458Q210 474 200.5 482Q191 490 169 490Q156 490 143 487.5Q130 485 114 479ZM97 0 542 680H636L191 0ZM673 115 671 99Q664 49 631.5 22Q599 -5 545 -5Q481 -5 451.5 34Q422 73 434 142L445 206Q458 277 493.5 311Q529 345 593 345Q619 345 642 340.5Q665 336 688 326L665 255Q647 263 629.5 267Q612 271 592 271Q562 271 544.5 254.5Q527 238 521 206L519 197Q536 208 553.5 213.5Q571 219 590 219Q635 219 657 191Q679 163 673 115ZM562 150Q549 150 536 145Q523 140 508 129Q504 99 514 83.5Q524 68 548 68Q567 68 579 76.5Q591 85 593 100L595 116Q597 132 588.5 141Q580 150 562 150Z" glyph-name="fivesixths" horiz-adv-x="722" unicode="" /><glyph d="M114 479 82 516L121 680H312L300 611H174L160 553Q168 555 175.5 555.5Q183 556 191 556Q245 556 270.5 527.5Q296 499 287 448L284 432Q275 383 241.5 359Q208 335 151 335Q124 335 99 340.5Q74 346 48 357L71 428Q92 419 111.5 415Q131 411 152 411Q177 411 189.5 419Q202 427 205 444L208 458Q210 474 200.5 482Q191 490 169 490Q156 490 143 487.5Q130 485 114 479ZM97 0 542 680H636L191 0ZM712 340 699 269Q648 191 613.5 125Q579 59 557 0H473Q499 69 533.5 134.5Q568 200 611 264H468L481 340Z" glyph-name="fivesevenths" horiz-adv-x="710" unicode="" /><glyph d="M114 479 82 516L121 680H312L300 611H174L160 553Q168 555 175.5 555.5Q183 556 191 556Q245 556 270.5 527.5Q296 499 287 448L284 432Q275 383 241.5 359Q208 335 151 335Q124 335 99 340.5Q74 346 48 357L71 428Q92 419 111.5 415Q131 411 152 411Q177 411 189.5 419Q202 427 205 444L208 458Q210 474 200.5 482Q191 490 169 490Q156 490 143 487.5Q130 485 114 479ZM97 0 542 680H636L191 0ZM630 181Q650 167 660.5 148Q671 129 671 106Q671 57 634 26Q597 -5 534 -5Q480 -5 450.5 16Q421 37 421 75Q421 101 437.5 123.5Q454 146 488 165Q472 179 463.5 197Q455 215 455 238Q455 286 488.5 315.5Q522 345 580 345Q632 345 661.5 323.5Q691 302 691 264Q691 239 676.5 219Q662 199 630 181ZM532 240Q532 230 539 222.5Q546 215 560 210L582 202Q598 214 605 225Q612 236 612 250Q612 262 603 268.5Q594 275 577 275Q556 275 544 265.5Q532 256 532 240ZM501 92Q501 79 511.5 72Q522 65 541 65Q564 65 578.5 75Q593 85 593 102Q593 112 585 119Q577 126 561 132L535 141Q517 128 509 117Q501 106 501 92Z" glyph-name="fiveeighths" horiz-adv-x="725" unicode="⅝" /><glyph d="M114 479 82 516L121 680H312L300 611H174L160 553Q168 555 175.5 555.5Q183 556 191 556Q245 556 270.5 527.5Q296 499 287 448L284 432Q275 383 241.5 359Q208 335 151 335Q124 335 99 340.5Q74 346 48 357L71 428Q92 419 111.5 415Q131 411 152 411Q177 411 189.5 419Q202 427 205 444L208 458Q210 474 200.5 482Q191 490 169 490Q156 490 143 487.5Q130 485 114 479ZM97 0 542 680H636L191 0ZM687 198 676 134Q663 63 627.5 29Q592 -5 528 -5Q502 -5 479 -0.5Q456 4 433 14L456 85Q474 77 491.5 73Q509 69 529 69Q559 69 576.5 85.5Q594 102 600 134L602 143Q585 132 567.5 126.5Q550 121 531 121Q486 121 464 149Q442 177 448 225L450 241Q457 291 489.5 318Q522 345 576 345Q640 345 669.5 306Q699 267 687 198ZM528 240 526 224Q524 208 532.5 199Q541 190 559 190Q572 190 585 195Q598 200 613 211Q617 241 607 256.5Q597 272 573 272Q554 272 542 263.5Q530 255 528 240Z" glyph-name="fiveninths" horiz-adv-x="730" unicode="" /><glyph d="M313 455 311 439Q304 389 271.5 362Q239 335 185 335Q121 335 91.5 374Q62 413 74 482L85 546Q98 617 133.5 651Q169 685 233 685Q259 685 282 680.5Q305 676 328 666L305 595Q287 603 269.5 607Q252 611 232 611Q202 611 184.5 594.5Q167 578 161 546L159 537Q176 548 193.5 553.5Q211 559 230 559Q275 559 297 531Q319 503 313 455ZM202 490Q189 490 176 485Q163 480 148 469Q144 439 154 423.5Q164 408 188 408Q207 408 219 416.5Q231 425 233 440L235 456Q237 472 228.5 481Q220 490 202 490ZM119 0 564 680H658L213 0ZM734 340 721 269Q670 191 635.5 125Q601 59 579 0H495Q521 69 555.5 134.5Q590 200 633 264H490L503 340Z" glyph-name="sixsevenths" horiz-adv-x="732" unicode="" /><glyph d="M314 680 301 609Q250 531 215.5 465Q181 399 159 340H75Q101 409 135.5 474.5Q170 540 213 604H70L83 680ZM64 0 509 680H603L158 0ZM597 181Q617 167 627.5 148Q638 129 638 106Q638 57 601 26Q564 -5 501 -5Q447 -5 417.5 16Q388 37 388 75Q388 101 404.5 123.5Q421 146 455 165Q439 179 430.5 197Q422 215 422 238Q422 286 455.5 315.5Q489 345 547 345Q599 345 628.5 323.5Q658 302 658 264Q658 239 643.5 219Q629 199 597 181ZM499 240Q499 230 506 222.5Q513 215 527 210L549 202Q565 214 572 225Q579 236 579 250Q579 262 570 268.5Q561 275 544 275Q523 275 511 265.5Q499 256 499 240ZM468 92Q468 79 478.5 72Q489 65 508 65Q531 65 545.5 75Q560 85 560 102Q560 112 552 119Q544 126 528 132L502 141Q484 128 476 117Q468 106 468 92Z" glyph-name="seveneighths" horiz-adv-x="692" unicode="⅞" /><glyph d="M314 680 301 609Q250 531 215.5 465Q181 399 159 340H75Q101 409 135.5 474.5Q170 540 213 604H70L83 680ZM64 0 509 680H603L158 0ZM654 198 643 134Q630 63 594.5 29Q559 -5 495 -5Q469 -5 446 -0.5Q423 4 400 14L423 85Q441 77 458.5 73Q476 69 496 69Q526 69 543.5 85.5Q561 102 567 134L569 143Q552 132 534.5 126.5Q517 121 498 121Q453 121 431 149Q409 177 415 225L417 241Q424 291 456.5 318Q489 345 543 345Q607 345 636.5 306Q666 267 654 198ZM495 240 493 224Q491 208 499.5 199Q508 190 526 190Q539 190 552 195Q565 200 580 211Q584 241 574 256.5Q564 272 540 272Q521 272 509 263.5Q497 255 495 240Z" glyph-name="sevenninths" horiz-adv-x="697" unicode="" /><glyph d="M267 521Q287 507 297.5 488Q308 469 308 446Q308 397 271 366Q234 335 171 335Q117 335 87.5 356Q58 377 58 415Q58 441 74.5 463.5Q91 486 125 505Q109 519 100.5 537Q92 555 92 578Q92 626 125.5 655.5Q159 685 217 685Q269 685 298.5 663.5Q328 642 328 604Q328 579 313.5 559Q299 539 267 521ZM169 580Q169 570 176 562.5Q183 555 197 550L219 542Q235 554 242 565Q249 576 249 590Q249 602 240 608.5Q231 615 214 615Q193 615 181 605.5Q169 596 169 580ZM138 432Q138 419 148.5 412Q159 405 178 405Q201 405 215.5 415Q230 425 230 442Q230 452 222 459Q214 466 198 472L172 481Q154 468 146 457Q138 446 138 432ZM117 0 562 680H656L211 0ZM707 198 696 134Q683 63 647.5 29Q612 -5 548 -5Q522 -5 499 -0.5Q476 4 453 14L476 85Q494 77 511.5 73Q529 69 549 69Q579 69 596.5 85.5Q614 102 620 134L622 143Q605 132 587.5 126.5Q570 121 551 121Q506 121 484 149Q462 177 468 225L470 241Q477 291 509.5 318Q542 345 596 345Q660 345 689.5 306Q719 267 707 198ZM548 240 546 224Q544 208 552.5 199Q561 190 579 190Q592 190 605 195Q618 200 633 211Q637 241 627 256.5Q617 272 593 272Q574 272 562 263.5Q550 255 548 240Z" glyph-name="eightninths" horiz-adv-x="751" unicode="" /><glyph d="M519 355 501 255H345L317 95H215L243 255H87L105 355H261L289 515H391L363 355Z" glyph-name="plus" horiz-adv-x="588" unicode="+" /><glyph d="M503 265 89 265L106 365H520Z" glyph-name="minus" horiz-adv-x="588" unicode="−" /><glyph d="M490 176 412 110L297 244L132 101L70 176L234 319L119 454L198 521L312 386L477 530L539 454L375 312Z" glyph-name="multiply" horiz-adv-x="588" unicode="×" /><glyph d="M410 566 389 447H268L289 566ZM503 265 89 265L106 365H520ZM341 178 320 59H199L220 178Z" glyph-name="divide" horiz-adv-x="588" unicode="÷" /><glyph d="M520 364 106 364L124 464H538ZM485 165 71 165L89 265H503Z" glyph-name="equal" horiz-adv-x="588" unicode="=" /><glyph d="M420 375 108 375L126 475H540L494 218H392Z" glyph-name="logicalnot" horiz-adv-x="588" unicode="¬" /><glyph d="M384 210Q354 210 328 224Q302 238 267 280Q248 303 238.5 309.5Q229 316 221 316Q205 316 190.5 292Q176 268 161 220L74 240Q100 329 136 372.5Q172 416 223 416Q253 416 278.5 402Q304 388 339 346Q359 323 368 316.5Q377 310 385 310Q401 310 416.5 334Q432 358 448 407L534 387Q508 297 472 253.5Q436 210 384 210Z" glyph-name="asciitilde" horiz-adv-x="588" unicode="~" /><glyph d="M250 307 493 207L474 103L90 271L104 352L547 517L527 405Z" glyph-name="less" horiz-adv-x="588" unicode="&lt;" /><glyph d="M517 349 503 268L60 103L80 215L357 313L114 413L133 517Z" glyph-name="greater" horiz-adv-x="588" unicode="&gt;" /><glyph d="M526 395 508 295H352L326 145H224L250 295H94L112 395H268L294 545H396L370 395ZM456 0 42 0L60 100H474Z" glyph-name="plusminus" horiz-adv-x="588" unicode="±" /><glyph d="M503 266 397 266L344 526L199 266H89L328 680H409Z" glyph-name="asciicircum" horiz-adv-x="588" unicode="^" /><glyph d="M503 265 485 165H254L168 29L104 68L166 165H71L89 265H229L292 364H106L124 464H355L441 599L505 560L444 464H538L520 364H380L318 265Z" glyph-name="notequal" horiz-adv-x="588" unicode="≠" /><glyph d="M403 320Q373 320 347 334Q321 348 286 390Q267 413 257.5 419.5Q248 426 240 426Q224 426 209.5 402Q195 378 180 330L93 350Q119 439 155 482.5Q191 526 242 526Q272 526 297.5 512Q323 498 358 456Q378 433 387 426.5Q396 420 404 420Q420 420 435.5 444Q451 468 467 517L553 497Q527 407 491 363.5Q455 320 403 320ZM365 100Q335 100 309 114Q283 128 248 170Q229 193 219.5 199.5Q210 206 202 206Q186 206 171.5 182Q157 158 142 110L55 130Q81 219 117 262.5Q153 306 204 306Q234 306 259.5 292Q285 278 320 236Q340 213 349 206.5Q358 200 366 200Q382 200 397.5 224Q413 248 429 297L515 277Q489 187 453 143.5Q417 100 365 100Z" glyph-name="approxequal" horiz-adv-x="588" unicode="≈" /><glyph d="M253 328 496 228L477 124L93 292L107 373L550 538L530 426ZM456 0 42 0L60 100H474Z" glyph-name="lessequal" horiz-adv-x="588" unicode="≤" /><glyph d="M521 370 507 289L64 124L84 236L361 334L118 434L137 538ZM456 0 42 0L60 100H474Z" glyph-name="greaterequal" horiz-adv-x="588" unicode="≥" /><glyph d="M592 538Q665 538 706 490.5Q747 443 747 356Q747 244 687.5 175Q628 106 530 106Q473 106 432 130.5Q391 155 368 203Q336 155 294.5 130.5Q253 106 203 106Q130 106 89 153.5Q48 201 48 288Q48 400 107.5 469Q167 538 265 538Q322 538 363 513.5Q404 489 427 441Q459 489 500.5 513.5Q542 538 592 538ZM255 420Q212 420 184 387Q156 354 156 304Q156 265 174.5 244.5Q193 224 228 224Q258 224 285.5 241.5Q313 259 341 297L333 334Q323 381 305 400.5Q287 420 255 420ZM454 347 462 310Q472 263 490 243.5Q508 224 540 224Q583 224 611 257Q639 290 639 340Q639 379 620.5 399.5Q602 420 567 420Q537 420 509.5 402.5Q482 385 454 347Z" glyph-name="infinity" horiz-adv-x="771" unicode="∞" /><glyph d="M289 0 212 0L104 340L329 680H406L514 340ZM346 540 214 335L272 139L406 345Z" glyph-name="lozenge" horiz-adv-x="588" unicode="◊" /><glyph d="M135 285 22 285L40 385H220L265 160L557 680H671L280 0H199Z" glyph-name="radical" horiz-adv-x="588" unicode="√" /><glyph d="M-38 -115Q-4 -115 14 -97.5Q32 -80 45 -33L203 560Q233 671 274 710.5Q315 750 389 750Q418 750 448 744.5Q478 739 501 730L465 631Q451 636 434 639Q417 642 401 642Q367 642 349 624.5Q331 607 318 560L160 -33Q130 -144 89 -183.5Q48 -223 -26 -223Q-55 -223 -85 -217.5Q-115 -212 -138 -203L-102 -104Q-88 -109 -71 -112Q-54 -115 -38 -115Z" glyph-name="integral" horiz-adv-x="355" unicode="∫" /><glyph d="M489 269 479 229Q450 113 382.5 51.5Q315 -10 216 -10Q114 -10 63.5 58.5Q13 127 38 232L45 262Q64 343 116 389.5Q168 436 238 436Q290 436 329.5 412Q369 388 387 344Q400 440 361 520Q322 600 230 665L295 750Q420 661 471 530.5Q522 400 489 269ZM157 246 150 216Q138 162 158 127.5Q178 93 221 93Q268 93 303.5 127.5Q339 162 361 229Q347 276 318.5 302.5Q290 329 254 329Q220 329 192.5 306Q165 283 157 246Z" glyph-name="partialdiff" horiz-adv-x="540" unicode="∂" /><glyph d="M158 565 76 565L96 680H754L734 565H652L527 -143H407L532 565H278L153 -143H33Z" glyph-name="product" horiz-adv-x="700" unicode="∏" /><glyph d="M124 407 42 407L59 507H610L593 407H510L464 143Q460 124 469 112.5Q478 101 498 101H539L520 -5H472Q399 -5 368 34.5Q337 74 350 148L395 407H239L167 0H52Z" glyph-name="pi" horiz-adv-x="584" unicode="π" /><glyph d="M127 11 127 -125L111 -213H-4L124 507H239L182 181Q175 140 185 118.5Q195 97 222 97Q250 97 286 120Q322 143 371 192L426 507H541L477 143Q473 124 482 112.5Q491 101 511 101H523L504 -5H485Q430 -5 400.5 20Q371 45 367 94Q318 41 274 15.5Q230 -10 189 -10Q169 -10 153 -4.5Q137 1 127 11Z" glyph-name="mu" horiz-adv-x="574" unicode="µ" /><glyph d="M-41 -143 -23 -38L269 269L85 575L104 680H583L563 565H237L397 295L385 228L143 -28H478L458 -143Z" glyph-name="summation" horiz-adv-x="530" unicode="∑" /><glyph d="M561 0 342 0L381 220Q429 235 459.5 275Q490 315 500 374L507 416Q520 491 486.5 534Q453 577 381 577Q310 577 264 535Q218 493 205 416L198 374Q187 314 205.5 272.5Q224 231 268 218L230 0H11L30 109H140L149 159Q103 193 84 254Q65 315 77 386L84 428Q105 551 184 620.5Q263 690 383 690Q514 690 581.5 610Q649 530 628 405L621 363Q609 290 572.5 237Q536 184 478 155L470 109H580Z" glyph-name="Omega" horiz-adv-x="660" unicode="Ω" /><glyph d="M409 680 499 94L482 0H-9L8 94L303 680ZM329 514 246 341L130 104H383L350 341Z" glyph-name="Delta" horiz-adv-x="563" unicode="∆" /><glyph d="M278 113 295 15Q267 3 234.5 -3.5Q202 -10 173 -10Q96 -10 63 34Q30 78 44 158L109 525Q123 605 167 647.5Q211 690 280 690Q347 690 384.5 656Q422 622 422 558Q422 482 361 402Q300 322 170 224L158 154Q153 124 162.5 111Q172 98 199 98Q214 98 235.5 102Q257 106 278 113ZM276 582Q254 582 241.5 568.5Q229 555 224 526L194 360Q250 412 279 458.5Q308 505 308 543Q308 562 300 572Q292 582 276 582Z" glyph-name="uni2113" horiz-adv-x="393" unicode="ℓ" /><glyph d="M208 314 345 188L297 126L41 328V385L297 587L345 525L212 402H622V314Z" glyph-name="arrowleft" horiz-adv-x="651" unicode="←" /><glyph d="M566 392 504 344L381 477V67H293V481L167 344L105 392L307 648H364Z" glyph-name="arrowup" horiz-adv-x="651" unicode="↑" /><glyph d="M630 387 630 330L374 128L326 190L459 313H49V401H463L326 527L374 589Z" glyph-name="arrowright" horiz-adv-x="651" unicode="→" /><glyph d="M504 373 566 325L364 69H307L105 325L167 373L290 240V650H378V236Z" glyph-name="arrowdown" horiz-adv-x="651" unicode="↓" /><glyph d="M216 314 353 188L305 126L49 328V385L305 587L353 525L220 402H613L476 528L524 590L780 388V331L524 129L476 191L609 314Z" glyph-name="uni2194" horiz-adv-x="793" unicode="↔" /><glyph d="M506 297 568 249L366 -7H309L107 249L169 297L292 164V557L166 420L104 468L306 724H363L565 468L503 420L380 553V160Z" glyph-name="uni2195" horiz-adv-x="651" unicode="↕" /><glyph d="M279 474 569 184L507 122L214 414L222 228L144 218L106 542L146 583L470 544L460 467Z" glyph-name="uni2196" horiz-adv-x="651" unicode="↖" /><glyph d="M523 219 445 229L452 410L162 120L100 183L392 475L207 468L197 545L521 584L561 543Z" glyph-name="uni2197" horiz-adv-x="651" unicode="↗" /><glyph d="M519 498 557 174L517 133L193 172L203 249L384 242L94 532L156 594L448 302L441 488Z" glyph-name="uni2198" horiz-adv-x="651" unicode="↘" /><glyph d="M460 250 470 173L146 134L106 175L144 499L222 489L214 307L505 598L567 535L275 243Z" glyph-name="uni2199" horiz-adv-x="651" unicode="↙" /><glyph d="M784 314 784 305H201Q198 305 197 304Q196 303 196 301V125Q196 119 198 114Q200 109 204 105Q248 59 305 34Q362 9 425 9Q492 9 552 37Q612 65 657 116H709Q658 57 583 23.5Q508 -10 424 -10Q275 -10 169.5 85Q64 180 64 314Q64 448 169.5 543Q275 638 424 638Q573 638 678.5 543Q784 448 784 314ZM652 328 652 506Q652 512 650 517.5Q648 523 643 527Q599 571 542.5 595Q486 619 425 619Q363 619 306 594.5Q249 570 205 524Q200 519 198 514Q196 509 196 502V328Q196 326 197.5 324.5Q199 323 201 323H648Q650 323 651 324.5Q652 326 652 328Z" glyph-name="estimated" horiz-adv-x="813" unicode="℮" /><glyph d="M715 15 745 -77Q685 -104 617 -118.5Q549 -133 483 -133Q287 -133 171.5 -16Q56 101 56 297Q56 509 183 644.5Q310 780 512 780Q696 780 813 667.5Q930 555 930 379Q930 252 864 168.5Q798 85 698 85Q649 85 617.5 105Q586 125 574 163Q533 120 495 100Q457 80 415 80Q347 80 315.5 141Q284 202 300 301L307 345Q324 452 377 504.5Q430 557 520 557Q567 557 616.5 540.5Q666 524 717 492L675 252Q668 216 677.5 196.5Q687 177 711 177Q758 177 792.5 235.5Q827 294 827 379Q827 514 739.5 599.5Q652 685 512 685Q354 685 256.5 576.5Q159 468 159 297Q159 142 246 52Q333 -38 483 -38Q542 -38 603.5 -24Q665 -10 715 15ZM423 345 416 301Q407 243 417 214Q427 185 457 185Q482 185 508.5 205Q535 225 565 266L595 438Q574 448 559 452Q544 456 530 456Q486 456 459 427.5Q432 399 423 345Z" glyph-name="at.case" horiz-adv-x="945" unicode="" /><glyph d="M237 561 258 680H379L358 561ZM223 97Q257 97 296 106Q335 115 387 135L416 36Q360 12 309.5 1Q259 -10 210 -10Q102 -10 51.5 44Q1 98 19 188L23 208Q31 247 50.5 276.5Q70 306 120 350L158 383Q192 413 205 430.5Q218 448 222 472L224 481H344L341 463Q334 420 313.5 389.5Q293 359 243 316L204 282Q168 251 155 233.5Q142 216 138 194L135 176Q128 137 150 117Q172 97 223 97Z" glyph-name="questiondown.case" horiz-adv-x="464" unicode="" /><glyph d="M134 561 155 680H276L255 561ZM76 220 135 481H225L191 220L152 0H37Z" glyph-name="exclamdown.case" horiz-adv-x="281" unicode="" /><glyph d="M173 248 173 226Q173 160 200 89Q227 18 277 -46L188 -111Q127 -37 91.5 55Q56 147 56 232V263Q56 409 127.5 539Q199 669 347 792L413 707Q284 593 228.5 485.5Q173 378 173 248Z" glyph-name="parenleft.case" horiz-adv-x="334" unicode="" /><glyph d="M191 432 191 454Q191 520 164 591Q137 662 87 726L176 791Q237 717 272.5 625Q308 533 308 448V417Q308 271 236.5 141Q165 11 17 -112L-49 -27Q80 87 135.5 194.5Q191 302 191 432Z" glyph-name="parenright.case" horiz-adv-x="334" unicode="" /><glyph d="M246 -2 335 -2L318 -102H237Q137 -102 99 -44.5Q61 13 97 103L132 189Q154 243 141 266.5Q128 290 80 290H27L44 390H97Q146 390 167.5 414Q189 438 185 491L180 577Q175 675 224 728.5Q273 782 369 782H473L456 682H367Q332 682 314 659Q296 636 298 596L303 510Q307 441 280.5 396Q254 351 200 335Q248 320 259 278.5Q270 237 243 170L207 84Q191 44 201 21Q211 -2 246 -2Z" glyph-name="braceleft.case" horiz-adv-x="382" unicode="" /><glyph d="M227 189 232 103Q237 5 188 -48.5Q139 -102 43 -102H-61L-44 -2H45Q80 -2 98 21Q116 44 114 84L109 170Q105 239 131.5 284Q158 329 212 345Q164 360 153 401.5Q142 443 169 510L205 596Q221 636 211 659Q201 682 166 682H77L94 782H175Q275 782 313 724.5Q351 667 315 577L280 491Q258 437 271 413.5Q284 390 332 390H385L368 290H315Q266 290 244.5 266Q223 242 227 189Z" glyph-name="braceright.case" horiz-adv-x="382" unicode="" /><glyph d="M163 -2 303 -2L286 -102H31L186 781H441L424 681H284Z" glyph-name="bracketleft.case" horiz-adv-x="350" unicode="" /><glyph d="M94 781 349 781L194 -102H-61L-44 -2H97L216 681H77Z" glyph-name="bracketright.case" horiz-adv-x="351" unicode="" /><glyph d="M352 285 48 285L65 385H369Z" glyph-name="hyphen.case" horiz-adv-x="404" unicode="" /><glyph d="M552 285 48 285L65 385H569Z" glyph-name="endash.case" horiz-adv-x="604" unicode="" /><glyph d="M752 285 48 285L65 385H769Z" glyph-name="emdash.case" horiz-adv-x="804" unicode="" /><glyph d="M88 433 155 816H270L203 433ZM-13 -137 55 246H170L102 -137Z" glyph-name="brokenbar.case" horiz-adv-x="281" unicode="" /><glyph d="M-2 -137 166 816H281L113 -137Z" glyph-name="bar.case" horiz-adv-x="303" unicode="" /><glyph d="M168 331 332 216L311 104L50 299L63 376L393 568L372 444ZM488 331 652 216L631 104L370 299L383 376L713 568L692 444Z" glyph-name="guillemotleft.case" horiz-adv-x="712" unicode="" /><glyph d="M370 373 357 296L27 104L48 228L252 341L88 456L109 568ZM690 373 677 296L347 104L368 228L572 341L408 456L429 568Z" glyph-name="guillemotright.case" horiz-adv-x="712" unicode="" /><glyph d="M168 331 332 216L311 104L50 299L63 376L393 568L372 444Z" glyph-name="guilsinglleft.case" horiz-adv-x="392" unicode="" /><glyph d="M370 373 357 296L27 104L48 228L252 341L88 456L109 568Z" glyph-name="guilsinglright.case" horiz-adv-x="392" unicode="" /><glyph d="M176 412 63 412Q87 553 155 616.5Q223 680 350 680H557L665 0H545L526 133H294L287 119Q239 23 203 -32.5Q167 -88 128 -125Q76 -175 10.5 -199Q-55 -223 -139 -223L-119 -108Q-27 -108 37.5 -55Q102 -2 164 119L397 575H336Q265 575 228 537.5Q191 500 176 412ZM477 513 395 341L347 243H511L497 341Z" glyph-name="A.alt" horiz-adv-x="730" unicode="" /><glyph d="M162 412 49 412Q73 553 141 616.5Q209 680 336 680H555Q653 680 702.5 629Q752 578 737 492L732 462Q726 424 706 395Q686 366 653 348Q691 325 707 287.5Q723 250 715 202L710 172Q695 80 641 40Q587 0 483 0H238L339 575H322Q251 575 214 537.5Q177 500 162 412ZM546 570 459 570L429 400H516Q555 400 579 415.5Q603 431 608 459L614 492Q621 528 603 549Q585 570 546 570ZM521 290 409 290L377 110H489Q530 110 556 127Q582 144 587 174L593 207Q600 246 581 268Q562 290 521 290Z" glyph-name="B.alt" horiz-adv-x="775" unicode="" /><glyph d="M162 412 49 412Q73 553 141 616.5Q209 680 336 680H568Q687 680 748.5 602Q810 524 789 402L767 279Q743 141 670 70.5Q597 0 479 0H238L339 575H322Q251 575 214 537.5Q177 500 162 412ZM560 565 458 565L378 115H485Q550 115 589.5 156Q629 197 644 279L666 402Q680 480 652.5 522.5Q625 565 560 565Z" glyph-name="D.alt" horiz-adv-x="828" unicode="" /><glyph d="M162 412 49 412Q73 553 141 616.5Q209 680 336 680H742L722 565H458L429 402H663L643 287H409L378 115H652L632 0H238L339 575H322Q251 575 214 537.5Q177 500 162 412Z" glyph-name="E.alt" horiz-adv-x="725" unicode="" /><glyph d="M162 412 49 412Q73 553 141 616.5Q209 680 336 680H736L716 565H458L424 376H652L632 261H404L358 0H238L339 575H322Q251 575 214 537.5Q177 500 162 412Z" glyph-name="F.alt" horiz-adv-x="694" unicode="" /><glyph d="M565 374 505 31Q479 -118 409.5 -170.5Q340 -223 186 -223L205 -118Q304 -118 342.5 -87Q381 -56 396 30Q369 20 342.5 15.5Q316 11 290 11Q172 11 111 92.5Q50 174 71 301L88 402Q113 547 188.5 618.5Q264 690 394 690Q442 690 488.5 679.5Q535 669 583 648L538 543Q493 561 457.5 569Q422 577 389 577Q317 577 271 531.5Q225 486 211 402L194 301Q180 216 210.5 170Q241 124 313 124Q336 124 360.5 128.5Q385 133 416 143L438 269H327L346 374Z" glyph-name="G.alt" horiz-adv-x="604" unicode="" /><glyph d="M162 412 49 412Q73 553 141 616.5Q209 680 336 680H478L429 402H683L732 680H852L732 0H612L663 287H409L358 0H238L339 575H322Q251 575 214 537.5Q177 500 162 412Z" glyph-name="H.alt" horiz-adv-x="871" unicode="" /><glyph d="M162 412 49 412Q73 553 141 616.5Q209 680 336 680H494L417 244Q391 95 321.5 42.5Q252 -10 98 -10L119 105Q212 105 247.5 134Q283 163 297 244L355 575H322Q251 575 214 537.5Q177 500 162 412Z" glyph-name="J.alt" horiz-adv-x="495" unicode="" /><glyph d="M162 412 49 412Q73 553 141 616.5Q209 680 336 680H478L423 367Q509 449 575.5 525.5Q642 602 694 680H832Q775 598 712.5 523Q650 448 581 379L742 0H605L486 303Q475 293 462.5 281Q450 269 397 222L358 0H238L339 575H322Q251 575 214 537.5Q177 500 162 412Z" glyph-name="K.alt" horiz-adv-x="803" unicode="" /><glyph d="M162 412 49 412Q73 553 141 616.5Q209 680 336 680H478L378 115H650L630 0H238L339 575H322Q251 575 214 537.5Q177 500 162 412Z" glyph-name="L.alt" horiz-adv-x="696" unicode="" /><glyph d="M336 680 484 680L592 212L866 680H999L879 0H764L810 260L866 492L624 80H517L426 498L399 260L353 0H238L339 575H322Q251 575 214 537.5Q177 500 162 412H49Q73 553 141 616.5Q209 680 336 680Z" glyph-name="M.alt" horiz-adv-x="1018" unicode="" /><glyph d="M162 412 49 412Q73 553 141 616.5Q209 680 336 680H468Q534 547 579 439.5Q624 332 666 209L692 420L738 680H853L733 0H623Q583 133 536.5 254.5Q490 376 433 501L399 260L353 0H238L339 575H322Q251 575 214 537.5Q177 500 162 412Z" glyph-name="N.alt" horiz-adv-x="872" unicode="" /><glyph d="M162 412 49 412Q73 553 141 616.5Q209 680 336 680H569Q673 680 723.5 623.5Q774 567 759 470L750 414Q736 324 676 277Q616 230 516 230H399L358 0H238L339 575H322Q251 575 214 537.5Q177 500 162 412ZM562 565 458 565L419 345H523Q567 345 594.5 364.5Q622 384 628 419L637 472Q645 516 625 540.5Q605 565 562 565Z" glyph-name="P.alt" horiz-adv-x="763" unicode="" /><glyph d="M162 412 49 412Q73 553 141 616.5Q209 680 336 680H572Q676 680 728 623Q780 566 763 473L755 428Q745 372 713.5 331.5Q682 291 632 270Q661 203 683.5 135.5Q706 68 722 0H592Q578 63 559.5 126Q541 189 517 250H402L358 0H238L339 575H322Q251 575 214 537.5Q177 500 162 412ZM566 570 459 570L422 360H528Q571 360 598.5 379.5Q626 399 633 435L641 478Q649 521 629.5 545.5Q610 570 566 570Z" glyph-name="R.alt" horiz-adv-x="798" unicode="" /><glyph d="M162 412 49 412Q73 553 141 616.5Q209 680 336 680H703L683 565H493L393 0H273L373 565H321Q250 565 213 529.5Q176 494 162 412Z" glyph-name="T.alt" horiz-adv-x="641" unicode="" /><glyph d="M162 412 49 412Q73 553 141 616.5Q209 680 336 680H479L402 244Q390 174 414.5 138.5Q439 103 499 103Q560 103 597 138.5Q634 174 646 244L723 680H846L769 244Q746 114 678.5 52Q611 -10 495 -10Q376 -10 317.5 59.5Q259 129 279 244L337 575H322Q251 575 214 537.5Q177 500 162 412Z" glyph-name="U.alt" horiz-adv-x="849" unicode="" /><glyph d="M162 412 49 412Q73 553 141 616.5Q209 680 336 680H438L481 338L497 161L578 339L684 561Q776 754 873.5 828.5Q971 903 1114 903L1094 788Q1001 788 935.5 734.5Q870 681 811 561L534 0H411L329 575H322Q251 575 214 537.5Q177 500 162 412Z" glyph-name="V.alt" horiz-adv-x="819" unicode="" /><glyph d="M745 0 703 506L482 0H359L331 575H322Q251 575 214 537.5Q177 500 162 412H49Q72 550 138 614Q204 678 326 680H453L457 411L451 159L679 680H787L831 164L916 411L949 501Q1032 727 1133.5 815Q1235 903 1406 903L1386 788Q1314 788 1267 768Q1220 748 1181 703Q1151 670 1123.5 620Q1096 570 1068 501L868 0Z" glyph-name="W.alt" horiz-adv-x="1099" unicode="" /><glyph d="M162 412 49 412Q73 554 136 617Q199 680 316 680H396L487 450L650 680H783L533 339L668 0H539L442 243L269 0H136L396 354L309 575H302Q240 575 208.5 538.5Q177 502 162 412Z" glyph-name="X.alt" horiz-adv-x="728" unicode="" /><glyph d="M162 412 49 412Q73 554 136 617Q199 680 316 680H421L514 391L704 680H835L556 274L507 0H387L435 271L332 575H302Q240 575 208.5 538.5Q177 502 162 412Z" glyph-name="Y.alt" horiz-adv-x="763" unicode="" /><glyph d="M176 412 63 412Q87 553 155 616.5Q223 680 350 680H557L665 0H545L526 133H294L287 119Q239 23 203 -32.5Q167 -88 128 -125Q76 -175 10.5 -199Q-55 -223 -139 -223L-119 -108Q-27 -108 37.5 -55Q102 -2 164 119L397 575H336Q265 575 228 537.5Q191 500 176 412ZM477 513 395 341L347 243H511L497 341ZM692 872 568 752H462L587 918Z" glyph-name="Aacute.alt" horiz-adv-x="730" unicode="" /><glyph d="M176 412 63 412Q87 553 155 616.5Q223 680 350 680H557L665 0H545L526 133H294L287 119Q239 23 203 -32.5Q167 -88 128 -125Q76 -175 10.5 -199Q-55 -223 -139 -223L-119 -108Q-27 -108 37.5 -55Q102 -2 164 119L397 575H336Q265 575 228 537.5Q191 500 176 412ZM477 513 395 341L347 243H511L497 341ZM666 752 578 752L531 832L456 752H362L486 913H598Z" glyph-name="Acircumflex.alt" horiz-adv-x="730" unicode="" /><glyph d="M176 412 63 412Q87 553 155 616.5Q223 680 350 680H557L665 0H545L526 133H294L287 119Q239 23 203 -32.5Q167 -88 128 -125Q76 -175 10.5 -199Q-55 -223 -139 -223L-119 -108Q-27 -108 37.5 -55Q102 -2 164 119L397 575H336Q265 575 228 537.5Q191 500 176 412ZM477 513 395 341L347 243H511L497 341ZM496 889 477 782H368L387 889ZM690 889 671 782H562L581 889Z" glyph-name="Adieresis.alt" horiz-adv-x="730" unicode="" /><glyph d="M176 412 63 412Q87 553 155 616.5Q223 680 350 680H557L665 0H545L526 133H294L287 119Q239 23 203 -32.5Q167 -88 128 -125Q76 -175 10.5 -199Q-55 -223 -139 -223L-119 -108Q-27 -108 37.5 -55Q102 -2 164 119L397 575H336Q265 575 228 537.5Q191 500 176 412ZM477 513 395 341L347 243H511L497 341ZM562 752 466 752L384 872L495 918Z" glyph-name="Agrave.alt" horiz-adv-x="730" unicode="" /><glyph d="M165 133 158 119Q110 23 74 -32.5Q38 -88 -1 -125Q-53 -175 -118.5 -199Q-184 -223 -268 -223L-248 -108Q-156 -108 -91.5 -55Q-27 -2 35 119L298 633Q275 649 266.5 675Q258 701 264 733L267 748Q277 797 311.5 825Q346 853 397 853Q453 853 483.5 818.5Q514 784 503 732L500 717Q494 687 477.5 664Q461 641 436 629L536 0H416L397 133ZM431 726 434 741Q438 762 426.5 774.5Q415 787 392 787Q371 787 356 774.5Q341 762 336 741L333 726Q329 705 339.5 692.5Q350 680 373 680Q395 680 410.5 692.5Q426 705 431 726ZM348 513 266 341L218 243H382L368 341Z" glyph-name="Aring.alt" horiz-adv-x="601" unicode="" /><glyph d="M176 412 63 412Q87 553 155 616.5Q223 680 350 680H557L665 0H545L526 133H294L287 119Q239 23 203 -32.5Q167 -88 128 -125Q76 -175 10.5 -199Q-55 -223 -139 -223L-119 -108Q-27 -108 37.5 -55Q102 -2 164 119L397 575H336Q265 575 228 537.5Q191 500 176 412ZM477 513 395 341L347 243H511L497 341ZM586 761Q562 761 543.5 771Q525 781 503 809Q493 823 487.5 827Q482 831 477 831Q467 831 460.5 816.5Q454 802 447 769H366Q379 848 406 885.5Q433 923 478 923Q502 923 520 913Q538 903 559 875Q569 861 574.5 857Q580 853 585 853Q595 853 601.5 867.5Q608 882 615 915H696Q683 836 656.5 798.5Q630 761 586 761Z" glyph-name="Atilde.alt" horiz-adv-x="730" unicode="" /><glyph d="M176 412 63 412Q87 553 155 616.5Q223 680 350 680H557L665 0H545L526 133H294L287 119Q239 23 203 -32.5Q167 -88 128 -125Q76 -175 10.5 -199Q-55 -223 -139 -223L-119 -108Q-27 -108 37.5 -55Q102 -2 164 119L397 575H336Q265 575 228 537.5Q191 500 176 412ZM477 513 395 341L347 243H511L497 341ZM529 839Q551 839 564.5 854.5Q578 870 586 904H676Q658 829 621.5 793.5Q585 758 524 758Q459 758 429.5 795Q400 832 408 904H492Q487 871 496 855Q505 839 529 839Z" glyph-name="Abreve.alt" horiz-adv-x="730" unicode="" /><glyph d="M176 412 63 412Q87 553 155 616.5Q223 680 350 680H557L665 0H545L526 133H294L287 119Q239 23 203 -32.5Q167 -88 128 -125Q76 -175 10.5 -199Q-55 -223 -139 -223L-119 -108Q-27 -108 37.5 -55Q102 -2 164 119L397 575H336Q265 575 228 537.5Q191 500 176 412ZM477 513 395 341L347 243H511L497 341ZM383 865 686 865L671 782H368Z" glyph-name="Amacron.alt" horiz-adv-x="730" unicode="" /><glyph d="M176 412 63 412Q87 553 155 616.5Q223 680 350 680H557L665 0Q602 -46 577.5 -70.5Q553 -95 553 -114Q553 -123 559.5 -128Q566 -133 579 -133Q589 -133 600.5 -131Q612 -129 627 -124L638 -207Q616 -215 594.5 -219Q573 -223 551 -223Q501 -223 474 -201.5Q447 -180 447 -141Q447 -107 471 -73.5Q495 -40 545 -1L527 133H294L287 119Q240 23 203.5 -32.5Q167 -88 128 -125Q76 -175 10.5 -199Q-55 -223 -139 -223L-119 -108Q-27 -108 37.5 -55Q102 -2 164 119L397 575H336Q265 575 228 537.5Q191 500 176 412ZM477 513 395 341L347 243H511L497 341Z" glyph-name="Aogonek.alt" horiz-adv-x="730" unicode="" /><glyph d="M162 412 49 412Q73 553 141 616.5Q209 680 336 680H568Q687 680 748.5 602Q810 524 789 402L767 279Q743 141 670 70.5Q597 0 479 0H238L339 575H322Q251 575 214 537.5Q177 500 162 412ZM560 565 458 565L378 115H485Q550 115 589.5 156Q629 197 644 279L666 402Q680 480 652.5 522.5Q625 565 560 565ZM679 913 773 913L649 752H537L469 913H557L604 833Z" glyph-name="Dcaron.alt" horiz-adv-x="828" unicode="" /><glyph d="M162 412 49 412Q73 553 141 616.5Q209 680 336 680H742L722 565H458L429 402H663L643 287H409L378 115H652L632 0H238L339 575H322Q251 575 214 537.5Q177 500 162 412ZM737 872 613 752H507L632 918Z" glyph-name="Eacute.alt" horiz-adv-x="725" unicode="" /><glyph d="M162 412 49 412Q73 553 141 616.5Q209 680 336 680H742L722 565H458L429 402H663L643 287H409L378 115H652L632 0H238L339 575H322Q251 575 214 537.5Q177 500 162 412ZM711 752 623 752L576 832L501 752H407L531 913H643Z" glyph-name="Ecircumflex.alt" horiz-adv-x="725" unicode="" /><glyph d="M162 412 49 412Q73 553 141 616.5Q209 680 336 680H742L722 565H458L429 402H663L643 287H409L378 115H652L632 0H238L339 575H322Q251 575 214 537.5Q177 500 162 412ZM542 889 523 782H414L433 889ZM736 889 717 782H608L627 889Z" glyph-name="Edieresis.alt" horiz-adv-x="725" unicode="" /><glyph d="M162 412 49 412Q73 553 141 616.5Q209 680 336 680H742L722 565H458L429 402H663L643 287H409L378 115H652L632 0H238L339 575H322Q251 575 214 537.5Q177 500 162 412ZM607 752 511 752L429 872L540 918Z" glyph-name="Egrave.alt" horiz-adv-x="725" unicode="" /><glyph d="M162 412 49 412Q73 553 141 616.5Q209 680 336 680H742L722 565H458L429 402H663L643 287H409L378 115H652L632 0H238L339 575H322Q251 575 214 537.5Q177 500 162 412ZM574 839Q596 839 609.5 854.5Q623 870 631 904H721Q703 829 666.5 793.5Q630 758 569 758Q504 758 474.5 795Q445 832 453 904H537Q532 871 541 855Q550 839 574 839Z" glyph-name="Ebreve.alt" horiz-adv-x="725" unicode="" /><glyph d="M162 412 49 412Q73 553 141 616.5Q209 680 336 680H742L722 565H458L429 402H663L643 287H409L378 115H652L632 0H238L339 575H322Q251 575 214 537.5Q177 500 162 412ZM645 913 739 913L615 752H503L435 913H523L570 833Z" glyph-name="Ecaron.alt" horiz-adv-x="725" unicode="" /><glyph d="M162 412 49 412Q73 553 141 616.5Q209 680 336 680H742L722 565H458L429 402H663L643 287H409L378 115H652L632 0H238L339 575H322Q251 575 214 537.5Q177 500 162 412ZM646 895 625 776H504L525 895Z" glyph-name="Edotaccent.alt" horiz-adv-x="725" unicode="" /><glyph d="M162 412 49 412Q73 553 141 616.5Q209 680 336 680H742L722 565H458L429 402H663L643 287H409L378 115H652L632 0H238L339 575H322Q251 575 214 537.5Q177 500 162 412ZM429 865 732 865L717 782H414Z" glyph-name="Emacron.alt" horiz-adv-x="725" unicode="" /><glyph d="M162 412 49 412Q73 553 141 616.5Q209 680 336 680H742L722 565H458L429 402H663L643 287H409L378 115H652L632 0Q569 -46 544.5 -70.5Q520 -95 520 -114Q520 -123 526.5 -128Q533 -133 546 -133Q556 -133 567.5 -131Q579 -129 594 -124L605 -207Q583 -215 561.5 -219Q540 -223 518 -223Q468 -223 441 -201.5Q414 -180 414 -141Q414 -109 440 -75.5Q466 -42 523 0H238L339 575H322Q251 575 214 537.5Q177 500 162 412Z" glyph-name="Eogonek.alt" horiz-adv-x="725" unicode="" /><glyph d="M565 374 505 31Q479 -118 409.5 -170.5Q340 -223 186 -223L205 -118Q304 -118 342.5 -87Q381 -56 396 30Q369 20 342.5 15.5Q316 11 290 11Q172 11 111 92.5Q50 174 71 301L88 402Q113 547 188.5 618.5Q264 690 394 690Q442 690 488.5 679.5Q535 669 583 648L538 543Q493 561 457.5 569Q422 577 389 577Q317 577 271 531.5Q225 486 211 402L194 301Q180 216 210.5 170Q241 124 313 124Q336 124 360.5 128.5Q385 133 416 143L438 269H327L346 374ZM426 839Q448 839 461.5 854.5Q475 870 483 904H573Q555 829 518.5 793.5Q482 758 421 758Q356 758 326.5 795Q297 832 305 904H389Q384 871 393 855Q402 839 426 839Z" glyph-name="Gbreve.alt" horiz-adv-x="604" unicode="" /><glyph d="M565 374 505 31Q479 -118 409.5 -170.5Q340 -223 186 -223L205 -118Q304 -118 342.5 -87Q381 -56 396 30Q369 20 342.5 15.5Q316 11 290 11Q172 11 111 92.5Q50 174 71 301L88 402Q113 547 188.5 618.5Q264 690 394 690Q442 690 488.5 679.5Q535 669 583 648L538 543Q493 561 457.5 569Q422 577 389 577Q317 577 271 531.5Q225 486 211 402L194 301Q180 216 210.5 170Q241 124 313 124Q336 124 360.5 128.5Q385 133 416 143L438 269H327L346 374ZM563 752 475 752L428 832L353 752H259L383 913H495Z" glyph-name="Gcircumflex.alt" horiz-adv-x="604" unicode="" /><glyph d="M565 374 505 31Q479 -118 409.5 -170.5Q340 -223 186 -223L205 -118Q304 -118 342.5 -87Q381 -56 396 30Q369 20 342.5 15.5Q316 11 290 11Q172 11 111 92.5Q50 174 71 301L88 402Q113 547 188.5 618.5Q264 690 394 690Q442 690 488.5 679.5Q535 669 583 648L538 543Q493 561 457.5 569Q422 577 389 577Q317 577 271 531.5Q225 486 211 402L194 301Q180 216 210.5 170Q241 124 313 124Q336 124 360.5 128.5Q385 133 416 143L438 269H327L346 374ZM497 895 476 776H355L376 895Z" glyph-name="Gdotaccent.alt" horiz-adv-x="604" unicode="" /><glyph d="M162 412 49 412Q73 553 141 616.5Q209 680 336 680H478L429 402H683L732 680H852L732 0H612L663 287H409L358 0H238L339 575H322Q251 575 214 537.5Q177 500 162 412ZM766 752 678 752L631 832L556 752H462L586 913H698Z" glyph-name="Hcircumflex.alt" horiz-adv-x="871" unicode="" /><glyph d="M162 412 49 412Q73 553 141 616.5Q209 680 336 680H494L417 244Q391 95 321.5 42.5Q252 -10 98 -10L119 105Q212 105 247.5 134Q283 163 297 244L355 575H322Q251 575 214 537.5Q177 500 162 412ZM595 752 507 752L460 832L385 752H291L415 913H527Z" glyph-name="Jcircumflex.alt" horiz-adv-x="495" unicode="" /><glyph d="M162 412 49 412Q73 553 141 616.5Q209 680 336 680H478L423 367Q509 449 575.5 525.5Q642 602 694 680H832Q775 598 712.5 523Q650 448 581 379L742 0H605L486 303Q475 293 462.5 281Q450 269 397 222L358 0H238L339 575H322Q251 575 214 537.5Q177 500 162 412ZM529 -77 421 -256L347 -239L405 -77Z" glyph-name="Kcommaaccent.alt" horiz-adv-x="803" unicode="" /><glyph d="M162 412 49 412Q73 553 141 616.5Q209 680 336 680H478L378 115H650L630 0H238L339 575H322Q251 575 214 537.5Q177 500 162 412ZM604 872 480 752H374L499 918Z" glyph-name="Lacute.alt" horiz-adv-x="696" unicode="" /><glyph d="M162 412 49 412Q73 553 141 616.5Q209 680 336 680H478L378 115H650L630 0H238L339 575H322Q251 575 214 537.5Q177 500 162 412ZM687 680 617 486H540L574 680Z" glyph-name="Lcaron.alt" horiz-adv-x="696" unicode="" /><glyph d="M162 412 49 412Q73 553 141 616.5Q209 680 336 680H478L378 115H650L630 0H238L339 575H322Q251 575 214 537.5Q177 500 162 412ZM486 -77 378 -256L304 -239L362 -77Z" glyph-name="Lcommaaccent.alt" horiz-adv-x="696" unicode="" /><glyph d="M162 412 49 412Q73 553 141 616.5Q209 680 336 680H468Q534 547 579 439.5Q624 332 666 209L692 420L738 680H853L733 0H623Q583 133 536.5 254.5Q490 376 433 501L399 260L353 0H238L339 575H322Q251 575 214 537.5Q177 500 162 412ZM687 761Q663 761 644.5 771Q626 781 604 809Q594 823 588.5 827Q583 831 578 831Q568 831 561.5 816.5Q555 802 548 769H467Q480 848 507 885.5Q534 923 579 923Q603 923 621 913Q639 903 660 875Q670 861 675.5 857Q681 853 686 853Q696 853 702.5 867.5Q709 882 716 915H797Q784 836 757.5 798.5Q731 761 687 761Z" glyph-name="Ntilde.alt" horiz-adv-x="872" unicode="" /><glyph d="M162 412 49 412Q73 553 141 616.5Q209 680 336 680H468Q534 547 579 439.5Q624 332 666 209L692 420L738 680H853L733 0H623Q583 133 536.5 254.5Q490 376 433 501L399 260L353 0H238L339 575H322Q251 575 214 537.5Q177 500 162 412ZM793 872 669 752H563L688 918Z" glyph-name="Nacute.alt" horiz-adv-x="872" unicode="" /><glyph d="M162 412 49 412Q73 553 141 616.5Q209 680 336 680H468Q534 547 579 439.5Q624 332 666 209L692 420L738 680H853L733 0H623Q583 133 536.5 254.5Q490 376 433 501L399 260L353 0H238L339 575H322Q251 575 214 537.5Q177 500 162 412ZM701 913 795 913L671 752H559L491 913H579L626 833Z" glyph-name="Ncaron.alt" horiz-adv-x="872" unicode="" /><glyph d="M162 412 49 412Q73 553 141 616.5Q209 680 336 680H468Q534 547 579 439.5Q624 332 666 209L692 420L738 680H853L733 0H623Q583 133 536.5 254.5Q490 376 433 501L399 260L353 0H238L339 575H322Q251 575 214 537.5Q177 500 162 412ZM534 -77 426 -256L352 -239L410 -77Z" glyph-name="Ncommaaccent.alt" horiz-adv-x="872" unicode="" /><glyph d="M162 412 49 412Q73 553 141 616.5Q209 680 336 680H468Q534 547 579 439.5Q624 332 666 209L692 420L738 680H853L738 31Q712 -117 642.5 -170Q573 -223 419 -223L440 -108Q529 -108 565.5 -80.5Q602 -53 616 22Q576 150 531.5 267Q487 384 433 501L399 260L353 0H238L339 575H322Q251 575 214 537.5Q177 500 162 412Z" glyph-name="Eng.alt" horiz-adv-x="872" unicode="" /><glyph d="M162 412 49 412Q73 553 141 616.5Q209 680 336 680H572Q676 680 728 623Q780 566 763 473L755 428Q745 372 713.5 331.5Q682 291 632 270Q661 203 683.5 135.5Q706 68 722 0H592Q578 63 559.5 126Q541 189 517 250H402L358 0H238L339 575H322Q251 575 214 537.5Q177 500 162 412ZM566 570 459 570L422 360H528Q571 360 598.5 379.5Q626 399 633 435L641 478Q649 521 629.5 545.5Q610 570 566 570ZM756 872 632 752H526L651 918Z" glyph-name="Racute.alt" horiz-adv-x="798" unicode="" /><glyph d="M162 412 49 412Q73 553 141 616.5Q209 680 336 680H572Q676 680 728 623Q780 566 763 473L755 428Q745 372 713.5 331.5Q682 291 632 270Q661 203 683.5 135.5Q706 68 722 0H592Q578 63 559.5 126Q541 189 517 250H402L358 0H238L339 575H322Q251 575 214 537.5Q177 500 162 412ZM566 570 459 570L422 360H528Q571 360 598.5 379.5Q626 399 633 435L641 478Q649 521 629.5 545.5Q610 570 566 570ZM664 913 758 913L634 752H522L454 913H542L589 833Z" glyph-name="Rcaron.alt" horiz-adv-x="798" unicode="" /><glyph d="M162 412 49 412Q73 553 141 616.5Q209 680 336 680H572Q676 680 728 623Q780 566 763 473L755 428Q745 372 713.5 331.5Q682 291 632 270Q661 203 683.5 135.5Q706 68 722 0H592Q578 63 559.5 126Q541 189 517 250H402L358 0H238L339 575H322Q251 575 214 537.5Q177 500 162 412ZM566 570 459 570L422 360H528Q571 360 598.5 379.5Q626 399 633 435L641 478Q649 521 629.5 545.5Q610 570 566 570ZM518 -77 410 -256L336 -239L394 -77Z" glyph-name="Rcommaaccent.alt" horiz-adv-x="798" unicode="" /><glyph d="M571 377 552 268H440L393 0H273L320 268H208L227 377H340L373 565H321Q250 565 213 529.5Q176 494 162 412H49Q73 553 141 616.5Q209 680 336 680H703L683 565H493L460 377Z" glyph-name="Tbar.alt" horiz-adv-x="641" unicode="" /><glyph d="M162 412 49 412Q73 553 141 616.5Q209 680 336 680H703L683 565H493L393 0H273L373 565H321Q250 565 213 529.5Q176 494 162 412ZM548 913 642 913L518 752H406L338 913H426L473 833Z" glyph-name="Tcaron.alt" horiz-adv-x="641" unicode="" /><glyph d="M162 412 49 412Q73 553 141 616.5Q209 680 336 680H703L683 565H493L393 0H273L373 565H321Q250 565 213 529.5Q176 494 162 412ZM382 -77 274 -256L200 -239L258 -77Z" glyph-name="uni0162.alt" horiz-adv-x="641" unicode="" /><glyph d="M162 412 49 412Q73 553 141 616.5Q209 680 336 680H703L683 565H493L393 0H273L373 565H321Q250 565 213 529.5Q176 494 162 412ZM382 -77 274 -256L200 -239L258 -77Z" glyph-name="uni021A.alt" horiz-adv-x="641" unicode="" /><glyph d="M162 412 49 412Q73 553 141 616.5Q209 680 336 680H479L402 244Q390 174 414.5 138.5Q439 103 499 103Q560 103 597 138.5Q634 174 646 244L723 680H846L769 244Q746 114 678.5 52Q611 -10 495 -10Q376 -10 317.5 59.5Q259 129 279 244L337 575H322Q251 575 214 537.5Q177 500 162 412ZM788 872 664 752H558L683 918Z" glyph-name="Uacute.alt" horiz-adv-x="849" unicode="" /><glyph d="M162 412 49 412Q73 553 141 616.5Q209 680 336 680H479L402 244Q390 174 414.5 138.5Q439 103 499 103Q560 103 597 138.5Q634 174 646 244L723 680H846L769 244Q746 114 678.5 52Q611 -10 495 -10Q376 -10 317.5 59.5Q259 129 279 244L337 575H322Q251 575 214 537.5Q177 500 162 412ZM762 752 674 752L627 832L552 752H458L582 913H694Z" glyph-name="Ucircumflex.alt" horiz-adv-x="849" unicode="" /><glyph d="M162 412 49 412Q73 553 141 616.5Q209 680 336 680H479L402 244Q390 174 414.5 138.5Q439 103 499 103Q560 103 597 138.5Q634 174 646 244L723 680H846L769 244Q746 114 678.5 52Q611 -10 495 -10Q376 -10 317.5 59.5Q259 129 279 244L337 575H322Q251 575 214 537.5Q177 500 162 412ZM593 889 574 782H465L484 889ZM787 889 768 782H659L678 889Z" glyph-name="Udieresis.alt" horiz-adv-x="849" unicode="" /><glyph d="M162 412 49 412Q73 553 141 616.5Q209 680 336 680H479L402 244Q390 174 414.5 138.5Q439 103 499 103Q560 103 597 138.5Q634 174 646 244L723 680H846L769 244Q746 114 678.5 52Q611 -10 495 -10Q376 -10 317.5 59.5Q259 129 279 244L337 575H322Q251 575 214 537.5Q177 500 162 412ZM658 752 562 752L480 872L591 918Z" glyph-name="Ugrave.alt" horiz-adv-x="849" unicode="" /><glyph d="M162 412 49 412Q73 553 141 616.5Q209 680 336 680H479L402 244Q390 174 414.5 138.5Q439 103 499 103Q560 103 597 138.5Q634 174 646 244L723 680H846L769 244Q746 114 678.5 52Q611 -10 495 -10Q376 -10 317.5 59.5Q259 129 279 244L337 575H322Q251 575 214 537.5Q177 500 162 412ZM625 839Q647 839 660.5 854.5Q674 870 682 904H772Q754 829 717.5 793.5Q681 758 620 758Q555 758 525.5 795Q496 832 504 904H588Q583 871 592 855Q601 839 625 839Z" glyph-name="Ubreve.alt" horiz-adv-x="849" unicode="" /><glyph d="M162 412 49 412Q73 553 141 616.5Q209 680 336 680H479L402 244Q390 174 414.5 138.5Q439 103 499 103Q560 103 597 138.5Q634 174 646 244L723 680H846L769 244Q746 114 678.5 52Q611 -10 495 -10Q376 -10 317.5 59.5Q259 129 279 244L337 575H322Q251 575 214 537.5Q177 500 162 412ZM678 872 584 752H488L593 918ZM828 872 734 752H638L743 918Z" glyph-name="Uhungarumlaut.alt" horiz-adv-x="849" unicode="" /><glyph d="M162 412 49 412Q73 553 141 616.5Q209 680 336 680H479L402 244Q390 174 414.5 138.5Q439 103 499 103Q560 103 597 138.5Q634 174 646 244L723 680H846L769 244Q746 114 678.5 52Q611 -10 495 -10Q376 -10 317.5 59.5Q259 129 279 244L337 575H322Q251 575 214 537.5Q177 500 162 412ZM480 865 783 865L768 782H465Z" glyph-name="Umacron.alt" horiz-adv-x="849" unicode="" /><glyph d="M162 412 49 412Q73 553 141 616.5Q209 680 336 680H479L402 244Q390 174 414.5 138.5Q439 103 499 103Q560 103 597 138.5Q634 174 646 244L723 680H846L769 244Q756 170 729 118.5Q702 67 661 38Q549 -42 522 -67Q495 -92 495 -114Q495 -123 501.5 -128Q508 -133 521 -133Q531 -133 542.5 -131Q554 -129 569 -124L580 -207Q558 -215 536.5 -219Q515 -223 493 -223Q443 -223 416 -201.5Q389 -180 389 -141Q389 -110 410.5 -79Q432 -48 478 -10Q367 -4 313.5 64.5Q260 133 279 244L337 575H322Q251 575 214 537.5Q177 500 162 412Z" glyph-name="Uogonek.alt" horiz-adv-x="849" unicode="" /><glyph d="M162 412 49 412Q73 553 141 616.5Q209 680 336 680H479L402 244Q390 174 414.5 138.5Q439 103 499 103Q560 103 597 138.5Q634 174 646 244L723 680H846L769 244Q746 114 678.5 52Q611 -10 495 -10Q376 -10 317.5 59.5Q259 129 279 244L337 575H322Q251 575 214 537.5Q177 500 162 412ZM644 976Q700 976 730.5 941.5Q761 907 750 855L747 840Q738 792 702.5 764Q667 736 616 736Q560 736 530.5 769.5Q501 803 511 856L514 871Q524 920 558.5 948Q593 976 644 976ZM678 849 681 864Q685 885 673.5 897.5Q662 910 639 910Q618 910 603 897.5Q588 885 583 864L580 849Q576 828 586.5 815.5Q597 803 620 803Q642 803 657.5 815.5Q673 828 678 849Z" glyph-name="Uring.alt" horiz-adv-x="849" unicode="" /><glyph d="M162 412 49 412Q73 553 141 616.5Q209 680 336 680H479L402 244Q390 174 414.5 138.5Q439 103 499 103Q560 103 597 138.5Q634 174 646 244L723 680H846L769 244Q746 114 678.5 52Q611 -10 495 -10Q376 -10 317.5 59.5Q259 129 279 244L337 575H322Q251 575 214 537.5Q177 500 162 412ZM682 761Q658 761 639.5 771Q621 781 599 809Q589 823 583.5 827Q578 831 573 831Q563 831 556.5 816.5Q550 802 543 769H462Q475 848 502 885.5Q529 923 574 923Q598 923 616 913Q634 903 655 875Q665 861 670.5 857Q676 853 681 853Q691 853 697.5 867.5Q704 882 711 915H792Q779 836 752.5 798.5Q726 761 682 761Z" glyph-name="Utilde.alt" horiz-adv-x="849" unicode="" /><glyph d="M745 0 703 506L482 0H359L331 575H322Q251 575 214 537.5Q177 500 162 412H49Q72 550 138 614Q204 678 326 680H453L457 411L451 159L679 680H787L831 164L916 411L949 501Q1032 727 1133.5 815Q1235 903 1406 903L1386 788Q1314 788 1267 768Q1220 748 1181 703Q1151 670 1123.5 620Q1096 570 1068 501L868 0ZM921 872 797 752H691L816 918Z" glyph-name="Wacute.alt" horiz-adv-x="1099" unicode="" /><glyph d="M745 0 703 506L482 0H359L331 575H322Q251 575 214 537.5Q177 500 162 412H49Q72 550 138 614Q204 678 326 680H453L457 411L451 159L679 680H787L831 164L916 411L949 501Q1032 727 1133.5 815Q1235 903 1406 903L1386 788Q1314 788 1267 768Q1220 748 1181 703Q1151 670 1123.5 620Q1096 570 1068 501L868 0ZM895 752 807 752L760 832L685 752H591L715 913H827Z" glyph-name="Wcircumflex.alt" horiz-adv-x="1099" unicode="" /></font>
</defs>
</svg>
