<?xml version="1.0" standalone="no"?>
<!DOCTYPE svg
  PUBLIC '-//W3C//DTD SVG 1.1//EN'
  'http://www.w3.org/Graphics/SVG/1.1/DTD/svg11.dtd'><svg version="1.1" xmlns="http://www.w3.org/2000/svg"><defs><font horiz-adv-x="0" id="font"><font-face ascent="650" bbox="-221 -238 1368 974" cap-height="680" descent="-200" font-family="Inria Serif Light" font-stretch="normal" font-style="normal" font-weight="680" units-per-em="1000" x-height="487" /><missing-glyph d="M495 0 77 0L197 680H615ZM257 650 147 30H435L545 650Z" horiz-adv-x="658" /><glyph d="" glyph-name=".null" horiz-adv-x="0" unicode="" /><glyph d="" glyph-name="CR" horiz-adv-x="0" unicode="" /><glyph d="" glyph-name="space" horiz-adv-x="230" unicode=" " /><glyph d="" glyph-name="uni00A0" horiz-adv-x="230" unicode=" " /><glyph d="M99 30 153 25L149 0H-43L-39 25L17 30Q34 32 40 38.5Q46 45 63 79L364 680H411L502 79Q507 45 510.5 38.5Q514 32 529 30L583 25L579 0H361L365 25L421 30Q438 32 440.5 39Q443 46 438 79L418 210H165L100 79Q84 46 83.5 39Q83 32 99 30ZM360 600 180 240H414Z" glyph-name="A" horiz-adv-x="622" unicode="A" /><glyph d="M179 650 124 655L129 680H394Q476 680 520 633Q564 586 552 512L548 486Q540 434 506 398.5Q472 363 417 349Q477 335 505.5 293Q534 251 525 190L521 164Q509 88 452 44Q395 0 309 0H9L13 25L69 30Q86 32 90 38.5Q94 45 100 79L192 601Q198 635 196.5 641.5Q195 648 179 650ZM394 650 266 650L215 360H342Q398 360 433 390Q468 420 478 476L486 522Q497 583 473 616.5Q449 650 394 650ZM362 330 209 330L156 30H309Q367 30 403.5 62Q440 94 451 154L459 200Q470 262 444.5 296Q419 330 362 330Z" glyph-name="B" horiz-adv-x="598" unicode="B" /><glyph d="M284 -10Q168 -10 117.5 74.5Q67 159 92 309L104 382Q128 529 203.5 609.5Q279 690 394 690Q495 690 542.5 628.5Q590 567 561 483L493 467Q520 560 494 610Q468 660 393 660Q308 660 257 603.5Q206 547 186 432L156 259Q135 137 167 78.5Q199 20 287 20Q347 20 389.5 53.5Q432 87 450 150L506 131Q473 61 417 25.5Q361 -10 284 -10Z" glyph-name="C" horiz-adv-x="579" unicode="C" /><glyph d="M179 650 124 655L129 680H381Q502 680 561 594Q620 508 596 372L583 299Q558 159 480.5 79.5Q403 0 291 0H9L13 25L69 30Q86 32 90 38.5Q94 45 100 79L192 601Q198 635 196.5 641.5Q195 648 179 650ZM381 650 266 650L156 30H290Q374 30 428 86Q482 142 501 249L532 422Q551 531 512 590.5Q473 650 381 650Z" glyph-name="D" horiz-adv-x="653" unicode="D" /><glyph d="M481 157 505 157L477 0H9L13 25L69 30Q86 32 90 38.5Q94 45 100 79L192 601Q198 635 196.5 641.5Q195 648 179 650L124 655L129 680H583L555 523H531L522 624Q520 643 512 646.5Q504 650 473 650H265L214 359H362Q395 359 404 362.5Q413 366 421 385L450 456H474L435 232H411L406 303Q405 322 397.5 325.5Q390 329 357 329H209L157 30H377Q409 30 418.5 33.5Q428 37 436 56Z" glyph-name="E" horiz-adv-x="565" unicode="E" /><glyph d="M178 30 252 25L248 0H9L13 25L69 30Q86 32 90 38.5Q94 45 100 79L192 601Q198 635 196.5 641.5Q195 648 179 650L124 655L129 680H575L547 523H522L513 624Q511 643 503 646.5Q495 650 464 650H266L212 348H350Q383 348 392 351.5Q401 355 409 374L438 445H463L424 221H399L394 292Q393 311 385.5 314.5Q378 318 345 318H207L165 79Q159 43 160.5 37Q162 31 178 30Z" glyph-name="F" horiz-adv-x="537" unicode="F" /><glyph d="M497 12 475 12Q472 24 466 35.5Q460 47 451 57Q419 23 377 6.5Q335 -10 283 -10Q167 -10 117 75Q67 160 92 309L104 382Q128 528 206 609Q284 690 402 690Q508 690 557.5 629.5Q607 569 578 483L510 467Q537 562 509.5 611Q482 660 401 660Q313 660 259.5 603Q206 546 186 432L156 259Q135 137 167 78.5Q199 20 286 20Q343 20 386 42.5Q429 65 452 107L474 229Q481 263 479 270Q477 277 460 278L386 283L390 308H626L622 283L566 278Q550 276 546 268.5Q542 261 536 229Z" glyph-name="G" horiz-adv-x="640" unicode="G" /><glyph d="M178 30 232 25L228 0H9L13 25L69 30Q86 32 90 38.5Q94 45 100 79L192 601Q198 635 196.5 641.5Q195 648 179 650L124 655L129 680H348L343 655L288 650Q271 648 267 641.5Q263 635 257 601L214 359H542L585 601Q591 635 589.5 641.5Q588 648 572 650L517 655L522 680H741L736 655L681 650Q664 648 660 641.5Q656 635 650 601L558 79Q552 45 553.5 38.5Q555 32 571 30L625 25L621 0H402L406 25L462 30Q479 32 483 38.5Q487 45 493 79L537 329H209L165 79Q159 45 160.5 38.5Q162 32 178 30Z" glyph-name="H" horiz-adv-x="716" unicode="H" /><glyph d="M179 650 124 655L129 680H348L343 655L288 650Q271 648 267 641.5Q263 635 257 601L165 79Q159 45 160.5 38.5Q162 32 178 30L232 25L228 0H9L13 25L69 30Q86 32 90 38.5Q94 45 100 79L192 601Q198 635 196.5 641.5Q195 648 179 650Z" glyph-name="I" horiz-adv-x="323" unicode="I" /><glyph d="M320 650 265 655L270 680H489L484 655L429 650Q412 648 408 641.5Q404 635 398 601L328 202Q310 101 257.5 45.5Q205 -10 124 -10Q59 -10 25.5 26Q-8 62 -3 129L55 147Q47 84 64.5 52Q82 20 124 20Q180 20 213 64Q246 108 263 202L333 601Q339 634 337.5 641Q336 648 320 650Z" glyph-name="J" horiz-adv-x="452" unicode="J" /><glyph d="M178 30 232 25L228 0H9L13 25L69 30Q86 32 90 38.5Q94 45 100 79L192 602Q198 635 196.5 642Q195 649 179 651L125 656L129 680H348L344 656L288 651Q271 649 267 642.5Q263 636 257 602L204 302L511 612Q534 636 537 642.5Q540 649 523 651L475 656L479 680H667L663 656L613 651Q600 650 594 646.5Q588 643 557 612L349 402L493 79Q508 46 513.5 39Q519 32 535 30L584 25L580 0H452L300 352L194 246L165 79Q159 46 160.5 39Q162 32 178 30Z" glyph-name="K" horiz-adv-x="636" unicode="K" /><glyph d="M454 161 479 161L450 0H9L13 25L69 30Q86 32 90 38.5Q94 45 100 79L192 601Q198 635 196.5 641.5Q195 648 179 650L124 655L129 680H348L343 655L288 650Q271 648 267 641.5Q263 635 257 601L156 30H349Q381 30 390.5 33.5Q400 37 408 56Z" glyph-name="L" horiz-adv-x="504" unicode="L" /><glyph d="M129 680 291 680L412 156L714 680H878L873 655L818 650Q801 648 797 640.5Q793 633 787 601L695 79Q689 46 690.5 39Q692 32 708 30L762 25L758 0H539L543 25L599 30Q616 32 620 39.5Q624 47 630 79L729 638L405 80H363L232 647L135 79Q129 46 130.5 39Q132 32 148 30L202 25L198 0H9L13 25L69 30Q85 32 90 40.5Q95 49 100 79L192 601Q198 634 196.5 641Q195 648 179 650L124 655Z" glyph-name="M" horiz-adv-x="853" unicode="M" /><glyph d="M179 650 124 655L129 680H279L512 109L599 601Q605 634 603.5 641Q602 648 586 650L531 655L536 680H725L720 655L665 650Q648 648 644 641.5Q640 635 634 601L528 0H489L232 629L135 79Q129 46 130.5 39Q132 32 148 30L202 25L198 0H9L13 25L69 30Q86 32 90 38.5Q94 45 100 79L192 601Q198 634 196.5 641Q195 648 179 650Z" glyph-name="N" horiz-adv-x="695" unicode="N" /><glyph d="M393 690Q513 690 571.5 600.5Q630 511 605 372L592 299Q566 153 490 71.5Q414 -10 303 -10Q182 -10 124 78.5Q66 167 91 309L104 382Q129 526 205.5 608Q282 690 393 690ZM510 249 541 422Q561 534 522.5 597Q484 660 394 660Q312 660 259 602Q206 544 186 432L155 259Q134 146 173 83Q212 20 302 20Q384 20 437 78Q490 136 510 249Z" glyph-name="O" horiz-adv-x="662" unicode="O" /><glyph d="M179 650 124 655L129 680H396Q485 680 531 628.5Q577 577 562 495L556 462Q541 378 485 334Q429 290 337 290H202L165 79Q159 43 160.5 37Q162 31 178 30L252 25L248 0H9L13 25L69 30Q86 32 90 38.5Q94 45 100 79L192 601Q198 635 196.5 641.5Q195 648 179 650ZM396 650 266 650L208 320H337Q401 320 437.5 352.5Q474 385 486 452L495 505Q507 579 483 614.5Q459 650 396 650Z" glyph-name="P" horiz-adv-x="558" unicode="P" /><glyph d="M325 -9Q338 -64 375 -86.5Q412 -109 494 -109L493 -173Q413 -173 361 -131Q309 -89 292 -10Q176 -6 121.5 82.5Q67 171 91 309L104 382Q129 526 205.5 608Q282 690 393 690Q513 690 571.5 600.5Q630 511 605 372L592 299Q568 162 497.5 80.5Q427 -1 325 -9ZM510 249 541 422Q561 534 522.5 597Q484 660 394 660Q312 660 259 602Q206 544 186 432L155 259Q134 146 173 83Q212 20 302 20Q384 20 437 78Q490 136 510 249Z" glyph-name="Q" horiz-adv-x="662" unicode="Q" /><glyph d="M179 650 124 655L129 680H383Q475 680 520.5 632Q566 584 553 504L547 469Q537 406 495.5 365.5Q454 325 388 313L477 79Q490 46 495 39Q500 32 516 30L560 25L556 0H433L322 308H205L165 79Q159 46 160.5 39Q162 32 178 30L232 25L228 0H9L13 25L69 30Q86 32 90 38.5Q94 45 100 79L192 601Q198 634 196.5 641Q195 648 179 650ZM386 650 266 650L211 338H330Q387 338 428 374Q469 410 479 469L485 504Q497 571 470 610.5Q443 650 386 650Z" glyph-name="R" horiz-adv-x="608" unicode="R" /><glyph d="M476 196Q476 106 410.5 48Q345 -10 235 -10Q142 -10 90.5 36.5Q39 83 34 173L92 191Q90 105 126 62.5Q162 20 238 20Q321 20 367 59.5Q413 99 413 168Q413 218 386 249.5Q359 281 296 305L233 329Q167 354 135 396Q103 438 103 499Q103 584 162.5 637Q222 690 324 690Q434 690 485.5 629Q537 568 507 483L441 467Q468 562 438.5 611.5Q409 661 323 661Q249 661 207.5 623Q166 585 166 517Q166 469 192 439Q218 409 278 386L341 362Q411 335 443.5 295Q476 255 476 196Z" glyph-name="S" horiz-adv-x="540" unicode="S" /><glyph d="M88 523 63 523L91 680H612L584 523H559L550 624Q548 643 540 646.5Q532 650 501 650H379L278 79Q272 45 273.5 38.5Q275 32 291 30L345 25L341 0H122L126 25L182 30Q199 32 203 38.5Q207 45 213 79L314 650H192Q160 650 150.5 646.5Q141 643 133 624Z" glyph-name="T" horiz-adv-x="549" unicode="T" /><glyph d="M573 650 518 655L523 680H712L707 655L652 650Q635 648 631 640.5Q627 633 621 601L556 231Q535 112 471.5 51Q408 -10 305 -10Q193 -10 143.5 59Q94 128 116 251L178 601Q184 634 182.5 641Q181 648 165 650L110 655L115 680H334L329 655L274 650Q257 648 253 640.5Q249 633 243 601L178 231Q159 123 190.5 71.5Q222 20 308 20Q394 20 448.5 74Q503 128 521 231L586 601Q592 634 590.5 641Q589 648 573 650Z" glyph-name="U" horiz-adv-x="673" unicode="U" /><glyph d="M596 611 291 0H236L147 611Q145 625 144 630Q143 635 142 638Q140 644 136.5 646.5Q133 649 121 650L72 655L77 680H283L278 655L229 650Q212 648 209.5 642.5Q207 637 211 611L288 66L559 611Q572 637 571.5 642.5Q571 648 555 650L506 655L511 680H689L684 655L635 650Q619 648 614 642.5Q609 637 596 611Z" glyph-name="V" horiz-adv-x="612" unicode="V" /><glyph d="M639 0 589 0L519 590L238 0H187L144 611Q142 637 139 642.5Q136 648 121 650L72 655L77 680H279L274 655L225 650Q208 648 205.5 642.5Q203 637 205 611L242 86L523 680H571L641 90L861 611Q872 637 871.5 642.5Q871 648 855 650L806 655L811 680H988L983 655L934 650Q918 648 913 642Q908 636 898 611Z" glyph-name="W" horiz-adv-x="911" unicode="W" /><glyph d="M98 30 146 25L142 0H-41L-37 25L13 30Q29 32 35.5 37.5Q42 43 63 69L276 340L167 611Q156 637 151.5 642.5Q147 648 133 650L84 655L89 680H299L294 655L245 650Q228 648 227 642.5Q226 637 236 611L326 388L500 611Q520 637 521 642.5Q522 648 507 650L458 655L463 680H646L641 655L592 650Q576 648 569.5 642.5Q563 637 542 611L340 353L454 69Q464 44 469 38Q474 32 489 30L537 25L533 0H323L327 25L377 30Q394 32 395 37.5Q396 43 386 69L290 306L105 69Q85 43 84 37.5Q83 32 98 30Z" glyph-name="X" horiz-adv-x="583" unicode="X" /><glyph d="M302 30 356 25L352 0H133L137 25L193 30Q209 32 213 37Q217 42 220 59L261 290L155 611Q147 636 142 642Q137 648 121 650L72 655L77 680H288L283 655L234 650Q218 648 216.5 642.5Q215 637 224 611L315 328L507 611Q524 637 525 642.5Q526 648 511 650L462 655L467 680H647L642 655L593 650Q576 649 569.5 643.5Q563 638 545 611L326 289L289 79Q283 45 284.5 38.5Q286 32 302 30Z" glyph-name="Y" horiz-adv-x="570" unicode="Y" /><glyph d="M441 157 466 157L438 0H-2L2 20L463 650H229Q197 650 187.5 646.5Q178 643 170 624L125 523H100L128 680H548L544 660L83 30H337Q369 30 378.5 33.5Q388 37 396 56Z" glyph-name="Z" horiz-adv-x="522" unicode="Z" /><glyph d="M454 650 399 655L404 680H894L866 523H842L833 624Q831 643 823 646.5Q815 650 784 650H575L524 359H672Q705 359 714 362.5Q723 366 731 385L760 456H784L745 232H721L716 303Q715 322 707.5 325.5Q700 329 667 329H519L467 30H684Q716 30 725.5 33.5Q735 37 743 56L788 157H812L784 0H319L323 25L379 30Q396 32 400 38.5Q404 45 410 79L433 210H205L112 79Q88 46 86.5 39Q85 32 101 30L155 25L151 0H-43L-39 25L17 30Q33 31 40.5 37.5Q48 44 73 79L441 601Q465 635 467 641.5Q469 648 454 650ZM509 640 226 240H438Z" glyph-name="AE" horiz-adv-x="875" unicode="Æ" /><glyph d="M90 308 103 381Q128 521 205.5 600.5Q283 680 395 680H913L885 523H861L852 624Q850 643 842 646.5Q834 650 803 650H594L543 359H691Q724 359 733 362.5Q742 366 750 385L779 456H803L764 232H740L735 303Q734 322 726.5 325.5Q719 329 686 329H538L486 30H703Q735 30 744.5 33.5Q754 37 762 56L807 157H831L803 0H305Q184 0 125 86Q66 172 90 308ZM305 30 420 30L530 650H396Q312 650 258 594Q204 538 185 431L154 258Q135 149 174 89.5Q213 30 305 30Z" glyph-name="OE" horiz-adv-x="894" unicode="Œ" /><glyph d="M456 157 481 157L453 0H12L16 25L72 30Q89 32 93 38.5Q97 45 103 79L143 304L56 262L46 290L149 340L195 601Q201 635 199.5 641.5Q198 648 182 650L127 655L132 680H351L346 655L291 650Q274 648 270 641.5Q266 635 260 601L220 375L366 446L376 418L214 339L159 30H352Q384 30 393.5 33.5Q403 37 411 56Z" glyph-name="Lslash" horiz-adv-x="507" unicode="Ł" /><glyph d="M605 372 592 299Q566 153 490 71.5Q414 -10 303 -10Q248 -10 205.5 9Q163 28 134 64L80 0H37L116 92Q93 135 86.5 190.5Q80 246 91 309L104 382Q129 526 205.5 608Q282 690 393 690Q446 690 489 671Q532 652 561 615L616 680H659L580 587Q603 545 609.5 489.5Q616 434 605 372ZM186 432 155 259Q149 225 148.5 194Q148 163 153 136L531 581Q513 620 478.5 640Q444 660 394 660Q312 660 259 602Q206 544 186 432ZM510 249 541 422Q547 456 547.5 486.5Q548 517 543 544L164 99Q181 60 216.5 40Q252 20 302 20Q384 20 437 78Q490 136 510 249Z" glyph-name="Oslash" horiz-adv-x="662" unicode="Ø" /><glyph d="M182 650 127 655L132 680H384Q505 680 564 594Q623 508 599 372L586 299Q561 159 483.5 79.5Q406 0 294 0H12L16 25L72 30Q89 32 93 38.5Q97 45 103 79L149 339H72L77 369H154L195 601Q201 635 199.5 641.5Q198 648 182 650ZM381 369 376 339H214L159 30H293Q377 30 431 86Q485 142 504 249L535 422Q554 531 515 590.5Q476 650 384 650H269L219 369Z" glyph-name="Eth" horiz-adv-x="656" unicode="Ð" /><glyph d="M178 30 252 25L248 0H9L13 25L69 30Q86 32 90 38.5Q94 45 100 79L192 601Q198 635 196.5 641.5Q195 648 179 650L124 655L129 680H368L363 655L288 650Q271 649 267 642.5Q263 636 257 601L246 536H371Q460 536 506 484.5Q552 433 537 351L531 318Q516 234 460 190Q404 146 312 146H177L165 79Q159 43 160.5 37Q162 31 178 30ZM371 506 240 506L182 176H312Q376 176 412.5 208.5Q449 241 461 308L470 361Q482 435 458 470.5Q434 506 371 506Z" glyph-name="Thorn" horiz-adv-x="558" unicode="Þ" /><glyph d="M588 167 585 150Q572 76 518 33Q464 -10 385 -10Q320 -10 280.5 22.5Q241 55 238 111L289 127Q290 73 314 46Q338 19 386 19Q439 19 473 55Q507 91 518 157L524 195Q536 273 495.5 316.5Q455 360 369 360H361L366 384L538 600Q518 629 483.5 644.5Q449 660 403 660Q329 660 285.5 618.5Q242 577 227 491L140 0H-2L2 25L58 30Q75 32 79 38.5Q83 45 89 79L160 481Q178 587 238.5 638.5Q299 690 404 690Q467 690 520 668Q573 646 605 608L602 591L436 383Q519 367 560.5 307.5Q602 248 588 167Z" glyph-name="uni1E9E" horiz-adv-x="650" unicode="ẞ" /><glyph d="M443 -5Q407 -5 389 19Q371 43 372 90Q339 40 299.5 15Q260 -10 214 -10Q130 -10 89.5 66Q49 142 70 256L74 278Q91 376 154.5 436.5Q218 497 301 497Q343 497 375.5 480.5Q408 464 430 431Q437 445 444 459Q451 473 458 487H498L438 150Q426 83 429 53.5Q432 24 451 24Q469 24 487 45.5Q505 67 517 105L550 83Q528 40 501 17.5Q474 -5 443 -5ZM142 286 132 226Q117 134 141 77Q165 20 219 20Q263 20 302.5 53.5Q342 87 379 156L420 385Q400 428 372 447.5Q344 467 302 467Q239 467 197.5 420Q156 373 142 286Z" glyph-name="a" horiz-adv-x="578" unicode="a" /><glyph d="M490 231 486 209Q469 111 405 50.5Q341 -10 257 -10Q214 -10 181.5 6.5Q149 23 127 56Q113 42 102 28.5Q91 15 79 -5H57L174 661Q180 694 178.5 701Q177 708 161 710L107 715L111 740H248L188 403Q221 450 260 473.5Q299 497 344 497Q429 497 470 421Q511 345 490 231ZM339 467Q294 467 253 432.5Q212 398 175 329L136 104Q155 60 184 40Q213 20 256 20Q320 20 361.5 66.5Q403 113 418 201L428 261Q443 354 418.5 410.5Q394 467 339 467Z" glyph-name="b" horiz-adv-x="560" unicode="b" /><glyph d="M306 467Q243 467 199.5 419.5Q156 372 142 285L132 225Q115 126 140.5 73Q166 20 230 20Q280 20 318.5 46.5Q357 73 374 121L416 98Q385 45 336.5 17.5Q288 -10 226 -10Q135 -10 91 62Q47 134 69 250L73 272Q92 375 155 436Q218 497 308 497Q394 497 433 447Q472 397 447 320L387 304Q412 383 391 425Q370 467 306 467Z" glyph-name="c" horiz-adv-x="483" unicode="c" /><glyph d="M448 -5Q412 -5 394 19.5Q376 44 377 91Q343 40 303 15Q263 -10 216 -10Q131 -10 90 66Q49 142 70 256L74 278Q91 376 155 436.5Q219 497 303 497Q345 497 377.5 481Q410 465 433 432L473 661Q479 695 477.5 701.5Q476 708 460 710L406 715L410 740H547L443 150Q431 83 434 53.5Q437 24 456 24Q474 24 492 45.5Q510 67 522 105L555 83Q533 40 506 17.5Q479 -5 448 -5ZM142 286 132 226Q117 133 141.5 76.5Q166 20 221 20Q266 20 307 54.5Q348 89 385 158L424 383Q404 427 375.5 447Q347 467 304 467Q240 467 198.5 420.5Q157 374 142 286Z" glyph-name="d" horiz-adv-x="582" unicode="d" /><glyph d="M389 120 432 98Q402 45 352.5 17.5Q303 -10 241 -10Q141 -10 94 61.5Q47 133 68 250L72 272Q91 375 156.5 436Q222 497 315 497Q384 497 427.5 462.5Q471 428 471 377Q471 308 396.5 264.5Q322 221 190 212L128 208Q116 116 145 68Q174 20 240 20Q292 20 332 46Q372 72 389 120ZM313 467Q247 467 201 419.5Q155 372 141 285L133 237L189 241Q298 248 354.5 284Q411 320 411 381Q411 421 385 444Q359 467 313 467Z" glyph-name="e" horiz-adv-x="506" unicode="e" /><glyph d="M375 487 370 457H204L86 -213H26L136 408Q142 441 140.5 448Q139 455 123 457L68 462L73 487H150L165 571Q181 661 225.5 705.5Q270 750 343 750Q422 750 454.5 707.5Q487 665 464 595L403 579Q426 649 411 684.5Q396 720 344 720Q292 720 265.5 688Q239 656 226 581L209 487Z" glyph-name="f" horiz-adv-x="328" unicode="f" /><glyph d="M502 487 417 9Q397 -102 335 -162.5Q273 -223 176 -223Q100 -223 60 -181Q20 -139 28 -68L85 -58Q75 -127 98 -161Q121 -195 177 -195Q250 -195 294 -147Q338 -99 356 -1L371 83Q338 36 299.5 13Q261 -10 216 -10Q131 -10 90 66Q49 142 70 256L74 278Q91 376 155 436.5Q219 497 303 497Q346 497 379 480Q412 463 435 430Q437 435 440 440.5Q443 446 449 459Q454 471 457 476.5Q460 482 462 487ZM142 286 132 226Q117 133 141.5 76.5Q166 20 221 20Q266 20 306.5 54Q347 88 384 157L424 383Q404 427 375.5 447Q347 467 304 467Q240 467 198.5 420.5Q157 374 142 286Z" glyph-name="g" horiz-adv-x="559" unicode="g" /><glyph d="M546 105 579 83Q557 39 529 17Q501 -5 468 -5Q424 -5 408 25.5Q392 56 404 117L444 315Q459 390 442 428.5Q425 467 377 467Q325 467 275 427.5Q225 388 177 309L123 0H63L179 661Q185 694 183.5 701Q182 708 166 710L111 715L116 740H253L189 376Q232 436 281 466.5Q330 497 385 497Q458 497 490.5 448Q523 399 505 316L461 107Q451 60 455 42Q459 24 477 24Q497 24 515 45Q533 66 546 105Z" glyph-name="h" horiz-adv-x="607" unicode="h" /><glyph d="M262 669Q262 648 247 632.5Q232 617 210 617Q191 617 180 627.5Q169 638 169 657Q169 678 184 693Q199 708 220 708Q239 708 250.5 697.5Q262 687 262 669ZM128 457 74 462L78 487H215L156 150Q144 83 147 53.5Q150 24 169 24Q187 24 205 45.5Q223 67 235 105L268 83Q246 40 219 17.5Q192 -5 161 -5Q116 -5 99 32.5Q82 70 95 142L141 408Q147 441 145.5 448Q144 455 128 457Z" glyph-name="i" horiz-adv-x="295" unicode="i" /><glyph d="M263 669Q263 648 248 632.5Q233 617 211 617Q192 617 181 627.5Q170 638 170 657Q170 678 185 693Q200 708 221 708Q240 708 251.5 697.5Q263 687 263 669ZM128 457 74 462L78 487H215L118 -64Q104 -143 64.5 -183Q25 -223 -39 -223Q-90 -223 -118.5 -193Q-147 -163 -143 -111L-91 -99Q-93 -147 -80.5 -170Q-68 -193 -39 -193Q2 -193 24 -163.5Q46 -134 58 -64L141 408Q147 441 145.5 448Q144 455 128 457Z" glyph-name="j" horiz-adv-x="273" unicode="j" /><glyph d="M485 0 367 0L239 271L148 187L115 0H57L173 661Q179 694 177.5 701Q176 708 160 710L106 715L110 740H247L157 235L282 353Q351 418 396.5 448.5Q442 479 496 497L511 436Q446 419 392.5 391Q339 363 295 323L283 312L402 69Q416 42 421 37Q426 32 441 30L489 25Z" glyph-name="k" horiz-adv-x="509" unicode="k" /><glyph d="M161 710 107 715L111 740H248L145 150Q133 83 136 53.5Q139 24 158 24Q176 24 194 45.5Q212 67 224 105L257 83Q235 40 208 17.5Q181 -5 150 -5Q105 -5 88 32.5Q71 70 84 142L174 661Q180 694 178.5 701Q177 708 161 710Z" glyph-name="l" horiz-adv-x="285" unicode="l" /><glyph d="M856 105 889 83Q867 39 839 17Q811 -5 778 -5Q734 -5 718 26Q702 57 714 117L754 315Q769 389 753 428Q737 467 692 467Q643 467 595.5 429Q548 391 501 314L445 0H385L440 315Q453 390 437.5 428.5Q422 467 378 467Q328 467 279.5 427.5Q231 388 184 310L129 0H69L141 408Q147 441 145.5 448Q144 455 128 457L73 462L78 487H215L196 377Q239 437 286.5 467Q334 497 386 497Q442 497 473 464Q504 431 506 371Q549 434 597.5 465.5Q646 497 700 497Q770 497 801.5 447.5Q833 398 815 316L771 107Q761 60 765 42Q769 24 787 24Q807 24 825 45Q843 66 856 105Z" glyph-name="m" horiz-adv-x="916" unicode="m" /><glyph d="M552 105 585 83Q563 39 535 17Q507 -5 474 -5Q430 -5 414 26Q398 57 410 117L450 315Q465 390 448 428.5Q431 467 383 467Q331 467 281 427.5Q231 388 183 309L129 0H69L141 408Q147 441 145.5 448Q144 455 128 457L73 462L78 487H215L195 376Q238 436 287 466.5Q336 497 391 497Q464 497 496.5 448Q529 399 511 316L467 107Q457 60 461 42Q465 24 483 24Q503 24 521 45Q539 66 552 105Z" glyph-name="n" horiz-adv-x="612" unicode="n" /><glyph d="M307 497Q405 497 454 425Q503 353 484 242L480 219Q461 110 399.5 50Q338 -10 243 -10Q146 -10 97.5 62.5Q49 135 68 246L72 269Q91 378 152 437.5Q213 497 307 497ZM409 204 419 264Q435 360 404 414.5Q373 469 302 469Q239 469 198.5 422Q158 375 143 284L133 224Q117 128 148 73Q179 18 249 18Q313 18 353.5 65Q394 112 409 204Z" glyph-name="o" horiz-adv-x="552" unicode="o" /><glyph d="M268 -10Q226 -10 193.5 6Q161 22 138 55L91 -213H31L141 408Q147 441 145.5 448Q144 455 128 457L74 463L78 487H215L200 405Q233 451 272 474Q311 497 355 497Q440 497 481 421Q522 345 501 231L497 209Q480 111 416 50.5Q352 -10 268 -10ZM350 467Q305 467 264.5 433Q224 399 187 330L147 103Q167 59 195.5 39.5Q224 20 267 20Q331 20 372.5 66.5Q414 113 429 201L439 261Q454 354 429.5 410.5Q405 467 350 467Z" glyph-name="p" horiz-adv-x="571" unicode="p" /><glyph d="M482 492 504 492L379 -213H319L371 84Q338 37 299.5 13.5Q261 -10 216 -10Q131 -10 90 66Q49 142 70 256L74 278Q91 376 155 436.5Q219 497 303 497Q346 497 378.5 480.5Q411 464 433 431Q448 446 459 459.5Q470 473 482 492ZM142 286 132 226Q117 133 141.5 76.5Q166 20 221 20Q267 20 307.5 54.5Q348 89 385 158L424 383Q405 427 376 447Q347 467 304 467Q240 467 198.5 420.5Q157 374 142 286Z" glyph-name="q" horiz-adv-x="560" unicode="q" /><glyph d="M326 453Q288 453 254 418.5Q220 384 185 312L130 0H70L142 408Q148 441 146.5 448Q145 455 129 457L74 462L79 487H216L197 380Q232 438 272.5 467.5Q313 497 356 497Q388 497 412 479.5Q436 462 447 430L396 385Q386 421 370 437Q354 453 326 453Z" glyph-name="r" horiz-adv-x="410" unicode="r" /><glyph d="M376 136Q376 72 325.5 31Q275 -10 189 -10Q115 -10 73.5 21.5Q32 53 29 111L80 127Q81 72 108 45.5Q135 19 190 19Q252 19 289.5 45.5Q327 72 327 118Q327 154 304 178Q281 202 236 214L176 230Q131 242 105.5 274Q80 306 80 350Q80 415 126 456Q172 497 252 497Q340 497 379.5 452Q419 407 396 340L335 324Q360 391 337 429Q314 467 249 467Q195 467 163 440.5Q131 414 131 370Q131 337 150 315Q169 293 206 283L266 267Q317 253 346.5 218Q376 183 376 136Z" glyph-name="s" horiz-adv-x="452" unicode="s" /><glyph d="M280 121 324 102Q299 46 265.5 18Q232 -10 189 -10Q124 -10 99 35Q74 80 89 169L131 410Q137 442 135 448.5Q133 455 117 457L62 462L67 487H144L169 629L232 641L205 487H369L364 457H199L145 149Q133 84 144.5 52Q156 20 191 20Q219 20 240.5 44Q262 68 280 121Z" glyph-name="t" horiz-adv-x="359" unicode="t" /><glyph d="M467 -5Q427 -5 409 25Q391 55 397 115Q354 52 306 21Q258 -10 204 -10Q135 -10 104.5 38Q74 86 89 171L131 408Q137 441 135.5 448Q134 455 118 457L63 462L68 487H205L150 172Q137 97 152.5 58.5Q168 20 212 20Q262 20 311 60Q360 100 408 180L461 487H521L462 150Q450 83 453 53.5Q456 24 475 24Q493 24 511 45.5Q529 67 541 105L574 83Q552 40 525 17.5Q498 -5 467 -5Z" glyph-name="u" horiz-adv-x="602" unicode="u" /><glyph d="M112 457 57 462L62 487H199L153 225Q134 118 149 69Q164 20 216 20Q264 20 308 57Q352 94 381 159Q403 206 414 263Q425 320 425 382Q425 404 423.5 427Q422 450 419 473L494 497Q473 249 399.5 119.5Q326 -10 210 -10Q132 -10 102 50.5Q72 111 92 224L125 408Q131 441 129.5 448Q128 455 112 457Z" glyph-name="v" horiz-adv-x="533" unicode="v" /><glyph d="M669 473 744 497Q722 246 655.5 118Q589 -10 479 -10Q429 -10 400 16Q371 42 363 94Q330 43 289 16.5Q248 -10 202 -10Q126 -10 98.5 48.5Q71 107 93 224L127 408Q133 441 131 448Q129 455 113 457L58 462L63 487H200L154 225Q134 113 146.5 66.5Q159 20 208 20Q254 20 295 56.5Q336 93 362 158Q363 172 365 188Q367 204 370 224L417 487H477L431 225Q411 113 423.5 66.5Q436 20 485 20Q566 20 621 120Q676 220 676 372Q676 392 674.5 416.5Q673 441 669 473Z" glyph-name="w" horiz-adv-x="787" unicode="w" /><glyph d="M236 218 197 169Q141 99 109.5 63Q78 27 40 -10L-10 27Q44 64 91.5 105Q139 146 182 193L226 242L153 418Q143 442 137 448.5Q131 455 115 457L66 462L71 487H185L266 293L286 318Q342 388 373.5 424Q405 460 443 497L493 460Q439 423 391.5 382Q344 341 301 294L277 267L359 69Q369 45 375 38.5Q381 32 397 30L445 25L441 0H327Z" glyph-name="x" horiz-adv-x="485" unicode="x" /><glyph d="M521 487 437 9Q418 -101 355.5 -162Q293 -223 196 -223Q120 -223 80 -181Q40 -139 48 -68L105 -58Q95 -126 118.5 -160.5Q142 -195 197 -195Q270 -195 314 -147Q358 -99 376 -1L396 113Q354 52 306 21Q258 -10 204 -10Q135 -10 104.5 38Q74 86 89 171L131 408Q137 441 135.5 448Q134 455 118 457L63 462L68 487H205L150 172Q137 97 152.5 58.5Q168 20 212 20Q262 20 311 60Q360 100 408 180L462 487Z" glyph-name="y" horiz-adv-x="579" unicode="y" /><glyph d="M381 133 407 125Q397 60 367.5 25Q338 -10 293 -10Q274 -10 253 -3.5Q232 3 194 24Q161 41 145 46.5Q129 52 116 52Q95 52 74 39Q53 26 31 0L9 22L369 440H189Q153 440 144.5 437Q136 434 131 419L100 338H75L101 487H433L428 462L99 79Q112 86 124.5 89Q137 92 151 92Q166 92 182.5 86.5Q199 81 229 64Q259 47 275 42Q291 37 306 37Q335 37 352.5 59Q370 81 381 133Z" glyph-name="z" horiz-adv-x="458" unicode="z" /><glyph d="M692 120 735 98Q705 45 655.5 17.5Q606 -10 544 -10Q478 -10 433.5 23Q389 56 373 116Q338 55 286 22.5Q234 -10 173 -10Q112 -10 79 19Q46 48 46 100Q46 169 95.5 208Q145 247 236 247H369L384 328Q396 396 372.5 431.5Q349 467 293 467Q233 467 201 432Q169 397 164 326L105 336Q112 407 164 452Q216 497 293 497Q347 497 383 473.5Q419 450 432 407Q466 451 514 474Q562 497 618 497Q687 497 730.5 462.5Q774 428 774 377Q774 304 698 260.5Q622 217 493 217H433Q419 121 447 70.5Q475 20 543 20Q595 20 635 46Q675 72 692 120ZM616 467Q550 467 504 419.5Q458 372 444 285L438 247H492Q602 247 658 281Q714 315 714 381Q714 421 688 444Q662 467 616 467ZM109 103Q109 65 128.5 45Q148 25 185 25Q237 25 282 59Q327 93 366 160Q365 174 365 188Q365 202 366 217H238Q174 217 141.5 188.5Q109 160 109 103Z" glyph-name="ae" horiz-adv-x="809" unicode="æ" /><glyph d="M739 120 782 98Q752 45 702.5 17.5Q653 -10 591 -10Q532 -10 491 19.5Q450 49 432 105Q402 49 354 19.5Q306 -10 243 -10Q146 -10 97.5 62.5Q49 135 68 246L72 269Q91 378 152 437.5Q213 497 307 497Q367 497 409 465.5Q451 434 469 376Q501 434 551.5 465.5Q602 497 665 497Q735 497 778 463Q821 429 821 377Q821 308 746.5 264.5Q672 221 540 212L478 208Q466 116 495 68Q524 20 590 20Q642 20 682 46Q722 72 739 120ZM409 204 419 264Q435 360 404 414.5Q373 469 302 469Q239 469 198.5 422Q158 375 143 284L133 224Q117 128 148 73Q179 18 249 18Q313 18 353.5 65Q394 112 409 204ZM663 467Q597 467 551.5 419.5Q506 372 491 285L483 237L539 241Q648 248 704.5 284Q761 320 761 381Q761 421 735 444Q709 467 663 467Z" glyph-name="oe" horiz-adv-x="856" unicode="œ" /><glyph d="M240 105 273 83Q251 40 224 17.5Q197 -5 166 -5Q121 -5 104 32.5Q87 70 100 142L134 338L24 285L14 313L140 374L190 661Q196 694 194.5 701Q193 708 177 710L123 715L127 740H264L206 406L315 459L325 431L199 370L161 150Q149 83 152 53.5Q155 24 174 24Q192 24 210 45.5Q228 67 240 105Z" glyph-name="lslash" horiz-adv-x="324" unicode="ł" /><glyph d="M485 242 481 219Q462 110 400.5 50Q339 -10 244 -10Q202 -10 168.5 4.5Q135 19 111 46L68 0H25L92 72Q73 106 67 151Q61 196 69 246L73 269Q92 378 153 437.5Q214 497 308 497Q349 497 383 483Q417 469 442 442L484 487H527L461 417Q482 381 488 336.5Q494 292 485 242ZM144 284 134 224Q129 193 129 165.5Q129 138 134 115L409 407Q395 437 368 453Q341 469 303 469Q240 469 199.5 422Q159 375 144 284ZM410 204 420 264Q425 296 425 323.5Q425 351 420 374L145 81Q160 50 186.5 34Q213 18 250 18Q314 18 354.5 65Q395 112 410 204Z" glyph-name="oslash" horiz-adv-x="553" unicode="ø" /><glyph d="M492 284 489 264Q465 130 401.5 60Q338 -10 240 -10Q143 -10 96.5 52Q50 114 65 218L68 238Q82 335 141 391Q200 447 288 447Q337 447 374.5 427.5Q412 408 435 370Q440 446 424 509Q408 572 371 621L237 534L223 559L353 644Q333 667 307 687.5Q281 708 249 726L263 750Q297 733 327.5 711.5Q358 690 383 664L516 750L531 725L403 642Q464 570 487 478Q510 386 492 284ZM138 249 130 199Q116 113 145 66.5Q174 20 242 20Q312 20 354.5 74.5Q397 129 417 244L427 304Q428 310 428.5 313.5Q429 317 429 320Q410 368 376 392.5Q342 417 296 417Q235 417 193 372.5Q151 328 138 249Z" glyph-name="eth" horiz-adv-x="558" unicode="ð" /><glyph d="M261 -10Q219 -10 186.5 6Q154 22 131 54L84 -213H24L179 661Q185 694 183.5 701Q182 708 166 710L112 716L116 740H253L194 405Q226 451 265 474Q304 497 348 497Q433 497 474 421Q515 345 494 231L490 209Q473 111 409 50.5Q345 -10 261 -10ZM343 467Q298 467 257.5 433.5Q217 400 180 331L140 103Q160 59 188.5 39.5Q217 20 260 20Q324 20 365.5 66.5Q407 113 422 201L432 261Q447 354 422.5 410.5Q398 467 343 467Z" glyph-name="thorn" horiz-adv-x="565" unicode="þ" /><glyph d="M364 720Q302 720 270.5 687.5Q239 655 226 581L86 -213H26L136 408Q142 442 140.5 448.5Q139 455 123 457L68 462L73 487H150L165 571Q181 662 230 706Q279 750 363 750Q435 750 474 717.5Q513 685 513 629Q513 601 500.5 575.5Q488 550 447 505Q406 461 393.5 435.5Q381 410 381 383Q381 360 393 341.5Q405 323 436 297L474 266Q508 238 522.5 207.5Q537 177 537 135Q537 71 491 30.5Q445 -10 372 -10Q309 -10 270.5 21.5Q232 53 224 111L275 127Q280 72 303.5 45.5Q327 19 372 19Q424 19 455 45Q486 71 486 116Q486 145 473.5 168Q461 191 433 215L397 246Q356 281 342.5 305Q329 329 329 359Q329 384 340 409.5Q351 435 388 483Q430 537 443 569.5Q456 602 456 636Q456 680 434 700Q412 720 364 720Z" glyph-name="germandbls" horiz-adv-x="589" unicode="ß" /><glyph d="M128 457 74 462L78 487H215L156 150Q144 83 147 53.5Q150 24 169 24Q187 24 205 45.5Q223 67 235 105L268 83Q246 40 219 17.5Q192 -5 161 -5Q116 -5 99 32.5Q82 70 95 142L141 408Q147 441 145.5 448Q144 455 128 457Z" glyph-name="dotlessi" horiz-adv-x="295" unicode="ı" /><glyph d="M128 457 74 462L78 487H215L118 -64Q104 -143 64.5 -183Q25 -223 -39 -223Q-90 -223 -118.5 -193Q-147 -163 -143 -111L-91 -99Q-93 -147 -80.5 -170Q-68 -193 -39 -193Q2 -193 24 -163.5Q46 -134 58 -64L141 408Q147 441 145.5 448Q144 455 128 457Z" glyph-name="dotlessj" horiz-adv-x="273" unicode="ȷ" /><glyph d="M376 720Q307 720 271.5 678Q236 636 219 541L209 487H518L459 150Q447 83 450 53.5Q453 24 472 24Q490 24 508 45.5Q526 67 538 105L571 83Q549 40 522 17.5Q495 -5 464 -5Q419 -5 402 32.5Q385 70 398 142L453 457H204L86 -213H26L136 408Q142 441 140.5 448Q139 455 123 457L68 462L73 487H150L158 531Q178 642 232.5 696Q287 750 377 750Q464 750 508.5 706Q553 662 534 595L473 579Q492 650 468 685Q444 720 376 720Z" glyph-name="fi" horiz-adv-x="598" unicode="ﬁ" /><glyph d="M686 720Q617 720 581.5 678Q546 636 529 541L519 487H828L769 150Q757 83 760 53.5Q763 24 782 24Q800 24 818 45.5Q836 67 848 105L881 83Q859 40 832 17.5Q805 -5 774 -5Q729 -5 712 32.5Q695 70 708 142L763 457H514L433 -3Q413 -114 358.5 -168.5Q304 -223 213 -223Q139 -223 97.5 -189.5Q56 -156 57 -98L118 -82Q116 -143 138 -168Q160 -193 214 -193Q284 -193 319.5 -151Q355 -109 372 -13L455 457H204L125 0H64L136 408Q142 441 140.5 448Q139 455 123 457L68 462L73 487H150L158 531Q177 636 231.5 688Q286 740 377 740Q427 740 461.5 718Q496 696 510 655Q539 702 583 726Q627 750 687 750Q774 750 818.5 706Q863 662 844 595L783 579Q802 650 778 685Q754 720 686 720ZM376 710Q306 710 270.5 670.5Q235 631 219 541L210 487H460L469 536Q485 625 462.5 667.5Q440 710 376 710Z" glyph-name="ffi" horiz-adv-x="908" unicode="ﬃ" /><glyph d="M352 457 204 457L86 -213H26L136 408Q142 441 140.5 448Q139 455 123 457L68 462L73 487H150L158 531Q178 642 232.5 696Q287 750 377 750Q422 750 454 736Q486 722 502 695Q514 704 524.5 715.5Q535 727 544 740H562L459 150Q447 83 450 53.5Q453 24 472 24Q490 24 508 45.5Q526 67 538 105L571 83Q549 40 522 17.5Q495 -5 464 -5Q419 -5 402 32.5Q385 70 398 142L473 579Q486 654 463.5 687Q441 720 376 720Q307 720 271.5 678Q236 636 219 541L209 487H357Z" glyph-name="fl" horiz-adv-x="599" unicode="ﬂ" /><glyph d="M514 457 433 -3Q413 -114 358.5 -168.5Q304 -223 213 -223Q139 -223 97.5 -189.5Q56 -156 57 -98L118 -82Q116 -143 138 -168Q160 -193 214 -193Q284 -193 319.5 -151Q355 -109 372 -13L455 457H204L125 0H64L136 408Q142 441 140.5 448Q139 455 123 457L68 462L73 487H150L158 531Q177 636 231.5 688Q286 740 377 740Q427 740 461.5 718Q496 696 510 655Q539 702 583 726Q627 750 687 750Q732 750 764 736Q796 722 812 695Q824 704 834.5 715.5Q845 727 854 740H872L769 150Q757 83 760 53.5Q763 24 782 24Q800 24 818 45.5Q836 67 848 105L881 83Q859 40 832 17.5Q805 -5 774 -5Q729 -5 712 32.5Q695 70 708 142L783 579Q796 654 773.5 687Q751 720 686 720Q617 720 581.5 678Q546 636 529 541L519 487H667L662 457ZM376 710Q306 710 270.5 670.5Q235 631 219 541L210 487H460L469 536Q485 625 462.5 667.5Q440 710 376 710Z" glyph-name="ffl" horiz-adv-x="909" unicode="ﬄ" /><glyph d="M502 -10Q437 -10 412 35Q387 80 402 169L452 457H204L86 -213H26L136 408Q142 441 140.5 448Q139 455 123 457L68 462L73 487H150L158 531Q178 642 232.5 696Q287 750 377 750Q442 750 478 717Q514 684 511 628Q518 637 521.5 641.5Q525 646 528 650H546L517 487H682L677 457H512L458 149Q446 84 457.5 52Q469 20 504 20Q532 20 553.5 44Q575 68 593 121L637 102Q612 46 578.5 18Q545 -10 502 -10ZM219 541 209 487H457L476 598Q487 660 462.5 690Q438 720 376 720Q307 720 271.5 678Q236 636 219 541Z" glyph-name="ft" horiz-adv-x="672" unicode="" /><glyph d="M514 457 433 -3Q413 -114 358.5 -168.5Q304 -223 213 -223Q139 -223 97.5 -189.5Q56 -156 57 -98L118 -82Q116 -143 138 -168Q160 -193 214 -193Q284 -193 319.5 -151Q355 -109 372 -13L455 457H204L125 0H64L136 408Q142 441 140.5 448Q139 455 123 457L68 462L73 487H150L158 531Q177 636 231.5 688Q286 740 377 740Q427 740 461.5 718Q496 696 510 655Q539 702 583 726Q627 750 687 750Q752 750 788 717Q824 684 821 628Q828 637 831.5 641.5Q835 646 838 650H856L827 487H992L987 457H822L768 149Q756 84 767.5 52Q779 20 814 20Q842 20 863.5 44Q885 68 903 121L947 102Q922 46 888.5 18Q855 -10 812 -10Q747 -10 722 35Q697 80 712 169L762 457ZM529 541 519 487H767L786 598Q797 660 772.5 690Q748 720 686 720Q617 720 581.5 678Q546 636 529 541ZM376 710Q306 710 270.5 670.5Q235 631 219 541L210 487H460L469 536Q485 625 462.5 667.5Q440 710 376 710Z" glyph-name="fft" horiz-adv-x="982" unicode="" /><glyph d="M357 487 352 457H204L86 -213H26L136 408Q142 441 140.5 448Q139 455 123 457L68 462L73 487H150L158 531Q178 642 232.5 696Q287 750 377 750Q422 750 454 736Q486 722 502 695Q514 704 524.5 715.5Q535 727 544 740H562L502 403Q535 450 574 473.5Q613 497 658 497Q743 497 784 421Q825 345 804 231L800 209Q783 111 719 50.5Q655 -10 571 -10Q528 -10 495.5 6.5Q463 23 441 56Q427 42 416 28.5Q405 15 393 -5H371L475 590Q487 658 463.5 689Q440 720 376 720Q307 720 271.5 678Q236 636 219 541L209 487ZM653 467Q608 467 567 432.5Q526 398 489 329L450 104Q469 60 498 40Q527 20 570 20Q634 20 675.5 66.5Q717 113 732 201L742 261Q757 354 732.5 410.5Q708 467 653 467Z" glyph-name="fb" horiz-adv-x="874" unicode="" /><glyph d="M514 457 433 -3Q413 -114 358.5 -168.5Q304 -223 213 -223Q139 -223 97.5 -189.5Q56 -156 57 -98L118 -82Q116 -143 138 -168Q160 -193 214 -193Q284 -193 319.5 -151Q355 -109 372 -13L455 457H204L125 0H64L136 408Q142 441 140.5 448Q139 455 123 457L68 462L73 487H150L158 531Q177 636 231.5 688Q286 740 377 740Q427 740 461.5 718Q496 696 510 655Q539 702 583 726Q627 750 687 750Q732 750 764 736Q796 722 812 695Q824 704 834.5 715.5Q845 727 854 740H872L812 403Q845 450 884 473.5Q923 497 968 497Q1053 497 1094 421Q1135 345 1114 231L1110 209Q1093 111 1029 50.5Q965 -10 881 -10Q838 -10 805.5 6.5Q773 23 751 56Q737 42 726 28.5Q715 15 703 -5H681L785 590Q797 658 773.5 689Q750 720 686 720Q617 720 581.5 678Q546 636 529 541L519 487H667L662 457ZM376 710Q306 710 270.5 670.5Q235 631 219 541L210 487H460L469 536Q485 625 462.5 667.5Q440 710 376 710ZM963 467Q918 467 877 432.5Q836 398 799 329L760 104Q779 60 808 40Q837 20 880 20Q944 20 985.5 66.5Q1027 113 1042 201L1052 261Q1067 354 1042.5 410.5Q1018 467 963 467Z" glyph-name="ffb" horiz-adv-x="1184" unicode="" /><glyph d="M514 457 433 -3Q413 -114 358.5 -168.5Q304 -223 213 -223Q139 -223 97.5 -189.5Q56 -156 57 -98L118 -82Q116 -143 138 -168Q160 -193 214 -193Q284 -193 319.5 -151Q355 -109 372 -13L455 457H204L125 0H64L136 408Q142 441 140.5 448Q139 455 123 457L68 462L73 487H150L158 531Q177 636 231.5 688Q286 740 377 740Q424 740 457.5 720.5Q491 701 506 666Q529 708 566 729Q603 750 653 750Q732 750 764.5 707.5Q797 665 774 595L713 579Q736 649 721 684.5Q706 720 654 720Q603 720 576.5 688Q550 656 536 581L519 487H685L680 457ZM376 710Q306 710 270.5 670.5Q235 631 219 541L210 487H460L470 544Q485 628 462 669Q439 710 376 710Z" glyph-name="ff" horiz-adv-x="638" unicode="ﬀ" /><glyph d="M524 -213Q473 -213 438.5 -191Q404 -169 390 -128Q361 -176 317 -199.5Q273 -223 213 -223Q139 -223 97.5 -189.5Q56 -156 57 -98L118 -82Q116 -143 138 -168Q160 -193 214 -193Q284 -193 319.5 -151Q355 -109 372 -13L455 457H204L125 0H64L136 408Q142 441 140.5 448Q139 455 123 457L68 462L73 487H150L158 531Q177 636 231.5 688Q286 740 377 740Q428 740 463 716.5Q498 693 511 651Q539 695 583.5 717.5Q628 740 687 740Q734 740 767.5 720.5Q801 701 816 666Q839 708 876 729Q913 750 963 750Q1042 750 1074.5 707.5Q1107 665 1084 595L1023 579Q1046 649 1031 684.5Q1016 720 964 720Q912 720 885.5 688Q859 656 846 581L829 487H995L990 457H824L743 -4Q724 -109 669.5 -161Q615 -213 524 -213ZM686 710Q616 710 580.5 670.5Q545 631 529 541L519 487H770L780 544Q795 628 772 669Q749 710 686 710ZM376 710Q306 710 270.5 670.5Q235 631 219 541L210 487H460L468 532Q484 624 462 667Q440 710 376 710ZM514 457 433 -3Q416 -97 438 -140Q460 -183 525 -183Q595 -183 630.5 -143.5Q666 -104 682 -14L765 457Z" glyph-name="fff" horiz-adv-x="948" unicode="" /><glyph d="M357 487 352 457H204L86 -213H26L136 408Q142 441 140.5 448Q139 455 123 457L68 462L73 487H150L158 531Q178 642 232.5 696Q287 750 377 750Q422 750 454 736Q486 722 502 695Q514 704 524.5 715.5Q535 727 544 740H562L498 376Q541 436 590 466.5Q639 497 694 497Q767 497 799.5 448Q832 399 814 316L770 107Q760 60 764 42Q768 24 786 24Q806 24 824 45Q842 66 855 105L888 83Q866 39 838 17Q810 -5 777 -5Q733 -5 717 25.5Q701 56 713 117L753 315Q768 390 751 428.5Q734 467 686 467Q634 467 584 427.5Q534 388 486 309L432 0H372L475 589Q487 657 463.5 688.5Q440 720 376 720Q307 720 271.5 678Q236 636 219 541L209 487Z" glyph-name="fh" horiz-adv-x="916" unicode="" /><glyph d="M514 457 433 -3Q413 -114 358.5 -168.5Q304 -223 213 -223Q139 -223 97.5 -189.5Q56 -156 57 -98L118 -82Q116 -143 138 -168Q160 -193 214 -193Q284 -193 319.5 -151Q355 -109 372 -13L455 457H204L125 0H64L136 408Q142 441 140.5 448Q139 455 123 457L68 462L73 487H150L158 531Q177 636 231.5 688Q286 740 377 740Q427 740 461.5 718Q496 696 510 655Q539 702 583 726Q627 750 687 750Q732 750 764 736Q796 722 812 695Q824 704 834.5 715.5Q845 727 854 740H872L808 376Q851 436 900 466.5Q949 497 1004 497Q1077 497 1109.5 448Q1142 399 1124 316L1080 107Q1070 60 1074 42Q1078 24 1096 24Q1116 24 1134 45Q1152 66 1165 105L1198 83Q1176 39 1148 17Q1120 -5 1087 -5Q1043 -5 1027 25.5Q1011 56 1023 117L1063 315Q1078 390 1061 428.5Q1044 467 996 467Q944 467 894 427.5Q844 388 796 309L742 0H682L785 589Q797 657 773.5 688.5Q750 720 686 720Q617 720 581.5 678Q546 636 529 541L519 487H667L662 457ZM376 710Q306 710 270.5 670.5Q235 631 219 541L210 487H460L469 536Q485 625 462.5 667.5Q440 710 376 710Z" glyph-name="ffh" horiz-adv-x="1226" unicode="" /><glyph d="M376 720Q307 720 271 678Q235 636 219 541L210 487H518L432 -3Q413 -114 358 -168.5Q303 -223 212 -223Q138 -223 96.5 -189.5Q55 -156 56 -98L117 -82Q115 -143 137 -168Q159 -193 213 -193Q283 -193 318.5 -151Q354 -109 371 -13L454 457H204L124 0H64L136 408Q142 441 140.5 448Q139 455 123 457L68 462L73 487H150L158 531Q178 642 232.5 696Q287 750 377 750Q464 750 508.5 706Q553 662 534 595L473 579Q492 650 468 685Q444 720 376 720Z" glyph-name="fj" horiz-adv-x="560" unicode="" /><glyph d="M686 720Q617 720 581.5 678Q546 636 529 541L519 487H827L740 -4Q721 -109 666.5 -161Q612 -213 521 -213Q471 -213 437 -190.5Q403 -168 390 -128Q362 -176 317.5 -199.5Q273 -223 213 -223Q139 -223 97.5 -189.5Q56 -156 57 -98L118 -82Q116 -143 138 -168Q160 -193 214 -193Q284 -193 319.5 -151Q355 -109 372 -13L455 457H204L125 0H64L136 408Q142 441 140.5 448Q139 455 123 457L68 462L73 487H150L158 531Q177 636 231.5 688Q286 740 377 740Q427 740 461.5 718Q496 696 510 655Q539 702 583 726Q627 750 687 750Q774 750 818.5 706Q863 662 844 595L783 579Q802 650 778 685Q754 720 686 720ZM376 710Q306 710 270.5 670.5Q235 631 219 541L210 487H460L469 536Q485 625 462.5 667.5Q440 710 376 710ZM514 457 433 -3Q417 -97 438 -140Q459 -183 522 -183Q592 -183 627.5 -143.5Q663 -104 679 -14L761 457Z" glyph-name="ffj" horiz-adv-x="868" unicode="" /><glyph d="M357 487 352 457H204L86 -213H26L136 408Q142 441 140.5 448Q139 455 123 457L68 462L73 487H150L158 531Q178 642 232.5 696Q287 750 377 750Q422 750 454 736Q486 722 502 695Q514 704 524.5 715.5Q535 727 544 740H562L474 236L597 353Q666 418 711.5 448.5Q757 479 811 497L826 436Q761 419 707.5 391Q654 363 610 323L598 312L717 69Q731 42 736 37Q741 32 756 30L804 25L800 0H682L554 271L465 189L432 0H372L475 589Q487 657 463.5 688.5Q440 720 376 720Q307 720 271.5 678Q236 636 219 541L209 487Z" glyph-name="fk" horiz-adv-x="824" unicode="" /><glyph d="M514 457 433 -3Q413 -114 358.5 -168.5Q304 -223 213 -223Q139 -223 97.5 -189.5Q56 -156 57 -98L118 -82Q116 -143 138 -168Q160 -193 214 -193Q284 -193 319.5 -151Q355 -109 372 -13L455 457H204L125 0H64L136 408Q142 441 140.5 448Q139 455 123 457L68 462L73 487H150L158 531Q177 636 231.5 688Q286 740 377 740Q427 740 461.5 718Q496 696 510 655Q539 702 583 726Q627 750 687 750Q732 750 764 736Q796 722 812 695Q824 704 834.5 715.5Q845 727 854 740H872L784 236L907 353Q976 418 1021.5 448.5Q1067 479 1121 497L1136 436Q1071 419 1017.5 391Q964 363 920 323L908 312L1027 69Q1041 42 1046 37Q1051 32 1066 30L1114 25L1110 0H992L864 271L775 189L742 0H682L785 589Q797 657 773.5 688.5Q750 720 686 720Q617 720 581.5 678Q546 636 529 541L519 487H667L662 457ZM376 710Q306 710 270.5 670.5Q235 631 219 541L210 487H460L469 536Q485 625 462.5 667.5Q440 710 376 710Z" glyph-name="ffk" horiz-adv-x="1134" unicode="" /><glyph d="M99 30 153 25L149 0H-43L-39 25L17 30Q34 32 40 38.5Q46 45 63 79L364 680H411L502 79Q507 45 510.5 38.5Q514 32 529 30L583 25L579 0H361L365 25L421 30Q438 32 440.5 39Q443 46 438 79L418 210H165L100 79Q84 46 83.5 39Q83 32 99 30ZM360 600 180 240H414ZM403 772 386 793Q418 826 438.5 856.5Q459 887 479 933H559Q524 888 485.5 848.5Q447 809 403 772Z" glyph-name="Aacute" horiz-adv-x="622" unicode="Á" /><glyph d="M99 30 153 25L149 0H-43L-39 25L17 30Q34 32 40 38.5Q46 45 63 79L364 680H411L502 79Q507 45 510.5 38.5Q514 32 529 30L583 25L579 0H361L365 25L421 30Q438 32 440.5 39Q443 46 438 79L418 210H165L100 79Q84 46 83.5 39Q83 32 99 30ZM360 600 180 240H414ZM534 790 515 772Q486 801 463.5 827Q441 853 423 878Q397 853 367 827.5Q337 802 299 772L281 793Q329 836 352.5 862.5Q376 889 406 933H458Q472 889 487 861Q502 833 534 790Z" glyph-name="Acircumflex" horiz-adv-x="622" unicode="Â" /><glyph d="M99 30 153 25L149 0H-43L-39 25L17 30Q34 32 40 38.5Q46 45 63 79L364 680H411L502 79Q507 45 510.5 38.5Q514 32 529 30L583 25L579 0H361L365 25L421 30Q438 32 440.5 39Q443 46 438 79L418 210H165L100 79Q84 46 83.5 39Q83 32 99 30ZM360 600 180 240H414ZM360 862Q360 841 345.5 826.5Q331 812 310 812Q293 812 282 822.5Q271 833 271 850Q271 871 285 885Q299 899 320 899Q339 899 349.5 889Q360 879 360 862ZM559 862Q559 841 544.5 826.5Q530 812 509 812Q492 812 481 822.5Q470 833 470 850Q470 871 484 885Q498 899 519 899Q538 899 548.5 889Q559 879 559 862Z" glyph-name="Adieresis" horiz-adv-x="622" unicode="Ä" /><glyph d="M99 30 153 25L149 0H-43L-39 25L17 30Q34 32 40 38.5Q46 45 63 79L364 680H411L502 79Q507 45 510.5 38.5Q514 32 529 30L583 25L579 0H361L365 25L421 30Q438 32 440.5 39Q443 46 438 79L418 210H165L100 79Q84 46 83.5 39Q83 32 99 30ZM360 600 180 240H414ZM426 789 405 772Q374 809 349.5 848.5Q325 888 305 933H377Q382 890 392.5 858.5Q403 827 426 789Z" glyph-name="Agrave" horiz-adv-x="622" unicode="À" /><glyph d="M99 30 153 25L149 0H-43L-39 25L17 30Q34 32 40 38.5Q46 45 63 79L354 659Q316 669 296 700Q276 731 283 768L285 779Q293 822 327 848.5Q361 875 410 875Q465 875 495 841.5Q525 808 517 762L515 751Q508 714 481 688.5Q454 663 414 657L502 79Q507 45 510.5 38.5Q514 32 529 30L583 25L579 0H361L365 25L421 30Q438 32 440.5 39Q443 46 438 79L418 210H165L100 79Q84 46 83.5 39Q83 32 99 30ZM388 680Q418 680 438.5 699.5Q459 719 464 752L468 777Q473 811 458 830.5Q443 850 411 850Q381 850 361 831Q341 812 336 778L332 753Q327 720 342 700Q357 680 388 680ZM360 600 180 240H414Z" glyph-name="Aring" horiz-adv-x="622" unicode="Å" /><glyph d="M99 30 153 25L149 0H-43L-39 25L17 30Q34 32 40 38.5Q46 45 63 79L364 680H411L502 79Q507 45 510.5 38.5Q514 32 529 30L583 25L579 0H361L365 25L421 30Q438 32 440.5 39Q443 46 438 79L418 210H165L100 79Q84 46 83.5 39Q83 32 99 30ZM360 600 180 240H414ZM485 786Q465 786 447 796.5Q429 807 402 839Q382 864 371 871.5Q360 879 348 879Q328 879 312.5 858.5Q297 838 289 801H260Q270 862 295.5 895Q321 928 356 928Q377 928 394.5 917.5Q412 907 438 874Q457 850 468 842.5Q479 835 490 835Q510 835 525.5 855.5Q541 876 549 913H578Q568 853 543 819.5Q518 786 485 786Z" glyph-name="Atilde" horiz-adv-x="622" unicode="Ã" /><glyph d="M99 30 153 25L149 0H-43L-39 25L17 30Q34 32 40 38.5Q46 45 63 79L364 680H411L502 79Q507 45 510.5 38.5Q514 32 529 30L583 25L579 0H361L365 25L421 30Q438 32 440.5 39Q443 46 438 79L418 210H165L100 79Q84 46 83.5 39Q83 32 99 30ZM360 600 180 240H414ZM414 825Q460 825 490 850Q520 875 544 933L570 926Q542 845 505 808.5Q468 772 413 772Q355 772 326 809Q297 846 292 926L318 933Q327 873 348.5 849Q370 825 414 825Z" glyph-name="Abreve" horiz-adv-x="622" unicode="Ă" /><glyph d="M99 30 153 25L149 0H-43L-39 25L17 30Q34 32 40 38.5Q46 45 63 79L364 680H411L502 79Q507 45 510.5 38.5Q514 32 529 30L583 25L579 0H361L365 25L421 30Q438 32 440.5 39Q443 46 438 79L418 210H165L100 79Q84 46 83.5 39Q83 32 99 30ZM360 600 180 240H414ZM276 855 563 855L555 812H268Z" glyph-name="Amacron" horiz-adv-x="622" unicode="Ā" /><glyph d="M515 -112 557 -125Q535 -174 501.5 -198.5Q468 -223 424 -223Q379 -223 352.5 -200.5Q326 -178 326 -138Q326 -92 361 -49Q396 -6 448 13L419 210H165L100 79Q84 46 83.5 39Q83 32 99 30L153 25L149 0H-43L-39 25L17 30Q34 32 40.5 38.5Q47 45 63 79L364 680H411L502 79Q507 46 510.5 39Q514 32 529 30L583 25L579 0H516Q456 0 417 -41Q378 -82 378 -140Q378 -168 389.5 -182Q401 -196 424 -196Q453 -196 476 -175Q499 -154 515 -112ZM360 600 180 240H414Z" glyph-name="Aogonek" horiz-adv-x="622" unicode="Ą" /><glyph d="M364 -134Q364 -174 331.5 -198.5Q299 -223 248 -223Q203 -223 178 -203Q153 -183 152 -145L199 -132Q196 -166 208 -182Q220 -198 249 -198Q276 -198 293.5 -180Q311 -162 311 -134Q311 -107 299 -96.5Q287 -86 259 -86Q255 -86 249 -86.5Q243 -87 233 -89L229 -63L261 -9Q157 0 112.5 84Q68 168 92 309L104 382Q128 529 203.5 609.5Q279 690 394 690Q495 690 542.5 628.5Q590 567 561 483L493 467Q520 560 494 610Q468 660 393 660Q308 660 257 603.5Q206 547 186 432L156 259Q135 137 167 78.5Q199 20 287 20Q347 20 389.5 53.5Q432 87 450 150L506 131Q474 63 420 27.5Q366 -8 292 -10L263 -60H266Q312 -60 338 -80Q364 -100 364 -134Z" glyph-name="Ccedilla" horiz-adv-x="579" unicode="Ç" /><glyph d="M284 -10Q168 -10 117.5 74.5Q67 159 92 309L104 382Q128 529 203.5 609.5Q279 690 394 690Q495 690 542.5 628.5Q590 567 561 483L493 467Q520 560 494 610Q468 660 393 660Q308 660 257 603.5Q206 547 186 432L156 259Q135 137 167 78.5Q199 20 287 20Q347 20 389.5 53.5Q432 87 450 150L506 131Q473 61 417 25.5Q361 -10 284 -10ZM408 772 391 793Q423 826 443.5 856.5Q464 887 484 933H564Q529 888 490.5 848.5Q452 809 408 772Z" glyph-name="Cacute" horiz-adv-x="579" unicode="Ć" /><glyph d="M284 -10Q168 -10 117.5 74.5Q67 159 92 309L104 382Q128 529 203.5 609.5Q279 690 394 690Q495 690 542.5 628.5Q590 567 561 483L493 467Q520 560 494 610Q468 660 393 660Q308 660 257 603.5Q206 547 186 432L156 259Q135 137 167 78.5Q199 20 287 20Q347 20 389.5 53.5Q432 87 450 150L506 131Q473 61 417 25.5Q361 -10 284 -10ZM544 938 562 917Q514 874 490.5 847.5Q467 821 437 777H385Q371 821 356 849Q341 877 309 920L328 938Q357 909 379.5 883Q402 857 420 832Q446 857 476 882.5Q506 908 544 938Z" glyph-name="Ccaron" horiz-adv-x="579" unicode="Č" /><glyph d="M284 -10Q168 -10 117.5 74.5Q67 159 92 309L104 382Q128 529 203.5 609.5Q279 690 394 690Q495 690 542.5 628.5Q590 567 561 483L493 467Q520 560 494 610Q468 660 393 660Q308 660 257 603.5Q206 547 186 432L156 259Q135 137 167 78.5Q199 20 287 20Q347 20 389.5 53.5Q432 87 450 150L506 131Q473 61 417 25.5Q361 -10 284 -10ZM539 790 520 772Q491 801 468.5 827Q446 853 428 878Q402 853 372 827.5Q342 802 304 772L286 793Q334 836 357.5 862.5Q381 889 411 933H463Q477 889 492 861Q507 833 539 790Z" glyph-name="Ccircumflex" horiz-adv-x="579" unicode="Ĉ" /><glyph d="M284 -10Q168 -10 117.5 74.5Q67 159 92 309L104 382Q128 529 203.5 609.5Q279 690 394 690Q495 690 542.5 628.5Q590 567 561 483L493 467Q520 560 494 610Q468 660 393 660Q308 660 257 603.5Q206 547 186 432L156 259Q135 137 167 78.5Q199 20 287 20Q347 20 389.5 53.5Q432 87 450 150L506 131Q473 61 417 25.5Q361 -10 284 -10ZM471 862Q471 841 456 825.5Q441 810 419 810Q400 810 389 820.5Q378 831 378 850Q378 871 393 886Q408 901 429 901Q448 901 459.5 890.5Q471 880 471 862Z" glyph-name="Cdotaccent" horiz-adv-x="579" unicode="Ċ" /><glyph d="M179 650 124 655L129 680H381Q502 680 561 594Q620 508 596 372L583 299Q558 159 480.5 79.5Q403 0 291 0H9L13 25L69 30Q86 32 90 38.5Q94 45 100 79L192 601Q198 635 196.5 641.5Q195 648 179 650ZM381 650 266 650L156 30H290Q374 30 428 86Q482 142 501 249L532 422Q551 531 512 590.5Q473 650 381 650ZM540 938 558 917Q510 874 486.5 847.5Q463 821 433 777H381Q367 821 352 849Q337 877 305 920L324 938Q353 909 375.5 883Q398 857 416 832Q442 857 472 882.5Q502 908 540 938Z" glyph-name="Dcaron" horiz-adv-x="653" unicode="Ď" /><glyph d="M182 650 127 655L132 680H384Q505 680 564 594Q623 508 599 372L586 299Q561 159 483.5 79.5Q406 0 294 0H12L16 25L72 30Q89 32 93 38.5Q97 45 103 79L149 339H72L77 369H154L195 601Q201 635 199.5 641.5Q198 648 182 650ZM381 369 376 339H214L159 30H293Q377 30 431 86Q485 142 504 249L535 422Q554 531 515 590.5Q476 650 384 650H269L219 369Z" glyph-name="Dcroat" horiz-adv-x="656" unicode="Đ" /><glyph d="M481 157 505 157L477 0H9L13 25L69 30Q86 32 90 38.5Q94 45 100 79L192 601Q198 635 196.5 641.5Q195 648 179 650L124 655L129 680H583L555 523H531L522 624Q520 643 512 646.5Q504 650 473 650H265L214 359H362Q395 359 404 362.5Q413 366 421 385L450 456H474L435 232H411L406 303Q405 322 397.5 325.5Q390 329 357 329H209L157 30H377Q409 30 418.5 33.5Q428 37 436 56ZM394 772 377 793Q409 826 429.5 856.5Q450 887 470 933H550Q515 888 476.5 848.5Q438 809 394 772Z" glyph-name="Eacute" horiz-adv-x="565" unicode="É" /><glyph d="M481 157 505 157L477 0H9L13 25L69 30Q86 32 90 38.5Q94 45 100 79L192 601Q198 635 196.5 641.5Q195 648 179 650L124 655L129 680H583L555 523H531L522 624Q520 643 512 646.5Q504 650 473 650H265L214 359H362Q395 359 404 362.5Q413 366 421 385L450 456H474L435 232H411L406 303Q405 322 397.5 325.5Q390 329 357 329H209L157 30H377Q409 30 418.5 33.5Q428 37 436 56ZM526 790 507 772Q478 801 455.5 827Q433 853 415 878Q389 853 359 827.5Q329 802 291 772L273 793Q321 836 344.5 862.5Q368 889 398 933H450Q464 889 479 861Q494 833 526 790Z" glyph-name="Ecircumflex" horiz-adv-x="565" unicode="Ê" /><glyph d="M481 157 505 157L477 0H9L13 25L69 30Q86 32 90 38.5Q94 45 100 79L192 601Q198 635 196.5 641.5Q195 648 179 650L124 655L129 680H583L555 523H531L522 624Q520 643 512 646.5Q504 650 473 650H265L214 359H362Q395 359 404 362.5Q413 366 421 385L450 456H474L435 232H411L406 303Q405 322 397.5 325.5Q390 329 357 329H209L157 30H377Q409 30 418.5 33.5Q428 37 436 56ZM355 862Q355 841 340.5 826.5Q326 812 305 812Q288 812 277 822.5Q266 833 266 850Q266 871 280 885Q294 899 315 899Q334 899 344.5 889Q355 879 355 862ZM554 862Q554 841 539.5 826.5Q525 812 504 812Q487 812 476 822.5Q465 833 465 850Q465 871 479 885Q493 899 514 899Q533 899 543.5 889Q554 879 554 862Z" glyph-name="Edieresis" horiz-adv-x="565" unicode="Ë" /><glyph d="M481 157 505 157L477 0H9L13 25L69 30Q86 32 90 38.5Q94 45 100 79L192 601Q198 635 196.5 641.5Q195 648 179 650L124 655L129 680H583L555 523H531L522 624Q520 643 512 646.5Q504 650 473 650H265L214 359H362Q395 359 404 362.5Q413 366 421 385L450 456H474L435 232H411L406 303Q405 322 397.5 325.5Q390 329 357 329H209L157 30H377Q409 30 418.5 33.5Q428 37 436 56ZM417 789 396 772Q365 809 340.5 848.5Q316 888 296 933H368Q373 890 383.5 858.5Q394 827 417 789Z" glyph-name="Egrave" horiz-adv-x="565" unicode="È" /><glyph d="M481 157 505 157L477 0H9L13 25L69 30Q86 32 90 38.5Q94 45 100 79L192 601Q198 635 196.5 641.5Q195 648 179 650L124 655L129 680H583L555 523H531L522 624Q520 643 512 646.5Q504 650 473 650H265L214 359H362Q395 359 404 362.5Q413 366 421 385L450 456H474L435 232H411L406 303Q405 322 397.5 325.5Q390 329 357 329H209L157 30H377Q409 30 418.5 33.5Q428 37 436 56ZM405 825Q451 825 481 850Q511 875 535 933L561 926Q533 845 496 808.5Q459 772 404 772Q346 772 317 809Q288 846 283 926L309 933Q318 873 339.5 849Q361 825 405 825Z" glyph-name="Ebreve" horiz-adv-x="565" unicode="Ĕ" /><glyph d="M481 157 505 157L477 0H9L13 25L69 30Q86 32 90 38.5Q94 45 100 79L192 601Q198 635 196.5 641.5Q195 648 179 650L124 655L129 680H583L555 523H531L522 624Q520 643 512 646.5Q504 650 473 650H265L214 359H362Q395 359 404 362.5Q413 366 421 385L450 456H474L435 232H411L406 303Q405 322 397.5 325.5Q390 329 357 329H209L157 30H377Q409 30 418.5 33.5Q428 37 436 56ZM529 938 547 917Q499 874 475.5 847.5Q452 821 422 777H370Q356 821 341 849Q326 877 294 920L313 938Q342 909 364.5 883Q387 857 405 832Q431 857 461 882.5Q491 908 529 938Z" glyph-name="Ecaron" horiz-adv-x="565" unicode="Ě" /><glyph d="M481 157 505 157L477 0H9L13 25L69 30Q86 32 90 38.5Q94 45 100 79L192 601Q198 635 196.5 641.5Q195 648 179 650L124 655L129 680H583L555 523H531L522 624Q520 643 512 646.5Q504 650 473 650H265L214 359H362Q395 359 404 362.5Q413 366 421 385L450 456H474L435 232H411L406 303Q405 322 397.5 325.5Q390 329 357 329H209L157 30H377Q409 30 418.5 33.5Q428 37 436 56ZM457 862Q457 841 442 825.5Q427 810 405 810Q386 810 375 820.5Q364 831 364 850Q364 871 379 886Q394 901 415 901Q434 901 445.5 890.5Q457 880 457 862Z" glyph-name="Edotaccent" horiz-adv-x="565" unicode="Ė" /><glyph d="M481 157 505 157L477 0H9L13 25L69 30Q86 32 90 38.5Q94 45 100 79L192 601Q198 635 196.5 641.5Q195 648 179 650L124 655L129 680H583L555 523H531L522 624Q520 643 512 646.5Q504 650 473 650H265L214 359H362Q395 359 404 362.5Q413 366 421 385L450 456H474L435 232H411L406 303Q405 322 397.5 325.5Q390 329 357 329H209L157 30H377Q409 30 418.5 33.5Q428 37 436 56ZM267 855 554 855L546 812H259Z" glyph-name="Emacron" horiz-adv-x="565" unicode="Ē" /><glyph d="M413 -112 455 -125Q433 -174 399.5 -198.5Q366 -223 322 -223Q277 -223 250.5 -200.5Q224 -178 224 -138Q224 -98 253.5 -60Q283 -22 330 0H9L13 25L69 30Q86 32 90 38.5Q94 45 100 79L192 601Q198 635 196.5 641.5Q195 648 179 650L124 655L129 680H583L555 523H531L522 624Q520 643 512 646.5Q504 650 473 650H265L214 359H362Q395 359 404 362.5Q413 366 421 385L450 456H474L435 232H411L406 303Q405 322 397.5 325.5Q390 329 357 329H209L157 30H377Q409 30 418.5 33.5Q428 37 436 56L481 157H505L477 0H414Q354 0 315 -41Q276 -82 276 -140Q276 -168 287.5 -182Q299 -196 322 -196Q351 -196 374 -175Q397 -154 413 -112Z" glyph-name="Eogonek" horiz-adv-x="565" unicode="Ę" /><glyph d="M497 12 475 12Q472 24 466 35.5Q460 47 451 57Q419 23 377 6.5Q335 -10 283 -10Q167 -10 117 75Q67 160 92 309L104 382Q128 528 206 609Q284 690 402 690Q508 690 557.5 629.5Q607 569 578 483L510 467Q537 562 509.5 611Q482 660 401 660Q313 660 259.5 603Q206 546 186 432L156 259Q135 137 167 78.5Q199 20 286 20Q343 20 386 42.5Q429 65 452 107L474 229Q481 263 479 270Q477 277 460 278L386 283L390 308H626L622 283L566 278Q550 276 546 268.5Q542 261 536 229ZM426 825Q472 825 502 850Q532 875 556 933L582 926Q554 845 517 808.5Q480 772 425 772Q367 772 338 809Q309 846 304 926L330 933Q339 873 360.5 849Q382 825 426 825Z" glyph-name="Gbreve" horiz-adv-x="640" unicode="Ğ" /><glyph d="M497 12 475 12Q472 24 466 35.5Q460 47 451 57Q419 23 377 6.5Q335 -10 283 -10Q167 -10 117 75Q67 160 92 309L104 382Q128 528 206 609Q284 690 402 690Q508 690 557.5 629.5Q607 569 578 483L510 467Q537 562 509.5 611Q482 660 401 660Q313 660 259.5 603Q206 546 186 432L156 259Q135 137 167 78.5Q199 20 286 20Q343 20 386 42.5Q429 65 452 107L474 229Q481 263 479 270Q477 277 460 278L386 283L390 308H626L622 283L566 278Q550 276 546 268.5Q542 261 536 229ZM546 790 527 772Q498 801 475.5 827Q453 853 435 878Q409 853 379 827.5Q349 802 311 772L293 793Q341 836 364.5 862.5Q388 889 418 933H470Q484 889 499 861Q514 833 546 790Z" glyph-name="Gcircumflex" horiz-adv-x="640" unicode="Ĝ" /><glyph d="M497 12 475 12Q472 24 466 35.5Q460 47 451 57Q419 23 377 6.5Q335 -10 283 -10Q167 -10 117 75Q67 160 92 309L104 382Q128 528 206 609Q284 690 402 690Q508 690 557.5 629.5Q607 569 578 483L510 467Q537 562 509.5 611Q482 660 401 660Q313 660 259.5 603Q206 546 186 432L156 259Q135 137 167 78.5Q199 20 286 20Q343 20 386 42.5Q429 65 452 107L474 229Q481 263 479 270Q477 277 460 278L386 283L390 308H626L622 283L566 278Q550 276 546 268.5Q542 261 536 229ZM207 -238 190 -224Q214 -186 226.5 -153Q239 -120 246 -77H316Q295 -127 271.5 -162Q248 -197 207 -238Z" glyph-name="Gcommaaccent" horiz-adv-x="640" unicode="Ģ" /><glyph d="M497 12 475 12Q472 24 466 35.5Q460 47 451 57Q419 23 377 6.5Q335 -10 283 -10Q167 -10 117 75Q67 160 92 309L104 382Q128 528 206 609Q284 690 402 690Q508 690 557.5 629.5Q607 569 578 483L510 467Q537 562 509.5 611Q482 660 401 660Q313 660 259.5 603Q206 546 186 432L156 259Q135 137 167 78.5Q199 20 286 20Q343 20 386 42.5Q429 65 452 107L474 229Q481 263 479 270Q477 277 460 278L386 283L390 308H626L622 283L566 278Q550 276 546 268.5Q542 261 536 229ZM478 862Q478 841 463 825.5Q448 810 426 810Q407 810 396 820.5Q385 831 385 850Q385 871 400 886Q415 901 436 901Q455 901 466.5 890.5Q478 880 478 862Z" glyph-name="Gdotaccent" horiz-adv-x="640" unicode="Ġ" /><glyph d="M181 30 235 25L231 0H12L16 25L72 30Q89 32 93 38.5Q97 45 103 79L176 493H99L104 523H181L195 601Q201 635 199.5 641.5Q198 648 182 650L127 655L132 680H351L346 655L291 650Q274 648 270 641.5Q266 635 260 601L246 523H574L588 601Q594 635 592.5 641.5Q591 648 575 650L520 655L525 680H744L739 655L684 650Q667 648 663 641.5Q659 635 653 601L639 523H716L711 493H634L561 79Q555 45 556.5 38.5Q558 32 574 30L628 25L624 0H405L409 25L465 30Q482 32 486 38.5Q490 45 496 79L540 329H212L168 79Q162 45 163.5 38.5Q165 32 181 30ZM241 493 217 359H545L569 493Z" glyph-name="Hbar" horiz-adv-x="722" unicode="Ħ" /><glyph d="M178 30 232 25L228 0H9L13 25L69 30Q86 32 90 38.5Q94 45 100 79L192 601Q198 635 196.5 641.5Q195 648 179 650L124 655L129 680H348L343 655L288 650Q271 648 267 641.5Q263 635 257 601L214 359H542L585 601Q591 635 589.5 641.5Q588 648 572 650L517 655L522 680H741L736 655L681 650Q664 648 660 641.5Q656 635 650 601L558 79Q552 45 553.5 38.5Q555 32 571 30L625 25L621 0H402L406 25L462 30Q479 32 483 38.5Q487 45 493 79L537 329H209L165 79Q159 45 160.5 38.5Q162 32 178 30ZM581 790 562 772Q533 801 510.5 827Q488 853 470 878Q444 853 414 827.5Q384 802 346 772L328 793Q376 836 399.5 862.5Q423 889 453 933H505Q519 889 534 861Q549 833 581 790Z" glyph-name="Hcircumflex" horiz-adv-x="716" unicode="Ĥ" /><glyph d="M179 650 124 655L129 680H348L343 655L288 650Q271 648 267 641.5Q263 635 257 601L165 79Q159 45 160.5 38.5Q162 32 178 30L232 25L228 0H9L13 25L69 30Q86 32 90 38.5Q94 45 100 79L192 601Q198 635 196.5 641.5Q195 648 179 650ZM254 772 237 793Q269 826 289.5 856.5Q310 887 330 933H410Q375 888 336.5 848.5Q298 809 254 772Z" glyph-name="Iacute" horiz-adv-x="323" unicode="Í" /><glyph d="M179 650 124 655L129 680H348L343 655L288 650Q271 648 267 641.5Q263 635 257 601L165 79Q159 45 160.5 38.5Q162 32 178 30L232 25L228 0H9L13 25L69 30Q86 32 90 38.5Q94 45 100 79L192 601Q198 635 196.5 641.5Q195 648 179 650ZM384 790 365 772Q336 801 313.5 827Q291 853 273 878Q247 853 217 827.5Q187 802 149 772L131 793Q179 836 202.5 862.5Q226 889 256 933H308Q322 889 337 861Q352 833 384 790Z" glyph-name="Icircumflex" horiz-adv-x="323" unicode="Î" /><glyph d="M179 650 124 655L129 680H348L343 655L288 650Q271 648 267 641.5Q263 635 257 601L165 79Q159 45 160.5 38.5Q162 32 178 30L232 25L228 0H9L13 25L69 30Q86 32 90 38.5Q94 45 100 79L192 601Q198 635 196.5 641.5Q195 648 179 650ZM215 862Q215 841 200.5 826.5Q186 812 165 812Q148 812 137 822.5Q126 833 126 850Q126 871 140 885Q154 899 175 899Q194 899 204.5 889Q215 879 215 862ZM414 862Q414 841 399.5 826.5Q385 812 364 812Q347 812 336 822.5Q325 833 325 850Q325 871 339 885Q353 899 374 899Q393 899 403.5 889Q414 879 414 862Z" glyph-name="Idieresis" horiz-adv-x="323" unicode="Ï" /><glyph d="M179 650 124 655L129 680H348L343 655L288 650Q271 648 267 641.5Q263 635 257 601L165 79Q159 45 160.5 38.5Q162 32 178 30L232 25L228 0H9L13 25L69 30Q86 32 90 38.5Q94 45 100 79L192 601Q198 635 196.5 641.5Q195 648 179 650ZM277 789 256 772Q225 809 200.5 848.5Q176 888 156 933H228Q233 890 243.5 858.5Q254 827 277 789Z" glyph-name="Igrave" horiz-adv-x="323" unicode="Ì" /><glyph d="M179 650 124 655L129 680H348L343 655L288 650Q271 648 267 641.5Q263 635 257 601L165 79Q159 45 160.5 38.5Q162 32 178 30L232 25L228 0H9L13 25L69 30Q86 32 90 38.5Q94 45 100 79L192 601Q198 635 196.5 641.5Q195 648 179 650ZM265 825Q311 825 341 850Q371 875 395 933L421 926Q393 845 356 808.5Q319 772 264 772Q206 772 177 809Q148 846 143 926L169 933Q178 873 199.5 849Q221 825 265 825Z" glyph-name="Ibreve" horiz-adv-x="323" unicode="Ĭ" /><glyph d="M179 650 124 655L129 680H348L343 655L288 650Q271 648 267 641.5Q263 635 257 601L165 79Q159 45 160.5 38.5Q162 32 178 30L232 25L228 0H9L13 25L69 30Q86 32 90 38.5Q94 45 100 79L192 601Q198 635 196.5 641.5Q195 648 179 650ZM317 862Q317 841 302 825.5Q287 810 265 810Q246 810 235 820.5Q224 831 224 850Q224 871 239 886Q254 901 275 901Q294 901 305.5 890.5Q317 880 317 862Z" glyph-name="Idotaccent" horiz-adv-x="323" unicode="İ" /><glyph d="M179 650 124 655L129 680H348L343 655L288 650Q271 648 267 641.5Q263 635 257 601L165 79Q159 45 160.5 38.5Q162 32 178 30L232 25L228 0H9L13 25L69 30Q86 32 90 38.5Q94 45 100 79L192 601Q198 635 196.5 641.5Q195 648 179 650ZM127 855 414 855L406 812H119Z" glyph-name="Imacron" horiz-adv-x="323" unicode="Ī" /><glyph d="M160 -112 202 -125Q180 -174 146.5 -198.5Q113 -223 69 -223Q24 -223 -2.5 -200.5Q-29 -178 -29 -138Q-29 -94 3 -53Q35 -12 84 9L188 601Q194 635 192.5 641.5Q191 648 175 650L120 655L125 680H344L339 655L284 650Q267 648 263 641.5Q259 635 253 601L161 79Q155 45 156.5 38.5Q158 32 174 30L228 25L224 0H161Q101 0 62 -41Q23 -82 23 -140Q23 -168 34.5 -182Q46 -196 69 -196Q98 -196 121 -175Q144 -154 160 -112Z" glyph-name="Iogonek" horiz-adv-x="319" unicode="Į" /><glyph d="M179 650 124 655L129 680H348L343 655L288 650Q271 648 267 641.5Q263 635 257 601L165 79Q159 45 160.5 38.5Q162 32 178 30L232 25L228 0H9L13 25L69 30Q86 32 90 38.5Q94 45 100 79L192 601Q198 635 196.5 641.5Q195 648 179 650ZM336 786Q316 786 298 796.5Q280 807 253 839Q233 864 222 871.5Q211 879 199 879Q179 879 163.5 858.5Q148 838 140 801H111Q121 862 146.5 895Q172 928 207 928Q228 928 245.5 917.5Q263 907 289 874Q308 850 319 842.5Q330 835 341 835Q361 835 376.5 855.5Q392 876 400 913H429Q419 853 394 819.5Q369 786 336 786Z" glyph-name="Itilde" horiz-adv-x="323" unicode="Ĩ" /><glyph d="M320 650 265 655L270 680H489L484 655L429 650Q412 648 408 641.5Q404 635 398 601L328 202Q310 101 257.5 45.5Q205 -10 124 -10Q59 -10 25.5 26Q-8 62 -3 129L55 147Q47 84 64.5 52Q82 20 124 20Q180 20 213 64Q246 108 263 202L333 601Q339 634 337.5 641Q336 648 320 650ZM525 790 506 772Q477 801 454.5 827Q432 853 414 878Q388 853 358 827.5Q328 802 290 772L272 793Q320 836 343.5 862.5Q367 889 397 933H449Q463 889 478 861Q493 833 525 790Z" glyph-name="Jcircumflex" horiz-adv-x="452" unicode="Ĵ" /><glyph d="M179 650 124 655L129 680H348L343 655L288 650Q271 648 267 641.5Q263 635 257 601L165 79Q159 45 160.5 38.5Q162 32 178 30L232 25L228 0H9L13 25L69 30Q86 32 90 38.5Q94 45 100 79L192 601Q198 635 196.5 641.5Q195 648 179 650ZM643 650 588 655L593 680H812L807 655L752 650Q735 648 731 641.5Q727 635 721 601L651 202Q633 101 580.5 45.5Q528 -10 447 -10Q382 -10 348.5 26Q315 62 320 129L378 147Q370 84 387.5 52Q405 20 447 20Q503 20 536 64Q569 108 586 202L656 601Q662 634 660.5 641Q659 648 643 650Z" glyph-name="IJ" horiz-adv-x="775" unicode="Ĳ" /><glyph d="M178 30 232 25L228 0H9L13 25L69 30Q86 32 90 38.5Q94 45 100 79L192 602Q198 635 196.5 642Q195 649 179 651L125 656L129 680H348L344 656L288 651Q271 649 267 642.5Q263 636 257 602L204 302L511 612Q534 636 537 642.5Q540 649 523 651L475 656L479 680H667L663 656L613 651Q600 650 594 646.5Q588 643 557 612L349 402L493 79Q508 46 513.5 39Q519 32 535 30L584 25L580 0H452L300 352L194 246L165 79Q159 46 160.5 39Q162 32 178 30ZM206 -238 189 -224Q213 -186 225.5 -153Q238 -120 245 -77H315Q294 -127 270.5 -162Q247 -197 206 -238Z" glyph-name="Kcommaaccent" horiz-adv-x="636" unicode="Ķ" /><glyph d="M778 685 796 671Q773 635 760 602Q747 569 739 524H669Q690 574 713.5 609Q737 644 778 685ZM178 30 232 25L228 0H9L13 25L69 30Q86 32 90 38.5Q94 45 100 79L192 602Q198 635 196.5 642Q195 649 179 651L125 656L129 680H348L344 656L288 651Q271 649 267 642.5Q263 636 257 602L204 302L511 612Q534 636 537 642.5Q540 649 523 651L475 656L479 680H667L663 656L613 651Q600 650 594 646.5Q588 643 557 612L349 402L493 79Q508 46 513.5 39Q519 32 535 30L584 25L580 0H452L300 352L194 246L165 79Q159 46 160.5 39Q162 32 178 30Z" glyph-name="kgreenlandic.case" horiz-adv-x="738" unicode="" /><glyph d="M454 161 479 161L450 0H9L13 25L69 30Q86 32 90 38.5Q94 45 100 79L192 601Q198 635 196.5 641.5Q195 648 179 650L124 655L129 680H348L343 655L288 650Q271 648 267 641.5Q263 635 257 601L156 30H349Q381 30 390.5 33.5Q400 37 408 56ZM264 772 247 793Q279 826 299.5 856.5Q320 887 340 933H420Q385 888 346.5 848.5Q308 809 264 772Z" glyph-name="Lacute" horiz-adv-x="504" unicode="Ĺ" /><glyph d="M454 161 479 161L450 0H9L13 25L69 30Q86 32 90 38.5Q94 45 100 79L192 601Q198 635 196.5 641.5Q195 648 179 650L124 655L129 680H348L343 655L288 650Q271 648 267 641.5Q263 635 257 601L156 30H349Q381 30 390.5 33.5Q400 37 408 56ZM412 466 393 466L430 680H494Q473 619 453 567Q433 515 412 466Z" glyph-name="Lcaron" horiz-adv-x="504" unicode="Ľ" /><glyph d="M454 161 479 161L450 0H9L13 25L69 30Q86 32 90 38.5Q94 45 100 79L192 601Q198 635 196.5 641.5Q195 648 179 650L124 655L129 680H348L343 655L288 650Q271 648 267 641.5Q263 635 257 601L156 30H349Q381 30 390.5 33.5Q400 37 408 56ZM168 -238 151 -224Q175 -186 187.5 -153Q200 -120 207 -77H277Q256 -127 232.5 -162Q209 -197 168 -238Z" glyph-name="Lcommaaccent" horiz-adv-x="504" unicode="Ļ" /><glyph d="M454 161 479 161L450 0H9L13 25L69 30Q86 32 90 38.5Q94 45 100 79L192 601Q198 635 196.5 641.5Q195 648 179 650L124 655L129 680H348L343 655L288 650Q271 648 267 641.5Q263 635 257 601L156 30H349Q381 30 390.5 33.5Q400 37 408 56ZM485 391Q485 370 470 354.5Q455 339 433 339Q414 339 403 349.5Q392 360 392 379Q392 400 407 415Q422 430 443 430Q462 430 473.5 419.5Q485 409 485 391Z" glyph-name="Ldot" horiz-adv-x="504" unicode="Ŀ" /><glyph d="M179 650 124 655L129 680H279L512 109L599 601Q605 634 603.5 641Q602 648 586 650L531 655L536 680H725L720 655L665 650Q648 648 644 641.5Q640 635 634 601L528 0H489L232 629L135 79Q129 46 130.5 39Q132 32 148 30L202 25L198 0H9L13 25L69 30Q86 32 90 38.5Q94 45 100 79L192 601Q198 634 196.5 641Q195 648 179 650ZM526 786Q506 786 488 796.5Q470 807 443 839Q423 864 412 871.5Q401 879 389 879Q369 879 353.5 858.5Q338 838 330 801H301Q311 862 336.5 895Q362 928 397 928Q418 928 435.5 917.5Q453 907 479 874Q498 850 509 842.5Q520 835 531 835Q551 835 566.5 855.5Q582 876 590 913H619Q609 853 584 819.5Q559 786 526 786Z" glyph-name="Ntilde" horiz-adv-x="695" unicode="Ñ" /><glyph d="M179 650 124 655L129 680H279L512 109L599 601Q605 634 603.5 641Q602 648 586 650L531 655L536 680H725L720 655L665 650Q648 648 644 641.5Q640 635 634 601L528 0H489L232 629L135 79Q129 46 130.5 39Q132 32 148 30L202 25L198 0H9L13 25L69 30Q86 32 90 38.5Q94 45 100 79L192 601Q198 634 196.5 641Q195 648 179 650ZM444 772 427 793Q459 826 479.5 856.5Q500 887 520 933H600Q565 888 526.5 848.5Q488 809 444 772Z" glyph-name="Nacute" horiz-adv-x="695" unicode="Ń" /><glyph d="M179 650 124 655L129 680H279L512 109L599 601Q605 634 603.5 641Q602 648 586 650L531 655L536 680H725L720 655L665 650Q648 648 644 641.5Q640 635 634 601L528 0H489L232 629L135 79Q129 46 130.5 39Q132 32 148 30L202 25L198 0H9L13 25L69 30Q86 32 90 38.5Q94 45 100 79L192 601Q198 634 196.5 641Q195 648 179 650ZM579 938 597 917Q549 874 525.5 847.5Q502 821 472 777H420Q406 821 391 849Q376 877 344 920L363 938Q392 909 414.5 883Q437 857 455 832Q481 857 511 882.5Q541 908 579 938Z" glyph-name="Ncaron" horiz-adv-x="695" unicode="Ň" /><glyph d="M179 650 124 655L129 680H279L512 109L599 601Q605 634 603.5 641Q602 648 586 650L531 655L536 680H725L720 655L665 650Q648 648 644 641.5Q640 635 634 601L528 0H489L232 629L135 79Q129 46 130.5 39Q132 32 148 30L202 25L198 0H9L13 25L69 30Q86 32 90 38.5Q94 45 100 79L192 601Q198 634 196.5 641Q195 648 179 650ZM217 -238 200 -224Q224 -186 236.5 -153Q249 -120 256 -77H326Q305 -127 281.5 -162Q258 -197 217 -238Z" glyph-name="Ncommaaccent" horiz-adv-x="695" unicode="Ņ" /><glyph d="M179 650 124 655L129 680H279L512 109L599 601Q605 634 603.5 641Q602 648 586 650L531 655L536 680H725L720 655L665 650Q648 648 644 641.5Q640 635 634 601L526 -11Q508 -113 457.5 -168Q407 -223 330 -223Q271 -223 240 -189.5Q209 -156 213 -94L266 -79Q258 -135 274.5 -164Q291 -193 330 -193Q382 -193 413 -149.5Q444 -106 461 -11L471 45L232 629L135 79Q129 46 130.5 39Q132 32 148 30L202 25L198 0H9L13 25L69 30Q86 32 90 38.5Q94 45 100 79L192 601Q198 634 196.5 641Q195 648 179 650Z" glyph-name="Eng" horiz-adv-x="695" unicode="Ŋ" /><glyph d="M306 650 251 655L256 680H406L639 109L726 601Q732 634 730.5 641Q729 648 713 650L658 655L663 680H852L847 655L792 650Q775 648 771 641.5Q767 635 761 601L655 0H616L359 629L262 79Q256 46 257.5 39Q259 32 275 30L329 25L325 0H136L140 25L196 30Q213 32 217 38.5Q221 45 227 79L319 601Q325 634 323.5 641Q322 648 306 650ZM142 690Q161 690 172.5 677Q184 664 184 643Q184 604 151.5 551Q119 498 65 449L47 467Q83 504 104.5 538Q126 572 133 603Q116 604 106 614.5Q96 625 96 642Q96 663 109 676.5Q122 690 142 690Z" glyph-name="napostrophe.case" horiz-adv-x="822" unicode="" /><glyph d="M393 690Q513 690 571.5 600.5Q630 511 605 372L592 299Q566 153 490 71.5Q414 -10 303 -10Q182 -10 124 78.5Q66 167 91 309L104 382Q129 526 205.5 608Q282 690 393 690ZM510 249 541 422Q561 534 522.5 597Q484 660 394 660Q312 660 259 602Q206 544 186 432L155 259Q134 146 173 83Q212 20 302 20Q384 20 437 78Q490 136 510 249ZM423 772 406 793Q438 826 458.5 856.5Q479 887 499 933H579Q544 888 505.5 848.5Q467 809 423 772Z" glyph-name="Oacute" horiz-adv-x="662" unicode="Ó" /><glyph d="M393 690Q513 690 571.5 600.5Q630 511 605 372L592 299Q566 153 490 71.5Q414 -10 303 -10Q182 -10 124 78.5Q66 167 91 309L104 382Q129 526 205.5 608Q282 690 393 690ZM510 249 541 422Q561 534 522.5 597Q484 660 394 660Q312 660 259 602Q206 544 186 432L155 259Q134 146 173 83Q212 20 302 20Q384 20 437 78Q490 136 510 249ZM554 790 535 772Q506 801 483.5 827Q461 853 443 878Q417 853 387 827.5Q357 802 319 772L301 793Q349 836 372.5 862.5Q396 889 426 933H478Q492 889 507 861Q522 833 554 790Z" glyph-name="Ocircumflex" horiz-adv-x="662" unicode="Ô" /><glyph d="M393 690Q513 690 571.5 600.5Q630 511 605 372L592 299Q566 153 490 71.5Q414 -10 303 -10Q182 -10 124 78.5Q66 167 91 309L104 382Q129 526 205.5 608Q282 690 393 690ZM510 249 541 422Q561 534 522.5 597Q484 660 394 660Q312 660 259 602Q206 544 186 432L155 259Q134 146 173 83Q212 20 302 20Q384 20 437 78Q490 136 510 249ZM384 862Q384 841 369.5 826.5Q355 812 334 812Q317 812 306 822.5Q295 833 295 850Q295 871 309 885Q323 899 344 899Q363 899 373.5 889Q384 879 384 862ZM583 862Q583 841 568.5 826.5Q554 812 533 812Q516 812 505 822.5Q494 833 494 850Q494 871 508 885Q522 899 543 899Q562 899 572.5 889Q583 879 583 862Z" glyph-name="Odieresis" horiz-adv-x="662" unicode="Ö" /><glyph d="M393 690Q513 690 571.5 600.5Q630 511 605 372L592 299Q566 153 490 71.5Q414 -10 303 -10Q182 -10 124 78.5Q66 167 91 309L104 382Q129 526 205.5 608Q282 690 393 690ZM510 249 541 422Q561 534 522.5 597Q484 660 394 660Q312 660 259 602Q206 544 186 432L155 259Q134 146 173 83Q212 20 302 20Q384 20 437 78Q490 136 510 249ZM446 789 425 772Q394 809 369.5 848.5Q345 888 325 933H397Q402 890 412.5 858.5Q423 827 446 789Z" glyph-name="Ograve" horiz-adv-x="662" unicode="Ò" /><glyph d="M393 690Q513 690 571.5 600.5Q630 511 605 372L592 299Q566 153 490 71.5Q414 -10 303 -10Q182 -10 124 78.5Q66 167 91 309L104 382Q129 526 205.5 608Q282 690 393 690ZM510 249 541 422Q561 534 522.5 597Q484 660 394 660Q312 660 259 602Q206 544 186 432L155 259Q134 146 173 83Q212 20 302 20Q384 20 437 78Q490 136 510 249ZM505 786Q485 786 467 796.5Q449 807 422 839Q402 864 391 871.5Q380 879 368 879Q348 879 332.5 858.5Q317 838 309 801H280Q290 862 315.5 895Q341 928 376 928Q397 928 414.5 917.5Q432 907 458 874Q477 850 488 842.5Q499 835 510 835Q530 835 545.5 855.5Q561 876 569 913H598Q588 853 563 819.5Q538 786 505 786Z" glyph-name="Otilde" horiz-adv-x="662" unicode="Õ" /><glyph d="M393 690Q513 690 571.5 600.5Q630 511 605 372L592 299Q566 153 490 71.5Q414 -10 303 -10Q182 -10 124 78.5Q66 167 91 309L104 382Q129 526 205.5 608Q282 690 393 690ZM510 249 541 422Q561 534 522.5 597Q484 660 394 660Q312 660 259 602Q206 544 186 432L155 259Q134 146 173 83Q212 20 302 20Q384 20 437 78Q490 136 510 249ZM434 825Q480 825 510 850Q540 875 564 933L590 926Q562 845 525 808.5Q488 772 433 772Q375 772 346 809Q317 846 312 926L338 933Q347 873 368.5 849Q390 825 434 825Z" glyph-name="Obreve" horiz-adv-x="662" unicode="Ŏ" /><glyph d="M393 690Q513 690 571.5 600.5Q630 511 605 372L592 299Q566 153 490 71.5Q414 -10 303 -10Q182 -10 124 78.5Q66 167 91 309L104 382Q129 526 205.5 608Q282 690 393 690ZM510 249 541 422Q561 534 522.5 597Q484 660 394 660Q312 660 259 602Q206 544 186 432L155 259Q134 146 173 83Q212 20 302 20Q384 20 437 78Q490 136 510 249ZM357 772 339 787Q359 814 376.5 847Q394 880 416 933H490Q462 892 427 849.5Q392 807 357 772ZM497 772 479 787Q499 814 516.5 847Q534 880 556 933H630Q602 892 567 849.5Q532 807 497 772Z" glyph-name="Ohungarumlaut" horiz-adv-x="662" unicode="Ő" /><glyph d="M393 690Q513 690 571.5 600.5Q630 511 605 372L592 299Q566 153 490 71.5Q414 -10 303 -10Q182 -10 124 78.5Q66 167 91 309L104 382Q129 526 205.5 608Q282 690 393 690ZM510 249 541 422Q561 534 522.5 597Q484 660 394 660Q312 660 259 602Q206 544 186 432L155 259Q134 146 173 83Q212 20 302 20Q384 20 437 78Q490 136 510 249ZM296 855 583 855L575 812H288Z" glyph-name="Omacron" horiz-adv-x="662" unicode="Ō" /><glyph d="M179 650 124 655L129 680H383Q475 680 520.5 632Q566 584 553 504L547 469Q537 406 495.5 365.5Q454 325 388 313L477 79Q490 46 495 39Q500 32 516 30L560 25L556 0H433L322 308H205L165 79Q159 46 160.5 39Q162 32 178 30L232 25L228 0H9L13 25L69 30Q86 32 90 38.5Q94 45 100 79L192 601Q198 634 196.5 641Q195 648 179 650ZM386 650 266 650L211 338H330Q387 338 428 374Q469 410 479 469L485 504Q497 571 470 610.5Q443 650 386 650ZM388 772 371 793Q403 826 423.5 856.5Q444 887 464 933H544Q509 888 470.5 848.5Q432 809 388 772Z" glyph-name="Racute" horiz-adv-x="608" unicode="Ŕ" /><glyph d="M179 650 124 655L129 680H383Q475 680 520.5 632Q566 584 553 504L547 469Q537 406 495.5 365.5Q454 325 388 313L477 79Q490 46 495 39Q500 32 516 30L560 25L556 0H433L322 308H205L165 79Q159 46 160.5 39Q162 32 178 30L232 25L228 0H9L13 25L69 30Q86 32 90 38.5Q94 45 100 79L192 601Q198 634 196.5 641Q195 648 179 650ZM386 650 266 650L211 338H330Q387 338 428 374Q469 410 479 469L485 504Q497 571 470 610.5Q443 650 386 650ZM523 938 541 917Q493 874 469.5 847.5Q446 821 416 777H364Q350 821 335 849Q320 877 288 920L307 938Q336 909 358.5 883Q381 857 399 832Q425 857 455 882.5Q485 908 523 938Z" glyph-name="Rcaron" horiz-adv-x="608" unicode="Ř" /><glyph d="M179 650 124 655L129 680H383Q475 680 520.5 632Q566 584 553 504L547 469Q537 406 495.5 365.5Q454 325 388 313L477 79Q490 46 495 39Q500 32 516 30L560 25L556 0H433L322 308H205L165 79Q159 46 160.5 39Q162 32 178 30L232 25L228 0H9L13 25L69 30Q86 32 90 38.5Q94 45 100 79L192 601Q198 634 196.5 641Q195 648 179 650ZM386 650 266 650L211 338H330Q387 338 428 374Q469 410 479 469L485 504Q497 571 470 610.5Q443 650 386 650ZM217 -238 200 -224Q224 -186 236.5 -153Q249 -120 256 -77H326Q305 -127 281.5 -162Q258 -197 217 -238Z" glyph-name="Rcommaaccent" horiz-adv-x="608" unicode="Ŗ" /><glyph d="M476 196Q476 106 410.5 48Q345 -10 235 -10Q142 -10 90.5 36.5Q39 83 34 173L92 191Q90 105 126 62.5Q162 20 238 20Q321 20 367 59.5Q413 99 413 168Q413 218 386 249.5Q359 281 296 305L233 329Q167 354 135 396Q103 438 103 499Q103 584 162.5 637Q222 690 324 690Q434 690 485.5 629Q537 568 507 483L441 467Q468 562 438.5 611.5Q409 661 323 661Q249 661 207.5 623Q166 585 166 517Q166 469 192 439Q218 409 278 386L341 362Q411 335 443.5 295Q476 255 476 196ZM491 938 509 917Q461 874 437.5 847.5Q414 821 384 777H332Q318 821 303 849Q288 877 256 920L275 938Q304 909 326.5 883Q349 857 367 832Q393 857 423 882.5Q453 908 491 938Z" glyph-name="Scaron" horiz-adv-x="540" unicode="Š" /><glyph d="M476 196Q476 106 410.5 48Q345 -10 235 -10Q142 -10 90.5 36.5Q39 83 34 173L92 191Q90 105 126 62.5Q162 20 238 20Q321 20 367 59.5Q413 99 413 168Q413 218 386 249.5Q359 281 296 305L233 329Q167 354 135 396Q103 438 103 499Q103 584 162.5 637Q222 690 324 690Q434 690 485.5 629Q537 568 507 483L441 467Q468 562 438.5 611.5Q409 661 323 661Q249 661 207.5 623Q166 585 166 517Q166 469 192 439Q218 409 278 386L341 362Q411 335 443.5 295Q476 255 476 196ZM356 772 339 793Q371 826 391.5 856.5Q412 887 432 933H512Q477 888 438.5 848.5Q400 809 356 772Z" glyph-name="Sacute" horiz-adv-x="540" unicode="Ś" /><glyph d="M300 -134Q300 -174 267.5 -198.5Q235 -223 184 -223Q139 -223 114 -203Q89 -183 88 -145L135 -132Q132 -166 144 -182Q156 -198 185 -198Q212 -198 229.5 -180Q247 -162 247 -134Q247 -107 235 -96.5Q223 -86 195 -86Q191 -86 185 -86.5Q179 -87 169 -89L165 -63L197 -8Q121 1 79.5 47Q38 93 34 173L92 191Q90 105 126 62.5Q162 20 238 20Q321 20 367 59.5Q413 99 413 168Q413 218 386 249.5Q359 281 296 305L233 329Q167 354 135 396Q103 438 103 499Q103 584 162.5 637Q222 690 324 690Q434 690 485.5 629Q537 568 507 483L441 467Q468 562 438.5 611.5Q409 661 323 661Q249 661 207.5 623Q166 585 166 517Q166 469 192 439Q218 409 278 386L341 362Q411 335 443.5 295Q476 255 476 196Q476 106 410.5 48Q345 -10 235 -10H228L199 -60H202Q248 -60 274 -80Q300 -100 300 -134Z" glyph-name="Scedilla" horiz-adv-x="540" unicode="Ş" /><glyph d="M476 196Q476 106 410.5 48Q345 -10 235 -10Q142 -10 90.5 36.5Q39 83 34 173L92 191Q90 105 126 62.5Q162 20 238 20Q321 20 367 59.5Q413 99 413 168Q413 218 386 249.5Q359 281 296 305L233 329Q167 354 135 396Q103 438 103 499Q103 584 162.5 637Q222 690 324 690Q434 690 485.5 629Q537 568 507 483L441 467Q468 562 438.5 611.5Q409 661 323 661Q249 661 207.5 623Q166 585 166 517Q166 469 192 439Q218 409 278 386L341 362Q411 335 443.5 295Q476 255 476 196ZM487 790 468 772Q439 801 416.5 827Q394 853 376 878Q350 853 320 827.5Q290 802 252 772L234 793Q282 836 305.5 862.5Q329 889 359 933H411Q425 889 440 861Q455 833 487 790Z" glyph-name="Scircumflex" horiz-adv-x="540" unicode="Ŝ" /><glyph d="M476 196Q476 106 410.5 48Q345 -10 235 -10Q142 -10 90.5 36.5Q39 83 34 173L92 191Q90 105 126 62.5Q162 20 238 20Q321 20 367 59.5Q413 99 413 168Q413 218 386 249.5Q359 281 296 305L233 329Q167 354 135 396Q103 438 103 499Q103 584 162.5 637Q222 690 324 690Q434 690 485.5 629Q537 568 507 483L441 467Q468 562 438.5 611.5Q409 661 323 661Q249 661 207.5 623Q166 585 166 517Q166 469 192 439Q218 409 278 386L341 362Q411 335 443.5 295Q476 255 476 196ZM138 -238 121 -224Q145 -186 157.5 -153Q170 -120 177 -77H247Q226 -127 202.5 -162Q179 -197 138 -238Z" glyph-name="uni0218" horiz-adv-x="540" unicode="Ș" /><glyph d="M291 30 345 25L341 0H122L126 25L182 30Q199 32 203 38.5Q207 45 213 79L257 325H110L116 355H262L314 650H192Q160 650 150.5 646.5Q141 643 133 624L88 523H63L91 680H612L584 523H559L550 624Q548 643 540 646.5Q532 650 501 650H379L327 355H473L467 325H322L278 79Q272 45 273.5 38.5Q275 32 291 30Z" glyph-name="Tbar" horiz-adv-x="549" unicode="Ŧ" /><glyph d="M88 523 63 523L91 680H612L584 523H559L550 624Q548 643 540 646.5Q532 650 501 650H379L278 79Q272 45 273.5 38.5Q275 32 291 30L345 25L341 0H122L126 25L182 30Q199 32 203 38.5Q207 45 213 79L314 650H192Q160 650 150.5 646.5Q141 643 133 624ZM501 938 519 917Q471 874 447.5 847.5Q424 821 394 777H342Q328 821 313 849Q298 877 266 920L285 938Q314 909 336.5 883Q359 857 377 832Q403 857 433 882.5Q463 908 501 938Z" glyph-name="Tcaron" horiz-adv-x="549" unicode="Ť" /><glyph d="M88 523 63 523L91 680H612L584 523H559L550 624Q548 643 540 646.5Q532 650 501 650H379L278 79Q272 45 273.5 38.5Q275 32 291 30L345 25L341 0H122L126 25L182 30Q199 32 203 38.5Q207 45 213 79L314 650H192Q160 650 150.5 646.5Q141 643 133 624ZM143 -238 126 -224Q150 -186 162.5 -153Q175 -120 182 -77H252Q231 -127 207.5 -162Q184 -197 143 -238Z" glyph-name="uni0162" horiz-adv-x="549" unicode="Ţ" /><glyph d="M88 523 63 523L91 680H612L584 523H559L550 624Q548 643 540 646.5Q532 650 501 650H379L278 79Q272 45 273.5 38.5Q275 32 291 30L345 25L341 0H122L126 25L182 30Q199 32 203 38.5Q207 45 213 79L314 650H192Q160 650 150.5 646.5Q141 643 133 624ZM143 -238 126 -224Q150 -186 162.5 -153Q175 -120 182 -77H252Q231 -127 207.5 -162Q184 -197 143 -238Z" glyph-name="uni021A" horiz-adv-x="549" unicode="Ț" /><glyph d="M573 650 518 655L523 680H712L707 655L652 650Q635 648 631 640.5Q627 633 621 601L556 231Q535 112 471.5 51Q408 -10 305 -10Q193 -10 143.5 59Q94 128 116 251L178 601Q184 634 182.5 641Q181 648 165 650L110 655L115 680H334L329 655L274 650Q257 648 253 640.5Q249 633 243 601L178 231Q159 123 190.5 71.5Q222 20 308 20Q394 20 448.5 74Q503 128 521 231L586 601Q592 634 590.5 641Q589 648 573 650ZM442 772 425 793Q457 826 477.5 856.5Q498 887 518 933H598Q563 888 524.5 848.5Q486 809 442 772Z" glyph-name="Uacute" horiz-adv-x="673" unicode="Ú" /><glyph d="M573 650 518 655L523 680H712L707 655L652 650Q635 648 631 640.5Q627 633 621 601L556 231Q535 112 471.5 51Q408 -10 305 -10Q193 -10 143.5 59Q94 128 116 251L178 601Q184 634 182.5 641Q181 648 165 650L110 655L115 680H334L329 655L274 650Q257 648 253 640.5Q249 633 243 601L178 231Q159 123 190.5 71.5Q222 20 308 20Q394 20 448.5 74Q503 128 521 231L586 601Q592 634 590.5 641Q589 648 573 650ZM573 790 554 772Q525 801 502.5 827Q480 853 462 878Q436 853 406 827.5Q376 802 338 772L320 793Q368 836 391.5 862.5Q415 889 445 933H497Q511 889 526 861Q541 833 573 790Z" glyph-name="Ucircumflex" horiz-adv-x="673" unicode="Û" /><glyph d="M573 650 518 655L523 680H712L707 655L652 650Q635 648 631 640.5Q627 633 621 601L556 231Q535 112 471.5 51Q408 -10 305 -10Q193 -10 143.5 59Q94 128 116 251L178 601Q184 634 182.5 641Q181 648 165 650L110 655L115 680H334L329 655L274 650Q257 648 253 640.5Q249 633 243 601L178 231Q159 123 190.5 71.5Q222 20 308 20Q394 20 448.5 74Q503 128 521 231L586 601Q592 634 590.5 641Q589 648 573 650ZM403 862Q403 841 388.5 826.5Q374 812 353 812Q336 812 325 822.5Q314 833 314 850Q314 871 328 885Q342 899 363 899Q382 899 392.5 889Q403 879 403 862ZM602 862Q602 841 587.5 826.5Q573 812 552 812Q535 812 524 822.5Q513 833 513 850Q513 871 527 885Q541 899 562 899Q581 899 591.5 889Q602 879 602 862Z" glyph-name="Udieresis" horiz-adv-x="673" unicode="Ü" /><glyph d="M573 650 518 655L523 680H712L707 655L652 650Q635 648 631 640.5Q627 633 621 601L556 231Q535 112 471.5 51Q408 -10 305 -10Q193 -10 143.5 59Q94 128 116 251L178 601Q184 634 182.5 641Q181 648 165 650L110 655L115 680H334L329 655L274 650Q257 648 253 640.5Q249 633 243 601L178 231Q159 123 190.5 71.5Q222 20 308 20Q394 20 448.5 74Q503 128 521 231L586 601Q592 634 590.5 641Q589 648 573 650ZM465 789 444 772Q413 809 388.5 848.5Q364 888 344 933H416Q421 890 431.5 858.5Q442 827 465 789Z" glyph-name="Ugrave" horiz-adv-x="673" unicode="Ù" /><glyph d="M573 650 518 655L523 680H712L707 655L652 650Q635 648 631 640.5Q627 633 621 601L556 231Q535 112 471.5 51Q408 -10 305 -10Q193 -10 143.5 59Q94 128 116 251L178 601Q184 634 182.5 641Q181 648 165 650L110 655L115 680H334L329 655L274 650Q257 648 253 640.5Q249 633 243 601L178 231Q159 123 190.5 71.5Q222 20 308 20Q394 20 448.5 74Q503 128 521 231L586 601Q592 634 590.5 641Q589 648 573 650ZM453 825Q499 825 529 850Q559 875 583 933L609 926Q581 845 544 808.5Q507 772 452 772Q394 772 365 809Q336 846 331 926L357 933Q366 873 387.5 849Q409 825 453 825Z" glyph-name="Ubreve" horiz-adv-x="673" unicode="Ŭ" /><glyph d="M573 650 518 655L523 680H712L707 655L652 650Q635 648 631 640.5Q627 633 621 601L556 231Q535 112 471.5 51Q408 -10 305 -10Q193 -10 143.5 59Q94 128 116 251L178 601Q184 634 182.5 641Q181 648 165 650L110 655L115 680H334L329 655L274 650Q257 648 253 640.5Q249 633 243 601L178 231Q159 123 190.5 71.5Q222 20 308 20Q394 20 448.5 74Q503 128 521 231L586 601Q592 634 590.5 641Q589 648 573 650ZM376 772 358 787Q378 814 395.5 847Q413 880 435 933H509Q481 892 446 849.5Q411 807 376 772ZM516 772 498 787Q518 814 535.5 847Q553 880 575 933H649Q621 892 586 849.5Q551 807 516 772Z" glyph-name="Uhungarumlaut" horiz-adv-x="673" unicode="Ű" /><glyph d="M573 650 518 655L523 680H712L707 655L652 650Q635 648 631 640.5Q627 633 621 601L556 231Q535 112 471.5 51Q408 -10 305 -10Q193 -10 143.5 59Q94 128 116 251L178 601Q184 634 182.5 641Q181 648 165 650L110 655L115 680H334L329 655L274 650Q257 648 253 640.5Q249 633 243 601L178 231Q159 123 190.5 71.5Q222 20 308 20Q394 20 448.5 74Q503 128 521 231L586 601Q592 634 590.5 641Q589 648 573 650ZM315 855 602 855L594 812H307Z" glyph-name="Umacron" horiz-adv-x="673" unicode="Ū" /><glyph d="M421 -112 463 -125Q441 -174 407.5 -198.5Q374 -223 330 -223Q285 -223 258.5 -200.5Q232 -178 232 -138Q232 -102 254 -74.5Q276 -47 349 -7Q339 -8 327.5 -9Q316 -10 305 -10Q193 -10 143.5 59Q94 128 116 251L178 601Q184 634 182.5 641Q181 648 165 650L110 655L115 680H334L329 655L274 650Q257 648 253 640.5Q249 633 243 601L178 231Q159 123 190.5 71.5Q222 20 308 20Q394 20 448.5 74Q503 128 521 231L586 601Q592 634 590.5 641Q589 648 573 650L518 655L523 680H712L707 655L652 650Q635 648 631 640.5Q627 633 621 601L556 231Q544 164 519 116.5Q494 69 456 38Q438 24 400.5 1Q363 -22 348 -34Q314 -58 299 -83.5Q284 -109 284 -140Q284 -168 295.5 -182Q307 -196 330 -196Q359 -196 382 -175Q405 -154 421 -112Z" glyph-name="Uogonek" horiz-adv-x="673" unicode="Ų" /><glyph d="M573 650 518 655L523 680H712L707 655L652 650Q635 648 631 640.5Q627 633 621 601L556 231Q535 112 471.5 51Q408 -10 305 -10Q193 -10 143.5 59Q94 128 116 251L178 601Q184 634 182.5 641Q181 648 165 650L110 655L115 680H334L329 655L274 650Q257 648 253 640.5Q249 633 243 601L178 231Q159 123 190.5 71.5Q222 20 308 20Q394 20 448.5 74Q503 128 521 231L586 601Q592 634 590.5 641Q589 648 573 650ZM470 974Q525 974 555 940.5Q585 907 577 861L575 850Q567 807 532.5 780.5Q498 754 449 754Q395 754 365 787.5Q335 821 343 867L345 878Q353 921 387 947.5Q421 974 470 974ZM448 779Q478 779 498.5 798.5Q519 818 524 851L528 876Q533 910 518 929.5Q503 949 471 949Q441 949 421 930Q401 911 396 877L392 852Q387 819 402 799Q417 779 448 779Z" glyph-name="Uring" horiz-adv-x="673" unicode="Ů" /><glyph d="M573 650 518 655L523 680H712L707 655L652 650Q635 648 631 640.5Q627 633 621 601L556 231Q535 112 471.5 51Q408 -10 305 -10Q193 -10 143.5 59Q94 128 116 251L178 601Q184 634 182.5 641Q181 648 165 650L110 655L115 680H334L329 655L274 650Q257 648 253 640.5Q249 633 243 601L178 231Q159 123 190.5 71.5Q222 20 308 20Q394 20 448.5 74Q503 128 521 231L586 601Q592 634 590.5 641Q589 648 573 650ZM524 786Q504 786 486 796.5Q468 807 441 839Q421 864 410 871.5Q399 879 387 879Q367 879 351.5 858.5Q336 838 328 801H299Q309 862 334.5 895Q360 928 395 928Q416 928 433.5 917.5Q451 907 477 874Q496 850 507 842.5Q518 835 529 835Q549 835 564.5 855.5Q580 876 588 913H617Q607 853 582 819.5Q557 786 524 786Z" glyph-name="Utilde" horiz-adv-x="673" unicode="Ũ" /><glyph d="M639 0 589 0L519 590L238 0H187L144 611Q142 637 139 642.5Q136 648 121 650L72 655L77 680H279L274 655L225 650Q208 648 205.5 642.5Q203 637 205 611L242 86L523 680H571L641 90L861 611Q872 637 871.5 642.5Q871 648 855 650L806 655L811 680H988L983 655L934 650Q918 648 913 642Q908 636 898 611ZM556 772 539 793Q571 826 591.5 856.5Q612 887 632 933H712Q677 888 638.5 848.5Q600 809 556 772Z" glyph-name="Wacute" horiz-adv-x="911" unicode="Ẃ" /><glyph d="M639 0 589 0L519 590L238 0H187L144 611Q142 637 139 642.5Q136 648 121 650L72 655L77 680H279L274 655L225 650Q208 648 205.5 642.5Q203 637 205 611L242 86L523 680H571L641 90L861 611Q872 637 871.5 642.5Q871 648 855 650L806 655L811 680H988L983 655L934 650Q918 648 913 642Q908 636 898 611ZM687 790 668 772Q639 801 616.5 827Q594 853 576 878Q550 853 520 827.5Q490 802 452 772L434 793Q482 836 505.5 862.5Q529 889 559 933H611Q625 889 640 861Q655 833 687 790Z" glyph-name="Wcircumflex" horiz-adv-x="911" unicode="Ŵ" /><glyph d="M639 0 589 0L519 590L238 0H187L144 611Q142 637 139 642.5Q136 648 121 650L72 655L77 680H279L274 655L225 650Q208 648 205.5 642.5Q203 637 205 611L242 86L523 680H571L641 90L861 611Q872 637 871.5 642.5Q871 648 855 650L806 655L811 680H988L983 655L934 650Q918 648 913 642Q908 636 898 611ZM517 862Q517 841 502.5 826.5Q488 812 467 812Q450 812 439 822.5Q428 833 428 850Q428 871 442 885Q456 899 477 899Q496 899 506.5 889Q517 879 517 862ZM716 862Q716 841 701.5 826.5Q687 812 666 812Q649 812 638 822.5Q627 833 627 850Q627 871 641 885Q655 899 676 899Q695 899 705.5 889Q716 879 716 862Z" glyph-name="Wdieresis" horiz-adv-x="911" unicode="Ẅ" /><glyph d="M639 0 589 0L519 590L238 0H187L144 611Q142 637 139 642.5Q136 648 121 650L72 655L77 680H279L274 655L225 650Q208 648 205.5 642.5Q203 637 205 611L242 86L523 680H571L641 90L861 611Q872 637 871.5 642.5Q871 648 855 650L806 655L811 680H988L983 655L934 650Q918 648 913 642Q908 636 898 611ZM579 789 558 772Q527 809 502.5 848.5Q478 888 458 933H530Q535 890 545.5 858.5Q556 827 579 789Z" glyph-name="Wgrave" horiz-adv-x="911" unicode="Ẁ" /><glyph d="M302 30 356 25L352 0H133L137 25L193 30Q209 32 213 37Q217 42 220 59L261 290L155 611Q147 636 142 642Q137 648 121 650L72 655L77 680H288L283 655L234 650Q218 648 216.5 642.5Q215 637 224 611L315 328L507 611Q524 637 525 642.5Q526 648 511 650L462 655L467 680H647L642 655L593 650Q576 649 569.5 643.5Q563 638 545 611L326 289L289 79Q283 45 284.5 38.5Q286 32 302 30ZM384 772 367 793Q399 826 419.5 856.5Q440 887 460 933H540Q505 888 466.5 848.5Q428 809 384 772Z" glyph-name="Yacute" horiz-adv-x="570" unicode="Ý" /><glyph d="M302 30 356 25L352 0H133L137 25L193 30Q209 32 213 37Q217 42 220 59L261 290L155 611Q147 636 142 642Q137 648 121 650L72 655L77 680H288L283 655L234 650Q218 648 216.5 642.5Q215 637 224 611L315 328L507 611Q524 637 525 642.5Q526 648 511 650L462 655L467 680H647L642 655L593 650Q576 649 569.5 643.5Q563 638 545 611L326 289L289 79Q283 45 284.5 38.5Q286 32 302 30ZM345 862Q345 841 330.5 826.5Q316 812 295 812Q278 812 267 822.5Q256 833 256 850Q256 871 270 885Q284 899 305 899Q324 899 334.5 889Q345 879 345 862ZM544 862Q544 841 529.5 826.5Q515 812 494 812Q477 812 466 822.5Q455 833 455 850Q455 871 469 885Q483 899 504 899Q523 899 533.5 889Q544 879 544 862Z" glyph-name="Ydieresis" horiz-adv-x="570" unicode="Ÿ" /><glyph d="M302 30 356 25L352 0H133L137 25L193 30Q209 32 213 37Q217 42 220 59L261 290L155 611Q147 636 142 642Q137 648 121 650L72 655L77 680H288L283 655L234 650Q218 648 216.5 642.5Q215 637 224 611L315 328L507 611Q524 637 525 642.5Q526 648 511 650L462 655L467 680H647L642 655L593 650Q576 649 569.5 643.5Q563 638 545 611L326 289L289 79Q283 45 284.5 38.5Q286 32 302 30ZM515 790 496 772Q467 801 444.5 827Q422 853 404 878Q378 853 348 827.5Q318 802 280 772L262 793Q310 836 333.5 862.5Q357 889 387 933H439Q453 889 468 861Q483 833 515 790Z" glyph-name="Ycircumflex" horiz-adv-x="570" unicode="Ŷ" /><glyph d="M302 30 356 25L352 0H133L137 25L193 30Q209 32 213 37Q217 42 220 59L261 290L155 611Q147 636 142 642Q137 648 121 650L72 655L77 680H288L283 655L234 650Q218 648 216.5 642.5Q215 637 224 611L315 328L507 611Q524 637 525 642.5Q526 648 511 650L462 655L467 680H647L642 655L593 650Q576 649 569.5 643.5Q563 638 545 611L326 289L289 79Q283 45 284.5 38.5Q286 32 302 30ZM407 789 386 772Q355 809 330.5 848.5Q306 888 286 933H358Q363 890 373.5 858.5Q384 827 407 789Z" glyph-name="Ygrave" horiz-adv-x="570" unicode="Ỳ" /><glyph d="M441 157 466 157L438 0H-2L2 20L463 650H229Q197 650 187.5 646.5Q178 643 170 624L125 523H100L128 680H548L544 660L83 30H337Q369 30 378.5 33.5Q388 37 396 56ZM478 938 496 917Q448 874 424.5 847.5Q401 821 371 777H319Q305 821 290 849Q275 877 243 920L262 938Q291 909 313.5 883Q336 857 354 832Q380 857 410 882.5Q440 908 478 938Z" glyph-name="Zcaron" horiz-adv-x="522" unicode="Ž" /><glyph d="M441 157 466 157L438 0H-2L2 20L463 650H229Q197 650 187.5 646.5Q178 643 170 624L125 523H100L128 680H548L544 660L83 30H337Q369 30 378.5 33.5Q388 37 396 56ZM343 772 326 793Q358 826 378.5 856.5Q399 887 419 933H499Q464 888 425.5 848.5Q387 809 343 772Z" glyph-name="Zacute" horiz-adv-x="522" unicode="Ź" /><glyph d="M441 157 466 157L438 0H-2L2 20L463 650H229Q197 650 187.5 646.5Q178 643 170 624L125 523H100L128 680H548L544 660L83 30H337Q369 30 378.5 33.5Q388 37 396 56ZM406 862Q406 841 391 825.5Q376 810 354 810Q335 810 324 820.5Q313 831 313 850Q313 871 328 886Q343 901 364 901Q383 901 394.5 890.5Q406 880 406 862Z" glyph-name="Zdotaccent" horiz-adv-x="522" unicode="Ż" /><glyph d="M443 -5Q407 -5 389 19Q371 43 372 90Q339 40 299.5 15Q260 -10 214 -10Q130 -10 89.5 66Q49 142 70 256L74 278Q91 376 154.5 436.5Q218 497 301 497Q343 497 375.5 480.5Q408 464 430 431Q437 445 444 459Q451 473 458 487H498L438 150Q426 83 429 53.5Q432 24 451 24Q469 24 487 45.5Q505 67 517 105L550 83Q528 40 501 17.5Q474 -5 443 -5ZM142 286 132 226Q117 134 141 77Q165 20 219 20Q263 20 302.5 53.5Q342 87 379 156L420 385Q400 428 372 447.5Q344 467 302 467Q239 467 197.5 420Q156 373 142 286ZM321 579 304 600Q336 633 356.5 663.5Q377 694 397 740H477Q442 695 403.5 655.5Q365 616 321 579Z" glyph-name="aacute" horiz-adv-x="578" unicode="á" /><glyph d="M443 -5Q407 -5 389 19Q371 43 372 90Q339 40 299.5 15Q260 -10 214 -10Q130 -10 89.5 66Q49 142 70 256L74 278Q91 376 154.5 436.5Q218 497 301 497Q343 497 375.5 480.5Q408 464 430 431Q437 445 444 459Q451 473 458 487H498L438 150Q426 83 429 53.5Q432 24 451 24Q469 24 487 45.5Q505 67 517 105L550 83Q528 40 501 17.5Q474 -5 443 -5ZM142 286 132 226Q117 134 141 77Q165 20 219 20Q263 20 302.5 53.5Q342 87 379 156L420 385Q400 428 372 447.5Q344 467 302 467Q239 467 197.5 420Q156 373 142 286ZM452 597 433 579Q404 608 381.5 634Q359 660 341 685Q315 660 285 634.5Q255 609 217 579L199 600Q247 643 270.5 669.5Q294 696 324 740H376Q390 696 405 668Q420 640 452 597Z" glyph-name="acircumflex" horiz-adv-x="578" unicode="â" /><glyph d="M443 -5Q407 -5 389 19Q371 43 372 90Q339 40 299.5 15Q260 -10 214 -10Q130 -10 89.5 66Q49 142 70 256L74 278Q91 376 154.5 436.5Q218 497 301 497Q343 497 375.5 480.5Q408 464 430 431Q437 445 444 459Q451 473 458 487H498L438 150Q426 83 429 53.5Q432 24 451 24Q469 24 487 45.5Q505 67 517 105L550 83Q528 40 501 17.5Q474 -5 443 -5ZM142 286 132 226Q117 134 141 77Q165 20 219 20Q263 20 302.5 53.5Q342 87 379 156L420 385Q400 428 372 447.5Q344 467 302 467Q239 467 197.5 420Q156 373 142 286ZM282 669Q282 648 267.5 633.5Q253 619 232 619Q215 619 204 629.5Q193 640 193 657Q193 678 207 692Q221 706 242 706Q261 706 271.5 696Q282 686 282 669ZM481 669Q481 648 466.5 633.5Q452 619 431 619Q414 619 403 629.5Q392 640 392 657Q392 678 406 692Q420 706 441 706Q460 706 470.5 696Q481 686 481 669Z" glyph-name="adieresis" horiz-adv-x="578" unicode="ä" /><glyph d="M443 -5Q407 -5 389 19Q371 43 372 90Q339 40 299.5 15Q260 -10 214 -10Q130 -10 89.5 66Q49 142 70 256L74 278Q91 376 154.5 436.5Q218 497 301 497Q343 497 375.5 480.5Q408 464 430 431Q437 445 444 459Q451 473 458 487H498L438 150Q426 83 429 53.5Q432 24 451 24Q469 24 487 45.5Q505 67 517 105L550 83Q528 40 501 17.5Q474 -5 443 -5ZM142 286 132 226Q117 134 141 77Q165 20 219 20Q263 20 302.5 53.5Q342 87 379 156L420 385Q400 428 372 447.5Q344 467 302 467Q239 467 197.5 420Q156 373 142 286ZM344 596 323 579Q292 616 267.5 655.5Q243 695 223 740H295Q300 697 310.5 665.5Q321 634 344 596Z" glyph-name="agrave" horiz-adv-x="578" unicode="à" /><glyph d="M443 -5Q407 -5 389 19Q371 43 372 90Q339 40 299.5 15Q260 -10 214 -10Q130 -10 89.5 66Q49 142 70 256L74 278Q91 376 154.5 436.5Q218 497 301 497Q343 497 375.5 480.5Q408 464 430 431Q437 445 444 459Q451 473 458 487H498L438 150Q426 83 429 53.5Q432 24 451 24Q469 24 487 45.5Q505 67 517 105L550 83Q528 40 501 17.5Q474 -5 443 -5ZM142 286 132 226Q117 134 141 77Q165 20 219 20Q263 20 302.5 53.5Q342 87 379 156L420 385Q400 428 372 447.5Q344 467 302 467Q239 467 197.5 420Q156 373 142 286ZM349 781Q404 781 434 747.5Q464 714 456 668L454 657Q446 614 411.5 587.5Q377 561 328 561Q274 561 244 594.5Q214 628 222 674L224 685Q232 728 266 754.5Q300 781 349 781ZM327 586Q357 586 377.5 605.5Q398 625 403 658L407 683Q412 717 397 736.5Q382 756 350 756Q320 756 300 737Q280 718 275 684L271 659Q266 626 281 606Q296 586 327 586Z" glyph-name="aring" horiz-adv-x="578" unicode="å" /><glyph d="M443 -5Q407 -5 389 19Q371 43 372 90Q339 40 299.5 15Q260 -10 214 -10Q130 -10 89.5 66Q49 142 70 256L74 278Q91 376 154.5 436.5Q218 497 301 497Q343 497 375.5 480.5Q408 464 430 431Q437 445 444 459Q451 473 458 487H498L438 150Q426 83 429 53.5Q432 24 451 24Q469 24 487 45.5Q505 67 517 105L550 83Q528 40 501 17.5Q474 -5 443 -5ZM142 286 132 226Q117 134 141 77Q165 20 219 20Q263 20 302.5 53.5Q342 87 379 156L420 385Q400 428 372 447.5Q344 467 302 467Q239 467 197.5 420Q156 373 142 286ZM403 593Q383 593 365 603.5Q347 614 320 646Q300 671 289 678.5Q278 686 266 686Q246 686 230.5 665.5Q215 645 207 608H178Q188 669 213.5 702Q239 735 274 735Q295 735 312.5 724.5Q330 714 356 681Q375 657 386 649.5Q397 642 408 642Q428 642 443.5 662.5Q459 683 467 720H496Q486 660 461 626.5Q436 593 403 593Z" glyph-name="atilde" horiz-adv-x="578" unicode="ã" /><glyph d="M443 -5Q407 -5 389 19Q371 43 372 90Q339 40 299.5 15Q260 -10 214 -10Q130 -10 89.5 66Q49 142 70 256L74 278Q91 376 154.5 436.5Q218 497 301 497Q343 497 375.5 480.5Q408 464 430 431Q437 445 444 459Q451 473 458 487H498L438 150Q426 83 429 53.5Q432 24 451 24Q469 24 487 45.5Q505 67 517 105L550 83Q528 40 501 17.5Q474 -5 443 -5ZM142 286 132 226Q117 134 141 77Q165 20 219 20Q263 20 302.5 53.5Q342 87 379 156L420 385Q400 428 372 447.5Q344 467 302 467Q239 467 197.5 420Q156 373 142 286ZM332 632Q378 632 408 657Q438 682 462 740L488 733Q460 652 423 615.5Q386 579 331 579Q273 579 244 616Q215 653 210 733L236 740Q245 680 266.5 656Q288 632 332 632Z" glyph-name="abreve" horiz-adv-x="578" unicode="ă" /><glyph d="M443 -5Q407 -5 389 19Q371 43 372 90Q339 40 299.5 15Q260 -10 214 -10Q130 -10 89.5 66Q49 142 70 256L74 278Q91 376 154.5 436.5Q218 497 301 497Q343 497 375.5 480.5Q408 464 430 431Q437 445 444 459Q451 473 458 487H498L438 150Q426 83 429 53.5Q432 24 451 24Q469 24 487 45.5Q505 67 517 105L550 83Q528 40 501 17.5Q474 -5 443 -5ZM142 286 132 226Q117 134 141 77Q165 20 219 20Q263 20 302.5 53.5Q342 87 379 156L420 385Q400 428 372 447.5Q344 467 302 467Q239 467 197.5 420Q156 373 142 286ZM194 662 481 662L473 619H186Z" glyph-name="amacron" horiz-adv-x="578" unicode="ā" /><glyph d="M473 -112 515 -125Q493 -174 459.5 -198.5Q426 -223 382 -223Q338 -223 311 -201.5Q284 -180 284 -144Q284 -108 309.5 -78.5Q335 -49 422 -3Q396 4 383.5 27.5Q371 51 372 90Q339 40 299.5 15Q260 -10 214 -10Q130 -10 89.5 66Q49 142 70 256L74 278Q91 376 154.5 436.5Q218 497 301 497Q343 497 375.5 480.5Q408 464 430 431Q437 445 444 459Q451 473 458 487H498L438 150Q426 83 429 53.5Q432 24 451 24Q469 24 487 45.5Q505 67 517 105L550 83Q537 52 512.5 27.5Q488 3 430 -29Q371 -63 353.5 -87Q336 -111 336 -144Q336 -170 347.5 -183Q359 -196 382 -196Q411 -196 434 -175Q457 -154 473 -112ZM142 286 132 226Q117 134 141 77Q165 20 219 20Q263 20 302.5 53.5Q342 87 379 156L420 385Q400 428 372 447.5Q344 467 302 467Q239 467 197.5 420Q156 373 142 286Z" glyph-name="aogonek" horiz-adv-x="580" unicode="ą" /><glyph d="M319 -134Q319 -174 286.5 -198.5Q254 -223 203 -223Q158 -223 133 -203Q108 -183 107 -145L154 -132Q151 -166 163 -182Q175 -198 204 -198Q231 -198 248.5 -180Q266 -162 266 -134Q266 -107 254 -96.5Q242 -86 214 -86Q210 -86 204 -86.5Q198 -87 188 -89L184 -63L215 -10Q129 -5 88.5 66.5Q48 138 69 250L73 272Q92 375 155 436Q218 497 308 497Q394 497 433 447Q472 397 447 320L387 304Q412 383 391 425Q370 467 306 467Q243 467 199.5 419.5Q156 372 142 285L132 225Q115 126 140.5 73Q166 20 230 20Q280 20 318.5 46.5Q357 73 374 121L416 98Q388 50 345.5 22.5Q303 -5 248 -9L218 -60H221Q267 -60 293 -80Q319 -100 319 -134Z" glyph-name="ccedilla" horiz-adv-x="483" unicode="ç" /><glyph d="M306 467Q243 467 199.5 419.5Q156 372 142 285L132 225Q115 126 140.5 73Q166 20 230 20Q280 20 318.5 46.5Q357 73 374 121L416 98Q385 45 336.5 17.5Q288 -10 226 -10Q135 -10 91 62Q47 134 69 250L73 272Q92 375 155 436Q218 497 308 497Q394 497 433 447Q472 397 447 320L387 304Q412 383 391 425Q370 467 306 467ZM317 579 300 600Q332 633 352.5 663.5Q373 694 393 740H473Q438 695 399.5 655.5Q361 616 317 579Z" glyph-name="cacute" horiz-adv-x="483" unicode="ć" /><glyph d="M306 467Q243 467 199.5 419.5Q156 372 142 285L132 225Q115 126 140.5 73Q166 20 230 20Q280 20 318.5 46.5Q357 73 374 121L416 98Q385 45 336.5 17.5Q288 -10 226 -10Q135 -10 91 62Q47 134 69 250L73 272Q92 375 155 436Q218 497 308 497Q394 497 433 447Q472 397 447 320L387 304Q412 383 391 425Q370 467 306 467ZM452 745 470 724Q422 681 398.5 654.5Q375 628 345 584H293Q279 628 264 656Q249 684 217 727L236 745Q265 716 287.5 690Q310 664 328 639Q354 664 384 689.5Q414 715 452 745Z" glyph-name="ccaron" horiz-adv-x="483" unicode="č" /><glyph d="M306 467Q243 467 199.5 419.5Q156 372 142 285L132 225Q115 126 140.5 73Q166 20 230 20Q280 20 318.5 46.5Q357 73 374 121L416 98Q385 45 336.5 17.5Q288 -10 226 -10Q135 -10 91 62Q47 134 69 250L73 272Q92 375 155 436Q218 497 308 497Q394 497 433 447Q472 397 447 320L387 304Q412 383 391 425Q370 467 306 467ZM448 597 429 579Q400 608 377.5 634Q355 660 337 685Q311 660 281 634.5Q251 609 213 579L195 600Q243 643 266.5 669.5Q290 696 320 740H372Q386 696 401 668Q416 640 448 597Z" glyph-name="ccircumflex" horiz-adv-x="483" unicode="ĉ" /><glyph d="M306 467Q243 467 199.5 419.5Q156 372 142 285L132 225Q115 126 140.5 73Q166 20 230 20Q280 20 318.5 46.5Q357 73 374 121L416 98Q385 45 336.5 17.5Q288 -10 226 -10Q135 -10 91 62Q47 134 69 250L73 272Q92 375 155 436Q218 497 308 497Q394 497 433 447Q472 397 447 320L387 304Q412 383 391 425Q370 467 306 467ZM380 669Q380 648 365 632.5Q350 617 328 617Q309 617 298 627.5Q287 638 287 657Q287 678 302 693Q317 708 338 708Q357 708 368.5 697.5Q380 687 380 669Z" glyph-name="cdotaccent" horiz-adv-x="483" unicode="ċ" /><glyph d="M448 -5Q412 -5 394 19.5Q376 44 377 91Q343 40 303 15Q263 -10 216 -10Q131 -10 90 66Q49 142 70 256L74 278Q91 376 155 436.5Q219 497 303 497Q345 497 377.5 481Q410 465 433 432L473 661Q479 695 477.5 701.5Q476 708 460 710L406 715L410 740H547L443 150Q431 83 434 53.5Q437 24 456 24Q474 24 492 45.5Q510 67 522 105L555 83Q533 40 506 17.5Q479 -5 448 -5ZM142 286 132 226Q117 133 141.5 76.5Q166 20 221 20Q266 20 307 54.5Q348 89 385 158L424 383Q404 427 375.5 447Q347 467 304 467Q240 467 198.5 420.5Q157 374 142 286ZM621 526 602 526L639 740H703Q682 679 662 627Q642 575 621 526Z" glyph-name="dcaron" horiz-adv-x="647" unicode="ď" /><glyph d="M448 -5Q412 -5 394 19.5Q376 44 377 91Q343 40 303 15Q263 -10 216 -10Q131 -10 90 66Q49 142 70 256L74 278Q91 376 155 436.5Q219 497 303 497Q345 497 377.5 481Q410 465 433 432L460 587H303L308 617H465L473 661Q479 695 477.5 701.5Q476 708 460 710L406 715L410 740H547L525 617H603L598 587H520L443 150Q431 83 434 53.5Q437 24 456 24Q474 24 492 45.5Q510 67 522 105L555 83Q533 40 506 17.5Q479 -5 448 -5ZM142 286 132 226Q117 133 141.5 76.5Q166 20 221 20Q266 20 307 54.5Q348 89 385 158L424 383Q404 427 375.5 447Q347 467 304 467Q240 467 198.5 420.5Q157 374 142 286Z" glyph-name="dcroat" horiz-adv-x="582" unicode="đ" /><glyph d="M389 120 432 98Q402 45 352.5 17.5Q303 -10 241 -10Q141 -10 94 61.5Q47 133 68 250L72 272Q91 375 156.5 436Q222 497 315 497Q384 497 427.5 462.5Q471 428 471 377Q471 308 396.5 264.5Q322 221 190 212L128 208Q116 116 145 68Q174 20 240 20Q292 20 332 46Q372 72 389 120ZM313 467Q247 467 201 419.5Q155 372 141 285L133 237L189 241Q298 248 354.5 284Q411 320 411 381Q411 421 385 444Q359 467 313 467ZM322 579 305 600Q337 633 357.5 663.5Q378 694 398 740H478Q443 695 404.5 655.5Q366 616 322 579Z" glyph-name="eacute" horiz-adv-x="506" unicode="é" /><glyph d="M389 120 432 98Q402 45 352.5 17.5Q303 -10 241 -10Q141 -10 94 61.5Q47 133 68 250L72 272Q91 375 156.5 436Q222 497 315 497Q384 497 427.5 462.5Q471 428 471 377Q471 308 396.5 264.5Q322 221 190 212L128 208Q116 116 145 68Q174 20 240 20Q292 20 332 46Q372 72 389 120ZM313 467Q247 467 201 419.5Q155 372 141 285L133 237L189 241Q298 248 354.5 284Q411 320 411 381Q411 421 385 444Q359 467 313 467ZM454 597 435 579Q406 608 383.5 634Q361 660 343 685Q317 660 287 634.5Q257 609 219 579L201 600Q249 643 272.5 669.5Q296 696 326 740H378Q392 696 407 668Q422 640 454 597Z" glyph-name="ecircumflex" horiz-adv-x="506" unicode="ê" /><glyph d="M389 120 432 98Q402 45 352.5 17.5Q303 -10 241 -10Q141 -10 94 61.5Q47 133 68 250L72 272Q91 375 156.5 436Q222 497 315 497Q384 497 427.5 462.5Q471 428 471 377Q471 308 396.5 264.5Q322 221 190 212L128 208Q116 116 145 68Q174 20 240 20Q292 20 332 46Q372 72 389 120ZM313 467Q247 467 201 419.5Q155 372 141 285L133 237L189 241Q298 248 354.5 284Q411 320 411 381Q411 421 385 444Q359 467 313 467ZM283 669Q283 648 268.5 633.5Q254 619 233 619Q216 619 205 629.5Q194 640 194 657Q194 678 208 692Q222 706 243 706Q262 706 272.5 696Q283 686 283 669ZM482 669Q482 648 467.5 633.5Q453 619 432 619Q415 619 404 629.5Q393 640 393 657Q393 678 407 692Q421 706 442 706Q461 706 471.5 696Q482 686 482 669Z" glyph-name="edieresis" horiz-adv-x="506" unicode="ë" /><glyph d="M389 120 432 98Q402 45 352.5 17.5Q303 -10 241 -10Q141 -10 94 61.5Q47 133 68 250L72 272Q91 375 156.5 436Q222 497 315 497Q384 497 427.5 462.5Q471 428 471 377Q471 308 396.5 264.5Q322 221 190 212L128 208Q116 116 145 68Q174 20 240 20Q292 20 332 46Q372 72 389 120ZM313 467Q247 467 201 419.5Q155 372 141 285L133 237L189 241Q298 248 354.5 284Q411 320 411 381Q411 421 385 444Q359 467 313 467ZM345 596 324 579Q293 616 268.5 655.5Q244 695 224 740H296Q301 697 311.5 665.5Q322 634 345 596Z" glyph-name="egrave" horiz-adv-x="506" unicode="è" /><glyph d="M389 120 432 98Q402 45 352.5 17.5Q303 -10 241 -10Q141 -10 94 61.5Q47 133 68 250L72 272Q91 375 156.5 436Q222 497 315 497Q384 497 427.5 462.5Q471 428 471 377Q471 308 396.5 264.5Q322 221 190 212L128 208Q116 116 145 68Q174 20 240 20Q292 20 332 46Q372 72 389 120ZM313 467Q247 467 201 419.5Q155 372 141 285L133 237L189 241Q298 248 354.5 284Q411 320 411 381Q411 421 385 444Q359 467 313 467ZM333 632Q379 632 409 657Q439 682 463 740L489 733Q461 652 424 615.5Q387 579 332 579Q274 579 245 616Q216 653 211 733L237 740Q246 680 267.5 656Q289 632 333 632Z" glyph-name="ebreve" horiz-adv-x="506" unicode="ĕ" /><glyph d="M389 120 432 98Q402 45 352.5 17.5Q303 -10 241 -10Q141 -10 94 61.5Q47 133 68 250L72 272Q91 375 156.5 436Q222 497 315 497Q384 497 427.5 462.5Q471 428 471 377Q471 308 396.5 264.5Q322 221 190 212L128 208Q116 116 145 68Q174 20 240 20Q292 20 332 46Q372 72 389 120ZM313 467Q247 467 201 419.5Q155 372 141 285L133 237L189 241Q298 248 354.5 284Q411 320 411 381Q411 421 385 444Q359 467 313 467ZM457 745 475 724Q427 681 403.5 654.5Q380 628 350 584H298Q284 628 269 656Q254 684 222 727L241 745Q270 716 292.5 690Q315 664 333 639Q359 664 389 689.5Q419 715 457 745Z" glyph-name="ecaron" horiz-adv-x="506" unicode="ě" /><glyph d="M389 120 432 98Q402 45 352.5 17.5Q303 -10 241 -10Q141 -10 94 61.5Q47 133 68 250L72 272Q91 375 156.5 436Q222 497 315 497Q384 497 427.5 462.5Q471 428 471 377Q471 308 396.5 264.5Q322 221 190 212L128 208Q116 116 145 68Q174 20 240 20Q292 20 332 46Q372 72 389 120ZM313 467Q247 467 201 419.5Q155 372 141 285L133 237L189 241Q298 248 354.5 284Q411 320 411 381Q411 421 385 444Q359 467 313 467ZM385 669Q385 648 370 632.5Q355 617 333 617Q314 617 303 627.5Q292 638 292 657Q292 678 307 693Q322 708 343 708Q362 708 373.5 697.5Q385 687 385 669Z" glyph-name="edotaccent" horiz-adv-x="506" unicode="ė" /><glyph d="M389 120 432 98Q402 45 352.5 17.5Q303 -10 241 -10Q141 -10 94 61.5Q47 133 68 250L72 272Q91 375 156.5 436Q222 497 315 497Q384 497 427.5 462.5Q471 428 471 377Q471 308 396.5 264.5Q322 221 190 212L128 208Q116 116 145 68Q174 20 240 20Q292 20 332 46Q372 72 389 120ZM313 467Q247 467 201 419.5Q155 372 141 285L133 237L189 241Q298 248 354.5 284Q411 320 411 381Q411 421 385 444Q359 467 313 467ZM195 662 482 662L474 619H187Z" glyph-name="emacron" horiz-adv-x="506" unicode="ē" /><glyph d="M347 -112 389 -125Q367 -174 333.5 -198.5Q300 -223 256 -223Q211 -223 184.5 -200.5Q158 -178 158 -138Q158 -103 180.5 -74Q203 -45 267 -9Q262 -10 257 -10Q252 -10 241 -10Q141 -10 94 61.5Q47 133 68 250L72 272Q91 375 156.5 436Q222 497 315 497Q384 497 427.5 462.5Q471 428 471 377Q471 308 396.5 264.5Q322 221 190 212L128 208Q116 116 145 68Q174 20 240 20Q292 20 332 46Q372 72 389 120L432 98Q418 72 394.5 49Q371 26 315 -9Q249 -51 229.5 -78.5Q210 -106 210 -140Q210 -168 221.5 -182Q233 -196 256 -196Q285 -196 308 -175Q331 -154 347 -112ZM313 467Q247 467 201 419.5Q155 372 141 285L133 237L189 241Q298 248 354.5 284Q411 320 411 381Q411 421 385 444Q359 467 313 467Z" glyph-name="eogonek" horiz-adv-x="506" unicode="ę" /><glyph d="M502 487 417 9Q397 -102 335 -162.5Q273 -223 176 -223Q100 -223 60 -181Q20 -139 28 -68L85 -58Q75 -127 98 -161Q121 -195 177 -195Q250 -195 294 -147Q338 -99 356 -1L371 83Q338 36 299.5 13Q261 -10 216 -10Q131 -10 90 66Q49 142 70 256L74 278Q91 376 155 436.5Q219 497 303 497Q346 497 379 480Q412 463 435 430Q437 435 440 440.5Q443 446 449 459Q454 471 457 476.5Q460 482 462 487ZM142 286 132 226Q117 133 141.5 76.5Q166 20 221 20Q266 20 306.5 54Q347 88 384 157L424 383Q404 427 375.5 447Q347 467 304 467Q240 467 198.5 420.5Q157 374 142 286ZM336 632Q382 632 412 657Q442 682 466 740L492 733Q464 652 427 615.5Q390 579 335 579Q277 579 248 616Q219 653 214 733L240 740Q249 680 270.5 656Q292 632 336 632Z" glyph-name="gbreve" horiz-adv-x="559" unicode="ğ" /><glyph d="M502 487 417 9Q397 -102 335 -162.5Q273 -223 176 -223Q100 -223 60 -181Q20 -139 28 -68L85 -58Q75 -127 98 -161Q121 -195 177 -195Q250 -195 294 -147Q338 -99 356 -1L371 83Q338 36 299.5 13Q261 -10 216 -10Q131 -10 90 66Q49 142 70 256L74 278Q91 376 155 436.5Q219 497 303 497Q346 497 379 480Q412 463 435 430Q437 435 440 440.5Q443 446 449 459Q454 471 457 476.5Q460 482 462 487ZM142 286 132 226Q117 133 141.5 76.5Q166 20 221 20Q266 20 306.5 54Q347 88 384 157L424 383Q404 427 375.5 447Q347 467 304 467Q240 467 198.5 420.5Q157 374 142 286ZM456 597 437 579Q408 608 385.5 634Q363 660 345 685Q319 660 289 634.5Q259 609 221 579L203 600Q251 643 274.5 669.5Q298 696 328 740H380Q394 696 409 668Q424 640 456 597Z" glyph-name="gcircumflex" horiz-adv-x="559" unicode="ĝ" /><glyph d="M502 487 417 9Q397 -102 335 -162.5Q273 -223 176 -223Q100 -223 60 -181Q20 -139 28 -68L85 -58Q75 -127 98 -161Q121 -195 177 -195Q250 -195 294 -147Q338 -99 356 -1L371 83Q338 36 299.5 13Q261 -10 216 -10Q131 -10 90 66Q49 142 70 256L74 278Q91 376 155 436.5Q219 497 303 497Q346 497 379 480Q412 463 435 430Q437 435 440 440.5Q443 446 449 459Q454 471 457 476.5Q460 482 462 487ZM142 286 132 226Q117 133 141.5 76.5Q166 20 221 20Q266 20 306.5 54Q347 88 384 157L424 383Q404 427 375.5 447Q347 467 304 467Q240 467 198.5 420.5Q157 374 142 286ZM401 745 419 731Q396 695 383 662Q370 629 362 584H292Q313 634 336.5 669Q360 704 401 745Z" glyph-name="gcommaaccent" horiz-adv-x="559" unicode="ģ" /><glyph d="M502 487 417 9Q397 -102 335 -162.5Q273 -223 176 -223Q100 -223 60 -181Q20 -139 28 -68L85 -58Q75 -127 98 -161Q121 -195 177 -195Q250 -195 294 -147Q338 -99 356 -1L371 83Q338 36 299.5 13Q261 -10 216 -10Q131 -10 90 66Q49 142 70 256L74 278Q91 376 155 436.5Q219 497 303 497Q346 497 379 480Q412 463 435 430Q437 435 440 440.5Q443 446 449 459Q454 471 457 476.5Q460 482 462 487ZM142 286 132 226Q117 133 141.5 76.5Q166 20 221 20Q266 20 306.5 54Q347 88 384 157L424 383Q404 427 375.5 447Q347 467 304 467Q240 467 198.5 420.5Q157 374 142 286ZM388 669Q388 648 373 632.5Q358 617 336 617Q317 617 306 627.5Q295 638 295 657Q295 678 310 693Q325 708 346 708Q365 708 376.5 697.5Q388 687 388 669Z" glyph-name="gdotaccent" horiz-adv-x="559" unicode="ġ" /><glyph d="M546 105 579 83Q557 39 529 17Q501 -5 468 -5Q424 -5 408 25.5Q392 56 404 117L444 315Q459 390 442 428.5Q425 467 377 467Q325 467 275 427.5Q225 388 177 309L123 0H63L166 587H89L94 617H171L179 661Q185 694 183.5 701Q182 708 166 710L111 715L116 740H253L231 617H389L384 587H226L189 376Q232 436 281 466.5Q330 497 385 497Q458 497 490.5 448Q523 399 505 316L461 107Q451 60 455 42Q459 24 477 24Q497 24 515 45Q533 66 546 105Z" glyph-name="hbar" horiz-adv-x="607" unicode="ħ" /><glyph d="M546 105 579 83Q557 39 529 17Q501 -5 468 -5Q424 -5 408 25.5Q392 56 404 117L444 315Q459 390 442 428.5Q425 467 377 467Q325 467 275 427.5Q225 388 177 309L123 0H63L179 661Q185 694 183.5 701Q182 708 166 710L111 715L116 740H253L189 376Q232 436 281 466.5Q330 497 385 497Q458 497 490.5 448Q523 399 505 316L461 107Q451 60 455 42Q459 24 477 24Q497 24 515 45Q533 66 546 105ZM461 819 442 801Q413 830 390.5 856Q368 882 350 907Q324 882 294 856.5Q264 831 226 801L208 822Q256 865 279.5 891.5Q303 918 333 962H385Q399 918 414 890Q429 862 461 819Z" glyph-name="hcircumflex" horiz-adv-x="607" unicode="ĥ" /><glyph d="M128 457 74 462L78 487H215L156 150Q144 83 147 53.5Q150 24 169 24Q187 24 205 45.5Q223 67 235 105L268 83Q246 40 219 17.5Q192 -5 161 -5Q116 -5 99 32.5Q82 70 95 142L141 408Q147 441 145.5 448Q144 455 128 457ZM180 579 163 600Q195 633 215.5 663.5Q236 694 256 740H336Q301 695 262.5 655.5Q224 616 180 579Z" glyph-name="iacute" horiz-adv-x="295" unicode="í" /><glyph d="M128 457 74 462L78 487H215L156 150Q144 83 147 53.5Q150 24 169 24Q187 24 205 45.5Q223 67 235 105L268 83Q246 40 219 17.5Q192 -5 161 -5Q116 -5 99 32.5Q82 70 95 142L141 408Q147 441 145.5 448Q144 455 128 457ZM311 597 292 579Q263 608 240.5 634Q218 660 200 685Q174 660 144 634.5Q114 609 76 579L58 600Q106 643 129.5 669.5Q153 696 183 740H235Q249 696 264 668Q279 640 311 597Z" glyph-name="icircumflex" horiz-adv-x="295" unicode="î" /><glyph d="M128 457 74 462L78 487H215L156 150Q144 83 147 53.5Q150 24 169 24Q187 24 205 45.5Q223 67 235 105L268 83Q246 40 219 17.5Q192 -5 161 -5Q116 -5 99 32.5Q82 70 95 142L141 408Q147 441 145.5 448Q144 455 128 457ZM141 669Q141 648 126.5 633.5Q112 619 91 619Q74 619 63 629.5Q52 640 52 657Q52 678 66 692Q80 706 101 706Q120 706 130.5 696Q141 686 141 669ZM340 669Q340 648 325.5 633.5Q311 619 290 619Q273 619 262 629.5Q251 640 251 657Q251 678 265 692Q279 706 300 706Q319 706 329.5 696Q340 686 340 669Z" glyph-name="idieresis" horiz-adv-x="295" unicode="ï" /><glyph d="M128 457 74 462L78 487H215L156 150Q144 83 147 53.5Q150 24 169 24Q187 24 205 45.5Q223 67 235 105L268 83Q246 40 219 17.5Q192 -5 161 -5Q116 -5 99 32.5Q82 70 95 142L141 408Q147 441 145.5 448Q144 455 128 457ZM203 596 182 579Q151 616 126.5 655.5Q102 695 82 740H154Q159 697 169.5 665.5Q180 634 203 596Z" glyph-name="igrave" horiz-adv-x="295" unicode="ì" /><glyph d="M128 457 74 462L78 487H215L156 150Q144 83 147 53.5Q150 24 169 24Q187 24 205 45.5Q223 67 235 105L268 83Q246 40 219 17.5Q192 -5 161 -5Q116 -5 99 32.5Q82 70 95 142L141 408Q147 441 145.5 448Q144 455 128 457ZM191 632Q237 632 267 657Q297 682 321 740L347 733Q319 652 282 615.5Q245 579 190 579Q132 579 103 616Q74 653 69 733L95 740Q104 680 125.5 656Q147 632 191 632Z" glyph-name="ibreve" horiz-adv-x="295" unicode="ĭ" /><glyph d="M262 669Q262 648 247 632.5Q232 617 210 617Q191 617 180 627.5Q169 638 169 657Q169 678 184 693Q199 708 220 708Q239 708 250.5 697.5Q262 687 262 669ZM128 457 74 462L78 487H215L156 150Q144 83 147 53.5Q150 24 169 24Q187 24 205 45.5Q223 67 235 105L268 83Q246 40 219 17.5Q192 -5 161 -5Q116 -5 99 32.5Q82 70 95 142L141 408Q147 441 145.5 448Q144 455 128 457Z" glyph-name="i.dot" horiz-adv-x="295" unicode="" /><glyph d="M128 457 74 462L78 487H215L156 150Q144 83 147 53.5Q150 24 169 24Q187 24 205 45.5Q223 67 235 105L268 83Q246 40 219 17.5Q192 -5 161 -5Q116 -5 99 32.5Q82 70 95 142L141 408Q147 441 145.5 448Q144 455 128 457ZM53 662 340 662L332 619H45Z" glyph-name="imacron" horiz-adv-x="295" unicode="ī" /><glyph d="M250 669Q250 648 235 632.5Q220 617 198 617Q179 617 168 627.5Q157 638 157 657Q157 678 172 693Q187 708 208 708Q227 708 238.5 697.5Q250 687 250 669ZM116 457 62 462L66 487H203L144 150Q132 83 135 53.5Q138 24 157 24Q175 24 193 45.5Q211 67 223 105L256 83Q243 55 221 32Q199 9 147 -22Q90 -57 73 -83Q56 -109 56 -144Q56 -170 67.5 -183Q79 -196 102 -196Q131 -196 154 -175Q177 -154 193 -112L235 -125Q213 -174 179.5 -198.5Q146 -223 102 -223Q58 -223 31 -201.5Q4 -180 4 -144Q4 -107 29 -76Q54 -45 129 -3Q95 5 83.5 41.5Q72 78 83 142L129 408Q135 441 133.5 448Q132 455 116 457Z" glyph-name="iogonek" horiz-adv-x="283" unicode="į" /><glyph d="M128 457 74 462L78 487H215L156 150Q144 83 147 53.5Q150 24 169 24Q187 24 205 45.5Q223 67 235 105L268 83Q246 40 219 17.5Q192 -5 161 -5Q116 -5 99 32.5Q82 70 95 142L141 408Q147 441 145.5 448Q144 455 128 457ZM262 593Q242 593 224 603.5Q206 614 179 646Q159 671 148 678.5Q137 686 125 686Q105 686 89.5 665.5Q74 645 66 608H37Q47 669 72.5 702Q98 735 133 735Q154 735 171.5 724.5Q189 714 215 681Q234 657 245 649.5Q256 642 267 642Q287 642 302.5 662.5Q318 683 326 720H355Q345 660 320 626.5Q295 593 262 593Z" glyph-name="itilde" horiz-adv-x="295" unicode="ĩ" /><glyph d="M128 457 74 462L78 487H215L118 -64Q104 -143 64.5 -183Q25 -223 -39 -223Q-90 -223 -118.5 -193Q-147 -163 -143 -111L-91 -99Q-93 -147 -80.5 -170Q-68 -193 -39 -193Q2 -193 24 -163.5Q46 -134 58 -64L141 408Q147 441 145.5 448Q144 455 128 457ZM312 597 293 579Q264 608 241.5 634Q219 660 201 685Q175 660 145 634.5Q115 609 77 579L59 600Q107 643 130.5 669.5Q154 696 184 740H236Q250 696 265 668Q280 640 312 597Z" glyph-name="jcircumflex" horiz-adv-x="273" unicode="ĵ" /><glyph d="M262 669Q262 648 247 632.5Q232 617 210 617Q191 617 180 627.5Q169 638 169 657Q169 678 184 693Q199 708 220 708Q239 708 250.5 697.5Q262 687 262 669ZM128 457 74 462L78 487H215L156 150Q144 83 147 53.5Q150 24 169 24Q187 24 205 45.5Q223 67 235 105L268 83Q246 40 219 17.5Q192 -5 161 -5Q116 -5 99 32.5Q82 70 95 142L141 408Q147 441 145.5 448Q144 455 128 457ZM557 669Q557 648 542 632.5Q527 617 505 617Q486 617 475 627.5Q464 638 464 657Q464 678 479 693Q494 708 515 708Q534 708 545.5 697.5Q557 687 557 669ZM422 457 368 462L372 487H509L412 -64Q398 -143 358.5 -183Q319 -223 255 -223Q204 -223 175.5 -193Q147 -163 151 -111L203 -99Q201 -147 213.5 -170Q226 -193 255 -193Q296 -193 318 -163.5Q340 -134 352 -64L435 408Q441 441 439.5 448Q438 455 422 457Z" glyph-name="ij" horiz-adv-x="574" unicode="ĳ" /><glyph d="M485 0 367 0L239 271L148 187L115 0H57L173 661Q179 694 177.5 701Q176 708 160 710L106 715L110 740H247L157 235L282 353Q351 418 396.5 448.5Q442 479 496 497L511 436Q446 419 392.5 391Q339 363 295 323L283 312L402 69Q416 42 421 37Q426 32 441 30L489 25ZM170 -238 153 -224Q177 -186 189.5 -153Q202 -120 209 -77H279Q258 -127 234.5 -162Q211 -197 170 -238Z" glyph-name="kcommaaccent" horiz-adv-x="509" unicode="ķ" /><glyph d="M497 0 379 0L251 271L161 188L127 0H69L141 408Q147 441 145.5 448Q144 455 128 457L74 462L78 487H215L170 235L294 353Q363 418 408.5 448.5Q454 479 508 497L523 436Q458 419 404.5 391Q351 363 307 323L295 312L414 69Q428 42 433 37Q438 32 453 30L501 25Z" glyph-name="kgreenlandic" horiz-adv-x="521" unicode="ĸ" /><glyph d="M161 710 107 715L111 740H248L145 150Q133 83 136 53.5Q139 24 158 24Q176 24 194 45.5Q212 67 224 105L257 83Q235 40 208 17.5Q181 -5 150 -5Q105 -5 88 32.5Q71 70 84 142L174 661Q180 694 178.5 701Q177 708 161 710ZM220 801 203 822Q235 855 255.5 885.5Q276 916 296 962H376Q341 917 302.5 877.5Q264 838 220 801Z" glyph-name="lacute" horiz-adv-x="285" unicode="ĺ" /><glyph d="M161 710 107 715L111 740H248L145 150Q133 83 136 53.5Q139 24 158 24Q176 24 194 45.5Q212 67 224 105L257 83Q235 40 208 17.5Q181 -5 150 -5Q105 -5 88 32.5Q71 70 84 142L174 661Q180 694 178.5 701Q177 708 161 710ZM316 526 297 526L334 740H398Q377 679 357 627Q337 575 316 526Z" glyph-name="lcaron" horiz-adv-x="342" unicode="ľ" /><glyph d="M161 710 107 715L111 740H248L145 150Q133 83 136 53.5Q139 24 158 24Q176 24 194 45.5Q212 67 224 105L257 83Q235 40 208 17.5Q181 -5 150 -5Q105 -5 88 32.5Q71 70 84 142L174 661Q180 694 178.5 701Q177 708 161 710ZM43 -238 26 -224Q50 -186 62.5 -153Q75 -120 82 -77H152Q131 -127 107.5 -162Q84 -197 43 -238Z" glyph-name="lcommaaccent" horiz-adv-x="288" unicode="ļ" /><glyph d="M161 710 107 715L111 740H248L145 150Q133 83 136 53.5Q139 24 158 24Q176 24 194 45.5Q212 67 224 105L257 83Q235 40 208 17.5Q181 -5 150 -5Q105 -5 88 32.5Q71 70 84 142L174 661Q180 694 178.5 701Q177 708 161 710ZM347 391Q347 370 332 354.5Q317 339 295 339Q276 339 265 349.5Q254 360 254 379Q254 400 269 415Q284 430 305 430Q324 430 335.5 419.5Q347 409 347 391Z" glyph-name="ldot" horiz-adv-x="288" unicode="ŀ" /><glyph d="M552 105 585 83Q563 39 535 17Q507 -5 474 -5Q430 -5 414 26Q398 57 410 117L450 315Q465 390 448 428.5Q431 467 383 467Q331 467 281 427.5Q231 388 183 309L129 0H69L141 408Q147 441 145.5 448Q144 455 128 457L73 462L78 487H215L195 376Q238 436 287 466.5Q336 497 391 497Q464 497 496.5 448Q529 399 511 316L467 107Q457 60 461 42Q465 24 483 24Q503 24 521 45Q539 66 552 105ZM451 593Q431 593 413 603.5Q395 614 368 646Q348 671 337 678.5Q326 686 314 686Q294 686 278.5 665.5Q263 645 255 608H226Q236 669 261.5 702Q287 735 322 735Q343 735 360.5 724.5Q378 714 404 681Q423 657 434 649.5Q445 642 456 642Q476 642 491.5 662.5Q507 683 515 720H544Q534 660 509 626.5Q484 593 451 593Z" glyph-name="ntilde" horiz-adv-x="612" unicode="ñ" /><glyph d="M552 105 585 83Q563 39 535 17Q507 -5 474 -5Q430 -5 414 26Q398 57 410 117L450 315Q465 390 448 428.5Q431 467 383 467Q331 467 281 427.5Q231 388 183 309L129 0H69L141 408Q147 441 145.5 448Q144 455 128 457L73 462L78 487H215L195 376Q238 436 287 466.5Q336 497 391 497Q464 497 496.5 448Q529 399 511 316L467 107Q457 60 461 42Q465 24 483 24Q503 24 521 45Q539 66 552 105ZM369 579 352 600Q384 633 404.5 663.5Q425 694 445 740H525Q490 695 451.5 655.5Q413 616 369 579Z" glyph-name="nacute" horiz-adv-x="612" unicode="ń" /><glyph d="M552 105 585 83Q563 39 535 17Q507 -5 474 -5Q430 -5 414 26Q398 57 410 117L450 315Q465 390 448 428.5Q431 467 383 467Q331 467 281 427.5Q231 388 183 309L129 0H69L141 408Q147 441 145.5 448Q144 455 128 457L73 462L78 487H215L195 376Q238 436 287 466.5Q336 497 391 497Q464 497 496.5 448Q529 399 511 316L467 107Q457 60 461 42Q465 24 483 24Q503 24 521 45Q539 66 552 105ZM504 745 522 724Q474 681 450.5 654.5Q427 628 397 584H345Q331 628 316 656Q301 684 269 727L288 745Q317 716 339.5 690Q362 664 380 639Q406 664 436 689.5Q466 715 504 745Z" glyph-name="ncaron" horiz-adv-x="612" unicode="ň" /><glyph d="M552 105 585 83Q563 39 535 17Q507 -5 474 -5Q430 -5 414 26Q398 57 410 117L450 315Q465 390 448 428.5Q431 467 383 467Q331 467 281 427.5Q231 388 183 309L129 0H69L141 408Q147 441 145.5 448Q144 455 128 457L73 462L78 487H215L195 376Q238 436 287 466.5Q336 497 391 497Q464 497 496.5 448Q529 399 511 316L467 107Q457 60 461 42Q465 24 483 24Q503 24 521 45Q539 66 552 105ZM194 -238 177 -224Q201 -186 213.5 -153Q226 -120 233 -77H303Q282 -127 258.5 -162Q235 -197 194 -238Z" glyph-name="ncommaaccent" horiz-adv-x="612" unicode="ņ" /><glyph d="M511 316 443 -64Q429 -143 389.5 -183Q350 -223 286 -223Q232 -223 205.5 -194.5Q179 -166 182 -111L234 -99Q232 -149 243.5 -171Q255 -193 286 -193Q327 -193 349 -163Q371 -133 383 -64L450 315Q463 391 446.5 429Q430 467 383 467Q331 467 281 427.5Q231 388 184 309L129 0H69L141 408Q147 441 145.5 448Q144 455 128 457L73 462L78 487H215L195 375Q238 436 287 466.5Q336 497 391 497Q463 497 495 448.5Q527 400 511 316Z" glyph-name="eng" horiz-adv-x="595" unicode="ŋ" /><glyph d="M643 105 676 83Q654 39 626 17Q598 -5 565 -5Q521 -5 505 26Q489 57 501 117L541 315Q556 390 539 428.5Q522 467 474 467Q422 467 372 427.5Q322 388 274 309L220 0H160L232 408Q238 441 236.5 448Q235 455 219 457L164 462L169 487H306L286 376Q329 436 378 466.5Q427 497 482 497Q555 497 587.5 448Q620 399 602 316L558 107Q548 60 552 42Q556 24 574 24Q594 24 612 45Q630 66 643 105ZM112 690Q131 690 142.5 677Q154 664 154 643Q154 604 121.5 551Q89 498 35 449L17 467Q53 504 74.5 538Q96 572 103 603Q86 604 76 614.5Q66 625 66 642Q66 663 79 676.5Q92 690 112 690Z" glyph-name="napostrophe" horiz-adv-x="704" unicode="ŉ" /><glyph d="M307 497Q405 497 454 425Q503 353 484 242L480 219Q461 110 399.5 50Q338 -10 243 -10Q146 -10 97.5 62.5Q49 135 68 246L72 269Q91 378 152 437.5Q213 497 307 497ZM409 204 419 264Q435 360 404 414.5Q373 469 302 469Q239 469 198.5 422Q158 375 143 284L133 224Q117 128 148 73Q179 18 249 18Q313 18 353.5 65Q394 112 409 204ZM327 579 310 600Q342 633 362.5 663.5Q383 694 403 740H483Q448 695 409.5 655.5Q371 616 327 579Z" glyph-name="oacute" horiz-adv-x="552" unicode="ó" /><glyph d="M307 497Q405 497 454 425Q503 353 484 242L480 219Q461 110 399.5 50Q338 -10 243 -10Q146 -10 97.5 62.5Q49 135 68 246L72 269Q91 378 152 437.5Q213 497 307 497ZM409 204 419 264Q435 360 404 414.5Q373 469 302 469Q239 469 198.5 422Q158 375 143 284L133 224Q117 128 148 73Q179 18 249 18Q313 18 353.5 65Q394 112 409 204ZM458 597 439 579Q410 608 387.5 634Q365 660 347 685Q321 660 291 634.5Q261 609 223 579L205 600Q253 643 276.5 669.5Q300 696 330 740H382Q396 696 411 668Q426 640 458 597Z" glyph-name="ocircumflex" horiz-adv-x="552" unicode="ô" /><glyph d="M307 497Q405 497 454 425Q503 353 484 242L480 219Q461 110 399.5 50Q338 -10 243 -10Q146 -10 97.5 62.5Q49 135 68 246L72 269Q91 378 152 437.5Q213 497 307 497ZM409 204 419 264Q435 360 404 414.5Q373 469 302 469Q239 469 198.5 422Q158 375 143 284L133 224Q117 128 148 73Q179 18 249 18Q313 18 353.5 65Q394 112 409 204ZM288 669Q288 648 273.5 633.5Q259 619 238 619Q221 619 210 629.5Q199 640 199 657Q199 678 213 692Q227 706 248 706Q267 706 277.5 696Q288 686 288 669ZM487 669Q487 648 472.5 633.5Q458 619 437 619Q420 619 409 629.5Q398 640 398 657Q398 678 412 692Q426 706 447 706Q466 706 476.5 696Q487 686 487 669Z" glyph-name="odieresis" horiz-adv-x="552" unicode="ö" /><glyph d="M307 497Q405 497 454 425Q503 353 484 242L480 219Q461 110 399.5 50Q338 -10 243 -10Q146 -10 97.5 62.5Q49 135 68 246L72 269Q91 378 152 437.5Q213 497 307 497ZM409 204 419 264Q435 360 404 414.5Q373 469 302 469Q239 469 198.5 422Q158 375 143 284L133 224Q117 128 148 73Q179 18 249 18Q313 18 353.5 65Q394 112 409 204ZM350 596 329 579Q298 616 273.5 655.5Q249 695 229 740H301Q306 697 316.5 665.5Q327 634 350 596Z" glyph-name="ograve" horiz-adv-x="552" unicode="ò" /><glyph d="M307 497Q405 497 454 425Q503 353 484 242L480 219Q461 110 399.5 50Q338 -10 243 -10Q146 -10 97.5 62.5Q49 135 68 246L72 269Q91 378 152 437.5Q213 497 307 497ZM409 204 419 264Q435 360 404 414.5Q373 469 302 469Q239 469 198.5 422Q158 375 143 284L133 224Q117 128 148 73Q179 18 249 18Q313 18 353.5 65Q394 112 409 204ZM409 593Q389 593 371 603.5Q353 614 326 646Q306 671 295 678.5Q284 686 272 686Q252 686 236.5 665.5Q221 645 213 608H184Q194 669 219.5 702Q245 735 280 735Q301 735 318.5 724.5Q336 714 362 681Q381 657 392 649.5Q403 642 414 642Q434 642 449.5 662.5Q465 683 473 720H502Q492 660 467 626.5Q442 593 409 593Z" glyph-name="otilde" horiz-adv-x="552" unicode="õ" /><glyph d="M307 497Q405 497 454 425Q503 353 484 242L480 219Q461 110 399.5 50Q338 -10 243 -10Q146 -10 97.5 62.5Q49 135 68 246L72 269Q91 378 152 437.5Q213 497 307 497ZM409 204 419 264Q435 360 404 414.5Q373 469 302 469Q239 469 198.5 422Q158 375 143 284L133 224Q117 128 148 73Q179 18 249 18Q313 18 353.5 65Q394 112 409 204ZM338 632Q384 632 414 657Q444 682 468 740L494 733Q466 652 429 615.5Q392 579 337 579Q279 579 250 616Q221 653 216 733L242 740Q251 680 272.5 656Q294 632 338 632Z" glyph-name="obreve" horiz-adv-x="552" unicode="ŏ" /><glyph d="M307 497Q405 497 454 425Q503 353 484 242L480 219Q461 110 399.5 50Q338 -10 243 -10Q146 -10 97.5 62.5Q49 135 68 246L72 269Q91 378 152 437.5Q213 497 307 497ZM409 204 419 264Q435 360 404 414.5Q373 469 302 469Q239 469 198.5 422Q158 375 143 284L133 224Q117 128 148 73Q179 18 249 18Q313 18 353.5 65Q394 112 409 204ZM261 579 243 594Q263 621 280.5 654Q298 687 320 740H394Q366 699 331 656.5Q296 614 261 579ZM401 579 383 594Q403 621 420.5 654Q438 687 460 740H534Q506 699 471 656.5Q436 614 401 579Z" glyph-name="ohungarumlaut" horiz-adv-x="552" unicode="ő" /><glyph d="M307 497Q405 497 454 425Q503 353 484 242L480 219Q461 110 399.5 50Q338 -10 243 -10Q146 -10 97.5 62.5Q49 135 68 246L72 269Q91 378 152 437.5Q213 497 307 497ZM409 204 419 264Q435 360 404 414.5Q373 469 302 469Q239 469 198.5 422Q158 375 143 284L133 224Q117 128 148 73Q179 18 249 18Q313 18 353.5 65Q394 112 409 204ZM200 662 487 662L479 619H192Z" glyph-name="omacron" horiz-adv-x="552" unicode="ō" /><glyph d="M326 453Q288 453 254 418.5Q220 384 185 312L130 0H70L142 408Q148 441 146.5 448Q145 455 129 457L74 462L79 487H216L197 380Q232 438 272.5 467.5Q313 497 356 497Q388 497 412 479.5Q436 462 447 430L396 385Q386 421 370 437Q354 453 326 453ZM302 579 285 600Q317 633 337.5 663.5Q358 694 378 740H458Q423 695 384.5 655.5Q346 616 302 579Z" glyph-name="racute" horiz-adv-x="410" unicode="ŕ" /><glyph d="M326 453Q288 453 254 418.5Q220 384 185 312L130 0H70L142 408Q148 441 146.5 448Q145 455 129 457L74 462L79 487H216L197 380Q232 438 272.5 467.5Q313 497 356 497Q388 497 412 479.5Q436 462 447 430L396 385Q386 421 370 437Q354 453 326 453ZM441 745 459 724Q411 681 387.5 654.5Q364 628 334 584H282Q268 628 253 656Q238 684 206 727L225 745Q254 716 276.5 690Q299 664 317 639Q343 664 373 689.5Q403 715 441 745Z" glyph-name="rcaron" horiz-adv-x="410" unicode="ř" /><glyph d="M326 453Q288 453 254 418.5Q220 384 185 312L130 0H70L142 408Q148 441 146.5 448Q145 455 129 457L74 462L79 487H216L197 380Q232 438 272.5 467.5Q313 497 356 497Q388 497 412 479.5Q436 462 447 430L396 385Q386 421 370 437Q354 453 326 453ZM12 -238 -5 -224Q19 -186 31.5 -153Q44 -120 51 -77H121Q100 -127 76.5 -162Q53 -197 12 -238Z" glyph-name="rcommaaccent" horiz-adv-x="410" unicode="ŗ" /><glyph d="M376 136Q376 72 325.5 31Q275 -10 189 -10Q115 -10 73.5 21.5Q32 53 29 111L80 127Q81 72 108 45.5Q135 19 190 19Q252 19 289.5 45.5Q327 72 327 118Q327 154 304 178Q281 202 236 214L176 230Q131 242 105.5 274Q80 306 80 350Q80 415 126 456Q172 497 252 497Q340 497 379.5 452Q419 407 396 340L335 324Q360 391 337 429Q314 467 249 467Q195 467 163 440.5Q131 414 131 370Q131 337 150 315Q169 293 206 283L266 267Q317 253 346.5 218Q376 183 376 136ZM401 745 419 724Q371 681 347.5 654.5Q324 628 294 584H242Q228 628 213 656Q198 684 166 727L185 745Q214 716 236.5 690Q259 664 277 639Q303 664 333 689.5Q363 715 401 745Z" glyph-name="scaron" horiz-adv-x="452" unicode="š" /><glyph d="M376 136Q376 72 325.5 31Q275 -10 189 -10Q115 -10 73.5 21.5Q32 53 29 111L80 127Q81 72 108 45.5Q135 19 190 19Q252 19 289.5 45.5Q327 72 327 118Q327 154 304 178Q281 202 236 214L176 230Q131 242 105.5 274Q80 306 80 350Q80 415 126 456Q172 497 252 497Q340 497 379.5 452Q419 407 396 340L335 324Q360 391 337 429Q314 467 249 467Q195 467 163 440.5Q131 414 131 370Q131 337 150 315Q169 293 206 283L266 267Q317 253 346.5 218Q376 183 376 136ZM266 579 249 600Q281 633 301.5 663.5Q322 694 342 740H422Q387 695 348.5 655.5Q310 616 266 579Z" glyph-name="sacute" horiz-adv-x="452" unicode="ś" /><glyph d="M265 -134Q265 -174 232.5 -198.5Q200 -223 149 -223Q104 -223 79 -203Q54 -183 53 -145L100 -132Q97 -166 109 -182Q121 -198 150 -198Q177 -198 194.5 -180Q212 -162 212 -134Q212 -107 200 -96.5Q188 -86 160 -86Q156 -86 150 -86.5Q144 -87 134 -89L130 -63L162 -9Q100 -4 66 27Q32 58 29 111L80 127Q81 72 108 45.5Q135 19 190 19Q252 19 289.5 45.5Q327 72 327 118Q327 154 304 178Q281 202 236 214L176 230Q131 242 105.5 274Q80 306 80 350Q80 415 126 456Q172 497 252 497Q340 497 379.5 452Q419 407 396 340L335 324Q360 391 337 429Q314 467 249 467Q195 467 163 440.5Q131 414 131 370Q131 337 150 315Q169 293 206 283L266 267Q317 253 346.5 218Q376 183 376 136Q376 72 326.5 31Q277 -10 193 -10L164 -60H167Q213 -60 239 -80Q265 -100 265 -134Z" glyph-name="scedilla" horiz-adv-x="452" unicode="ş" /><glyph d="M376 136Q376 72 325.5 31Q275 -10 189 -10Q115 -10 73.5 21.5Q32 53 29 111L80 127Q81 72 108 45.5Q135 19 190 19Q252 19 289.5 45.5Q327 72 327 118Q327 154 304 178Q281 202 236 214L176 230Q131 242 105.5 274Q80 306 80 350Q80 415 126 456Q172 497 252 497Q340 497 379.5 452Q419 407 396 340L335 324Q360 391 337 429Q314 467 249 467Q195 467 163 440.5Q131 414 131 370Q131 337 150 315Q169 293 206 283L266 267Q317 253 346.5 218Q376 183 376 136ZM397 597 378 579Q349 608 326.5 634Q304 660 286 685Q260 660 230 634.5Q200 609 162 579L144 600Q192 643 215.5 669.5Q239 696 269 740H321Q335 696 350 668Q365 640 397 597Z" glyph-name="scircumflex" horiz-adv-x="452" unicode="ŝ" /><glyph d="M376 136Q376 72 325.5 31Q275 -10 189 -10Q115 -10 73.5 21.5Q32 53 29 111L80 127Q81 72 108 45.5Q135 19 190 19Q252 19 289.5 45.5Q327 72 327 118Q327 154 304 178Q281 202 236 214L176 230Q131 242 105.5 274Q80 306 80 350Q80 415 126 456Q172 497 252 497Q340 497 379.5 452Q419 407 396 340L335 324Q360 391 337 429Q314 467 249 467Q195 467 163 440.5Q131 414 131 370Q131 337 150 315Q169 293 206 283L266 267Q317 253 346.5 218Q376 183 376 136ZM101 -238 84 -224Q108 -186 120.5 -153Q133 -120 140 -77H210Q189 -127 165.5 -162Q142 -197 101 -238Z" glyph-name="uni0219" horiz-adv-x="452" unicode="ș" /><glyph d="M283 121 327 102Q302 46 268.5 18Q235 -10 192 -10Q127 -10 102 35Q77 80 92 169L110 270H32L37 300H115L134 410Q140 442 138 448.5Q136 455 120 457L65 462L70 487H147L172 629L235 641L208 487H372L367 457H202L175 300H312L307 270H169L148 149Q136 84 147.5 52Q159 20 194 20Q222 20 243.5 44Q265 68 283 121Z" glyph-name="tbar" horiz-adv-x="362" unicode="ŧ" /><glyph d="M280 121 324 102Q299 46 265.5 18Q232 -10 189 -10Q124 -10 99 35Q74 80 89 169L131 410Q137 442 135 448.5Q133 455 117 457L62 462L67 487H144L169 629L232 641L205 487H369L364 457H199L145 149Q133 84 144.5 52Q156 20 191 20Q219 20 240.5 44Q262 68 280 121ZM314 556 295 556L332 770H396Q375 709 355 657Q335 605 314 556Z" glyph-name="tcaron" horiz-adv-x="359" unicode="ť" /><glyph d="M280 121 324 102Q299 46 265.5 18Q232 -10 189 -10Q124 -10 99 35Q74 80 89 169L131 410Q137 442 135 448.5Q133 455 117 457L62 462L67 487H144L169 629L232 641L205 487H369L364 457H199L145 149Q133 84 144.5 52Q156 20 191 20Q219 20 240.5 44Q262 68 280 121ZM96 -238 79 -224Q103 -186 115.5 -153Q128 -120 135 -77H205Q184 -127 160.5 -162Q137 -197 96 -238Z" glyph-name="uni0163" horiz-adv-x="359" unicode="ţ" /><glyph d="M280 121 324 102Q299 46 265.5 18Q232 -10 189 -10Q124 -10 99 35Q74 80 89 169L131 410Q137 442 135 448.5Q133 455 117 457L62 462L67 487H144L169 629L232 641L205 487H369L364 457H199L145 149Q133 84 144.5 52Q156 20 191 20Q219 20 240.5 44Q262 68 280 121ZM96 -238 79 -224Q103 -186 115.5 -153Q128 -120 135 -77H205Q184 -127 160.5 -162Q137 -197 96 -238Z" glyph-name="uni021B" horiz-adv-x="359" unicode="ț" /><glyph d="M467 -5Q427 -5 409 25Q391 55 397 115Q354 52 306 21Q258 -10 204 -10Q135 -10 104.5 38Q74 86 89 171L131 408Q137 441 135.5 448Q134 455 118 457L63 462L68 487H205L150 172Q137 97 152.5 58.5Q168 20 212 20Q262 20 311 60Q360 100 408 180L461 487H521L462 150Q450 83 453 53.5Q456 24 475 24Q493 24 511 45.5Q529 67 541 105L574 83Q552 40 525 17.5Q498 -5 467 -5ZM338 579 321 600Q353 633 373.5 663.5Q394 694 414 740H494Q459 695 420.5 655.5Q382 616 338 579Z" glyph-name="uacute" horiz-adv-x="602" unicode="ú" /><glyph d="M467 -5Q427 -5 409 25Q391 55 397 115Q354 52 306 21Q258 -10 204 -10Q135 -10 104.5 38Q74 86 89 171L131 408Q137 441 135.5 448Q134 455 118 457L63 462L68 487H205L150 172Q137 97 152.5 58.5Q168 20 212 20Q262 20 311 60Q360 100 408 180L461 487H521L462 150Q450 83 453 53.5Q456 24 475 24Q493 24 511 45.5Q529 67 541 105L574 83Q552 40 525 17.5Q498 -5 467 -5ZM469 597 450 579Q421 608 398.5 634Q376 660 358 685Q332 660 302 634.5Q272 609 234 579L216 600Q264 643 287.5 669.5Q311 696 341 740H393Q407 696 422 668Q437 640 469 597Z" glyph-name="ucircumflex" horiz-adv-x="602" unicode="û" /><glyph d="M467 -5Q427 -5 409 25Q391 55 397 115Q354 52 306 21Q258 -10 204 -10Q135 -10 104.5 38Q74 86 89 171L131 408Q137 441 135.5 448Q134 455 118 457L63 462L68 487H205L150 172Q137 97 152.5 58.5Q168 20 212 20Q262 20 311 60Q360 100 408 180L461 487H521L462 150Q450 83 453 53.5Q456 24 475 24Q493 24 511 45.5Q529 67 541 105L574 83Q552 40 525 17.5Q498 -5 467 -5ZM299 669Q299 648 284.5 633.5Q270 619 249 619Q232 619 221 629.5Q210 640 210 657Q210 678 224 692Q238 706 259 706Q278 706 288.5 696Q299 686 299 669ZM498 669Q498 648 483.5 633.5Q469 619 448 619Q431 619 420 629.5Q409 640 409 657Q409 678 423 692Q437 706 458 706Q477 706 487.5 696Q498 686 498 669Z" glyph-name="udieresis" horiz-adv-x="602" unicode="ü" /><glyph d="M467 -5Q427 -5 409 25Q391 55 397 115Q354 52 306 21Q258 -10 204 -10Q135 -10 104.5 38Q74 86 89 171L131 408Q137 441 135.5 448Q134 455 118 457L63 462L68 487H205L150 172Q137 97 152.5 58.5Q168 20 212 20Q262 20 311 60Q360 100 408 180L461 487H521L462 150Q450 83 453 53.5Q456 24 475 24Q493 24 511 45.5Q529 67 541 105L574 83Q552 40 525 17.5Q498 -5 467 -5ZM361 596 340 579Q309 616 284.5 655.5Q260 695 240 740H312Q317 697 327.5 665.5Q338 634 361 596Z" glyph-name="ugrave" horiz-adv-x="602" unicode="ù" /><glyph d="M467 -5Q427 -5 409 25Q391 55 397 115Q354 52 306 21Q258 -10 204 -10Q135 -10 104.5 38Q74 86 89 171L131 408Q137 441 135.5 448Q134 455 118 457L63 462L68 487H205L150 172Q137 97 152.5 58.5Q168 20 212 20Q262 20 311 60Q360 100 408 180L461 487H521L462 150Q450 83 453 53.5Q456 24 475 24Q493 24 511 45.5Q529 67 541 105L574 83Q552 40 525 17.5Q498 -5 467 -5ZM349 632Q395 632 425 657Q455 682 479 740L505 733Q477 652 440 615.5Q403 579 348 579Q290 579 261 616Q232 653 227 733L253 740Q262 680 283.5 656Q305 632 349 632Z" glyph-name="ubreve" horiz-adv-x="602" unicode="ŭ" /><glyph d="M467 -5Q427 -5 409 25Q391 55 397 115Q354 52 306 21Q258 -10 204 -10Q135 -10 104.5 38Q74 86 89 171L131 408Q137 441 135.5 448Q134 455 118 457L63 462L68 487H205L150 172Q137 97 152.5 58.5Q168 20 212 20Q262 20 311 60Q360 100 408 180L461 487H521L462 150Q450 83 453 53.5Q456 24 475 24Q493 24 511 45.5Q529 67 541 105L574 83Q552 40 525 17.5Q498 -5 467 -5ZM272 579 254 594Q274 621 291.5 654Q309 687 331 740H405Q377 699 342 656.5Q307 614 272 579ZM412 579 394 594Q414 621 431.5 654Q449 687 471 740H545Q517 699 482 656.5Q447 614 412 579Z" glyph-name="uhungarumlaut" horiz-adv-x="602" unicode="ű" /><glyph d="M467 -5Q427 -5 409 25Q391 55 397 115Q354 52 306 21Q258 -10 204 -10Q135 -10 104.5 38Q74 86 89 171L131 408Q137 441 135.5 448Q134 455 118 457L63 462L68 487H205L150 172Q137 97 152.5 58.5Q168 20 212 20Q262 20 311 60Q360 100 408 180L461 487H521L462 150Q450 83 453 53.5Q456 24 475 24Q493 24 511 45.5Q529 67 541 105L574 83Q552 40 525 17.5Q498 -5 467 -5ZM211 662 498 662L490 619H203Z" glyph-name="umacron" horiz-adv-x="602" unicode="ū" /><glyph d="M118 457 63 462L68 487H205L150 172Q137 97 152.5 58.5Q168 20 212 20Q262 20 311 60Q360 100 408 180L461 487H521L462 150Q450 83 453 53.5Q456 24 475 24Q493 24 511 45.5Q529 67 541 105L574 83Q560 53 536 29Q512 5 455 -27Q395 -61 377.5 -85.5Q360 -110 360 -144Q360 -170 371.5 -183Q383 -196 406 -196Q435 -196 458 -175Q481 -154 497 -112L539 -125Q517 -174 483.5 -198.5Q450 -223 406 -223Q362 -223 335 -201.5Q308 -180 308 -144Q308 -108 333.5 -78.5Q359 -49 446 -3Q417 5 404.5 34.5Q392 64 397 115Q354 52 306 21Q258 -10 204 -10Q135 -10 104.5 38Q74 86 89 171L131 408Q137 442 135.5 448.5Q134 455 118 457Z" glyph-name="uogonek" horiz-adv-x="602" unicode="ų" /><glyph d="M467 -5Q427 -5 409 25Q391 55 397 115Q354 52 306 21Q258 -10 204 -10Q135 -10 104.5 38Q74 86 89 171L131 408Q137 441 135.5 448Q134 455 118 457L63 462L68 487H205L150 172Q137 97 152.5 58.5Q168 20 212 20Q262 20 311 60Q360 100 408 180L461 487H521L462 150Q450 83 453 53.5Q456 24 475 24Q493 24 511 45.5Q529 67 541 105L574 83Q552 40 525 17.5Q498 -5 467 -5ZM366 781Q421 781 451 747.5Q481 714 473 668L471 657Q463 614 428.5 587.5Q394 561 345 561Q291 561 261 594.5Q231 628 239 674L241 685Q249 728 283 754.5Q317 781 366 781ZM344 586Q374 586 394.5 605.5Q415 625 420 658L424 683Q429 717 414 736.5Q399 756 367 756Q337 756 317 737Q297 718 292 684L288 659Q283 626 298 606Q313 586 344 586Z" glyph-name="uring" horiz-adv-x="602" unicode="ů" /><glyph d="M467 -5Q427 -5 409 25Q391 55 397 115Q354 52 306 21Q258 -10 204 -10Q135 -10 104.5 38Q74 86 89 171L131 408Q137 441 135.5 448Q134 455 118 457L63 462L68 487H205L150 172Q137 97 152.5 58.5Q168 20 212 20Q262 20 311 60Q360 100 408 180L461 487H521L462 150Q450 83 453 53.5Q456 24 475 24Q493 24 511 45.5Q529 67 541 105L574 83Q552 40 525 17.5Q498 -5 467 -5ZM420 593Q400 593 382 603.5Q364 614 337 646Q317 671 306 678.5Q295 686 283 686Q263 686 247.5 665.5Q232 645 224 608H195Q205 669 230.5 702Q256 735 291 735Q312 735 329.5 724.5Q347 714 373 681Q392 657 403 649.5Q414 642 425 642Q445 642 460.5 662.5Q476 683 484 720H513Q503 660 478 626.5Q453 593 420 593Z" glyph-name="utilde" horiz-adv-x="602" unicode="ũ" /><glyph d="M669 473 744 497Q722 246 655.5 118Q589 -10 479 -10Q429 -10 400 16Q371 42 363 94Q330 43 289 16.5Q248 -10 202 -10Q126 -10 98.5 48.5Q71 107 93 224L127 408Q133 441 131 448Q129 455 113 457L58 462L63 487H200L154 225Q134 113 146.5 66.5Q159 20 208 20Q254 20 295 56.5Q336 93 362 158Q363 172 365 188Q367 204 370 224L417 487H477L431 225Q411 113 423.5 66.5Q436 20 485 20Q566 20 621 120Q676 220 676 372Q676 392 674.5 416.5Q673 441 669 473ZM459 579 442 600Q474 633 494.5 663.5Q515 694 535 740H615Q580 695 541.5 655.5Q503 616 459 579Z" glyph-name="wacute" horiz-adv-x="787" unicode="ẃ" /><glyph d="M669 473 744 497Q722 246 655.5 118Q589 -10 479 -10Q429 -10 400 16Q371 42 363 94Q330 43 289 16.5Q248 -10 202 -10Q126 -10 98.5 48.5Q71 107 93 224L127 408Q133 441 131 448Q129 455 113 457L58 462L63 487H200L154 225Q134 113 146.5 66.5Q159 20 208 20Q254 20 295 56.5Q336 93 362 158Q363 172 365 188Q367 204 370 224L417 487H477L431 225Q411 113 423.5 66.5Q436 20 485 20Q566 20 621 120Q676 220 676 372Q676 392 674.5 416.5Q673 441 669 473ZM590 597 571 579Q542 608 519.5 634Q497 660 479 685Q453 660 423 634.5Q393 609 355 579L337 600Q385 643 408.5 669.5Q432 696 462 740H514Q528 696 543 668Q558 640 590 597Z" glyph-name="wcircumflex" horiz-adv-x="787" unicode="ŵ" /><glyph d="M669 473 744 497Q722 246 655.5 118Q589 -10 479 -10Q429 -10 400 16Q371 42 363 94Q330 43 289 16.5Q248 -10 202 -10Q126 -10 98.5 48.5Q71 107 93 224L127 408Q133 441 131 448Q129 455 113 457L58 462L63 487H200L154 225Q134 113 146.5 66.5Q159 20 208 20Q254 20 295 56.5Q336 93 362 158Q363 172 365 188Q367 204 370 224L417 487H477L431 225Q411 113 423.5 66.5Q436 20 485 20Q566 20 621 120Q676 220 676 372Q676 392 674.5 416.5Q673 441 669 473ZM420 669Q420 648 405.5 633.5Q391 619 370 619Q353 619 342 629.5Q331 640 331 657Q331 678 345 692Q359 706 380 706Q399 706 409.5 696Q420 686 420 669ZM619 669Q619 648 604.5 633.5Q590 619 569 619Q552 619 541 629.5Q530 640 530 657Q530 678 544 692Q558 706 579 706Q598 706 608.5 696Q619 686 619 669Z" glyph-name="wdieresis" horiz-adv-x="787" unicode="ẅ" /><glyph d="M669 473 744 497Q722 246 655.5 118Q589 -10 479 -10Q429 -10 400 16Q371 42 363 94Q330 43 289 16.5Q248 -10 202 -10Q126 -10 98.5 48.5Q71 107 93 224L127 408Q133 441 131 448Q129 455 113 457L58 462L63 487H200L154 225Q134 113 146.5 66.5Q159 20 208 20Q254 20 295 56.5Q336 93 362 158Q363 172 365 188Q367 204 370 224L417 487H477L431 225Q411 113 423.5 66.5Q436 20 485 20Q566 20 621 120Q676 220 676 372Q676 392 674.5 416.5Q673 441 669 473ZM481 596 460 579Q429 616 404.5 655.5Q380 695 360 740H432Q437 697 447.5 665.5Q458 634 481 596Z" glyph-name="wgrave" horiz-adv-x="787" unicode="ẁ" /><glyph d="M521 487 437 9Q418 -101 355.5 -162Q293 -223 196 -223Q120 -223 80 -181Q40 -139 48 -68L105 -58Q95 -126 118.5 -160.5Q142 -195 197 -195Q270 -195 314 -147Q358 -99 376 -1L396 113Q354 52 306 21Q258 -10 204 -10Q135 -10 104.5 38Q74 86 89 171L131 408Q137 441 135.5 448Q134 455 118 457L63 462L68 487H205L150 172Q137 97 152.5 58.5Q168 20 212 20Q262 20 311 60Q360 100 408 180L462 487ZM335 579 318 600Q350 633 370.5 663.5Q391 694 411 740H491Q456 695 417.5 655.5Q379 616 335 579Z" glyph-name="yacute" horiz-adv-x="579" unicode="ý" /><glyph d="M521 487 437 9Q418 -101 355.5 -162Q293 -223 196 -223Q120 -223 80 -181Q40 -139 48 -68L105 -58Q95 -126 118.5 -160.5Q142 -195 197 -195Q270 -195 314 -147Q358 -99 376 -1L396 113Q354 52 306 21Q258 -10 204 -10Q135 -10 104.5 38Q74 86 89 171L131 408Q137 441 135.5 448Q134 455 118 457L63 462L68 487H205L150 172Q137 97 152.5 58.5Q168 20 212 20Q262 20 311 60Q360 100 408 180L462 487ZM296 669Q296 648 281.5 633.5Q267 619 246 619Q229 619 218 629.5Q207 640 207 657Q207 678 221 692Q235 706 256 706Q275 706 285.5 696Q296 686 296 669ZM495 669Q495 648 480.5 633.5Q466 619 445 619Q428 619 417 629.5Q406 640 406 657Q406 678 420 692Q434 706 455 706Q474 706 484.5 696Q495 686 495 669Z" glyph-name="ydieresis" horiz-adv-x="579" unicode="ÿ" /><glyph d="M521 487 437 9Q418 -101 355.5 -162Q293 -223 196 -223Q120 -223 80 -181Q40 -139 48 -68L105 -58Q95 -126 118.5 -160.5Q142 -195 197 -195Q270 -195 314 -147Q358 -99 376 -1L396 113Q354 52 306 21Q258 -10 204 -10Q135 -10 104.5 38Q74 86 89 171L131 408Q137 441 135.5 448Q134 455 118 457L63 462L68 487H205L150 172Q137 97 152.5 58.5Q168 20 212 20Q262 20 311 60Q360 100 408 180L462 487ZM466 597 447 579Q418 608 395.5 634Q373 660 355 685Q329 660 299 634.5Q269 609 231 579L213 600Q261 643 284.5 669.5Q308 696 338 740H390Q404 696 419 668Q434 640 466 597Z" glyph-name="ycircumflex" horiz-adv-x="579" unicode="ŷ" /><glyph d="M521 487 437 9Q418 -101 355.5 -162Q293 -223 196 -223Q120 -223 80 -181Q40 -139 48 -68L105 -58Q95 -126 118.5 -160.5Q142 -195 197 -195Q270 -195 314 -147Q358 -99 376 -1L396 113Q354 52 306 21Q258 -10 204 -10Q135 -10 104.5 38Q74 86 89 171L131 408Q137 441 135.5 448Q134 455 118 457L63 462L68 487H205L150 172Q137 97 152.5 58.5Q168 20 212 20Q262 20 311 60Q360 100 408 180L462 487ZM358 596 337 579Q306 616 281.5 655.5Q257 695 237 740H309Q314 697 324.5 665.5Q335 634 358 596Z" glyph-name="ygrave" horiz-adv-x="579" unicode="ỳ" /><glyph d="M381 133 407 125Q397 60 367.5 25Q338 -10 293 -10Q274 -10 253 -3.5Q232 3 194 24Q161 41 145 46.5Q129 52 116 52Q95 52 74 39Q53 26 31 0L9 22L369 440H189Q153 440 144.5 437Q136 434 131 419L100 338H75L101 487H433L428 462L99 79Q112 86 124.5 89Q137 92 151 92Q166 92 182.5 86.5Q199 81 229 64Q259 47 275 42Q291 37 306 37Q335 37 352.5 59Q370 81 381 133ZM414 745 432 724Q384 681 360.5 654.5Q337 628 307 584H255Q241 628 226 656Q211 684 179 727L198 745Q227 716 249.5 690Q272 664 290 639Q316 664 346 689.5Q376 715 414 745Z" glyph-name="zcaron" horiz-adv-x="458" unicode="ž" /><glyph d="M381 133 407 125Q397 60 367.5 25Q338 -10 293 -10Q274 -10 253 -3.5Q232 3 194 24Q161 41 145 46.5Q129 52 116 52Q95 52 74 39Q53 26 31 0L9 22L369 440H189Q153 440 144.5 437Q136 434 131 419L100 338H75L101 487H433L428 462L99 79Q112 86 124.5 89Q137 92 151 92Q166 92 182.5 86.5Q199 81 229 64Q259 47 275 42Q291 37 306 37Q335 37 352.5 59Q370 81 381 133ZM279 579 262 600Q294 633 314.5 663.5Q335 694 355 740H435Q400 695 361.5 655.5Q323 616 279 579Z" glyph-name="zacute" horiz-adv-x="458" unicode="ź" /><glyph d="M381 133 407 125Q397 60 367.5 25Q338 -10 293 -10Q274 -10 253 -3.5Q232 3 194 24Q161 41 145 46.5Q129 52 116 52Q95 52 74 39Q53 26 31 0L9 22L369 440H189Q153 440 144.5 437Q136 434 131 419L100 338H75L101 487H433L428 462L99 79Q112 86 124.5 89Q137 92 151 92Q166 92 182.5 86.5Q199 81 229 64Q259 47 275 42Q291 37 306 37Q335 37 352.5 59Q370 81 381 133ZM342 669Q342 648 327 632.5Q312 617 290 617Q271 617 260 627.5Q249 638 249 657Q249 678 264 693Q279 708 300 708Q319 708 330.5 697.5Q342 687 342 669Z" glyph-name="zdotaccent" horiz-adv-x="458" unicode="ż" /><glyph d="M279 579 262 600Q294 633 314.5 663.5Q335 694 355 740H435Q400 695 361.5 655.5Q323 616 279 579Z" glyph-name="acute" horiz-adv-x="500" unicode="´" /><glyph d="M358 596 337 579Q306 616 281.5 655.5Q257 695 237 740H309Q314 697 324.5 665.5Q335 634 358 596Z" glyph-name="grave" horiz-adv-x="500" unicode="`" /><glyph d="M466 597 447 579Q418 608 395.5 634Q373 660 355 685Q329 660 299 634.5Q269 609 231 579L213 600Q261 643 284.5 669.5Q308 696 338 740H390Q404 696 419 668Q434 640 466 597Z" glyph-name="circumflex" horiz-adv-x="500" unicode="ˆ" /><glyph d="M414 745 432 724Q384 681 360.5 654.5Q337 628 307 584H255Q241 628 226 656Q211 684 179 727L198 745Q227 716 249.5 690Q272 664 290 639Q316 664 346 689.5Q376 715 414 745Z" glyph-name="caron" horiz-adv-x="500" unicode="ˇ" /><glyph d="M420 593Q400 593 382 603.5Q364 614 337 646Q317 671 306 678.5Q295 686 283 686Q263 686 247.5 665.5Q232 645 224 608H195Q205 669 230.5 702Q256 735 291 735Q312 735 329.5 724.5Q347 714 373 681Q392 657 403 649.5Q414 642 425 642Q445 642 460.5 662.5Q476 683 484 720H513Q503 660 478 626.5Q453 593 420 593Z" glyph-name="tilde" horiz-adv-x="500" unicode="˜" /><glyph d="M296 669Q296 648 281.5 633.5Q267 619 246 619Q229 619 218 629.5Q207 640 207 657Q207 678 221 692Q235 706 256 706Q275 706 285.5 696Q296 686 296 669ZM495 669Q495 648 480.5 633.5Q466 619 445 619Q428 619 417 629.5Q406 640 406 657Q406 678 420 692Q434 706 455 706Q474 706 484.5 696Q495 686 495 669Z" glyph-name="dieresis" horiz-adv-x="500" unicode="¨" /><glyph d="M366 781Q421 781 451 747.5Q481 714 473 668L471 657Q463 614 428.5 587.5Q394 561 345 561Q291 561 261 594.5Q231 628 239 674L241 685Q249 728 283 754.5Q317 781 366 781ZM344 586Q374 586 394.5 605.5Q415 625 420 658L424 683Q429 717 414 736.5Q399 756 367 756Q337 756 317 737Q297 718 292 684L288 659Q283 626 298 606Q313 586 344 586Z" glyph-name="ring" horiz-adv-x="500" unicode="˚" /><glyph d="M288 -134Q288 -174 255.5 -198.5Q223 -223 172 -223Q127 -223 102 -203Q77 -183 76 -145L123 -132Q120 -166 132 -182Q144 -198 173 -198Q200 -198 217.5 -180Q235 -162 235 -134Q235 -107 223 -96.5Q211 -86 183 -86Q179 -86 173 -86.5Q167 -87 157 -89L153 -63L190 0H222L187 -60H190Q236 -60 262 -80Q288 -100 288 -134Z" glyph-name="cedilla" horiz-adv-x="500" unicode="¸" /><glyph d="M272 579 254 594Q274 621 291.5 654Q309 687 331 740H405Q377 699 342 656.5Q307 614 272 579ZM412 579 394 594Q414 621 431.5 654Q449 687 471 740H545Q517 699 482 656.5Q447 614 412 579Z" glyph-name="hungarumlaut" horiz-adv-x="500" unicode="˝" /><glyph d="M349 632Q395 632 425 657Q455 682 479 740L505 733Q477 652 440 615.5Q403 579 348 579Q290 579 261 616Q232 653 227 733L253 740Q262 680 283.5 656Q305 632 349 632Z" glyph-name="breve" horiz-adv-x="500" unicode="˘" /><glyph d="M211 662 498 662L490 619H203Z" glyph-name="macron" horiz-adv-x="500" unicode="¯" /><glyph d="M342 669Q342 648 327 632.5Q312 617 290 617Q271 617 260 627.5Q249 638 249 657Q249 678 264 693Q279 708 300 708Q319 708 330.5 697.5Q342 687 342 669Z" glyph-name="dotaccent" horiz-adv-x="500" unicode="˙" /><glyph d="M347 391Q347 370 332 354.5Q317 339 295 339Q276 339 265 349.5Q254 360 254 379Q254 400 269 415Q284 430 305 430Q324 430 335.5 419.5Q347 409 347 391Z" glyph-name="periodcentered" horiz-adv-x="500" unicode="·" /><glyph d="M167 -223Q122 -223 95.5 -200.5Q69 -178 69 -138Q69 -76 126.5 -25.5Q184 25 255 25L259 0Q199 0 160 -41Q121 -82 121 -140Q121 -168 132.5 -182Q144 -196 167 -196Q196 -196 219 -175Q242 -154 258 -112L300 -125Q278 -174 244.5 -198.5Q211 -223 167 -223Z" glyph-name="ogonek" horiz-adv-x="500" unicode="˛" /><glyph d="M96 -238 79 -224Q103 -186 115.5 -153Q128 -120 135 -77H205Q184 -127 160.5 -162Q137 -197 96 -238Z" glyph-name="commaaccent" horiz-adv-x="500" unicode="" /><glyph d="M314 556 295 556L332 770H396Q375 709 355 657Q335 605 314 556Z" glyph-name="caron.alt" horiz-adv-x="500" unicode="" /><glyph d="M401 745 419 731Q396 695 383 662Q370 629 362 584H292Q313 634 336.5 669Q360 704 401 745Z" glyph-name="revcommaaccent" horiz-adv-x="500" unicode="" /><glyph d="M91 -10Q70 -10 58 1Q46 12 46 32Q46 54 60.5 69Q75 84 98 84Q119 84 131 73Q143 62 143 42Q143 20 128.5 5Q114 -10 91 -10Z" glyph-name="period" horiz-adv-x="261" unicode="." /><glyph d="M96 81Q116 81 128 68Q140 55 140 32Q140 -12 100 -74Q60 -136 -8 -199L-26 -181Q20 -134 49.5 -89.5Q79 -45 87 -10Q69 -9 58.5 2Q48 13 48 31Q48 53 61.5 67Q75 81 96 81Z" glyph-name="comma" horiz-adv-x="261" unicode="," /><glyph d="M215 455Q215 433 200.5 418Q186 403 163 403Q142 403 130 414Q118 425 118 445Q118 467 132.5 482Q147 497 170 497Q191 497 203 486Q215 475 215 455ZM143 42Q143 20 128.5 5Q114 -10 91 -10Q70 -10 58 1Q46 12 46 32Q46 54 60.5 69Q75 84 98 84Q119 84 131 73Q143 62 143 42Z" glyph-name="colon" horiz-adv-x="261" unicode=":" /><glyph d="M215 455Q215 433 200.5 418Q186 403 163 403Q142 403 130 414Q118 425 118 445Q118 467 132.5 482Q147 497 170 497Q191 497 203 486Q215 475 215 455ZM96 81Q116 81 128 68Q140 55 140 32Q140 -12 100 -74Q60 -136 -8 -199L-26 -181Q20 -134 49.5 -89.5Q79 -45 87 -10Q69 -9 58.5 2Q48 13 48 31Q48 53 61.5 67Q75 81 96 81Z" glyph-name="semicolon" horiz-adv-x="261" unicode=";" /><glyph d="M491 -10Q470 -10 458 1Q446 12 446 32Q446 54 460.5 69Q475 84 498 84Q519 84 531 73Q543 62 543 42Q543 20 528.5 5Q514 -10 491 -10ZM491 -10Q470 -10 458 1Q446 12 446 32Q446 54 460.5 69Q475 84 498 84Q519 84 531 73Q543 62 543 42Q543 20 528.5 5Q514 -10 491 -10ZM491 -10Q470 -10 458 1Q446 12 446 32Q446 54 460.5 69Q475 84 498 84Q519 84 531 73Q543 62 543 42Q543 20 528.5 5Q514 -10 491 -10Z" glyph-name="ellipsis" horiz-adv-x="661" unicode="…" /><glyph d="M238 199 236 172H193L198 198Q207 243 228.5 278Q250 313 305 358Q365 406 383 444Q401 482 401 535Q401 596 374 628Q347 660 296 660Q227 660 189.5 612Q152 564 145 467L88 483Q88 577 143.5 633.5Q199 690 297 690Q380 690 425.5 649.5Q471 609 471 536Q471 486 448 447Q425 408 352 355Q285 306 263 273Q241 240 238 199ZM242 42Q242 20 227.5 5Q213 -10 190 -10Q169 -10 157 1Q145 12 145 32Q145 54 159.5 69Q174 84 197 84Q218 84 230 73Q242 62 242 42Z" glyph-name="question" horiz-adv-x="471" unicode="?" /><glyph d="M188 440Q167 351 155.5 294Q144 237 132 172H104Q116 238 124.5 295.5Q133 353 144 443Q154 526 161 575.5Q168 625 178 680H238Q228 624 217.5 574Q207 524 188 440ZM143 42Q143 20 128.5 5Q114 -10 91 -10Q70 -10 58 1Q46 12 46 32Q46 54 60.5 69Q75 84 98 84Q119 84 131 73Q143 62 143 42Z" glyph-name="exclam" horiz-adv-x="261" unicode="!" /><glyph d="M230 445Q230 467 244.5 482Q259 497 282 497Q303 497 315 486Q327 475 327 455Q327 433 312.5 418Q298 403 275 403Q254 403 242 414Q230 425 230 445ZM234 288 236 315H279L274 289Q265 244 243.5 209Q222 174 167 129Q107 81 89 43Q71 5 71 -48Q71 -109 98 -141Q125 -173 176 -173Q245 -173 282.5 -125Q320 -77 327 20L384 4Q384 -90 328.5 -146.5Q273 -203 175 -203Q92 -203 46.5 -162.5Q1 -122 1 -49Q1 1 24 40Q47 79 120 132Q187 181 209 214Q231 247 234 288Z" glyph-name="questiondown" horiz-adv-x="471" unicode="¿" /><glyph d="M118 445Q118 467 132.5 482Q147 497 170 497Q191 497 203 486Q215 475 215 455Q215 433 200.5 418Q186 403 163 403Q142 403 130 414Q118 425 118 445ZM73 47Q94 136 105.5 193Q117 250 129 315H157Q145 249 136.5 191.5Q128 134 117 44Q107 -39 100 -88.5Q93 -138 83 -193H23Q33 -137 43.5 -87Q54 -37 73 47Z" glyph-name="exclamdown" horiz-adv-x="261" unicode="¡" /><glyph d="M90 279 96 321Q113 441 184 549Q255 657 378 750L399 724Q299 644 239 542Q179 440 160 320L154 282Q133 152 155.5 47Q178 -58 243 -131L219 -153Q140 -72 106.5 42.5Q73 157 90 279Z" glyph-name="parenleft" horiz-adv-x="339" unicode="(" /><glyph d="M269 318 263 276Q246 156 175 48Q104 -60 -19 -153L-40 -127Q60 -47 120 55Q180 157 199 277L205 315Q226 445 203.5 550Q181 655 116 728L140 750Q219 669 252.5 554.5Q286 440 269 318Z" glyph-name="parenright" horiz-adv-x="339" unicode=")" /><glyph d="M232 -114 317 -114L312 -144H235Q154 -144 119 -92Q84 -40 114 41L153 147Q176 211 165 247Q154 283 110 283H37L42 313H115Q159 313 183 349Q207 385 206 449L205 555Q204 648 246 694Q288 740 374 740H467L462 710H377Q322 710 295.5 676.5Q269 643 269 574L271 468Q272 396 246.5 352.5Q221 309 169 295Q212 279 223 235.5Q234 192 211 128L172 22Q147 -47 162 -80.5Q177 -114 232 -114Z" glyph-name="braceleft" horiz-adv-x="407" unicode="{" /><glyph d="M220 147 221 41Q222 -52 180 -98Q138 -144 52 -144H-41L-36 -114H49Q104 -114 130.5 -80.5Q157 -47 157 22L155 128Q154 200 179.5 243.5Q205 287 257 301Q214 317 203 360.5Q192 404 215 468L254 574Q279 643 264 676.5Q249 710 194 710H109L114 740H191Q272 740 307 688Q342 636 312 555L273 449Q250 385 261 349Q272 313 316 313H389L384 283H311Q267 283 243 247Q219 211 220 147Z" glyph-name="braceright" horiz-adv-x="407" unicode="}" /><glyph d="M105 -113 270 -113L265 -143H40L195 740H420L415 710H250Z" glyph-name="bracketleft" horiz-adv-x="360" unicode="[" /><glyph d="M114 740 339 740L184 -143H-41L-36 -113H129L274 710H109Z" glyph-name="bracketright" horiz-adv-x="360" unicode="]" /><glyph d="M-80 -127 416 740L449 724L-47 -143Z" glyph-name="slash" horiz-adv-x="383" unicode="/" /><glyph d="M103 726 137 740L333 -129L298 -143Z" glyph-name="backslash" horiz-adv-x="383" unicode="\" /><glyph d="M316 -143 -48 -143L-42 -109H322Z" glyph-name="underscore" horiz-adv-x="404" unicode="_" /><glyph d="M354 318 90 318L96 352H360Z" glyph-name="hyphen" horiz-adv-x="418" unicode="-" /><glyph d="" glyph-name="uni00AD" horiz-adv-x="0" unicode="­" /><glyph d="M554 318 90 318L96 352H560Z" glyph-name="endash" horiz-adv-x="618" unicode="–" /><glyph d="M754 318 90 318L96 352H760Z" glyph-name="emdash" horiz-adv-x="818" unicode="—" /><glyph d="M121 357 188 740H223L156 357ZM20 -213 88 170H123L55 -213Z" glyph-name="brokenbar" horiz-adv-x="237" unicode="¦" /><glyph d="M27 -213 195 740H230L62 -213Z" glyph-name="bar" horiz-adv-x="251" unicode="|" /><glyph d="M133 239 293 24L277 10L54 232L58 256L359 478L371 460ZM383 239 543 24L527 10L304 232L308 256L609 478L621 460Z" glyph-name="guillemotleft" horiz-adv-x="642" unicode="«" /><glyph d="M588 257 584 233L283 11L271 29L509 250L349 465L365 479ZM338 257 334 233L33 11L21 29L259 250L99 465L115 479Z" glyph-name="guillemotright" horiz-adv-x="642" unicode="»" /><glyph d="M133 239 293 24L277 10L54 232L58 256L359 478L371 460Z" glyph-name="guilsinglleft" horiz-adv-x="392" unicode="‹" /><glyph d="M338 257 334 233L33 11L21 29L259 250L99 465L115 479Z" glyph-name="guilsinglright" horiz-adv-x="392" unicode="›" /><glyph d="M96 77Q115 77 126.5 64Q138 51 138 30Q138 -9 105.5 -62Q73 -115 19 -164L1 -146Q37 -109 58.5 -75Q80 -41 87 -10Q70 -9 60 1.5Q50 12 50 29Q50 50 63 63.5Q76 77 96 77Z" glyph-name="quotesinglbase" horiz-adv-x="261" unicode="‚" /><glyph d="M96 77Q115 77 126.5 64Q138 51 138 30Q138 -9 105.5 -62Q73 -115 19 -164L1 -146Q37 -109 58.5 -75Q80 -41 87 -10Q70 -9 60 1.5Q50 12 50 29Q50 50 63 63.5Q76 77 96 77ZM246 77Q265 77 276.5 64Q288 51 288 30Q288 -9 255.5 -62Q223 -115 169 -164L151 -146Q187 -109 208.5 -75Q230 -41 237 -10Q220 -9 210 1.5Q200 12 200 29Q200 50 213 63.5Q226 77 246 77Z" glyph-name="quotedblbase" horiz-adv-x="411" unicode="„" /><glyph d="M178 536Q195 535 205 524.5Q215 514 215 497Q215 476 202 462.5Q189 449 169 449Q150 449 138.5 462Q127 475 127 496Q127 535 159.5 588Q192 641 246 690L264 672Q228 635 206.5 601Q185 567 178 536Z" glyph-name="quoteleft" horiz-adv-x="261" unicode="‘" /><glyph d="M328 536Q345 535 355 524.5Q365 514 365 497Q365 476 352 462.5Q339 449 319 449Q300 449 288.5 462Q277 475 277 496Q277 535 309.5 588Q342 641 396 690L414 672Q378 635 356.5 601Q335 567 328 536ZM178 536Q195 535 205 524.5Q215 514 215 497Q215 476 202 462.5Q189 449 169 449Q150 449 138.5 462Q127 475 127 496Q127 535 159.5 588Q192 641 246 690L264 672Q228 635 206.5 601Q185 567 178 536Z" glyph-name="quotedblleft" horiz-adv-x="411" unicode="“" /><glyph d="M112 690Q131 690 142.5 677Q154 664 154 643Q154 604 121.5 551Q89 498 35 449L17 467Q53 504 74.5 538Q96 572 103 603Q86 604 76 614.5Q66 625 66 642Q66 663 79 676.5Q92 690 112 690Z" glyph-name="quoteright" horiz-adv-x="261" unicode="’" /><glyph d="M207 690Q226 690 237.5 677Q249 664 249 643Q249 604 216.5 551Q184 498 130 449L112 467Q148 504 169.5 538Q191 572 198 603Q181 604 171 614.5Q161 625 161 642Q161 663 174 676.5Q187 690 207 690ZM357 690Q376 690 387.5 677Q399 664 399 643Q399 604 366.5 551Q334 498 280 449L262 467Q298 504 319.5 538Q341 572 348 603Q331 604 321 614.5Q311 625 311 642Q311 663 324 676.5Q337 690 357 690Z" glyph-name="quotedblright" horiz-adv-x="411" unicode="”" /><glyph d="M228 611Q211 575 200.5 540Q190 505 182 459H154Q160 491 162.5 517Q165 543 165 565Q165 575 164.5 584.5Q164 594 162 608Q161 618 160.5 622.5Q160 627 160 632Q160 660 172 675Q184 690 205 690Q222 690 231.5 681Q241 672 241 656Q241 646 239 637.5Q237 629 228 611Z" glyph-name="quotesingle" horiz-adv-x="260" unicode="'" /><glyph d="M228 611Q211 575 200.5 540Q190 505 182 459H154Q160 491 162.5 517Q165 543 165 565Q165 575 164.5 584.5Q164 594 162 608Q161 618 160.5 622.5Q160 627 160 632Q160 660 172 675Q184 690 205 690Q222 690 231.5 681Q241 672 241 656Q241 646 239 637.5Q237 629 228 611ZM379 611Q362 575 351.5 540Q341 505 333 459H305Q311 491 313.5 517Q316 543 316 565Q316 575 315.5 584.5Q315 594 313 608Q312 618 311.5 622.5Q311 627 311 632Q311 660 323 675Q335 690 356 690Q373 690 382.5 681Q392 672 392 656Q392 646 390 637.5Q388 629 379 611Z" glyph-name="quotedbl" horiz-adv-x="411" unicode="&quot;" /><glyph d="M216 341Q216 309 195 288Q174 267 142 267Q113 267 96 283Q79 299 79 327Q79 358 100 379Q121 400 152 400Q182 400 199 384.5Q216 369 216 341Z" glyph-name="bullet" horiz-adv-x="263" unicode="•" /><glyph d="M486 188Q486 100 421 45Q356 -10 256 -10Q154 -10 101 31.5Q48 73 48 153Q48 225 101 277.5Q154 330 253 355Q193 400 165.5 442Q138 484 138 530Q138 599 192.5 644.5Q247 690 328 690Q422 690 470 630.5Q518 571 491 493L427 478Q451 562 424 611Q397 660 327 660Q273 660 238.5 626Q204 592 204 534Q204 488 225.5 445Q247 402 290 363L430 389Q485 400 526.5 418Q568 436 604 465L621 394Q590 384 555.5 376Q521 368 473 361L402 351Q443 315 464.5 273.5Q486 232 486 188ZM114 151Q114 87 150.5 53.5Q187 20 257 20Q337 20 384.5 66Q432 112 432 190Q432 236 415 275Q398 314 365 345L303 336Q210 322 162 275Q114 228 114 151Z" glyph-name="ampersand" horiz-adv-x="616" unicode="&amp;" /><glyph d="M82 475 88 508Q103 592 159 636Q215 680 307 680H583L578 655L523 650Q506 648 502 641.5Q498 635 492 601L375 -64Q369 -98 370.5 -104.5Q372 -111 388 -113L442 -118L438 -143H199L203 -118L279 -113Q295 -112 299 -105.5Q303 -99 310 -64L436 650H365L301 290H248Q159 290 113 341.5Q67 393 82 475Z" glyph-name="paragraph" horiz-adv-x="555" unicode="¶" /><glyph d="M278 680 348 680Q344 659 339 640Q334 621 322 590Q309 556 303 534.5Q297 513 293 488Q317 488 338.5 490Q360 492 395 499Q426 505 445 507Q464 509 484 509L472 441Q452 441 434 443Q416 445 386 451Q354 458 333 460Q312 462 288 462Q284 437 282 415.5Q280 394 281 360Q282 328 281 309.5Q280 291 276 270L275 267Q270 240 264 212.5Q258 185 243 132Q221 49 207.5 -11.5Q194 -72 182 -143H154Q166 -73 174 -13.5Q182 46 189 129Q193 183 196.5 211Q200 239 205 267L206 270Q210 291 215 310Q220 329 232 360Q244 394 250 415.5Q256 437 260 462Q236 462 214.5 460Q193 458 159 451Q127 445 108.5 443Q90 441 70 441L82 509Q102 509 120 507Q138 505 168 499Q199 492 220 490Q241 488 265 488Q269 513 271 534.5Q273 556 272 590Q272 622 273 640.5Q274 659 278 680Z" glyph-name="dagger" horiz-adv-x="472" unicode="†" /><glyph d="M286 270 285 267Q281 246 276 227Q271 208 259 177Q246 143 240 121.5Q234 100 230 75Q254 75 275.5 77Q297 79 332 86Q363 92 382 94Q401 96 421 96L409 28Q389 28 371 30Q353 32 323 38Q292 45 271 47Q250 49 226 49Q222 24 220 2.5Q218 -19 219 -53Q219 -85 218 -103.5Q217 -122 213 -143H143Q147 -122 152 -103Q157 -84 169 -53Q182 -19 188 2.5Q194 24 198 49Q174 49 152.5 47Q131 45 96 38Q65 32 46 30Q27 28 7 28L19 96Q39 96 57 94Q75 92 105 86Q136 79 157 77Q178 75 202 75Q206 100 208 121.5Q210 143 209 177Q209 209 210 227.5Q211 246 215 267L216 270Q220 291 225 310Q230 329 242 360Q254 394 260 415.5Q266 437 270 462Q246 462 224.5 460Q203 458 169 451Q137 445 118.5 443Q100 441 80 441L92 509Q112 509 130 507Q148 505 178 499Q209 492 230 490Q251 488 275 488Q279 513 281 534.5Q283 556 282 590Q282 622 283 640.5Q284 659 288 680H358Q354 659 349 640Q344 621 332 590Q319 556 313 534.5Q307 513 303 488Q327 488 348.5 490Q370 492 405 499Q436 505 455 507Q474 509 494 509L482 441Q462 441 444 443Q426 445 396 451Q364 458 343 460Q322 462 298 462Q294 437 292 415.5Q290 394 291 360Q292 328 291 309.5Q290 291 286 270Z" glyph-name="daggerdbl" horiz-adv-x="492" unicode="‡" /><glyph d="M338 84Q372 62 388.5 32.5Q405 3 405 -37Q405 -117 346.5 -170Q288 -223 191 -223Q106 -223 56 -178Q6 -133 3 -50L61 -32Q58 -111 92 -152Q126 -193 194 -193Q263 -193 302.5 -158.5Q342 -124 342 -65Q342 -21 319.5 6Q297 33 245 53L182 77Q114 103 79.5 142.5Q45 182 45 234Q45 290 84 331.5Q123 373 191 388Q157 409 140 442Q123 475 123 519Q123 595 177 642.5Q231 690 324 690Q422 690 468.5 631.5Q515 573 487 493L421 477Q446 565 420.5 613Q395 661 323 661Q259 661 222.5 628.5Q186 596 186 537Q186 493 208 466.5Q230 440 278 423L349 399Q414 377 449 337Q484 297 484 244Q484 187 445.5 144.5Q407 102 338 84ZM108 254Q108 211 134.5 183.5Q161 156 227 131L296 105Q358 114 389.5 143Q421 172 421 218Q421 265 394 294.5Q367 324 304 345L240 367Q175 362 141.5 333Q108 304 108 254Z" glyph-name="section" horiz-adv-x="533" unicode="§" /><glyph d="M85 555 112 606Q129 597 143 588Q157 579 179 561Q203 542 219.5 531Q236 520 255 510Q259 532 260.5 551.5Q262 571 262 602Q262 630 263.5 647Q265 664 268 682L325 672Q322 653 317.5 637Q313 621 303 594Q293 565 288 546.5Q283 528 279 506Q300 509 318.5 513.5Q337 518 366 527Q394 536 411 540Q428 544 447 547L455 490Q436 487 419 486.5Q402 486 373 487Q343 488 323.5 487Q304 486 282 483Q292 463 302 446.5Q312 430 330 406Q347 383 356 368Q365 353 373 336L321 311Q312 328 306 344Q300 360 292 388Q284 417 277.5 435Q271 453 261 472Q245 457 232.5 442.5Q220 428 202 403Q185 380 174 367Q163 354 149 341L109 382Q123 395 136 406Q149 417 173 433Q199 450 214 462.5Q229 475 245 490Q226 500 208 507.5Q190 515 160 524Q133 533 117 539.5Q101 546 85 555Z" glyph-name="asterisk" horiz-adv-x="440" unicode="*" /><glyph d="M421 680 514 680L571 434L713 680H810L806 660L778 657Q770 656 768 652.5Q766 649 763 633L719 388Q716 372 717 368Q718 364 726 363L754 361L750 340H626L630 361L658 363Q666 364 668 367.5Q670 371 673 388L718 640L567 380H538L478 641L433 388Q430 372 431 368Q432 364 440 363L468 361L464 340H361L365 361L393 363Q401 364 403 367.5Q405 371 408 388L452 633Q455 649 454 652.5Q453 656 445 657L417 660ZM116 604 96 604L109 680H383L370 604H350L347 644Q346 654 342.5 655.5Q339 657 322 657H265L217 388Q214 372 215 368Q216 364 224 363L252 361L248 340H124L128 361L156 363Q164 364 166 368Q168 372 171 388L219 657H162Q146 657 141.5 655.5Q137 654 133 644Z" glyph-name="trademark" horiz-adv-x="776" unicode="™" /><glyph d="M560 479Q560 379 492 310Q424 241 326 241Q227 241 159.5 310Q92 379 92 479Q92 580 159.5 648.5Q227 717 326 717Q424 717 492 648Q560 579 560 479ZM124 479Q124 391 182.5 330.5Q241 270 326 270Q412 270 470 330.5Q528 391 528 479Q528 568 470 628Q412 688 326 688Q241 688 182.5 628Q124 568 124 479ZM244 586 223 588V608H329Q366 608 387.5 590.5Q409 573 409 543V527Q409 504 397.5 487.5Q386 471 365 464L408 394Q409 393 414 384Q419 375 426 375L444 374V353H381L322 458H294V394Q294 381 295 378Q296 375 302 375L323 374V353H223V374L244 375Q250 375 251.5 378Q253 381 253 394V568Q253 579 252 582Q251 585 244 586ZM329 586 294 586V481H329Q346 481 356 493Q366 505 366 527V543Q366 563 356 574.5Q346 586 329 586Z" glyph-name="registered" horiz-adv-x="570" unicode="®" /><glyph d="M818 340Q818 181 710.5 72Q603 -37 446 -37Q289 -37 181.5 72Q74 181 74 340Q74 500 181 608.5Q288 717 446 717Q603 717 710.5 608Q818 499 818 340ZM106 340Q106 193 204 93Q302 -7 446 -7Q590 -7 688 93Q786 193 786 340Q786 487 688 587Q590 687 446 687Q302 687 204 587Q106 487 106 340ZM451 544Q388 544 357.5 501Q327 458 327 371V310Q327 217 358 176.5Q389 136 460 136Q511 136 539 162.5Q567 189 578 248L623 234Q606 172 563 140Q520 108 455 108Q361 108 310 166Q259 224 259 330V351Q259 455 309.5 513.5Q360 572 451 572Q537 572 582.5 523Q628 474 616 398L559 389Q569 464 541 504Q513 544 451 544Z" glyph-name="copyright" horiz-adv-x="858" unicode="©" /><glyph d="M727 -121 747 -167Q696 -193 627.5 -208Q559 -223 493 -223Q303 -223 185.5 -101.5Q68 20 68 214Q68 418 191.5 554Q315 690 502 690Q677 690 794.5 571.5Q912 453 912 278Q912 160 851.5 80Q791 0 702 0Q652 0 620.5 26Q589 52 584 98Q551 46 513 20.5Q475 -5 431 -5Q353 -5 315.5 66.5Q278 138 297 246L301 268Q318 359 375 415.5Q432 472 507 472Q547 472 577.5 455Q608 438 632 402Q634 407 645 428.5Q656 450 662 462H702L647 155Q635 92 649.5 60.5Q664 29 706 29Q778 29 829 101Q880 173 880 278Q880 441 772 550.5Q664 660 502 660Q328 660 214 532.5Q100 405 100 214Q100 32 208 -80.5Q316 -193 493 -193Q562 -193 621.5 -175Q681 -157 727 -121ZM369 276 359 216Q345 131 366.5 78Q388 25 436 25Q479 25 515 57.5Q551 90 588 160L623 359Q599 403 572.5 422.5Q546 442 509 442Q454 442 418 399.5Q382 357 369 276Z" glyph-name="at" horiz-adv-x="976" unicode="@" /><glyph d="M361 338Q336 338 322 352Q308 366 306 395Q284 365 258 350Q232 335 203 335Q145 335 117 387Q89 439 103 518L106 533Q118 601 162 643Q206 685 263 685Q290 685 311.5 674.5Q333 664 349 643Q351 646 353 649.5Q355 653 360 661Q365 668 367 671.5Q369 675 371 678H399L357 445Q349 401 351 381.5Q353 362 366 362Q378 362 389.5 376Q401 390 409 414L435 399Q420 369 401 353.5Q382 338 361 338ZM159 539 152 498Q142 437 157.5 398Q173 359 206 359Q234 359 259.5 379Q285 399 309 440L340 613Q326 638 307.5 649Q289 660 263 660Q222 660 195.5 629Q169 598 159 539Z" glyph-name="ordfeminine" horiz-adv-x="414" unicode="ª" /><glyph d="M267 685Q335 685 369 635Q403 585 390 509L387 493Q374 418 331.5 376.5Q289 335 223 335Q156 335 122.5 385Q89 435 102 511L105 527Q118 603 160 644Q202 685 267 685ZM332 482 339 524Q350 587 329.5 624Q309 661 264 661Q223 661 196.5 630Q170 599 160 538L153 496Q142 433 162 396Q182 359 227 359Q268 359 295 390Q322 421 332 482Z" glyph-name="ordmasculine" horiz-adv-x="398" unicode="º" /><glyph d="M553 243 548 213H431L323 -10L292 2L394 213H169L61 -10L30 2L132 213H24L29 243H146L240 437H132L137 467H254L362 690L393 678L291 467H516L624 690L655 678L553 467H661L656 437H539L445 243ZM277 437 183 243H408L502 437Z" glyph-name="numbersign" horiz-adv-x="651" unicode="#" /><glyph d="M952 685Q1028 685 1066 630Q1104 575 1089 493L1086 477Q1072 400 1025.5 359Q979 318 906 318Q830 318 791.5 373Q753 428 769 511L772 527Q786 603 833 644Q880 685 952 685ZM179 650 124 655L129 680H279L512 109L599 601Q605 634 603.5 641Q602 648 586 650L531 655L536 680H725L720 655L665 650Q648 648 644 641.5Q640 635 634 601L528 0H489L232 629L135 79Q129 46 130.5 39Q132 32 148 30L202 25L198 0H9L13 25L69 30Q86 32 90 38.5Q94 45 100 79L192 601Q198 634 196.5 641Q195 648 179 650ZM1020 474 1027 516Q1038 582 1017 619.5Q996 657 949 657Q905 657 876.5 624.5Q848 592 838 530L831 488Q820 422 841 384Q862 346 910 346Q953 346 981.5 378.5Q1010 411 1020 474ZM1010 184 736 184L742 214H1016Z" glyph-name="uni2116" horiz-adv-x="1086" unicode="№" /><glyph d="M474 150 530 131Q497 61 441 25.5Q385 -10 308 -10Q206 -10 154 56.5Q102 123 108 244H27L32 274H111Q112 280 113 287Q114 294 116 309L128 382V384H52L57 414H134Q163 547 236.5 618.5Q310 690 418 690Q519 690 566.5 628.5Q614 567 585 483L517 467Q544 560 518 610Q492 660 417 660Q332 660 281 603.5Q230 547 210 432L207 414H448L437 384H202L183 274H395L384 244H178Q161 130 193 75Q225 20 311 20Q371 20 413.5 53.5Q456 87 474 150Z" glyph-name="Euro" horiz-adv-x="603" unicode="€" /><glyph d="M476 196Q476 107 411.5 48.5Q347 -10 240 -10L220 -125H185L206 -9Q126 -1 82 45Q38 91 34 173L92 191Q90 113 119.5 71Q149 29 211 22L263 318L233 329Q167 354 135 396Q103 438 103 499Q103 584 162.5 637Q222 690 324 690H329L349 805H384L363 688Q454 677 494 618Q534 559 507 483L441 467Q465 551 444 600Q423 649 358 659L308 375L341 362Q411 335 443.5 295Q476 255 476 196ZM166 517Q166 469 191.5 439Q217 409 275 387L324 661H322Q249 661 207.5 623Q166 585 166 517ZM413 168Q413 218 386 249.5Q359 281 296 305L246 20Q325 22 369 61Q413 100 413 168Z" glyph-name="dollar" horiz-adv-x="540" unicode="$" /><glyph d="M314 30 368 25L364 0H145L149 25L205 30Q221 32 225 37Q229 42 232 59L260 214H67L72 244H265L273 290L252 354H91L97 384H242L167 611Q159 636 154 642Q149 648 133 650L84 655L89 680H300L295 655L246 650Q230 648 228.5 642.5Q227 637 236 611L327 328L519 611Q536 637 537 642.5Q538 648 523 650L474 655L479 680H659L654 655L605 650Q588 649 581.5 643.5Q575 638 557 611L403 384H548L542 354H382L338 289L330 244H523L518 214H325L301 79Q295 45 296.5 38.5Q298 32 314 30Z" glyph-name="yen" horiz-adv-x="594" unicode="¥" /><glyph d="M412 160 437 160L409 0H24L32 46Q104 113 137 164Q170 215 170 264Q170 273 170 277Q170 281 169 285H66L72 315H163Q161 322 139.5 380.5Q118 439 118 488Q118 579 174.5 634.5Q231 690 332 690Q435 690 480.5 629Q526 568 495 483L427 467Q454 562 430.5 611Q407 660 334 660Q269 660 230.5 609Q192 558 192 471Q192 450 194.5 428.5Q197 407 205 369Q210 347 212 336Q214 325 215 315H396L390 285H217V279Q217 223 188.5 172.5Q160 122 88 53H322Q356 53 365 56.5Q374 60 381 79Z" glyph-name="sterling" horiz-adv-x="522" unicode="£" /><glyph d="M374 121 416 98Q387 49 343 21.5Q299 -6 243 -9L223 -125H188L208 -9Q125 -1 86.5 70Q48 141 69 250L73 272Q91 372 151.5 432.5Q212 493 298 497L318 612H353L332 496Q407 489 438.5 440Q470 391 447 320L387 304Q409 376 394 417Q379 458 327 466L249 21Q292 26 325 52Q358 78 374 121ZM142 285 132 225Q117 133 138 80.5Q159 28 214 21L292 466Q234 461 195 414Q156 367 142 285Z" glyph-name="cent" horiz-adv-x="483" unicode="¢" /><glyph d="M239 342 131 -64Q106 -157 72 -190Q38 -223 -19 -223Q-71 -223 -94.5 -193.5Q-118 -164 -104 -118L-53 -109Q-67 -152 -58 -173.5Q-49 -195 -18 -195Q14 -195 32.5 -169Q51 -143 69 -74L180 342H54L60 372H188L246 591Q271 684 305 717Q339 750 396 750Q448 750 471.5 720.5Q495 691 481 645L430 636Q444 679 435 700.5Q426 722 395 722Q362 722 343.5 695.5Q325 669 308 601L247 372H374L368 342Z" glyph-name="florin" horiz-adv-x="411" unicode="ƒ" /><glyph d="M414 30 458 25L454 0H337L67 308L72 338H228Q285 338 326 374Q367 410 377 469L379 479H97L103 509H384Q394 574 367 612Q340 650 284 650H128L133 680H559L554 650H397Q431 627 445.5 590Q460 553 452 509H529L523 479H447L445 469Q432 393 375.5 350.5Q319 308 231 308H149L354 79Q387 42 395 36.5Q403 31 414 30Z" glyph-name="uni20B9" horiz-adv-x="530" unicode="₹" /><glyph d="M437 161 511 67L488 43L411 140Q385 122 354.5 112.5Q324 103 290 103Q252 103 219.5 115Q187 127 162 149L40 43L19 67L141 174Q126 196 118 223.5Q110 251 110 282Q110 328 127 368.5Q144 409 175 439L101 533L124 557L201 461Q226 479 256.5 488Q287 497 321 497Q360 497 392.5 485Q425 473 449 450L572 557L593 533L470 425Q485 404 493 376.5Q501 349 501 318Q501 273 484.5 232Q468 191 437 161ZM464 317Q464 386 426 425.5Q388 465 321 465Q245 465 196 413.5Q147 362 147 283Q147 214 185 174.5Q223 135 290 135Q366 135 415 186.5Q464 238 464 317Z" glyph-name="currency" horiz-adv-x="592" unicode="¤" /><glyph d="M369 690Q477 690 528 602.5Q579 515 554 372L541 299Q514 148 447.5 69Q381 -10 279 -10Q170 -10 119 78Q68 166 94 309L107 382Q134 533 200.5 611.5Q267 690 369 690ZM459 249 490 422Q510 536 478.5 598Q447 660 370 660Q298 660 254 605Q210 550 189 432L158 259Q138 144 169 82Q200 20 278 20Q350 20 394 75.5Q438 131 459 249Z" glyph-name="zero" horiz-adv-x="614" unicode="0" /><glyph d="M114 576 101 601L242 680H297L191 79Q185 46 186.5 39Q188 32 204 30L258 25L254 0H15L19 25L95 30Q112 31 116 37.5Q120 44 126 79L225 637Z" glyph-name="one" horiz-adv-x="345" unicode="1" /><glyph d="M424 184 449 184L416 0H26L34 43Q49 123 94.5 182.5Q140 242 244 303Q312 343 335.5 360Q359 377 375 395Q404 425 417.5 461Q431 497 431 542Q431 604 405 632Q379 660 320 660Q250 660 212 612Q174 564 167 467L105 483Q105 575 164 632.5Q223 690 321 690Q408 690 456.5 646.5Q505 603 505 527Q505 477 485 437.5Q465 398 422 365Q390 341 327.5 309Q265 277 257 273Q174 228 130.5 176.5Q87 125 72 57H320Q352 57 361.5 60.5Q371 64 379 83Z" glyph-name="two" horiz-adv-x="543" unicode="2" /><glyph d="M313 351Q383 337 419 297Q455 257 455 193Q455 106 391.5 48Q328 -10 220 -10Q137 -10 91 28.5Q45 67 33 146L87 163Q85 92 117 56Q149 20 214 20Q291 20 335.5 69Q380 118 380 201Q380 270 342.5 303Q305 336 227 336H200L206 366H233Q324 366 375.5 417Q427 468 427 551Q427 605 400.5 632.5Q374 660 321 660Q249 660 210 612.5Q171 565 164 467L102 483Q102 572 163 631Q224 690 322 690Q408 690 454.5 650.5Q501 611 501 541Q501 465 452 415.5Q403 366 313 351Z" glyph-name="three" horiz-adv-x="531" unicode="3" /><glyph d="M279 79 296 176H2L7 206Q136 323 207.5 426.5Q279 530 336 680H416Q360 551 270.5 436Q181 321 48 206H301L330 367L396 377L366 206H443L438 176H361L344 79Q338 46 339.5 39Q341 32 357 30L411 25L407 0H168L172 25L248 30Q265 31 269 37.5Q273 44 279 79Z" glyph-name="four" horiz-adv-x="484" unicode="4" /><glyph d="M114 344 98 349L174 680H416Q452 680 459 683Q466 686 474 706L494 760H519L495 621H195L144 400Q174 416 206.5 424.5Q239 433 272 433Q358 433 406 383Q454 333 454 245Q454 134 387.5 62Q321 -10 208 -10Q133 -10 91 29Q49 68 37 146L91 163Q89 92 118 56Q147 20 206 20Q284 20 332.5 87Q381 154 381 260Q381 332 354 366Q327 400 270 400Q229 400 190 386Q151 372 114 344Z" glyph-name="five" horiz-adv-x="509" unicode="5" /><glyph d="M499 188 497 176Q484 94 420 42Q356 -10 269 -10Q161 -10 115.5 75.5Q70 161 95 315L105 378Q129 532 197.5 611Q266 690 375 690Q472 690 517.5 629.5Q563 569 536 483L468 467Q495 562 470.5 611Q446 660 371 660Q298 660 252.5 604Q207 548 188 437L169 325Q206 361 249.5 380Q293 399 340 399Q425 399 470 340Q515 281 499 188ZM161 278 157 256Q137 138 165 79Q193 20 270 20Q333 20 373 60Q413 100 426 176L428 188Q442 272 415 319.5Q388 367 326 367Q282 367 238.5 343.5Q195 320 161 278Z" glyph-name="six" horiz-adv-x="572" unicode="6" /><glyph d="M513 680 504 629Q373 491 310.5 357.5Q248 224 200 0H120Q180 213 255.5 351Q331 489 461 621H196Q165 621 155.5 617.5Q146 614 138 595L93 494H68L101 680Z" glyph-name="seven" horiz-adv-x="452" unicode="7" /><glyph d="M352 357Q408 328 437 284Q466 240 466 183Q466 99 406 44.5Q346 -10 247 -10Q155 -10 98.5 34.5Q42 79 42 148Q42 210 89.5 261.5Q137 313 221 341Q169 370 143.5 409.5Q118 449 118 501Q118 585 174.5 637.5Q231 690 324 690Q409 690 461 647Q513 604 513 534Q513 475 470.5 427.5Q428 380 352 357ZM178 530Q178 486 202 454Q226 422 285 392L321 374Q383 391 416 434Q449 477 449 537Q449 595 415 627.5Q381 660 322 660Q258 660 218 625Q178 590 178 530ZM107 149Q107 88 145 54Q183 20 250 20Q321 20 364 57.5Q407 95 407 157Q407 203 380.5 237.5Q354 272 299 301L252 325Q184 305 145.5 258Q107 211 107 149Z" glyph-name="eight" horiz-adv-x="538" unicode="8" /><glyph d="M511 365 501 302Q477 151 406 70.5Q335 -10 226 -10Q151 -10 108 29Q65 68 53 146L107 163Q105 92 134.5 56Q164 20 224 20Q299 20 349 77Q399 134 418 243L434 337Q398 303 355 284.5Q312 266 266 266Q180 266 135.5 327.5Q91 389 107 485L109 497Q123 583 186.5 636.5Q250 690 337 690Q445 690 490.5 604.5Q536 519 511 365ZM180 497 178 485Q163 398 190 348Q217 298 280 298Q323 298 365.5 320Q408 342 442 383L449 424Q469 542 441 601Q413 660 336 660Q273 660 233 618.5Q193 577 180 497Z" glyph-name="nine" horiz-adv-x="572" unicode="9" /><glyph d="M320 690Q428 690 479 602.5Q530 515 505 372L492 299Q465 148 398.5 69Q332 -10 230 -10Q121 -10 70 78Q19 166 45 309L58 382Q85 533 151.5 611.5Q218 690 320 690ZM410 249 441 422Q461 536 429.5 598Q398 660 321 660Q249 660 205 605Q161 550 140 432L109 259Q89 144 120 82Q151 20 229 20Q301 20 345 75.5Q389 131 410 249Z" glyph-name="zero.tlf" horiz-adv-x="516" unicode="" /><glyph d="M154 547 141 572L329 680H384L278 79Q272 45 274 38Q276 31 291 30L395 25L391 0H62L66 25L182 30Q199 31 203 37.5Q207 44 213 79L312 637Z" glyph-name="one.tlf" horiz-adv-x="516" unicode="" /><glyph d="M415 184 440 184L407 0H17L25 43Q40 123 85.5 182.5Q131 242 235 303Q303 343 326.5 360Q350 377 366 395Q395 425 408.5 461Q422 497 422 542Q422 604 396 632Q370 660 311 660Q241 660 203 612Q165 564 158 467L96 483Q96 575 155 632.5Q214 690 312 690Q399 690 447.5 646.5Q496 603 496 527Q496 477 476 437.5Q456 398 413 365Q381 341 318.5 309Q256 277 248 273Q165 228 121.5 176.5Q78 125 63 57H311Q343 57 352.5 60.5Q362 64 370 83Z" glyph-name="two.tlf" horiz-adv-x="516" unicode="" /><glyph d="M310 351Q380 337 416 297Q452 257 452 193Q452 106 388.5 48Q325 -10 217 -10Q134 -10 88 28.5Q42 67 30 146L84 163Q82 92 114 56Q146 20 211 20Q288 20 332.5 69Q377 118 377 201Q377 270 339.5 303Q302 336 224 336H197L203 366H230Q321 366 372.5 417Q424 468 424 551Q424 605 397.5 632.5Q371 660 318 660Q246 660 207 612.5Q168 565 161 467L99 483Q99 572 160 631Q221 690 319 690Q405 690 451.5 650.5Q498 611 498 541Q498 465 449 415.5Q400 366 310 351Z" glyph-name="three.tlf" horiz-adv-x="516" unicode="" /><glyph d="M295 79 312 176H18L23 206Q152 323 223.5 426.5Q295 530 352 680H432Q376 551 286.5 436Q197 321 64 206H317L346 367L412 377L382 206H459L454 176H377L360 79Q354 46 355.5 39Q357 32 373 30L427 25L423 0H184L188 25L264 30Q281 31 285 37.5Q289 44 295 79Z" glyph-name="four.tlf" horiz-adv-x="516" unicode="" /><glyph d="M114 344 98 349L174 680H416Q452 680 459 683Q466 686 474 706L494 760H519L495 621H195L144 400Q174 416 206.5 424.5Q239 433 272 433Q358 433 406 383Q454 333 454 245Q454 134 387.5 62Q321 -10 208 -10Q133 -10 91 29Q49 68 37 146L91 163Q89 92 118 56Q147 20 206 20Q284 20 332.5 87Q381 154 381 260Q381 332 354 366Q327 400 270 400Q229 400 190 386Q151 372 114 344Z" glyph-name="five.tlf" horiz-adv-x="516" unicode="" /><glyph d="M469 188 467 176Q454 94 390 42Q326 -10 239 -10Q131 -10 85.5 75.5Q40 161 65 315L75 378Q99 532 167.5 611Q236 690 345 690Q442 690 487.5 629.5Q533 569 506 483L438 467Q465 562 440.5 611Q416 660 341 660Q268 660 222.5 604Q177 548 158 437L139 325Q176 361 219.5 380Q263 399 310 399Q395 399 440 340Q485 281 469 188ZM131 278 127 256Q107 138 135 79Q163 20 240 20Q303 20 343 60Q383 100 396 176L398 188Q412 272 385 319.5Q358 367 296 367Q252 367 208.5 343.5Q165 320 131 278Z" glyph-name="six.tlf" horiz-adv-x="516" unicode="" /><glyph d="M540 680 531 629Q400 491 337.5 357.5Q275 224 227 0H147Q207 213 282.5 351Q358 489 488 621H223Q192 621 182.5 617.5Q173 614 165 595L120 494H95L128 680Z" glyph-name="seven.tlf" horiz-adv-x="516" unicode="" /><glyph d="M341 357Q397 328 426 284Q455 240 455 183Q455 99 395 44.5Q335 -10 236 -10Q144 -10 87.5 34.5Q31 79 31 148Q31 210 78.5 261.5Q126 313 210 341Q158 370 132.5 409.5Q107 449 107 501Q107 585 163.5 637.5Q220 690 313 690Q398 690 450 647Q502 604 502 534Q502 475 459.5 427.5Q417 380 341 357ZM167 530Q167 486 191 454Q215 422 274 392L310 374Q372 391 405 434Q438 477 438 537Q438 595 404 627.5Q370 660 311 660Q247 660 207 625Q167 590 167 530ZM96 149Q96 88 134 54Q172 20 239 20Q310 20 353 57.5Q396 95 396 157Q396 203 369.5 237.5Q343 272 288 301L241 325Q173 305 134.5 258Q96 211 96 149Z" glyph-name="eight.tlf" horiz-adv-x="516" unicode="" /><glyph d="M485 365 475 302Q451 151 380 70.5Q309 -10 200 -10Q125 -10 82 29Q39 68 27 146L81 163Q79 92 108.5 56Q138 20 198 20Q273 20 323 77Q373 134 392 243L408 337Q372 303 329 284.5Q286 266 240 266Q154 266 109.5 327.5Q65 389 81 485L83 497Q97 583 160.5 636.5Q224 690 311 690Q419 690 464.5 604.5Q510 519 485 365ZM154 497 152 485Q137 398 164 348Q191 298 254 298Q297 298 339.5 320Q382 342 416 383L423 424Q443 542 415 601Q387 660 310 660Q247 660 207 618.5Q167 577 154 497Z" glyph-name="nine.tlf" horiz-adv-x="516" unicode="" /><glyph d="M312 497Q413 497 463 425Q513 353 494 242L490 219Q471 110 408 50Q345 -10 248 -10Q148 -10 98.5 62.5Q49 135 68 246L72 269Q92 378 154 437.5Q216 497 312 497ZM419 204 429 264Q445 360 413 414.5Q381 469 307 469Q242 469 200.5 422Q159 375 143 284L133 224Q117 128 149 73Q181 18 254 18Q320 18 362 65Q404 112 419 204Z" glyph-name="zero.posf" horiz-adv-x="562" unicode="" /><glyph d="M74 383 61 408L202 487H257L185 79Q179 46 180.5 39Q182 32 198 30L252 25L248 0H9L13 25L89 30Q105 31 109.5 37.5Q114 44 120 79L185 444Z" glyph-name="one.posf" horiz-adv-x="334" unicode="" /><glyph d="M384 146 409 146L383 0H39L47 45Q58 103 93 140.5Q128 178 200 209Q293 249 331.5 288.5Q370 328 370 383Q370 425 348.5 446Q327 467 284 467Q225 467 193 426Q161 385 155 299L93 315Q92 393 146.5 445Q201 497 290 497Q363 497 403.5 463.5Q444 430 444 372Q444 334 424 305Q404 276 359 249Q338 237 308.5 223Q279 209 216 182Q151 154 122 126.5Q93 99 83 59H297Q330 59 338.5 62.5Q347 66 356 85Z" glyph-name="two.posf" horiz-adv-x="516" unicode="" /><glyph d="M332 46Q332 107 305.5 136Q279 165 223 165H196L201 194L413 428H198Q167 428 157.5 424.5Q148 421 140 402L95 301H70L103 487H472L463 436L243 194Q318 190 362.5 149.5Q407 109 407 43Q407 -62 343 -132.5Q279 -203 171 -203Q91 -203 47 -165Q3 -127 -10 -47L50 -30Q50 -101 80 -137Q110 -173 170 -173Q244 -173 288 -113Q332 -53 332 46Z" glyph-name="three.posf" horiz-adv-x="504" unicode="" /><glyph d="M297 -191 230 -203L266 0H-28L-23 30Q112 152 181.5 251Q251 350 303 487H383Q331 369 244.5 260Q158 151 18 30H272L297 172L363 184L336 30H413L408 0H331Z" glyph-name="four.posf" horiz-adv-x="479" unicode="" /><glyph d="M80 151 64 156L140 487H382Q418 487 425 490Q432 493 440 513L460 567H485L461 428H161L110 207Q140 223 172.5 231.5Q205 240 238 240Q324 240 372 190Q420 140 420 52Q420 -59 353.5 -131Q287 -203 174 -203Q99 -203 57 -164Q15 -125 3 -47L57 -30Q55 -101 84 -137Q113 -173 172 -173Q250 -173 298.5 -106Q347 -39 347 67Q347 139 320 173Q293 207 236 207Q195 207 156 193Q117 179 80 151Z" glyph-name="five.posf" horiz-adv-x="512" unicode="" /><glyph d="M498 188 496 176Q483 94 419 42Q355 -10 268 -10Q160 -10 114.5 75.5Q69 161 94 315L104 378Q128 532 196.5 611Q265 690 374 690Q471 690 516.5 629.5Q562 569 535 483L467 467Q494 562 469.5 611Q445 660 370 660Q297 660 251.5 604Q206 548 187 437L168 325Q205 361 248.5 380Q292 399 339 399Q424 399 469 340Q514 281 498 188ZM160 278 156 256Q136 138 164 79Q192 20 269 20Q332 20 372 60Q412 100 425 176L427 188Q441 272 414 319.5Q387 367 325 367Q281 367 237.5 343.5Q194 320 160 278Z" glyph-name="six.posf" horiz-adv-x="576" unicode="" /><glyph d="M491 487 482 436Q351 298 288.5 164.5Q226 31 178 -193H98Q158 20 233.5 158Q309 296 439 428H174Q143 428 133.5 424.5Q124 421 116 402L71 301H46L79 487Z" glyph-name="seven.posf" horiz-adv-x="479" unicode="" /><glyph d="M356 357Q412 328 441 284Q470 240 470 183Q470 99 410 44.5Q350 -10 251 -10Q159 -10 102.5 34.5Q46 79 46 148Q46 210 93.5 261.5Q141 313 225 341Q173 370 147.5 409.5Q122 449 122 501Q122 585 178.5 637.5Q235 690 328 690Q413 690 465 647Q517 604 517 534Q517 475 474.5 427.5Q432 380 356 357ZM182 530Q182 486 206 454Q230 422 289 392L325 374Q387 391 420 434Q453 477 453 537Q453 595 419 627.5Q385 660 326 660Q262 660 222 625Q182 590 182 530ZM111 149Q111 88 149 54Q187 20 254 20Q325 20 368 57.5Q411 95 411 157Q411 203 384.5 237.5Q358 272 303 301L256 325Q188 305 149.5 258Q111 211 111 149Z" glyph-name="eight.posf" horiz-adv-x="545" unicode="" /><glyph d="M480 172 470 109Q446 -42 375 -122.5Q304 -203 195 -203Q120 -203 77 -164Q34 -125 22 -47L76 -30Q74 -101 103.5 -137Q133 -173 193 -173Q268 -173 318 -116Q368 -59 387 50L403 144Q367 110 324 91.5Q281 73 235 73Q149 73 104.5 134.5Q60 196 76 292L78 304Q92 390 155.5 443.5Q219 497 306 497Q414 497 459.5 411.5Q505 326 480 172ZM149 304 147 292Q132 205 159 155Q186 105 249 105Q292 105 334.5 127Q377 149 411 190L418 231Q438 349 410 408Q382 467 305 467Q242 467 202 425.5Q162 384 149 304Z" glyph-name="nine.posf" horiz-adv-x="581" unicode="" /><glyph d="M412 546Q412 470 361.5 418Q311 366 236 366Q171 366 131 405.5Q91 445 91 510Q91 586 141.5 638Q192 690 267 690Q332 690 372 650.5Q412 611 412 546ZM375 545Q375 598 346.5 628Q318 658 267 658Q206 658 167 616.5Q128 575 128 511Q128 458 156.5 428Q185 398 236 398Q297 398 336 439.5Q375 481 375 545Z" glyph-name="degree" horiz-adv-x="402" unicode="°" /><glyph d="M244 685Q308 685 340.5 640.5Q373 596 362 529L359 511Q348 447 308.5 411Q269 375 211 375Q148 375 115.5 419Q83 463 94 531L97 549Q107 612 146.5 648.5Q186 685 244 685ZM117 17 608 680L631 663L141 0ZM304 502 311 544Q320 598 302.5 629.5Q285 661 246 661Q209 661 184.5 634.5Q160 608 152 558L145 516Q136 461 153.5 430Q171 399 211 399Q248 399 272 425.5Q296 452 304 502ZM539 305Q603 305 635.5 260.5Q668 216 657 149L654 131Q643 67 603.5 31Q564 -5 506 -5Q443 -5 410.5 39Q378 83 389 151L392 169Q402 232 441.5 268.5Q481 305 539 305ZM599 122 606 164Q615 218 597.5 249.5Q580 281 541 281Q504 281 479.5 254.5Q455 228 447 178L440 136Q431 81 448.5 50Q466 19 506 19Q543 19 567 45.5Q591 72 599 122Z" glyph-name="percent" horiz-adv-x="715" unicode="%" /><glyph d="M244 685Q308 685 340.5 640.5Q373 596 362 529L359 511Q348 447 308.5 411Q269 375 211 375Q148 375 115.5 419Q83 463 94 531L97 549Q107 612 146.5 648.5Q186 685 244 685ZM117 17 608 680L631 663L141 0ZM304 502 311 544Q320 598 302.5 629.5Q285 661 246 661Q209 661 184.5 634.5Q160 608 152 558L145 516Q136 461 153.5 430Q171 399 211 399Q248 399 272 425.5Q296 452 304 502ZM539 305Q603 305 635.5 260.5Q668 216 657 149L654 131Q643 67 603.5 31Q564 -5 506 -5Q443 -5 410.5 39Q378 83 389 151L392 169Q402 232 441.5 268.5Q481 305 539 305ZM891 305Q955 305 987.5 260.5Q1020 216 1009 149L1006 131Q995 67 955.5 31Q916 -5 858 -5Q795 -5 762.5 39Q730 83 741 151L744 169Q754 232 793.5 268.5Q833 305 891 305ZM599 122 606 164Q615 218 597.5 249.5Q580 281 541 281Q504 281 479.5 254.5Q455 228 447 178L440 136Q431 81 448.5 50Q466 19 506 19Q543 19 567 45.5Q591 72 599 122ZM951 122 958 164Q967 218 949.5 249.5Q932 281 893 281Q856 281 831.5 254.5Q807 228 799 178L792 136Q783 81 800.5 50Q818 19 858 19Q895 19 919 45.5Q943 72 951 122Z" glyph-name="perthousand" horiz-adv-x="1067" unicode="‰" /><glyph d="M-215 17 276 680L299 663L-191 0Z" glyph-name="fraction" horiz-adv-x="51" unicode="⁄" /><glyph d="M-215 17 276 680L299 663L-191 0Z" glyph-name="uni2215" horiz-adv-x="51" unicode="∕" /><glyph d="M251 790Q312 790 340 748Q368 706 356 633L350 595Q338 519 302.5 479.5Q267 440 211 440Q150 440 121.5 483Q93 526 106 598L113 636Q127 714 161.5 752Q196 790 251 790ZM294 570 309 656Q318 711 304 740.5Q290 770 254 770Q220 770 199.5 743.5Q179 717 169 661L153 575Q143 520 157.5 490Q172 460 208 460Q243 460 263.5 487Q284 514 294 570Z" glyph-name="zerosuperior" horiz-adv-x="332" unicode="⁰" /><glyph d="M123 726 113 746L184 785H226L174 490Q171 474 172 470Q173 466 180 465L208 463L205 445H70L73 463L111 465Q120 466 122 470Q124 474 127 490L173 754Z" glyph-name="onesuperior" horiz-adv-x="201" unicode="¹" /><glyph d="M275 530 293 530L278 445H67L71 468Q80 518 101.5 545Q123 572 190 605Q234 627 253 652.5Q272 678 272 715Q272 743 261 756.5Q250 770 227 770Q194 770 176.5 748Q159 726 155 679L109 687Q109 733 140.5 761.5Q172 790 226 790Q273 790 298.5 768.5Q324 747 324 710Q324 671 294.5 641.5Q265 612 190 575Q147 555 127 533Q107 511 101 477H231Q248 477 252.5 479Q257 481 260 490Z" glyph-name="twosuperior" horiz-adv-x="285" unicode="²" /><glyph d="M239 620Q271 611 287.5 592Q304 573 304 544Q304 499 269.5 469.5Q235 440 177 440Q133 440 107.5 457.5Q82 475 76 510L108 520Q108 491 126 475.5Q144 460 175 460Q210 460 231 484.5Q252 509 252 550Q252 580 234 595Q216 610 180 610H166L170 630H184Q227 630 251 654.5Q275 679 275 720Q275 744 262.5 757Q250 770 227 770Q194 770 176 748Q158 726 154 679L108 687Q108 734 139.5 762Q171 790 226 790Q274 790 300.5 769Q327 748 327 711Q327 675 304.5 652Q282 629 239 620Z" glyph-name="threesuperior" horiz-adv-x="291" unicode="³" /><glyph d="M203 490 210 528H58L61 548Q132 613 167.5 665Q203 717 225 785H280Q259 731 217 677Q175 623 91 548H213L228 629L275 634L260 548H299L296 528H257L250 490Q247 474 248 470Q249 466 257 465L284 463L281 445H156L159 463L188 465Q196 466 198 470Q200 474 203 490Z" glyph-name="foursuperior" horiz-adv-x="263" unicode="⁴" /><glyph d="M120 617 107 620L145 785H284Q294 785 297.5 785Q301 785 303 786Q307 786 309 788Q311 790 313 798L322 825H335L322 754H160L136 651Q152 659 168 663Q184 667 201 667Q249 667 276 640.5Q303 614 303 567Q303 511 267.5 475.5Q232 440 170 440Q129 440 105 458Q81 476 76 511L107 519Q107 490 123 474.5Q139 459 167 459Q204 459 227 492.5Q250 526 250 579Q250 614 237.5 630.5Q225 647 199 647Q177 647 158.5 640Q140 633 120 617Z" glyph-name="fivesuperior" horiz-adv-x="275" unicode="⁵" /><glyph d="M329 541 328 534Q322 491 288.5 465.5Q255 440 206 440Q147 440 121 482Q95 524 107 598L112 629Q125 708 161 749Q197 790 255 790Q309 790 336 759.5Q363 729 349 687L299 679Q313 723 301.5 746.5Q290 770 256 770Q220 770 199.5 743Q179 716 169 659L163 626Q179 638 197.5 644Q216 650 236 650Q284 650 310 619.5Q336 589 329 541ZM157 591 153 568Q144 515 157 487.5Q170 460 204 460Q234 460 252.5 480Q271 500 279 540L280 545Q287 585 274.5 607Q262 629 232 629Q211 629 191.5 619.5Q172 610 157 591Z" glyph-name="sixsuperior" horiz-adv-x="316" unicode="⁶" /><glyph d="M335 785 330 758Q263 686 233.5 622.5Q204 559 180 445H125Q154 544 193.5 614Q233 684 301 754H171Q154 754 149.5 752Q145 750 142 741L127 700H109L124 785Z" glyph-name="sevensuperior" horiz-adv-x="263" unicode="⁷" /><glyph d="M258 627Q288 611 302 590Q316 569 316 541Q316 496 284 468Q252 440 196 440Q145 440 116.5 462Q88 484 88 522Q88 553 110 575Q132 597 177 614Q150 629 137.5 647.5Q125 666 125 691Q125 736 155 763Q185 790 238 790Q284 790 311.5 768Q339 746 339 712Q339 685 319 664Q299 643 258 627ZM170 708Q170 688 179.5 675Q189 662 219 647L236 638Q265 653 279 671.5Q293 690 293 714Q293 741 278.5 755.5Q264 770 238 770Q208 770 189 753Q170 736 170 708ZM134 520Q134 491 150 475.5Q166 460 196 460Q229 460 250 477.5Q271 495 271 524Q271 548 261 562Q251 576 222 591L198 603Q165 588 149.5 567.5Q134 547 134 520Z" glyph-name="eightsuperior" horiz-adv-x="305" unicode="⁸" /><glyph d="M333 632 328 601Q315 522 277 481Q239 440 179 440Q139 440 115.5 458Q92 476 86 511L118 519Q117 491 133.5 475.5Q150 460 178 460Q217 460 239 487Q261 514 271 571L277 604Q261 592 242.5 586Q224 580 204 580Q155 580 129.5 609.5Q104 639 111 687L113 701Q119 742 151 766Q183 790 230 790Q291 790 318 748Q345 706 333 632ZM161 690 160 683Q155 643 167 622Q179 601 208 601Q229 601 248 610.5Q267 620 283 638L287 662Q297 715 282.5 742.5Q268 770 232 770Q203 770 184.5 749.5Q166 729 161 690Z" glyph-name="ninesuperior" horiz-adv-x="311" unicode="⁹" /><glyph d="M155 240Q216 240 244 198Q272 156 260 83L254 45Q242 -31 206.5 -70.5Q171 -110 115 -110Q54 -110 25.5 -67Q-3 -24 10 48L17 86Q31 164 65.5 202Q100 240 155 240ZM198 20 213 106Q222 161 208 190.5Q194 220 158 220Q124 220 103.5 193.5Q83 167 73 111L57 25Q47 -30 61.5 -60Q76 -90 112 -90Q147 -90 167.5 -63Q188 -36 198 20Z" glyph-name="zeroinferior" horiz-adv-x="332" unicode="₀" /><glyph d="M27 176 17 196L88 235H130L78 -60Q75 -76 76 -80Q77 -84 84 -85L112 -87L109 -105H-26L-23 -87L15 -85Q24 -84 26 -80Q28 -76 31 -60L77 204Z" glyph-name="oneinferior" horiz-adv-x="201" unicode="₁" /><glyph d="M179 -20 197 -20L182 -105H-29L-25 -82Q-16 -32 5.5 -5Q27 22 94 55Q138 77 157 102.5Q176 128 176 165Q176 193 165 206.5Q154 220 131 220Q98 220 80.5 198Q63 176 59 129L13 137Q13 183 44.5 211.5Q76 240 130 240Q177 240 202.5 218.5Q228 197 228 160Q228 121 198.5 91.5Q169 62 94 25Q51 5 31 -17Q11 -39 5 -73H135Q152 -73 156.5 -71Q161 -69 164 -60Z" glyph-name="twoinferior" horiz-adv-x="285" unicode="₂" /><glyph d="M143 70Q175 61 191.5 42Q208 23 208 -6Q208 -51 173.5 -80.5Q139 -110 81 -110Q37 -110 11.5 -92.5Q-14 -75 -20 -40L12 -30Q12 -59 30 -74.5Q48 -90 79 -90Q114 -90 135 -65.5Q156 -41 156 0Q156 30 138 45Q120 60 84 60H70L74 80H88Q131 80 155 104.5Q179 129 179 170Q179 194 166.5 207Q154 220 131 220Q98 220 80 198Q62 176 58 129L12 137Q12 184 43.5 212Q75 240 130 240Q178 240 204.5 219Q231 198 231 161Q231 125 208.5 102Q186 79 143 70Z" glyph-name="threeinferior" horiz-adv-x="291" unicode="₃" /><glyph d="M106 -60 113 -22H-39L-36 -2Q35 63 70.5 115Q106 167 128 235H183Q162 181 120 127Q78 73 -6 -2H116L131 79L178 84L163 -2H202L199 -22H160L153 -60Q150 -76 151 -80Q152 -84 160 -85L187 -87L184 -105H59L62 -87L91 -85Q99 -84 101 -80Q103 -76 106 -60Z" glyph-name="fourinferior" horiz-adv-x="263" unicode="₄" /><glyph d="M24 67 11 70L49 235H188Q198 235 201.5 235Q205 235 207 236Q211 236 213 238Q215 240 217 248L226 275H239L226 204H64L40 101Q56 109 72 113Q88 117 105 117Q153 117 180 90.5Q207 64 207 17Q207 -39 171.5 -74.5Q136 -110 74 -110Q33 -110 9 -92Q-15 -74 -20 -39L11 -31Q11 -60 27 -75.5Q43 -91 71 -91Q108 -91 131 -57.5Q154 -24 154 29Q154 64 141.5 80.5Q129 97 103 97Q81 97 62.5 90Q44 83 24 67Z" glyph-name="fiveinferior" horiz-adv-x="275" unicode="₅" /><glyph d="M233 -9 232 -16Q226 -59 192.5 -84.5Q159 -110 110 -110Q51 -110 25 -68Q-1 -26 11 48L16 79Q29 158 65 199Q101 240 159 240Q213 240 240 209.5Q267 179 253 137L203 129Q217 173 205.5 196.5Q194 220 160 220Q124 220 103.5 193Q83 166 73 109L67 76Q83 88 101.5 94Q120 100 140 100Q188 100 214 69.5Q240 39 233 -9ZM61 41 57 18Q48 -35 61 -62.5Q74 -90 108 -90Q138 -90 156.5 -70Q175 -50 183 -10L184 -5Q191 35 178.5 57Q166 79 136 79Q115 79 95.5 69.5Q76 60 61 41Z" glyph-name="sixinferior" horiz-adv-x="316" unicode="₆" /><glyph d="M239 235 234 208Q167 136 137.5 72.5Q108 9 84 -105H29Q58 -6 97.5 64Q137 134 205 204H75Q58 204 53.5 202Q49 200 46 191L31 150H13L28 235Z" glyph-name="seveninferior" horiz-adv-x="263" unicode="₇" /><glyph d="M162 77Q192 61 206 40Q220 19 220 -9Q220 -54 188 -82Q156 -110 100 -110Q49 -110 20.5 -88Q-8 -66 -8 -28Q-8 3 14 25Q36 47 81 64Q54 79 41.5 97.5Q29 116 29 141Q29 186 59 213Q89 240 142 240Q188 240 215.5 218Q243 196 243 162Q243 135 223 114Q203 93 162 77ZM74 158Q74 138 83.5 125Q93 112 123 97L140 88Q169 103 183 121.5Q197 140 197 164Q197 191 182.5 205.5Q168 220 142 220Q112 220 93 203Q74 186 74 158ZM38 -30Q38 -59 54 -74.5Q70 -90 100 -90Q133 -90 154 -72.5Q175 -55 175 -26Q175 -2 165 12Q155 26 126 41L102 53Q69 38 53.5 17.5Q38 -3 38 -30Z" glyph-name="eightinferior" horiz-adv-x="305" unicode="₈" /><glyph d="M237 82 232 51Q219 -28 181 -69Q143 -110 83 -110Q43 -110 19.5 -92Q-4 -74 -10 -39L22 -31Q21 -59 37.5 -74.5Q54 -90 82 -90Q121 -90 143 -63Q165 -36 175 21L181 54Q165 42 146.5 36Q128 30 108 30Q59 30 33.5 59.5Q8 89 15 137L17 151Q23 192 55 216Q87 240 134 240Q195 240 222 198Q249 156 237 82ZM65 140 64 133Q59 93 71 72Q83 51 112 51Q133 51 152 60.5Q171 70 187 88L191 112Q201 165 186.5 192.5Q172 220 136 220Q107 220 88.5 199.5Q70 179 65 140Z" glyph-name="nineinferior" horiz-adv-x="311" unicode="₉" /><glyph d="M155 240Q216 240 244 198Q272 156 260 83L254 45Q242 -31 206.5 -70.5Q171 -110 115 -110Q54 -110 25.5 -67Q-3 -24 10 48L17 86Q31 164 65.5 202Q100 240 155 240ZM198 20 213 106Q222 161 208 190.5Q194 220 158 220Q124 220 103.5 193.5Q83 167 73 111L57 25Q47 -30 61.5 -60Q76 -90 112 -90Q147 -90 167.5 -63Q188 -36 198 20Z" glyph-name="zero.numerator" horiz-adv-x="332" unicode="" /><glyph d="M27 176 17 196L88 235H130L78 -60Q75 -76 76 -80Q77 -84 84 -85L112 -87L109 -105H-26L-23 -87L15 -85Q24 -84 26 -80Q28 -76 31 -60L77 204Z" glyph-name="one.numerator" horiz-adv-x="201" unicode="" /><glyph d="M179 -20 197 -20L182 -105H-29L-25 -82Q-16 -32 5.5 -5Q27 22 94 55Q138 77 157 102.5Q176 128 176 165Q176 193 165 206.5Q154 220 131 220Q98 220 80.5 198Q63 176 59 129L13 137Q13 183 44.5 211.5Q76 240 130 240Q177 240 202.5 218.5Q228 197 228 160Q228 121 198.5 91.5Q169 62 94 25Q51 5 31 -17Q11 -39 5 -73H135Q152 -73 156.5 -71Q161 -69 164 -60Z" glyph-name="two.numerator" horiz-adv-x="285" unicode="" /><glyph d="M143 70Q175 61 191.5 42Q208 23 208 -6Q208 -51 173.5 -80.5Q139 -110 81 -110Q37 -110 11.5 -92.5Q-14 -75 -20 -40L12 -30Q12 -59 30 -74.5Q48 -90 79 -90Q114 -90 135 -65.5Q156 -41 156 0Q156 30 138 45Q120 60 84 60H70L74 80H88Q131 80 155 104.5Q179 129 179 170Q179 194 166.5 207Q154 220 131 220Q98 220 80 198Q62 176 58 129L12 137Q12 184 43.5 212Q75 240 130 240Q178 240 204.5 219Q231 198 231 161Q231 125 208.5 102Q186 79 143 70Z" glyph-name="three.numerator" horiz-adv-x="291" unicode="" /><glyph d="M106 -60 113 -22H-39L-36 -2Q35 63 70.5 115Q106 167 128 235H183Q162 181 120 127Q78 73 -6 -2H116L131 79L178 84L163 -2H202L199 -22H160L153 -60Q150 -76 151 -80Q152 -84 160 -85L187 -87L184 -105H59L62 -87L91 -85Q99 -84 101 -80Q103 -76 106 -60Z" glyph-name="four.numerator" horiz-adv-x="262" unicode="" /><glyph d="M24 67 11 70L49 235H188Q198 235 201.5 235Q205 235 207 236Q211 236 213 238Q215 240 217 248L226 275H239L226 204H64L40 101Q56 109 72 113Q88 117 105 117Q153 117 180 90.5Q207 64 207 17Q207 -39 171.5 -74.5Q136 -110 74 -110Q33 -110 9 -92Q-15 -74 -20 -39L11 -31Q11 -60 27 -75.5Q43 -91 71 -91Q108 -91 131 -57.5Q154 -24 154 29Q154 64 141.5 80.5Q129 97 103 97Q81 97 62.5 90Q44 83 24 67Z" glyph-name="five.numerator" horiz-adv-x="275" unicode="" /><glyph d="M233 -9 232 -16Q226 -59 192.5 -84.5Q159 -110 110 -110Q51 -110 25 -68Q-1 -26 11 48L16 79Q29 158 65 199Q101 240 159 240Q213 240 240 209.5Q267 179 253 137L203 129Q217 173 205.5 196.5Q194 220 160 220Q124 220 103.5 193Q83 166 73 109L67 76Q83 88 101.5 94Q120 100 140 100Q188 100 214 69.5Q240 39 233 -9ZM61 41 57 18Q48 -35 61 -62.5Q74 -90 108 -90Q138 -90 156.5 -70Q175 -50 183 -10L184 -5Q191 35 178.5 57Q166 79 136 79Q115 79 95.5 69.5Q76 60 61 41Z" glyph-name="six.numerator" horiz-adv-x="316" unicode="" /><glyph d="M239 235 234 208Q167 136 137.5 72.5Q108 9 84 -105H29Q58 -6 97.5 64Q137 134 205 204H75Q58 204 53.5 202Q49 200 46 191L31 150H13L28 235Z" glyph-name="seven.numerator" horiz-adv-x="263" unicode="" /><glyph d="M162 77Q192 61 206 40Q220 19 220 -9Q220 -54 188 -82Q156 -110 100 -110Q49 -110 20.5 -88Q-8 -66 -8 -28Q-8 3 14 25Q36 47 81 64Q54 79 41.5 97.5Q29 116 29 141Q29 186 59 213Q89 240 142 240Q188 240 215.5 218Q243 196 243 162Q243 135 223 114Q203 93 162 77ZM74 158Q74 138 83.5 125Q93 112 123 97L140 88Q169 103 183 121.5Q197 140 197 164Q197 191 182.5 205.5Q168 220 142 220Q112 220 93 203Q74 186 74 158ZM38 -30Q38 -59 54 -74.5Q70 -90 100 -90Q133 -90 154 -72.5Q175 -55 175 -26Q175 -2 165 12Q155 26 126 41L102 53Q69 38 53.5 17.5Q38 -3 38 -30Z" glyph-name="eight.numerator" horiz-adv-x="305" unicode="" /><glyph d="M237 82 232 51Q219 -28 181 -69Q143 -110 83 -110Q43 -110 19.5 -92Q-4 -74 -10 -39L22 -31Q21 -59 37.5 -74.5Q54 -90 82 -90Q121 -90 143 -63Q165 -36 175 21L181 54Q165 42 146.5 36Q128 30 108 30Q59 30 33.5 59.5Q8 89 15 137L17 151Q23 192 55 216Q87 240 134 240Q195 240 222 198Q249 156 237 82ZM65 140 64 133Q59 93 71 72Q83 51 112 51Q133 51 152 60.5Q171 70 187 88L191 112Q201 165 186.5 192.5Q172 220 136 220Q107 220 88.5 199.5Q70 179 65 140Z" glyph-name="nine.numerator" horiz-adv-x="311" unicode="" /><glyph d="M174 345Q235 345 263 303Q291 261 279 188L273 150Q261 74 225.5 34.5Q190 -5 134 -5Q73 -5 44.5 38Q16 81 29 153L36 191Q50 269 84.5 307Q119 345 174 345ZM217 125 232 211Q241 266 227 295.5Q213 325 177 325Q143 325 122.5 298.5Q102 272 92 216L76 130Q66 75 80.5 45Q95 15 131 15Q166 15 186.5 42Q207 69 217 125Z" glyph-name="zero.denominator" horiz-adv-x="332" unicode="" /><glyph d="M46 281 36 301L107 340H149L97 45Q94 29 95 25Q96 21 103 20L131 18L128 0H-7L-4 18L34 20Q43 21 45 25Q47 29 50 45L96 309Z" glyph-name="one.denominator" horiz-adv-x="201" unicode="" /></font>
</defs>
</svg>
