<?xml version="1.0" standalone="no"?>
<!DOCTYPE svg
  PUBLIC '-//W3C//DTD SVG 1.1//EN'
  'http://www.w3.org/Graphics/SVG/1.1/DTD/svg11.dtd'><svg version="1.1" xmlns="http://www.w3.org/2000/svg"><defs><font horiz-adv-x="0" id="font"><font-face ascent="650" bbox="-175 -242 1264 974" cap-height="680" descent="-200" font-family="Inria Serif" font-stretch="normal" font-style="normal" font-weight="680" units-per-em="1000" x-height="495" /><missing-glyph d="M545 0 111 0V680H545ZM198 648 198 32H458V648Z" horiz-adv-x="657" /><glyph d="" glyph-name=".null" horiz-adv-x="0" unicode="" /><glyph d="" glyph-name="CR" horiz-adv-x="0" unicode="" /><glyph d="" glyph-name="space" horiz-adv-x="227" unicode=" " /><glyph d="" glyph-name="uni00A0" horiz-adv-x="227" unicode=" " /><glyph d="M133 32 188 26V0H-2V26L52 32Q66 33 70 36.5Q74 40 78 48Q80 52 82 58Q84 64 89 81L282 680H345L540 81Q550 49 555 41.5Q560 34 576 32L631 26V0H388V26L443 32Q459 34 460 41Q461 48 451 81L410 209H166L125 81Q114 48 115 41Q116 34 133 32ZM288 589 176 241H400Z" glyph-name="A" horiz-adv-x="628" unicode="A" /><glyph d="M103 648 48 653V680H320Q412 680 464 636.5Q516 593 516 518V491Q516 439 485 402Q454 365 398 350Q468 338 507 297Q546 256 546 194V167Q546 90 492.5 45Q439 0 345 0H48V26L103 32Q119 34 122 40.5Q125 47 125 81V599Q125 632 122.5 639Q120 646 103 648ZM320 648 212 648V362H320Q372 362 398 392.5Q424 423 424 483V524Q424 585 397.5 616.5Q371 648 320 648ZM345 330 212 330V32H345Q399 32 426.5 64.5Q454 97 454 161V202Q454 264 426 297Q398 330 345 330Z" glyph-name="B" horiz-adv-x="605" unicode="B" /><glyph d="M334 -10Q210 -10 142 72.5Q74 155 74 303V378Q74 524 140 607Q206 690 324 690Q429 690 487 630Q545 570 533 480L447 459Q457 554 425 606Q393 658 324 658Q245 658 207 601.5Q169 545 169 428V253Q169 134 209.5 78Q250 22 336 22Q398 22 433.5 54.5Q469 87 476 151L538 135Q519 63 467 26.5Q415 -10 334 -10Z" glyph-name="C" horiz-adv-x="586" unicode="C" /><glyph d="M103 648 48 653V680H332Q453 680 518.5 601.5Q584 523 584 378V303Q584 158 518.5 79Q453 0 332 0H48V26L103 32Q119 34 122 40.5Q125 47 125 81V599Q125 632 122.5 639Q120 646 103 648ZM330 648 212 648V32H330Q416 32 452.5 83.5Q489 135 489 253V428Q489 545 452.5 596.5Q416 648 330 648Z" glyph-name="D" horiz-adv-x="658" unicode="D" /><glyph d="M472 58 501 163H527V0H48V26L103 32Q119 34 122 40.5Q125 47 125 81V599Q125 632 122.5 639Q120 646 103 648L48 653V680H514V517H489L460 622Q454 642 445.5 645Q437 648 406 648H212V359H346Q379 359 387 362.5Q395 366 400 385L419 460H445V226H419L400 301Q395 320 387 323.5Q379 327 346 327H212V32H418Q451 32 459 35.5Q467 39 472 58Z" glyph-name="E" horiz-adv-x="580" unicode="E" /><glyph d="M390 376 409 451H435V217H409L390 292Q385 311 377 314.5Q369 318 336 318H212V81Q212 47 215 40Q218 33 234 32L309 26V0H48V26L103 32Q119 34 122 40.5Q125 47 125 81V599Q125 632 122.5 639Q120 646 103 648L48 653V680H505V517H479L450 622Q445 641 436.5 644.5Q428 648 396 648H212V350H336Q369 350 377 353.5Q385 357 390 376Z" glyph-name="F" horiz-adv-x="543" unicode="F" /><glyph d="M447 276 372 281V308H627V281L572 276Q555 274 552.5 267Q550 260 550 227V0H526Q516 14 505 25.5Q494 37 481 46Q450 18 411 4Q372 -10 325 -10Q208 -10 141 75Q74 160 74 305V380Q74 523 142.5 606.5Q211 690 330 690Q440 690 501 630Q562 570 549 480L463 459Q474 554 439.5 606Q405 658 330 658Q248 658 208.5 600.5Q169 543 169 424V257Q169 138 209.5 80Q250 22 333 22Q377 22 411.5 38Q446 54 469 85V227Q469 261 466 267.5Q463 274 447 276Z" glyph-name="G" horiz-adv-x="649" unicode="G" /><glyph d="M623 32 678 26V0H437V26L492 32Q508 34 511 40.5Q514 47 514 81V327H212V81Q212 47 215 40.5Q218 34 234 32L289 26V0H48V26L103 32Q119 34 122 40.5Q125 47 125 81V599Q125 632 122.5 639Q120 646 103 648L48 653V680H289V653L234 648Q217 646 214.5 639Q212 632 212 599V359H514V599Q514 632 511.5 639Q509 646 492 648L437 653V680H678V653L623 648Q606 646 603.5 639Q601 632 601 599V81Q601 47 604 40.5Q607 34 623 32Z" glyph-name="H" horiz-adv-x="726" unicode="H" /><glyph d="M103 648 48 653V680H289V653L234 648Q217 646 214.5 639Q212 632 212 599V81Q212 47 215 40.5Q218 34 234 32L289 26V0H48V26L103 32Q119 34 122 40.5Q125 47 125 81V599Q125 632 122.5 639Q120 646 103 648Z" glyph-name="I" horiz-adv-x="337" unicode="I" /><glyph d="M239 648 184 653V680H425V653L370 648Q353 646 350.5 639Q348 632 348 599V198Q348 98 302 44Q256 -10 169 -10Q100 -10 60 26.5Q20 63 12 134L70 151Q72 86 96 54Q120 22 165 22Q215 22 238 63Q261 104 261 190V599Q261 632 258.5 639Q256 646 239 648Z" glyph-name="J" horiz-adv-x="461" unicode="J" /><glyph d="M103 648 48 654V680H289V654L234 648Q218 646 215 639.5Q212 633 212 599V305L462 605Q485 632 487 639Q489 646 471 648L420 654V680H610V654L559 648Q545 647 538.5 642Q532 637 505 605L349 417L539 81Q559 46 565.5 39.5Q572 33 591 32L639 26V0H483L291 347L212 253V81Q212 47 215 40.5Q218 34 234 32L289 26V0H48V26L103 32Q119 34 122 40.5Q125 47 125 81V599Q125 633 122 639.5Q119 646 103 648Z" glyph-name="K" horiz-adv-x="644" unicode="K" /><glyph d="M447 58 476 165H503V0H48V26L103 32Q119 34 122 40.5Q125 47 125 81V599Q125 632 122.5 639Q120 646 103 648L48 653V680H289V653L234 648Q217 646 214.5 639Q212 632 212 599V32H393Q426 32 434 35.5Q442 39 447 58Z" glyph-name="L" horiz-adv-x="515" unicode="L" /><glyph d="M756 32 811 26V0H570V26L625 32Q641 34 644 40.5Q647 47 647 81V623L439 80H371L162 623V81Q162 47 165 40.5Q168 34 184 32L239 26V0H48V26L103 32Q119 34 122 40.5Q125 47 125 81V599Q125 632 122 639Q119 646 103 648L48 653V680H231L432 155L633 680H811V653L756 648Q740 646 737 639Q734 632 734 599V81Q734 47 737 40.5Q740 34 756 32Z" glyph-name="M" horiz-adv-x="860" unicode="M" /><glyph d="M516 648 461 653V680H652V653L597 648Q581 646 578 639Q575 632 575 599V0H526L162 614V81Q162 47 165 40.5Q168 34 184 32L239 26V0H48V26L103 32Q119 34 122 40.5Q125 47 125 81V599Q125 632 122 639Q119 646 103 648L48 653V680H221L538 144V599Q538 632 535 639Q532 646 516 648Z" glyph-name="N" horiz-adv-x="691" unicode="N" /><glyph d="M333 690Q456 690 524 608Q592 526 592 378V303Q592 154 524 72Q456 -10 333 -10Q209 -10 141.5 72Q74 154 74 303V378Q74 526 142 608Q210 690 333 690ZM497 253 497 428Q497 547 457.5 602.5Q418 658 333 658Q248 658 208.5 602.5Q169 547 169 428V253Q169 134 208.5 78Q248 22 333 22Q418 22 457.5 78Q497 134 497 253Z" glyph-name="O" horiz-adv-x="666" unicode="O" /><glyph d="M103 648 48 653V680H332Q428 680 481.5 632Q535 584 535 499V470Q535 385 481.5 336.5Q428 288 332 288H212V81Q212 47 215 40Q218 33 234 32L309 26V0H48V26L103 32Q119 34 122 40.5Q125 47 125 81V599Q125 632 122.5 639Q120 646 103 648ZM332 648 212 648V320H332Q387 320 415 354.5Q443 389 443 456V513Q443 580 415 614Q387 648 332 648Z" glyph-name="P" horiz-adv-x="574" unicode="P" /><glyph d="M376 -7Q398 -57 439.5 -77.5Q481 -98 563 -98L577 -187Q488 -187 430.5 -143.5Q373 -100 340 -10H334Q210 -10 142 72Q74 154 74 303V378Q74 526 142 608Q210 690 334 690Q457 690 525.5 607.5Q594 525 594 378V303Q594 168 537 87Q480 6 376 -7ZM499 253 499 428Q499 547 459.5 602.5Q420 658 334 658Q248 658 208.5 602.5Q169 547 169 428V253Q169 133 208.5 77.5Q248 22 334 22Q419 22 459 78Q499 134 499 253Z" glyph-name="Q" horiz-adv-x="668" unicode="Q" /><glyph d="M103 648 48 653V680H326Q421 680 475 634.5Q529 589 529 510V479Q529 417 495.5 375Q462 333 400 317L528 81Q537 65 540 59Q543 53 546 49Q551 40 556 36.5Q561 33 574 32L619 26V0H468L310 308H212V81Q212 47 215 40.5Q218 34 234 32L289 26V0H48V26L103 32Q119 34 122 40.5Q125 47 125 81V599Q125 632 122.5 639Q120 646 103 648ZM326 648 212 648V340H326Q380 340 408.5 374.5Q437 409 437 475V514Q437 579 408.5 613.5Q380 648 326 648Z" glyph-name="R" horiz-adv-x="625" unicode="R" /><glyph d="M270 22Q340 22 380 56Q420 90 420 152Q420 206 387 239.5Q354 273 281 293L212 313Q136 334 96 383.5Q56 433 56 506Q56 589 112.5 639.5Q169 690 266 690Q375 690 431.5 631.5Q488 573 472 483L388 465Q401 560 368.5 609Q336 658 261 658Q199 658 164.5 624.5Q130 591 130 531Q130 477 161 444Q192 411 257 393L326 373Q410 350 451.5 301.5Q493 253 493 178Q493 91 434 40.5Q375 -10 270 -10Q172 -10 115 35Q58 80 45 169L105 189Q111 106 152.5 64Q194 22 270 22Z" glyph-name="S" horiz-adv-x="548" unicode="S" /><glyph d="M13 517 13 680H545V517H519L490 622Q485 641 477 644.5Q469 648 436 648H323V81Q323 47 326 40.5Q329 34 345 32L400 26V0H159V26L214 32Q230 34 233 40.5Q236 47 236 81V648H122Q89 648 81 644.5Q73 641 68 622L39 517Z" glyph-name="T" horiz-adv-x="559" unicode="T" /><glyph d="M507 648 452 653V680H643V653L588 648Q571 646 568.5 639Q566 632 566 599V231Q566 113 511.5 51.5Q457 -10 353 -10Q237 -10 173.5 58Q110 126 110 249V599Q110 632 107.5 639Q105 646 88 648L33 653V680H274V653L219 648Q202 646 199.5 639Q197 632 197 599V234Q197 127 237.5 75Q278 23 361 23Q444 23 486.5 75.5Q529 128 529 230V599Q529 632 526.5 639Q524 646 507 648Z" glyph-name="U" horiz-adv-x="677" unicode="U" /><glyph d="M548 633Q546 630 544.5 625Q543 620 538 605L344 0H277L82 605Q73 633 69 639.5Q65 646 48 648L-2 653V680H233V653L182 648Q166 646 164.5 639.5Q163 633 172 605L337 87L502 605Q511 633 510 639.5Q509 646 492 648L441 653V680H622V653L571 648Q558 646 554.5 643.5Q551 641 548 633Z" glyph-name="V" horiz-adv-x="620" unicode="V" /><glyph d="M695 0 630 0L460 574L292 0H226L80 605Q73 634 69 640Q65 646 49 648L-2 653V680H231V653L180 648Q163 646 162 640Q161 634 168 605L287 105L454 680H516L685 109L805 605Q812 632 810.5 639Q809 646 793 648L741 653V680H923V653L872 648Q856 646 852 639.5Q848 633 841 605Z" glyph-name="W" horiz-adv-x="921" unicode="W" /><glyph d="M137 32 188 26V0H2V26L53 32Q69 34 75 40Q81 46 99 75L258 333L104 605Q88 633 82.5 639.5Q77 646 61 648L10 653V680H253V653L201 648Q185 646 185.5 639Q186 632 201 605L318 398L446 605Q463 633 463.5 639.5Q464 646 448 648L397 653V680H583V653L532 648Q516 646 510 639.5Q504 633 486 605L337 364L501 75Q518 45 523.5 39.5Q529 34 544 32L596 26V0H353V26L405 32Q421 34 421 40Q421 46 405 75L277 300L139 75Q122 47 121.5 40.5Q121 34 137 32Z" glyph-name="X" horiz-adv-x="598" unicode="X" /><glyph d="M360 32 415 26V0H174V26L229 32Q245 34 248 40.5Q251 47 251 81V290L90 605Q75 633 69.5 639.5Q64 646 47 648L-4 653V680H238V653L187 648Q171 646 171 639.5Q171 633 185 605L321 332L460 605Q474 632 474 639Q474 646 458 648L407 653V680H592V653L540 648Q524 646 518.5 640Q513 634 498 605L338 292V81Q338 47 341 40.5Q344 34 360 32Z" glyph-name="Y" horiz-adv-x="588" unicode="Y" /><glyph d="M436 58 465 163H491V0H39V22L382 648H161Q129 648 120.5 644.5Q112 641 107 622L78 517H52V680H481V658L139 32H382Q415 32 423 35.5Q431 39 436 58Z" glyph-name="Z" horiz-adv-x="531" unicode="Z" /><glyph d="M807 163 833 163V0H356V26L411 32Q427 34 430 40.5Q433 47 433 81V209H208L139 81Q121 47 120.5 40.5Q120 34 136 32L191 26V0H-2V26L52 32Q69 34 75 40.5Q81 47 100 81L379 599Q397 631 397.5 638.5Q398 646 382 648L327 653V680H823V517H797L768 622Q763 641 754.5 644.5Q746 648 714 648H520V359H654Q687 359 695 362.5Q703 366 708 385L727 460H753V226H727L708 301Q703 320 695 323.5Q687 327 654 327H520V32H724Q757 32 765 35.5Q773 39 778 58ZM433 626 225 241H433Z" glyph-name="AE" horiz-adv-x="888" unicode="Æ" /><glyph d="M791 58 820 163H846V0H326Q205 0 139.5 79Q74 158 74 303V378Q74 523 139.5 601.5Q205 680 326 680H836V517H810L781 622Q776 641 767.5 644.5Q759 648 727 648H533V359H667Q701 359 709 362.5Q717 366 721 385L738 460H766V226H740L721 301Q716 320 708 323.5Q700 327 667 327H533V32H737Q770 32 778 35.5Q786 39 791 58ZM328 32 446 32V648H328Q242 648 205.5 596.5Q169 545 169 428V253Q169 135 205.5 83.5Q242 32 328 32Z" glyph-name="OE" horiz-adv-x="901" unicode="Œ" /><glyph d="M450 58 479 165H506V0H51V26L106 32Q122 34 125 40.5Q128 47 128 81V298L49 258L35 289L128 336V599Q128 632 125.5 639Q123 646 106 648L51 653V680H292V653L237 648Q220 646 217.5 639Q215 632 215 599V380L345 446L359 415L215 342V32H396Q429 32 437 35.5Q445 39 450 58Z" glyph-name="Lslash" horiz-adv-x="518" unicode="Ł" /><glyph d="M592 378 592 303Q592 154 524 72Q456 -10 333 -10Q279 -10 234.5 6.5Q190 23 157 55L119 0H74L132 84Q103 124 88.5 179.5Q74 235 74 303V378Q74 526 142 608Q210 690 333 690Q387 690 431 673.5Q475 657 508 625L547 680H592L533 596Q562 556 577 501Q592 446 592 378ZM169 428 169 253Q169 222 171.5 196.5Q174 171 179 150L474 574Q455 616 420.5 637Q386 658 333 658Q248 658 208.5 602.5Q169 547 169 428ZM497 253 497 428Q497 458 495 483Q493 508 488 530L193 106Q212 63 246.5 42.5Q281 22 333 22Q418 22 457.5 78Q497 134 497 253Z" glyph-name="Oslash" horiz-adv-x="666" unicode="Ø" /><glyph d="M107 648 52 653V680H336Q456 680 522 601Q588 522 588 378V303Q588 158 522.5 79Q457 0 336 0H52V26L107 32Q123 34 126 40.5Q129 47 129 81V338H52V370H129V599Q129 632 126.5 639Q124 646 107 648ZM369 370 369 338H216V32H334Q420 32 456.5 83.5Q493 135 493 253V428Q493 545 456.5 596.5Q420 648 334 648H216V370Z" glyph-name="Eth" horiz-adv-x="662" unicode="Ð" /><glyph d="M103 648 48 653V680H309V653L234 648Q218 646 215 639.5Q212 633 212 599V538H332Q428 538 481.5 490Q535 442 535 357V328Q535 243 481.5 194.5Q428 146 332 146H212V81Q212 47 215 40Q218 33 234 32L309 26V0H48V26L103 32Q119 34 122 40.5Q125 47 125 81V599Q125 633 122 639.5Q119 646 103 648ZM332 506 212 506V178H332Q387 178 415 212.5Q443 247 443 314V371Q443 438 415 472Q387 506 332 506Z" glyph-name="Thorn" horiz-adv-x="574" unicode="Þ" /><glyph d="M334 658Q266 658 232.5 616.5Q199 575 199 491V0H35V26L90 32Q106 34 109 40.5Q112 47 112 81V481Q112 581 169.5 635.5Q227 690 333 690Q397 690 454 667.5Q511 645 553 604V585L427 383Q513 365 561 312.5Q609 260 609 185V169Q609 88 559 39Q509 -10 427 -10Q362 -10 319.5 20.5Q277 51 265 106L323 123Q332 72 357.5 46.5Q383 21 424 21Q469 21 493 56.5Q517 92 517 159V195Q517 276 473.5 318Q430 360 345 360H337V386L469 599Q443 628 409 643Q375 658 334 658Z" glyph-name="uni1E9E" horiz-adv-x="654" unicode="ẞ" /><glyph d="M447 -7Q409 -7 385.5 11.5Q362 30 355 65Q323 28 281.5 9Q240 -10 195 -10Q131 -10 95 26Q59 62 59 123Q59 188 103.5 219.5Q148 251 240 251H353V332Q353 405 328.5 439Q304 473 251 473Q193 473 171 437Q149 401 160 326L81 338Q72 412 119 458.5Q166 505 253 505Q344 505 389.5 462Q435 419 435 332V107Q435 67 443.5 48.5Q452 30 472 30Q482 30 492 34.5Q502 39 513 49L531 24Q514 9 493 1Q472 -7 447 -7ZM144 127Q144 81 164 56.5Q184 32 223 32Q258 32 290 51.5Q322 71 353 110V219H251Q195 219 169.5 197Q144 175 144 127Z" glyph-name="a" horiz-adv-x="540" unicode="a" /><glyph d="M76 708 21 713V740H180V423Q208 464 244.5 484.5Q281 505 326 505Q412 505 459.5 440Q507 375 507 258V238Q507 123 451.5 56.5Q396 -10 300 -10Q261 -10 228.5 3Q196 16 172 41Q160 34 149 24Q138 14 122 -5H98V659Q98 692 95.5 699Q93 706 76 708ZM313 469Q274 469 241.5 444Q209 419 180 368V82Q201 53 230 38Q259 23 294 23Q355 23 386 69.5Q417 116 417 208V288Q417 378 391 423.5Q365 469 313 469Z" glyph-name="b" horiz-adv-x="573" unicode="b" /><glyph d="M269 473Q210 473 181.5 425Q153 377 153 278V218Q153 114 183.5 68Q214 22 283 22Q334 22 361.5 48Q389 74 398 129L451 114Q435 53 390.5 21.5Q346 -10 278 -10Q175 -10 119 54.5Q63 119 63 238V258Q63 373 117.5 439Q172 505 269 505Q360 505 409.5 452.5Q459 400 446 319L367 307Q378 387 352.5 430Q327 473 269 473Z" glyph-name="c" horiz-adv-x="502" unicode="c" /><glyph d="M497 32 552 25V0H398V79Q368 34 330.5 12Q293 -10 246 -10Q160 -10 112.5 54.5Q65 119 65 237V257Q65 372 121 438.5Q177 505 273 505Q308 505 338.5 493.5Q369 482 393 461V659Q393 692 390.5 699Q388 706 371 708L316 713V740H475V81Q475 47 478 40.5Q481 34 497 32ZM155 287 155 207Q155 117 181.5 71Q208 25 259 25Q298 25 331 50Q364 75 393 126V412Q371 442 342.5 456.5Q314 471 278 471Q217 471 186 424.5Q155 378 155 287Z" glyph-name="d" horiz-adv-x="580" unicode="d" /><glyph d="M408 129 461 114Q445 53 399.5 21.5Q354 -10 284 -10Q178 -10 120.5 54.5Q63 119 63 238V258Q63 374 117.5 439.5Q172 505 270 505Q358 505 412 452.5Q466 400 466 311Q466 296 464.5 280.5Q463 265 460 248H153V218Q153 113 185 67.5Q217 22 291 22Q342 22 370.5 48.5Q399 75 408 129ZM382 331Q382 401 353.5 437Q325 473 270 473Q209 473 181 426.5Q153 380 153 280H378V283Q380 294 381 306.5Q382 319 382 331Z" glyph-name="e" horiz-adv-x="525" unicode="e" /><glyph d="M216 32 291 26V0H35V26L90 32Q106 34 109 40.5Q112 47 112 81V414Q112 430 112 436Q112 442 111 446Q110 455 107 458Q104 461 90 463L35 468V495H112V567Q112 656 154 703Q196 750 276 750Q355 750 397 706.5Q439 663 428 595L350 584Q359 652 340.5 685Q322 718 276 718Q231 718 212.5 686Q194 654 194 581V495H353V463H194V81Q194 47 197 40Q200 33 216 32Z" glyph-name="f" horiz-adv-x="358" unicode="f" /><glyph d="M501 -58Q501 -137 443 -180Q385 -223 280 -223Q175 -223 117.5 -186.5Q60 -150 58 -84L132 -69Q128 -130 165 -160.5Q202 -191 280 -191Q359 -191 404 -162Q449 -133 449 -81Q449 -40 421 -20.5Q393 -1 333 -1H214Q156 -1 124.5 23.5Q93 48 93 91Q93 121 108 146.5Q123 172 154 196Q111 216 87.5 253.5Q64 291 64 340Q64 416 115.5 460.5Q167 505 252 505H269Q296 505 321 500Q346 495 367 485L512 535L523 460H406Q431 439 443.5 408.5Q456 378 456 340Q456 265 404.5 220.5Q353 176 269 176H252Q236 176 220 178Q204 180 188 184Q167 170 157 154Q147 138 147 120Q147 98 162.5 87Q178 76 208 76H338Q418 76 459.5 41.5Q501 7 501 -58ZM252 208 269 208Q318 208 343.5 241.5Q369 275 369 340Q369 406 343.5 439.5Q318 473 269 473H252Q202 473 176.5 439.5Q151 406 151 340Q151 275 176.5 241.5Q202 208 252 208Z" glyph-name="g" horiz-adv-x="540" unicode="g" /><glyph d="M532 32 587 26V0H351V26L406 32Q422 34 425 40.5Q428 47 428 81V330Q428 399 405.5 432Q383 465 336 465Q292 465 254 440Q216 415 187 366V81Q187 47 190 40.5Q193 34 209 32L264 26V0H28V26L83 32Q99 34 102 40.5Q105 47 105 81V659Q105 692 102.5 699Q100 706 83 708L28 713V740H187V419Q220 460 263.5 482.5Q307 505 356 505Q429 505 469.5 459.5Q510 414 510 331V81Q510 47 513 40.5Q516 34 532 32Z" glyph-name="h" horiz-adv-x="610" unicode="h" /><glyph d="M207 663Q207 638 191.5 622.5Q176 607 152 607Q128 607 112.5 622.5Q97 638 97 663Q97 687 112.5 702Q128 717 152 717Q176 717 191.5 702Q207 687 207 663ZM90 463 35 468V495H194V81Q194 47 197 40.5Q200 34 216 32L271 26V0H35V26L90 32Q106 34 109 40.5Q112 47 112 81V414Q112 447 109.5 454Q107 461 90 463Z" glyph-name="i" horiz-adv-x="299" unicode="i" /><glyph d="M200 663Q200 638 184.5 622.5Q169 607 145 607Q121 607 105.5 622.5Q90 638 90 663Q90 687 105.5 702Q121 717 145 717Q169 717 184.5 702Q200 687 200 663ZM83 463 28 468V495H187V-52Q187 -132 148 -177.5Q109 -223 38 -223Q-17 -223 -49.5 -193.5Q-82 -164 -90 -106L-36 -91Q-33 -142 -16.5 -166.5Q0 -191 32 -191Q71 -191 88 -160Q105 -129 105 -60V414Q105 447 102.5 454Q100 461 83 463Z" glyph-name="j" horiz-adv-x="285" unicode="j" /><glyph d="M83 708 28 713V740H187V228L376 420Q405 449 407.5 455Q410 461 392 463L341 468V495H534V468L483 463Q469 461 461.5 455.5Q454 450 423 420L313 309L460 75Q478 46 485 40Q492 34 508 32L560 26V0H409L257 252L187 181V81Q187 47 190 40.5Q193 34 209 32L264 26V0H28V26L83 32Q99 34 102 40.5Q105 47 105 81V659Q105 692 102.5 699Q100 706 83 708Z" glyph-name="k" horiz-adv-x="562" unicode="k" /><glyph d="M83 708 28 713V740H187V81Q187 47 190 40.5Q193 34 209 32L264 26V0H28V26L83 32Q99 34 102 40.5Q105 47 105 81V659Q105 692 102.5 699Q100 706 83 708Z" glyph-name="l" horiz-adv-x="293" unicode="l" /><glyph d="M529 32 584 26V0H348V26L403 32Q419 34 422 40.5Q425 47 425 81V330Q425 399 403.5 432Q382 465 337 465Q296 465 259.5 440.5Q223 416 194 368V81Q194 47 197 40.5Q200 34 216 32L271 26V0H35V26L90 32Q106 34 109 40.5Q112 47 112 81V414Q112 447 109.5 454Q107 461 90 463L35 468V495H189V414Q222 458 265.5 481.5Q309 505 357 505Q410 505 445.5 479.5Q481 454 496 406Q530 454 575 479.5Q620 505 670 505Q741 505 780.5 459.5Q820 414 820 331V81Q820 47 823 40.5Q826 34 842 32L897 26V0H661V26L716 32Q732 34 735 40.5Q738 47 738 81V330Q738 399 716.5 432Q695 465 650 465Q609 465 571.5 439.5Q534 414 505 365Q506 351 506.5 344Q507 337 507 331V81Q507 47 510 40.5Q513 34 529 32Z" glyph-name="m" horiz-adv-x="920" unicode="m" /><glyph d="M539 32 594 26V0H358V26L413 32Q429 34 432 40.5Q435 47 435 81V330Q435 399 412.5 432Q390 465 342 465Q299 465 261 440Q223 415 194 367V81Q194 47 197 40.5Q200 34 216 32L271 26V0H35V26L90 32Q106 34 109 40.5Q112 47 112 81V414Q112 447 109.5 454Q107 461 90 463L35 468V495H189V414Q222 458 267 481.5Q312 505 362 505Q435 505 476 459.5Q517 414 517 331V81Q517 47 520 40.5Q523 34 539 32Z" glyph-name="n" horiz-adv-x="617" unicode="n" /><glyph d="M278 505Q379 505 437 439Q495 373 495 258V238Q495 122 437.5 56Q380 -10 278 -10Q177 -10 119.5 56Q62 122 62 238V258Q62 373 119.5 439Q177 505 278 505ZM405 218 405 278Q405 377 374 425Q343 473 278 473Q214 473 183 425Q152 377 152 278V218Q152 118 183 70Q214 22 278 22Q343 22 374 70Q405 118 405 218Z" glyph-name="o" horiz-adv-x="557" unicode="o" /><glyph d="M83 463 28 469V495H182V415Q211 461 248 483Q285 505 333 505Q419 505 466.5 440Q514 375 514 258V238Q514 123 458.5 56.5Q403 -10 306 -10Q272 -10 241.5 1Q211 12 187 33V-132Q187 -166 190 -172.5Q193 -179 209 -181L284 -186V-213H28V-186L83 -181Q100 -179 102.5 -172Q105 -165 105 -132V414Q105 447 102.5 454Q100 461 83 463ZM320 469Q281 469 248.5 444Q216 419 187 368V82Q208 53 237 38Q266 23 301 23Q362 23 393 69.5Q424 116 424 208V288Q424 378 398 423.5Q372 469 320 469Z" glyph-name="p" horiz-adv-x="580" unicode="p" /><glyph d="M497 -181 552 -186V-213H296V-186L371 -181Q387 -179 390 -172.5Q393 -166 393 -132V72Q364 30 327.5 10Q291 -10 246 -10Q160 -10 112.5 54.5Q65 119 65 237V257Q65 372 121 438.5Q177 505 273 505Q310 505 342.5 492Q375 479 400 454Q414 462 426 473Q438 484 451 500H475V-132Q475 -165 477.5 -172Q480 -179 497 -181ZM155 287 155 207Q155 117 181.5 71Q208 25 259 25Q298 25 331 50Q364 75 393 126V412Q371 442 342.5 456.5Q314 471 278 471Q217 471 186 424.5Q155 378 155 287Z" glyph-name="q" horiz-adv-x="573" unicode="q" /><glyph d="M90 463 35 468V495H189V415Q224 461 259 483Q294 505 332 505Q367 505 394 484.5Q421 464 439 425L374 386Q360 419 342 434.5Q324 450 298 450Q270 450 246 432Q222 414 194 374V81Q194 47 197 40Q200 33 216 32L291 26V0H35V26L90 32Q106 34 109 40.5Q112 47 112 81V414Q112 447 109.5 454Q107 461 90 463Z" glyph-name="r" horiz-adv-x="439" unicode="r" /><glyph d="M348 109Q348 144 323.5 166Q299 188 246 202L185 217Q124 233 92 269.5Q60 306 60 361Q60 426 104.5 465.5Q149 505 228 505Q317 505 363.5 462Q410 419 400 350L322 336Q334 401 308.5 437Q283 473 225 473Q179 473 152.5 450Q126 427 126 385Q126 350 148 326.5Q170 303 213 292L276 277Q346 260 380.5 224Q415 188 415 134Q415 68 367 29Q319 -10 236 -10Q165 -10 115 22.5Q65 55 48 114L104 134Q114 78 147.5 49.5Q181 21 237 21Q287 21 317.5 44.5Q348 68 348 109Z" glyph-name="s" horiz-adv-x="474" unicode="s" /><glyph d="M313 116 365 102Q350 45 318.5 17.5Q287 -10 236 -10Q173 -10 136.5 31.5Q100 73 100 141V414Q100 430 100 436Q100 442 99 446Q98 455 95 458Q92 461 78 463L23 468V495H100V626L182 643V495H345V463H182V133Q182 76 197.5 49Q213 22 246 22Q275 22 290.5 44Q306 66 313 116Z" glyph-name="t" horiz-adv-x="387" unicode="t" /><glyph d="M515 32 570 26V0H416V80Q383 36 339.5 13Q296 -10 248 -10Q176 -10 137 35.5Q98 81 98 164V414Q98 447 95.5 454Q93 461 76 463L21 468V495H180V165Q180 95 201 62.5Q222 30 268 30Q309 30 345.5 54.5Q382 79 411 127V414Q411 448 408 454.5Q405 461 389 463L314 468V495H493V81Q493 47 496 40.5Q499 34 515 32Z" glyph-name="u" horiz-adv-x="599" unicode="u" /><glyph d="M443 420 297 0H232L85 420Q75 449 70 455Q65 461 49 463L-2 468V495H226V468L175 463Q159 461 158 455Q157 449 167 420L288 72L407 420Q412 434 413.5 439Q415 444 415 448Q417 455 414.5 458Q412 461 399 463L347 468V495H529V468L478 463Q461 461 456.5 454.5Q452 448 443 420Z" glyph-name="v" horiz-adv-x="527" unicode="v" /><glyph d="M693 420 581 0H516L385 413L254 0H192L81 420Q74 449 69.5 455Q65 461 49 463L-2 468V495H225V468L173 463Q157 461 155.5 454.5Q154 448 162 420L248 90L375 495H440L569 84L656 420Q664 448 662.5 454.5Q661 461 645 463L593 468V495H776V468L725 463Q710 461 705.5 455Q701 449 693 420Z" glyph-name="w" horiz-adv-x="774" unicode="w" /><glyph d="M148 32 199 26V0H9V26L60 32Q76 33 82.5 39Q89 45 109 75L224 241L113 420Q97 447 90.5 454Q84 461 67 463L15 468V495H250V468L199 463Q183 461 183.5 455Q184 449 202 420L279 296L364 420Q382 446 383.5 453Q385 460 368 463L317 468V495H507V468L456 463Q440 461 433.5 455Q427 449 407 420L299 264L416 75Q433 46 439.5 40Q446 34 462 32L514 26V0H279V26L330 32Q346 34 345.5 40Q345 46 327 75L244 209L152 75Q134 49 132.5 41.5Q131 34 148 32Z" glyph-name="x" horiz-adv-x="523" unicode="x" /><glyph d="M444 421 280 -50Q245 -147 200.5 -185Q156 -223 80 -223V-143Q154 -143 190.5 -120Q227 -97 248 -37L261 0H232L85 420Q76 447 71 453.5Q66 460 49 462L-2 468V495H226V468L175 462Q160 460 159 453Q158 446 167 420L287 74L408 421Q417 448 416 454Q415 460 399 462L347 468V495H530V468L479 462Q462 460 457.5 453.5Q453 447 444 421Z" glyph-name="y" horiz-adv-x="528" unicode="y" /><glyph d="M361 58 388 143H414V0H45V25L313 463H163Q133 463 124.5 459.5Q116 456 109 437L82 352H56V495H404V470L138 32H307Q339 32 347.5 35.5Q356 39 361 58Z" glyph-name="z" horiz-adv-x="461" unicode="z" /><glyph d="M697 129 750 114Q734 53 688.5 21.5Q643 -10 573 -10Q505 -10 456.5 17Q408 44 382 97Q345 45 297.5 17.5Q250 -10 195 -10Q131 -10 95 26Q59 62 59 123Q59 188 103.5 219.5Q148 251 240 251H353V332Q353 405 328.5 439Q304 473 251 473Q193 473 171 437Q149 401 160 326L81 338Q72 412 119 458.5Q166 505 253 505Q311 505 349 484.5Q387 464 405 422Q430 463 469 484Q508 505 560 505Q648 505 701.5 452.5Q755 400 755 311Q755 296 753.5 280.5Q752 265 749 248H443V218Q443 113 475 67.5Q507 22 580 22Q631 22 660 48.5Q689 75 697 129ZM672 331Q672 401 643.5 437Q615 473 560 473Q499 473 471 426.5Q443 380 443 280H668V283Q670 304 671 314Q672 324 672 331ZM144 127Q144 81 164 56.5Q184 32 223 32Q262 32 297.5 56Q333 80 368 130Q362 150 358.5 172.5Q355 195 353 219H251Q195 219 169.5 197Q144 175 144 127Z" glyph-name="ae" horiz-adv-x="814" unicode="æ" /><glyph d="M749 129 802 114Q786 53 740.5 21.5Q695 -10 625 -10Q564 -10 519.5 14Q475 38 449 85Q423 39 379 14.5Q335 -10 278 -10Q177 -10 119.5 56Q62 122 62 238V258Q62 373 119.5 439Q177 505 278 505Q335 505 378.5 481Q422 457 448 411Q473 457 514.5 481Q556 505 611 505Q700 505 753.5 452.5Q807 400 807 311Q807 296 805.5 280.5Q804 265 801 248H495V218Q495 113 527 67.5Q559 22 632 22Q683 22 711.5 48Q740 74 749 129ZM405 218 405 278Q405 377 374 425Q343 473 278 473Q214 473 183 425Q152 377 152 278V218Q152 118 183 70Q214 22 278 22Q343 22 374 70Q405 118 405 218ZM723 331Q723 401 694.5 437Q666 473 611 473Q551 473 523 426.5Q495 380 495 280H719V283Q721 294 722 306.5Q723 319 723 331Z" glyph-name="oe" horiz-adv-x="866" unicode="œ" /><glyph d="M109 708 54 713V740H213V410L312 459L326 429L213 372V81Q213 47 216 40.5Q219 34 235 32L290 26V0H54V26L109 32Q125 34 128 40.5Q131 47 131 81V331L32 281L18 312L131 369V659Q131 692 128.5 699Q126 706 109 708Z" glyph-name="lslash" horiz-adv-x="342" unicode="ł" /><glyph d="M495 258 495 238Q495 122 437.5 56Q380 -10 278 -10Q236 -10 200.5 2Q165 14 137 38L107 0H62L112 65Q87 96 74.5 140Q62 184 62 238V258Q62 373 119.5 439Q177 505 278 505Q320 505 355.5 493Q391 481 419 457L449 495H495L444 430Q469 397 482 353.5Q495 310 495 258ZM152 278 152 218Q152 191 154 168.5Q156 146 161 126L382 410Q367 442 341 457.5Q315 473 278 473Q214 473 183 425Q152 377 152 278ZM405 218 405 278Q405 305 403 327.5Q401 350 396 369L174 86Q189 54 214.5 38Q240 22 278 22Q343 22 374 70Q405 118 405 218Z" glyph-name="oslash" horiz-adv-x="557" unicode="ø" /><glyph d="M493 287 493 259Q493 130 436.5 60Q380 -10 275 -10Q174 -10 117.5 49Q61 108 61 211V231Q61 332 117 391.5Q173 451 269 451Q304 451 336 440Q368 429 395 408Q384 469 359 521Q334 573 296 617L181 532L162 559L273 641Q249 664 220 684.5Q191 705 158 723L169 750Q208 732 242.5 710.5Q277 689 307 665L422 750L441 723L332 643Q411 571 452 480Q493 389 493 287ZM151 251 151 191Q151 105 181.5 63.5Q212 22 275 22Q343 22 373 73.5Q403 125 403 239V307Q403 316 402.5 327Q402 338 401 359Q374 389 342 404Q310 419 272 419Q211 419 181 377.5Q151 336 151 251Z" glyph-name="eth" horiz-adv-x="559" unicode="ð" /><glyph d="M80 708 25 714V740H184V422Q214 464 250 484.5Q286 505 331 505Q417 505 464.5 440Q512 375 512 258V238Q512 123 456.5 56.5Q401 -10 304 -10Q269 -10 238.5 1.5Q208 13 184 34V-132Q184 -166 187 -172.5Q190 -179 206 -181L281 -186V-213H25V-186L80 -181Q97 -179 99.5 -172Q102 -165 102 -132V659Q102 692 99.5 699Q97 706 80 708ZM318 469Q279 469 246 444Q213 419 184 368V82Q206 52 234.5 37.5Q263 23 299 23Q360 23 391 69.5Q422 116 422 208V288Q422 377 395.5 423Q369 469 318 469Z" glyph-name="thorn" horiz-adv-x="577" unicode="þ" /><glyph d="M302 718Q244 718 219 685.5Q194 653 194 581V0H35V26L90 32Q106 34 109 40.5Q112 47 112 81V414Q112 447 109.5 454Q107 461 90 463L35 468V495H112V567Q112 656 160.5 703Q209 750 302 750Q381 750 427 715Q473 680 473 625Q473 602 464 579.5Q455 557 427 518Q399 478 390 455.5Q381 433 381 410Q381 383 394.5 363Q408 343 457 308L498 277Q541 245 562.5 208Q584 171 584 127Q584 65 543.5 27.5Q503 -10 434 -10Q368 -10 325.5 21.5Q283 53 267 114L323 134Q332 76 358.5 48.5Q385 21 433 21Q472 21 496 43.5Q520 66 520 104Q520 130 504.5 152.5Q489 175 453 202L412 233Q355 275 338 302.5Q321 330 321 366Q321 389 328 411.5Q335 434 359 475Q387 523 395.5 552.5Q404 582 404 614Q404 667 379 692.5Q354 718 302 718Z" glyph-name="germandbls" horiz-adv-x="621" unicode="ß" /><glyph d="M90 463 35 468V495H194V81Q194 47 197 40.5Q200 34 216 32L271 26V0H35V26L90 32Q106 34 109 40.5Q112 47 112 81V414Q112 447 109.5 454Q107 461 90 463Z" glyph-name="dotlessi" horiz-adv-x="299" unicode="ı" /><glyph d="M83 463 28 468V495H187V-52Q187 -133 149 -178Q111 -223 39 -223Q-16 -223 -49 -193.5Q-82 -164 -90 -107L-35 -91Q-31 -142 -15 -166.5Q1 -191 32 -191Q72 -191 88.5 -160.5Q105 -130 105 -60V414Q105 447 102.5 454Q100 461 83 463Z" glyph-name="dotlessj" horiz-adv-x="286" unicode="ȷ" /><glyph d="M531 32 586 26V0H350V26L405 32Q421 34 424 40.5Q427 47 427 81V463H194V81Q194 47 197 40.5Q200 34 216 32L271 26V0H35V26L90 32Q106 34 109 40.5Q112 47 112 81V414Q112 430 112 436Q112 442 111 446Q110 455 107 458Q104 461 90 463L35 468V495H112V535Q112 636 165.5 693Q219 750 319 750Q412 750 463 704.5Q514 659 502 589L424 578Q434 647 407.5 682.5Q381 718 319 718Q253 718 223.5 677Q194 636 194 549V495H509V81Q509 47 512 40.5Q515 34 531 32Z" glyph-name="fi" horiz-adv-x="615" unicode="ﬁ" /><glyph d="M531 32 586 26V0H350V26L405 32Q421 34 424 40.5Q427 47 427 81V463H194V81Q194 47 197 40.5Q200 34 216 32L271 26V0H35V26L90 32Q106 34 109 40.5Q112 47 112 81V414Q112 430 112 436Q112 442 111 446Q110 455 107 458Q104 461 90 463L35 468V495H112V531Q112 628 164.5 684Q217 740 314 740Q365 740 402.5 721.5Q440 703 461 668Q487 708 530.5 729Q574 750 634 750Q727 750 778 704.5Q829 659 817 589L739 578Q749 648 722.5 683Q696 718 634 718Q568 718 538.5 677Q509 636 509 549V495H825V81Q825 47 828 40.5Q831 34 847 32L902 26V0H666V26L721 32Q737 34 740 40.5Q743 47 743 81V463H509V81Q509 47 512 40.5Q515 34 531 32ZM194 545 194 495H427V542Q427 630 401 669Q375 708 314 708Q252 708 223 668Q194 628 194 545Z" glyph-name="ffi" horiz-adv-x="930" unicode="ﬃ" /><glyph d="M541 32 596 26V0H360V26L415 32Q431 34 434 40.5Q437 47 437 81V552Q437 640 409.5 679Q382 718 319 718Q254 718 224 678Q194 638 194 555V495H353V463H194V81Q194 47 197 40.5Q200 34 216 32L271 26V0H35V26L90 32Q106 34 109 40.5Q112 47 112 81V414Q112 430 112 436Q112 442 111 446Q110 455 107 458Q104 461 90 463L35 468V495H112V541Q112 638 166 694Q220 750 319 750Q362 750 396 738Q430 726 454 702Q469 712 479 721Q489 730 497 740H519V81Q519 47 522 40.5Q525 34 541 32Z" glyph-name="fl" horiz-adv-x="625" unicode="ﬂ" /><glyph d="M531 32 586 26V0H350V26L405 32Q421 34 424 40.5Q427 47 427 81V463H194V81Q194 47 197 40.5Q200 34 216 32L271 26V0H35V26L90 32Q106 34 109 40.5Q112 47 112 81V414Q112 430 112 436Q112 442 111 446Q110 455 107 458Q104 461 90 463L35 468V495H112V531Q112 628 164.5 684Q217 740 314 740Q364 740 401 722Q438 704 461 669Q487 709 531 729.5Q575 750 634 750Q677 750 711 738Q745 726 769 702Q783 712 793.5 721Q804 730 813 740H834V81Q834 47 837 40.5Q840 34 856 32L911 26V0H675V26L730 32Q746 34 749 40.5Q752 47 752 81V581Q747 653 719.5 685.5Q692 718 634 718Q569 718 539 678Q509 638 509 555V495H660V463H509V81Q509 47 512 40.5Q515 34 531 32ZM194 545 194 495H427V542Q427 630 401 669Q375 708 314 708Q252 708 223 668Q194 628 194 545Z" glyph-name="ffl" horiz-adv-x="940" unicode="ﬄ" /><glyph d="M216 32 291 26V0H35V26L90 32Q106 34 109 40.5Q112 47 112 81V414Q112 430 112 436Q112 442 111 446Q110 455 107 458Q104 461 90 463L35 468V495H112V541Q112 637 161.5 693.5Q211 750 299 750Q364 750 403 720Q442 690 454 630Q459 633 464 637Q469 641 479 650H501V495H664V463H501V133Q501 76 516.5 49Q532 22 565 22Q594 22 609 43.5Q624 65 631 116L684 102Q669 45 637.5 17.5Q606 -10 555 -10Q491 -10 455 31Q419 72 419 141V463H194V81Q194 47 197 40Q200 33 216 32ZM310 717Q250 717 222 677.5Q194 638 194 555V495H419V552Q419 639 393.5 678Q368 717 310 717Z" glyph-name="ft" horiz-adv-x="706" unicode="" /><glyph d="M216 32 271 26V0H35V26L90 32Q106 34 109 40.5Q112 47 112 81V414Q112 430 112 436Q112 442 111 446Q110 455 107 458Q104 461 90 463L35 468V495H112V531Q112 628 164.5 684Q217 740 314 740Q364 740 401 722.5Q438 705 460 670Q484 709 523 729.5Q562 750 615 750Q678 750 717 720.5Q756 691 769 632Q775 636 782 641.5Q789 647 795 652H816V495H979V463H816V133Q816 76 831.5 49Q847 22 880 22Q909 22 924.5 44Q940 66 947 116L999 102Q984 45 952.5 17.5Q921 -10 870 -10Q806 -10 770 31.5Q734 73 734 141V463H509V81Q509 47 512 40Q515 33 531 32L606 26V0H350V26L405 32Q421 34 424 40.5Q427 47 427 81V463H194V81Q194 47 197 40.5Q200 34 216 32ZM625 717Q565 717 537 677Q509 637 509 555V495H734V552Q734 639 708.5 678Q683 717 625 717ZM194 545 194 495H427V542Q427 630 401 669Q375 708 314 708Q252 708 223 668Q194 628 194 545Z" glyph-name="fft" horiz-adv-x="1021" unicode="" /><glyph d="M216 32 291 26V0H35V26L90 32Q106 34 109 40.5Q112 47 112 81V414Q112 430 112 436Q112 442 111 446Q110 455 107 458Q104 461 90 463L35 468V495H112V541Q112 638 166 694Q220 750 319 750Q361 750 395 738Q429 726 453 703Q463 709 472.5 717.5Q482 726 495 740H519V422Q549 464 585 484.5Q621 505 665 505Q751 505 799 440Q847 375 847 258V238Q847 123 791.5 56.5Q736 -10 639 -10Q600 -10 567.5 3Q535 16 511 41Q498 33 486.5 22Q475 11 461 -5H437V552Q437 640 409.5 679Q382 718 319 718Q254 718 224 678Q194 638 194 555V495H353V463H194V81Q194 47 197 40Q200 33 216 32ZM653 469Q614 469 581 444Q548 419 519 368V82Q540 53 569 38Q598 23 634 23Q695 23 726 69.5Q757 116 757 208V288Q757 377 730.5 423Q704 469 653 469Z" glyph-name="fb" horiz-adv-x="912" unicode="" /><glyph d="M216 32 271 26V0H35V26L90 32Q106 34 109 40.5Q112 47 112 81V414Q112 430 112 436Q112 442 111 446Q110 455 107 458Q104 461 90 463L35 468V495H112V531Q112 628 164.5 684Q217 740 314 740Q364 740 401.5 722Q439 704 461 669Q487 709 530.5 729.5Q574 750 633 750Q676 750 710 738Q744 726 768 703Q778 709 787.5 717.5Q797 726 810 740H834V422Q864 464 900 484.5Q936 505 980 505Q1066 505 1113.5 440Q1161 375 1161 258V238Q1161 123 1105.5 56.5Q1050 -10 954 -10Q915 -10 882.5 3Q850 16 826 41Q813 33 801.5 22Q790 11 776 -5H752V552Q752 640 724.5 679Q697 718 633 718Q569 718 539 678Q509 638 509 555V495H668V463H509V81Q509 47 512 40Q515 33 531 32L606 26V0H350V26L405 32Q421 34 424 40.5Q427 47 427 81V463H194V81Q194 47 197 40.5Q200 34 216 32ZM194 545 194 495H427V542Q427 630 401 669Q375 708 314 708Q252 708 223 668Q194 628 194 545ZM967 469Q928 469 895.5 444Q863 419 834 368V82Q855 53 884 38Q913 23 948 23Q1009 23 1040 69.5Q1071 116 1071 208V288Q1071 378 1045 423.5Q1019 469 967 469Z" glyph-name="ffb" horiz-adv-x="1227" unicode="" /><glyph d="M531 32 606 26V0H350V26L405 32Q421 34 424 40.5Q427 47 427 81V463H194V81Q194 47 197 40.5Q200 34 216 32L271 26V0H35V26L90 32Q106 34 109 40.5Q112 47 112 81V414Q112 430 112 436Q112 442 111 446Q110 455 107 458Q104 461 90 463L35 468V495H112V531Q112 628 164.5 684Q217 740 314 740Q360 740 395 725Q430 710 453 680Q473 715 507.5 732.5Q542 750 591 750Q671 750 712.5 707Q754 664 743 595L665 584Q674 652 655.5 685Q637 718 591 718Q546 718 527.5 686Q509 654 509 581V495H668V463H509V81Q509 47 512 40Q515 33 531 32ZM314 708Q252 708 223 668Q194 628 194 545V495H427V542Q427 630 401 669Q375 708 314 708Z" glyph-name="ff" horiz-adv-x="673" unicode="ﬀ" /><glyph d="M531 32 586 26V0H350V26L405 32Q421 34 424 40.5Q427 47 427 81V463H194V81Q194 47 197 40.5Q200 34 216 32L271 26V0H35V26L90 32Q106 34 109 40.5Q112 47 112 81V414Q112 430 112 436Q112 442 111 446Q110 455 107 458Q104 461 90 463L35 468V495H112V531Q112 628 164.5 684Q217 740 314 740Q366 740 404 720.5Q442 701 464 664Q490 701 531.5 720.5Q573 740 629 740Q676 740 711 725Q746 710 768 680Q788 715 822.5 732.5Q857 750 906 750Q986 750 1027.5 707Q1069 664 1058 595L980 584Q990 651 971.5 684.5Q953 718 906 718Q861 718 843 686Q825 654 825 581V495H984V463H825V81Q825 47 828 40Q831 33 847 32L922 26V0H666V26L721 32Q737 34 740 40.5Q743 47 743 81V463H509V81Q509 47 512 40.5Q515 34 531 32ZM194 545 194 495H427V542Q427 630 401 669Q375 708 314 708Q252 708 223 668Q194 628 194 545ZM629 708Q567 708 538 668Q509 628 509 545V495H743V542Q742 630 716 669Q690 708 629 708Z" glyph-name="fff" horiz-adv-x="988" unicode="" /><glyph d="M541 32 596 26V0H360V26L415 32Q431 34 434 40.5Q437 47 437 81V552Q437 640 409.5 679Q382 718 319 718Q254 718 224 678Q194 638 194 555V495H353V463H194V81Q194 47 197 40.5Q200 34 216 32L271 26V0H35V26L90 32Q106 34 109 40.5Q112 47 112 81V414Q112 430 112 436Q112 442 111 446Q110 455 107 458Q104 461 90 463L35 468V495H112V541Q112 638 166 694Q220 750 319 750Q361 750 395 738Q429 726 453 703Q463 709 472.5 717.5Q482 726 495 740H519V419Q552 461 595.5 483Q639 505 687 505Q760 505 801 459.5Q842 414 842 331V81Q842 47 845 40.5Q848 34 864 32L919 26V0H683V26L738 32Q754 34 757 40.5Q760 47 760 81V330Q760 399 737.5 432Q715 465 668 465Q625 465 586.5 440Q548 415 519 367V81Q519 47 522 40.5Q525 34 541 32Z" glyph-name="fh" horiz-adv-x="942" unicode="" /><glyph d="M531 32 586 26V0H350V26L405 32Q421 34 424 40.5Q427 47 427 81V463H194V81Q194 47 197 40.5Q200 34 216 32L271 26V0H35V26L90 32Q106 34 109 40.5Q112 47 112 81V414Q112 430 112 436Q112 442 111 446Q110 455 107 458Q104 461 90 463L35 468V495H112V531Q112 628 164.5 684Q217 740 314 740Q364 740 401 722Q438 704 461 669Q487 709 531 729.5Q575 750 634 750Q676 750 710 738Q744 726 768 703Q779 710 789.5 719Q800 728 810 740H834V419Q867 460 910.5 482.5Q954 505 1003 505Q1076 505 1116.5 459.5Q1157 414 1157 331V81Q1157 47 1160 40.5Q1163 34 1179 32L1234 26V0H998V26L1053 32Q1069 34 1072 40.5Q1075 47 1075 81V330Q1075 399 1052.5 432Q1030 465 983 465Q939 465 901 440Q863 415 834 366V81Q834 47 837 40.5Q840 34 856 32L911 26V0H675V26L730 32Q746 34 749 40.5Q752 47 752 81V552Q752 640 724.5 679Q697 718 634 718Q569 718 539 678Q509 638 509 555V495H668V463H509V81Q509 47 512 40.5Q515 34 531 32ZM194 545 194 495H427V542Q427 630 401 669Q375 708 314 708Q252 708 223 668Q194 628 194 545Z" glyph-name="ffh" horiz-adv-x="1257" unicode="" /><glyph d="M318 718Q252 718 223 677.5Q194 637 194 549V495H507V-52Q507 -132 468 -177.5Q429 -223 358 -223Q303 -223 270 -193.5Q237 -164 229 -106L283 -91Q286 -142 302.5 -166.5Q319 -191 352 -191Q391 -191 408 -160Q425 -129 425 -60V463H194V81Q194 47 197 40Q200 33 216 32L291 26V0H35V26L90 32Q106 34 109 40.5Q112 47 112 81V414Q112 430 112 436Q112 442 111 446Q110 455 107 458Q104 461 90 463L35 468V495H112V535Q112 636 165.5 693Q219 750 318 750Q410 750 460.5 704.5Q511 659 499 589L421 578Q431 648 405 683Q379 718 318 718Z" glyph-name="fj" horiz-adv-x="596" unicode="" /><glyph d="M633 718Q568 718 538.5 677Q509 636 509 549V495H822V-52Q822 -132 783 -177.5Q744 -223 673 -223Q618 -223 585.5 -193.5Q553 -164 544 -106L598 -91Q602 -143 618.5 -167Q635 -191 667 -191Q706 -191 723 -160Q740 -129 740 -60V463H509V81Q509 47 512 40Q515 33 531 32L606 26V0H350V26L405 32Q421 34 424 40.5Q427 47 427 81V463H194V81Q194 47 197 40.5Q200 34 216 32L271 26V0H35V26L90 32Q106 34 109 40.5Q112 47 112 81V414Q112 430 112 436Q112 442 111 446Q110 455 107 458Q104 461 90 463L35 468V495H112V531Q112 628 164.5 684Q217 740 314 740Q365 740 402.5 721.5Q440 703 461 668Q487 708 530.5 729Q574 750 633 750Q725 750 775.5 704.5Q826 659 814 589L736 578Q746 647 720 682.5Q694 718 633 718ZM194 545 194 495H427V542Q427 630 401 669Q375 708 314 708Q252 708 223 668Q194 628 194 545Z" glyph-name="ffj" horiz-adv-x="911" unicode="" /><glyph d="M541 32 596 26V0H360V26L415 32Q431 34 434 40.5Q437 47 437 81V552Q437 640 409.5 679Q382 718 319 718Q254 718 224 678Q194 638 194 555V495H353V463H194V81Q194 47 197 40.5Q200 34 216 32L271 26V0H35V26L90 32Q106 34 109 40.5Q112 47 112 81V414Q112 430 112 436Q112 442 111 446Q110 455 107 458Q104 461 90 463L35 468V495H112V541Q112 638 166 694Q220 750 319 750Q361 750 395 738Q429 726 454 703Q465 711 475 720Q485 729 495 740H519V230L708 420Q736 448 738.5 454.5Q741 461 724 463L673 468V495H866V468L815 463Q801 461 793.5 455.5Q786 450 755 420L645 309L792 75Q810 46 817 40Q824 34 840 32L891 26V0H741L589 252L519 181V81Q519 47 522 40.5Q525 34 541 32Z" glyph-name="fk" horiz-adv-x="894" unicode="" /><glyph d="M531 32 586 26V0H350V26L405 32Q421 34 424 40.5Q427 47 427 81V463H194V81Q194 47 197 40.5Q200 34 216 32L271 26V0H35V26L90 32Q106 34 109 40.5Q112 47 112 81V414Q112 430 112 436Q112 442 111 446Q110 455 107 458Q104 461 90 463L35 468V495H112V531Q112 628 164.5 684Q217 740 314 740Q364 740 401 722Q438 704 461 669Q487 709 531 729.5Q575 750 634 750Q676 750 710.5 738Q745 726 769 703Q780 710 790 719.5Q800 729 810 740H834V230L1023 420Q1052 449 1054.5 455Q1057 461 1039 463L988 468V495H1181V468L1130 463Q1116 461 1108.5 455.5Q1101 450 1070 420L960 309L1107 75Q1125 46 1132 40Q1139 34 1155 32L1207 26V0H1056L904 252L834 181V81Q834 47 837 40.5Q840 34 856 32L911 26V0H675V26L730 32Q746 34 749 40.5Q752 47 752 81V581Q747 653 719.5 685.5Q692 718 634 718Q569 718 539 678Q509 638 509 555V495H668V463H509V81Q509 47 512 40.5Q515 34 531 32ZM194 545 194 495H427V542Q427 630 401 669Q375 708 314 708Q252 708 223 668Q194 628 194 545Z" glyph-name="ffk" horiz-adv-x="1209" unicode="" /><glyph d="M133 32 188 26V0H-2V26L52 32Q66 33 70 36.5Q74 40 78 48Q80 52 82 58Q84 64 89 81L282 680H345L540 81Q550 49 555 41.5Q560 34 576 32L631 26V0H388V26L443 32Q459 34 460 41Q461 48 451 81L410 209H166L125 81Q114 48 115 41Q116 34 133 32ZM288 589 176 241H400ZM313 764 292 783Q319 822 333.5 853Q348 884 359 925H455Q425 879 391 841Q357 803 313 764Z" glyph-name="Aacute" horiz-adv-x="628" unicode="Á" /><glyph d="M133 32 188 26V0H-2V26L52 32Q66 33 70 36.5Q74 40 78 48Q80 52 82 58Q84 64 89 81L282 680H345L540 81Q550 49 555 41.5Q560 34 576 32L631 26V0H388V26L443 32Q459 34 460 41Q461 48 451 81L410 209H166L125 81Q114 48 115 41Q116 34 133 32ZM288 589 176 241H400ZM445 784 428 764Q392 790 362.5 815Q333 840 310 863Q287 839 260 814.5Q233 790 200 764L183 784Q222 827 240.5 854Q259 881 280 925H347Q369 880 387 853.5Q405 827 445 784Z" glyph-name="Acircumflex" horiz-adv-x="628" unicode="Â" /><glyph d="M133 32 188 26V0H-2V26L52 32Q66 33 70 36.5Q74 40 78 48Q80 52 82 58Q84 64 89 81L282 680H345L540 81Q550 49 555 41.5Q560 34 576 32L631 26V0H388V26L443 32Q459 34 460 41Q461 48 451 81L410 209H166L125 81Q114 48 115 41Q116 34 133 32ZM288 589 176 241H400ZM258 848Q258 825 244 810.5Q230 796 207 796Q184 796 170 810.5Q156 825 156 848Q156 870 170.5 884Q185 898 207 898Q229 898 243.5 884Q258 870 258 848ZM462 848Q462 825 447.5 810.5Q433 796 410 796Q387 796 373 810.5Q359 825 359 848Q359 870 373.5 884Q388 898 410 898Q433 898 447.5 884Q462 870 462 848Z" glyph-name="Adieresis" horiz-adv-x="628" unicode="Ä" /><glyph d="M133 32 188 26V0H-2V26L52 32Q66 33 70 36.5Q74 40 78 48Q80 52 82 58Q84 64 89 81L282 680H345L540 81Q550 49 555 41.5Q560 34 576 32L631 26V0H388V26L443 32Q459 34 460 41Q461 48 451 81L410 209H166L125 81Q114 48 115 41Q116 34 133 32ZM288 589 176 241H400ZM336 783 315 764Q270 802 236.5 840Q203 878 172 925H268Q279 883 293.5 852Q308 821 336 783Z" glyph-name="Agrave" horiz-adv-x="628" unicode="À" /><glyph d="M133 32 188 26V0H-2V26L52 32Q66 33 70 36.5Q74 40 78 48Q80 52 82 58Q84 64 89 81L275 658Q237 668 214 697Q191 726 191 763V774Q191 819 224.5 850.5Q258 882 311 882Q363 882 397 850.5Q431 819 431 774V763Q431 729 409.5 700Q388 671 352 660L540 81Q550 49 555 41.5Q560 34 576 32L631 26V0H388V26L443 32Q459 34 460 41Q461 48 451 81L410 209H166L125 81Q114 48 115 41Q116 34 133 32ZM371 756 371 781Q371 817 355.5 837Q340 857 311 857Q282 857 266.5 837Q251 817 251 781V756Q251 719 266.5 699.5Q282 680 311 680Q340 680 355.5 700Q371 720 371 756ZM288 589 176 241H400Z" glyph-name="Aring" horiz-adv-x="628" unicode="Å" /><glyph d="M133 32 188 26V0H-2V26L52 32Q66 33 70 36.5Q74 40 78 48Q80 52 82 58Q84 64 89 81L282 680H345L540 81Q550 49 555 41.5Q560 34 576 32L631 26V0H388V26L443 32Q459 34 460 41Q461 48 451 81L410 209H166L125 81Q114 48 115 41Q116 34 133 32ZM288 589 176 241H400ZM381 774Q363 774 344.5 784Q326 794 296 825Q273 849 261.5 856Q250 863 240 863Q221 863 210 843Q199 823 196 785H165Q169 854 190 889Q211 924 248 924Q267 924 285 914Q303 904 332 873Q355 849 366 842Q377 835 388 835Q406 835 417 855Q428 875 431 913H463Q459 845 438 809.5Q417 774 381 774Z" glyph-name="Atilde" horiz-adv-x="628" unicode="Ã" /><glyph d="M133 32 188 26V0H-2V26L52 32Q66 33 70 36.5Q74 40 78 48Q80 52 82 58Q84 64 89 81L282 680H345L540 81Q550 49 555 41.5Q560 34 576 32L631 26V0H388V26L443 32Q459 34 460 41Q461 48 451 81L410 209H166L125 81Q114 48 115 41Q116 34 133 32ZM288 589 176 241H400ZM314 828Q361 828 387.5 851.5Q414 875 427 927L455 918Q441 840 406 802Q371 764 314 764Q256 764 221 801.5Q186 839 172 918L201 927Q213 875 240 851.5Q267 828 314 828Z" glyph-name="Abreve" horiz-adv-x="628" unicode="Ă" /><glyph d="M133 32 188 26V0H-2V26L52 32Q66 33 70 36.5Q74 40 78 48Q80 52 82 58Q84 64 89 81L282 680H345L540 81Q550 49 555 41.5Q560 34 576 32L631 26V0H388V26L443 32Q459 34 460 41Q461 48 451 81L410 209H166L125 81Q114 48 115 41Q116 34 133 32ZM288 589 176 241H400ZM171 851 458 851V804H171Z" glyph-name="Amacron" horiz-adv-x="628" unicode="Ā" /><glyph d="M562 -112 614 -125Q601 -173 568.5 -198Q536 -223 489 -223Q439 -223 408.5 -197Q378 -171 378 -128Q378 -85 404 -49.5Q430 -14 475 7L410 209H166L125 81Q114 48 115 41Q116 34 133 32L188 26V0H-2V26L52 32Q66 33 70 36.5Q74 40 78 48Q80 52 82 58Q84 64 89 81L282 680H345L540 81Q550 49 555 41.5Q560 34 576 32L631 26V0H567Q510 0 476 -34.5Q442 -69 442 -127Q442 -159 455.5 -176Q469 -193 494 -193Q521 -193 538 -173Q555 -153 562 -112ZM288 589 176 241H400Z" glyph-name="Aogonek" horiz-adv-x="628" unicode="Ą" /><glyph d="M443 -140Q443 -178 412.5 -200.5Q382 -223 332 -223Q287 -223 259.5 -203Q232 -183 225 -145L273 -131Q277 -164 290 -179.5Q303 -195 328 -195Q352 -195 365 -180.5Q378 -166 378 -140Q378 -113 363.5 -99.5Q349 -86 320 -86Q315 -86 308.5 -86.5Q302 -87 297 -88L287 -63L309 -9Q197 -1 135.5 80.5Q74 162 74 303V378Q74 524 140 607Q206 690 324 690Q429 690 487 630Q545 570 533 480L447 459Q457 554 425 606Q393 658 324 658Q245 658 207 601.5Q169 545 169 428V253Q169 134 209.5 78Q250 22 336 22Q398 22 433.5 54.5Q469 87 476 151L538 135Q519 66 470 29.5Q421 -7 344 -10L324 -58Q379 -58 411 -80Q443 -102 443 -140Z" glyph-name="Ccedilla" horiz-adv-x="586" unicode="Ç" /><glyph d="M334 -10Q210 -10 142 72.5Q74 155 74 303V378Q74 524 140 607Q206 690 324 690Q429 690 487 630Q545 570 533 480L447 459Q457 554 425 606Q393 658 324 658Q245 658 207 601.5Q169 545 169 428V253Q169 134 209.5 78Q250 22 336 22Q398 22 433.5 54.5Q469 87 476 151L538 135Q519 63 467 26.5Q415 -10 334 -10ZM323 764 302 783Q329 822 343.5 853Q358 884 369 925H465Q435 879 401 841Q367 803 323 764Z" glyph-name="Cacute" horiz-adv-x="586" unicode="Ć" /><glyph d="M334 -10Q210 -10 142 72.5Q74 155 74 303V378Q74 524 140 607Q206 690 324 690Q429 690 487 630Q545 570 533 480L447 459Q457 554 425 606Q393 658 324 658Q245 658 207 601.5Q169 545 169 428V253Q169 134 209.5 78Q250 22 336 22Q398 22 433.5 54.5Q469 87 476 151L538 135Q519 63 467 26.5Q415 -10 334 -10ZM438 930 455 909Q416 866 397.5 839.5Q379 813 357 769H290Q269 813 250.5 839.5Q232 866 193 909L210 930Q249 900 277 876Q305 852 327 830Q350 854 378 879.5Q406 905 438 930Z" glyph-name="Ccaron" horiz-adv-x="586" unicode="Č" /><glyph d="M334 -10Q210 -10 142 72.5Q74 155 74 303V378Q74 524 140 607Q206 690 324 690Q429 690 487 630Q545 570 533 480L447 459Q457 554 425 606Q393 658 324 658Q245 658 207 601.5Q169 545 169 428V253Q169 134 209.5 78Q250 22 336 22Q398 22 433.5 54.5Q469 87 476 151L538 135Q519 63 467 26.5Q415 -10 334 -10ZM455 784 438 764Q402 790 372.5 815Q343 840 320 863Q297 839 270 814.5Q243 790 210 764L193 784Q232 827 250.5 854Q269 881 290 925H357Q379 880 397 853.5Q415 827 455 784Z" glyph-name="Ccircumflex" horiz-adv-x="586" unicode="Ĉ" /><glyph d="M334 -10Q210 -10 142 72.5Q74 155 74 303V378Q74 524 140 607Q206 690 324 690Q429 690 487 630Q545 570 533 480L447 459Q457 554 425 606Q393 658 324 658Q245 658 207 601.5Q169 545 169 428V253Q169 134 209.5 78Q250 22 336 22Q398 22 433.5 54.5Q469 87 476 151L538 135Q519 63 467 26.5Q415 -10 334 -10ZM378 848Q378 823 362.5 807.5Q347 792 323 792Q299 792 283.5 807.5Q268 823 268 848Q268 872 283.5 887Q299 902 323 902Q347 902 362.5 887Q378 872 378 848Z" glyph-name="Cdotaccent" horiz-adv-x="586" unicode="Ċ" /><glyph d="M103 648 48 653V680H332Q453 680 518.5 601.5Q584 523 584 378V303Q584 158 518.5 79Q453 0 332 0H48V26L103 32Q119 34 122 40.5Q125 47 125 81V599Q125 632 122.5 639Q120 646 103 648ZM330 648 212 648V32H330Q416 32 452.5 83.5Q489 135 489 253V428Q489 545 452.5 596.5Q416 648 330 648ZM435 930 452 909Q413 866 394.5 839.5Q376 813 354 769H287Q266 813 247.5 839.5Q229 866 190 909L207 930Q246 900 274 876Q302 852 324 830Q347 854 375 879.5Q403 905 435 930Z" glyph-name="Dcaron" horiz-adv-x="658" unicode="Ď" /><glyph d="M107 648 52 653V680H336Q456 680 522 601Q588 522 588 378V303Q588 158 522.5 79Q457 0 336 0H52V26L107 32Q123 34 126 40.5Q129 47 129 81V338H52V370H129V599Q129 632 126.5 639Q124 646 107 648ZM369 370 369 338H216V32H334Q420 32 456.5 83.5Q493 135 493 253V428Q493 545 456.5 596.5Q420 648 334 648H216V370Z" glyph-name="Dcroat" horiz-adv-x="662" unicode="Đ" /><glyph d="M472 58 501 163H527V0H48V26L103 32Q119 34 122 40.5Q125 47 125 81V599Q125 632 122.5 639Q120 646 103 648L48 653V680H514V517H489L460 622Q454 642 445.5 645Q437 648 406 648H212V359H346Q379 359 387 362.5Q395 366 400 385L419 460H445V226H419L400 301Q395 320 387 323.5Q379 327 346 327H212V32H418Q451 32 459 35.5Q467 39 472 58ZM313 764 292 783Q319 822 333.5 853Q348 884 359 925H455Q425 879 391 841Q357 803 313 764Z" glyph-name="Eacute" horiz-adv-x="580" unicode="É" /><glyph d="M472 58 501 163H527V0H48V26L103 32Q119 34 122 40.5Q125 47 125 81V599Q125 632 122.5 639Q120 646 103 648L48 653V680H514V517H489L460 622Q454 642 445.5 645Q437 648 406 648H212V359H346Q379 359 387 362.5Q395 366 400 385L419 460H445V226H419L400 301Q395 320 387 323.5Q379 327 346 327H212V32H418Q451 32 459 35.5Q467 39 472 58ZM445 784 428 764Q392 790 362.5 815Q333 840 310 863Q287 839 260 814.5Q233 790 200 764L183 784Q222 827 240.5 854Q259 881 280 925H347Q369 880 387 853.5Q405 827 445 784Z" glyph-name="Ecircumflex" horiz-adv-x="580" unicode="Ê" /><glyph d="M472 58 501 163H527V0H48V26L103 32Q119 34 122 40.5Q125 47 125 81V599Q125 632 122.5 639Q120 646 103 648L48 653V680H514V517H489L460 622Q454 642 445.5 645Q437 648 406 648H212V359H346Q379 359 387 362.5Q395 366 400 385L419 460H445V226H419L400 301Q395 320 387 323.5Q379 327 346 327H212V32H418Q451 32 459 35.5Q467 39 472 58ZM262 848Q262 825 248 810.5Q234 796 211 796Q188 796 174 810.5Q160 825 160 848Q160 870 174.5 884Q189 898 211 898Q233 898 247.5 884Q262 870 262 848ZM466 848Q466 825 451.5 810.5Q437 796 414 796Q391 796 377 810.5Q363 825 363 848Q363 870 377.5 884Q392 898 414 898Q437 898 451.5 884Q466 870 466 848Z" glyph-name="Edieresis" horiz-adv-x="580" unicode="Ë" /><glyph d="M472 58 501 163H527V0H48V26L103 32Q119 34 122 40.5Q125 47 125 81V599Q125 632 122.5 639Q120 646 103 648L48 653V680H514V517H489L460 622Q454 642 445.5 645Q437 648 406 648H212V359H346Q379 359 387 362.5Q395 366 400 385L419 460H445V226H419L400 301Q395 320 387 323.5Q379 327 346 327H212V32H418Q451 32 459 35.5Q467 39 472 58ZM336 783 315 764Q270 802 236.5 840Q203 878 172 925H268Q279 883 293.5 852Q308 821 336 783Z" glyph-name="Egrave" horiz-adv-x="580" unicode="È" /><glyph d="M472 58 501 163H527V0H48V26L103 32Q119 34 122 40.5Q125 47 125 81V599Q125 632 122.5 639Q120 646 103 648L48 653V680H514V517H489L460 622Q454 642 445.5 645Q437 648 406 648H212V359H346Q379 359 387 362.5Q395 366 400 385L419 460H445V226H419L400 301Q395 320 387 323.5Q379 327 346 327H212V32H418Q451 32 459 35.5Q467 39 472 58ZM314 828Q361 828 387.5 851.5Q414 875 427 927L455 918Q441 840 406 802Q371 764 314 764Q256 764 221 801.5Q186 839 172 918L201 927Q213 875 240 851.5Q267 828 314 828Z" glyph-name="Ebreve" horiz-adv-x="580" unicode="Ĕ" /><glyph d="M472 58 501 163H527V0H48V26L103 32Q119 34 122 40.5Q125 47 125 81V599Q125 632 122.5 639Q120 646 103 648L48 653V680H514V517H489L460 622Q454 642 445.5 645Q437 648 406 648H212V359H346Q379 359 387 362.5Q395 366 400 385L419 460H445V226H419L400 301Q395 320 387 323.5Q379 327 346 327H212V32H418Q451 32 459 35.5Q467 39 472 58ZM428 930 445 909Q406 866 387.5 839.5Q369 813 347 769H280Q259 813 240.5 839.5Q222 866 183 909L200 930Q239 900 267 876Q295 852 317 830Q340 854 368 879.5Q396 905 428 930Z" glyph-name="Ecaron" horiz-adv-x="580" unicode="Ě" /><glyph d="M472 58 501 163H527V0H48V26L103 32Q119 34 122 40.5Q125 47 125 81V599Q125 632 122.5 639Q120 646 103 648L48 653V680H514V517H489L460 622Q454 642 445.5 645Q437 648 406 648H212V359H346Q379 359 387 362.5Q395 366 400 385L419 460H445V226H419L400 301Q395 320 387 323.5Q379 327 346 327H212V32H418Q451 32 459 35.5Q467 39 472 58ZM368 848Q368 823 352.5 807.5Q337 792 313 792Q289 792 273.5 807.5Q258 823 258 848Q258 872 273.5 887Q289 902 313 902Q337 902 352.5 887Q368 872 368 848Z" glyph-name="Edotaccent" horiz-adv-x="580" unicode="Ė" /><glyph d="M472 58 501 163H527V0H48V26L103 32Q119 34 122 40.5Q125 47 125 81V599Q125 632 122.5 639Q120 646 103 648L48 653V680H514V517H489L460 622Q454 642 445.5 645Q437 648 406 648H212V359H346Q379 359 387 362.5Q395 366 400 385L419 460H445V226H419L400 301Q395 320 387 323.5Q379 327 346 327H212V32H418Q451 32 459 35.5Q467 39 472 58ZM170 851 457 851V804H170Z" glyph-name="Emacron" horiz-adv-x="580" unicode="Ē" /><glyph d="M475 -112 527 -125Q514 -173 481 -198Q448 -223 401 -223Q351 -223 321 -197Q291 -171 291 -128Q291 -88 317.5 -53.5Q344 -19 389 0H48V26L103 32Q119 34 122 40.5Q125 47 125 81V599Q125 632 122.5 639Q120 646 103 648L48 653V680H514V517H489L460 622Q454 641 445.5 644.5Q437 648 406 648H212V359H346Q379 359 387 362.5Q395 366 400 385L419 460H445V226H419L400 301Q395 320 387 323.5Q379 327 346 327H212V32H418Q451 32 459 35.5Q467 39 472 58L501 163H527V0H480Q422 0 388.5 -34.5Q355 -69 355 -127Q355 -160 368 -176.5Q381 -193 407 -193Q433 -193 450.5 -172.5Q468 -152 475 -112Z" glyph-name="Eogonek" horiz-adv-x="580" unicode="Ę" /><glyph d="M447 276 372 281V308H627V281L572 276Q555 274 552.5 267Q550 260 550 227V0H526Q516 14 505 25.5Q494 37 481 46Q450 18 411 4Q372 -10 325 -10Q208 -10 141 75Q74 160 74 305V380Q74 523 142.5 606.5Q211 690 330 690Q440 690 501 630Q562 570 549 480L463 459Q474 554 439.5 606Q405 658 330 658Q248 658 208.5 600.5Q169 543 169 424V257Q169 138 209.5 80Q250 22 333 22Q377 22 411.5 38Q446 54 469 85V227Q469 261 466 267.5Q463 274 447 276ZM330 828Q377 828 403.5 851.5Q430 875 443 927L471 918Q457 840 422 802Q387 764 330 764Q272 764 237 801.5Q202 839 188 918L217 927Q229 875 256 851.5Q283 828 330 828Z" glyph-name="Gbreve" horiz-adv-x="649" unicode="Ğ" /><glyph d="M447 276 372 281V308H627V281L572 276Q555 274 552.5 267Q550 260 550 227V0H526Q516 14 505 25.5Q494 37 481 46Q450 18 411 4Q372 -10 325 -10Q208 -10 141 75Q74 160 74 305V380Q74 523 142.5 606.5Q211 690 330 690Q440 690 501 630Q562 570 549 480L463 459Q474 554 439.5 606Q405 658 330 658Q248 658 208.5 600.5Q169 543 169 424V257Q169 138 209.5 80Q250 22 333 22Q377 22 411.5 38Q446 54 469 85V227Q469 261 466 267.5Q463 274 447 276ZM461 784 444 764Q408 790 378.5 815Q349 840 326 863Q303 839 276 814.5Q249 790 216 764L199 784Q238 827 256.5 854Q275 881 296 925H363Q385 880 403 853.5Q421 827 461 784Z" glyph-name="Gcircumflex" horiz-adv-x="649" unicode="Ĝ" /><glyph d="M447 276 372 281V308H627V281L572 276Q555 274 552.5 267Q550 260 550 227V0H526Q516 14 505 25.5Q494 37 481 46Q450 18 411 4Q372 -10 325 -10Q208 -10 141 75Q74 160 74 305V380Q74 523 142.5 606.5Q211 690 330 690Q440 690 501 630Q562 570 549 480L463 459Q474 554 439.5 606Q405 658 330 658Q248 658 208.5 600.5Q169 543 169 424V257Q169 138 209.5 80Q250 22 333 22Q377 22 411.5 38Q446 54 469 85V227Q469 261 466 267.5Q463 274 447 276ZM280 -242 261 -226Q278 -189 286 -154.5Q294 -120 296 -77H381Q363 -128 340 -166Q317 -204 280 -242Z" glyph-name="Gcommaaccent" horiz-adv-x="649" unicode="Ģ" /><glyph d="M447 276 372 281V308H627V281L572 276Q555 274 552.5 267Q550 260 550 227V0H526Q516 14 505 25.5Q494 37 481 46Q450 18 411 4Q372 -10 325 -10Q208 -10 141 75Q74 160 74 305V380Q74 523 142.5 606.5Q211 690 330 690Q440 690 501 630Q562 570 549 480L463 459Q474 554 439.5 606Q405 658 330 658Q248 658 208.5 600.5Q169 543 169 424V257Q169 138 209.5 80Q250 22 333 22Q377 22 411.5 38Q446 54 469 85V227Q469 261 466 267.5Q463 274 447 276ZM384 848Q384 823 368.5 807.5Q353 792 329 792Q305 792 289.5 807.5Q274 823 274 848Q274 872 289.5 887Q305 902 329 902Q353 902 368.5 887Q384 872 384 848Z" glyph-name="Gdotaccent" horiz-adv-x="649" unicode="Ġ" /><glyph d="M237 32 292 26V0H51V26L106 32Q122 34 125 40.5Q128 47 128 81V493H52V524H128V599Q128 632 125.5 639Q123 646 106 648L51 653V680H292V653L237 648Q220 646 217.5 639Q215 632 215 599V524H517V599Q517 632 514.5 639Q512 646 495 648L440 653V680H681V653L626 648Q609 646 606.5 639Q604 632 604 599V524H682V493H604V81Q604 47 607 40.5Q610 34 626 32L681 26V0H440V26L495 32Q511 34 514 40.5Q517 47 517 81V327H215V81Q215 47 218 40.5Q221 34 237 32ZM215 493 215 359H517V493Z" glyph-name="Hbar" horiz-adv-x="734" unicode="Ħ" /><glyph d="M623 32 678 26V0H437V26L492 32Q508 34 511 40.5Q514 47 514 81V327H212V81Q212 47 215 40.5Q218 34 234 32L289 26V0H48V26L103 32Q119 34 122 40.5Q125 47 125 81V599Q125 632 122.5 639Q120 646 103 648L48 653V680H289V653L234 648Q217 646 214.5 639Q212 632 212 599V359H514V599Q514 632 511.5 639Q509 646 492 648L437 653V680H678V653L623 648Q606 646 603.5 639Q601 632 601 599V81Q601 47 604 40.5Q607 34 623 32ZM494 784 477 764Q441 790 411.5 815Q382 840 359 863Q336 839 309 814.5Q282 790 249 764L232 784Q271 827 289.5 854Q308 881 329 925H396Q418 880 436 853.5Q454 827 494 784Z" glyph-name="Hcircumflex" horiz-adv-x="726" unicode="Ĥ" /><glyph d="M103 648 48 653V680H289V653L234 648Q217 646 214.5 639Q212 632 212 599V81Q212 47 215 40.5Q218 34 234 32L289 26V0H48V26L103 32Q119 34 122 40.5Q125 47 125 81V599Q125 632 122.5 639Q120 646 103 648ZM168 764 147 783Q174 822 188.5 853Q203 884 214 925H310Q280 879 246 841Q212 803 168 764Z" glyph-name="Iacute" horiz-adv-x="337" unicode="Í" /><glyph d="M103 648 48 653V680H289V653L234 648Q217 646 214.5 639Q212 632 212 599V81Q212 47 215 40.5Q218 34 234 32L289 26V0H48V26L103 32Q119 34 122 40.5Q125 47 125 81V599Q125 632 122.5 639Q120 646 103 648ZM300 784 283 764Q247 790 217.5 815Q188 840 165 863Q142 839 115 814.5Q88 790 55 764L38 784Q77 827 95.5 854Q114 881 135 925H202Q224 880 242 853.5Q260 827 300 784Z" glyph-name="Icircumflex" horiz-adv-x="337" unicode="Î" /><glyph d="M103 648 48 653V680H289V653L234 648Q217 646 214.5 639Q212 632 212 599V81Q212 47 215 40.5Q218 34 234 32L289 26V0H48V26L103 32Q119 34 122 40.5Q125 47 125 81V599Q125 632 122.5 639Q120 646 103 648ZM118 848Q118 825 104 810.5Q90 796 67 796Q44 796 30 810.5Q16 825 16 848Q16 870 30.5 884Q45 898 67 898Q89 898 103.5 884Q118 870 118 848ZM322 848Q322 825 307.5 810.5Q293 796 270 796Q247 796 233 810.5Q219 825 219 848Q219 870 233.5 884Q248 898 270 898Q293 898 307.5 884Q322 870 322 848Z" glyph-name="Idieresis" horiz-adv-x="337" unicode="Ï" /><glyph d="M103 648 48 653V680H289V653L234 648Q217 646 214.5 639Q212 632 212 599V81Q212 47 215 40.5Q218 34 234 32L289 26V0H48V26L103 32Q119 34 122 40.5Q125 47 125 81V599Q125 632 122.5 639Q120 646 103 648ZM191 783 170 764Q125 802 91.5 840Q58 878 27 925H123Q134 883 148.5 852Q163 821 191 783Z" glyph-name="Igrave" horiz-adv-x="337" unicode="Ì" /><glyph d="M103 648 48 653V680H289V653L234 648Q217 646 214.5 639Q212 632 212 599V81Q212 47 215 40.5Q218 34 234 32L289 26V0H48V26L103 32Q119 34 122 40.5Q125 47 125 81V599Q125 632 122.5 639Q120 646 103 648ZM169 828Q216 828 242.5 851.5Q269 875 282 927L310 918Q296 840 261 802Q226 764 169 764Q111 764 76 801.5Q41 839 27 918L56 927Q68 875 95 851.5Q122 828 169 828Z" glyph-name="Ibreve" horiz-adv-x="337" unicode="Ĭ" /><glyph d="M103 648 48 653V680H289V653L234 648Q217 646 214.5 639Q212 632 212 599V81Q212 47 215 40.5Q218 34 234 32L289 26V0H48V26L103 32Q119 34 122 40.5Q125 47 125 81V599Q125 632 122.5 639Q120 646 103 648ZM224 848Q224 823 208.5 807.5Q193 792 169 792Q145 792 129.5 807.5Q114 823 114 848Q114 872 129.5 887Q145 902 169 902Q193 902 208.5 887Q224 872 224 848Z" glyph-name="Idotaccent" horiz-adv-x="337" unicode="İ" /><glyph d="M103 648 48 653V680H289V653L234 648Q217 646 214.5 639Q212 632 212 599V81Q212 47 215 40.5Q218 34 234 32L289 26V0H48V26L103 32Q119 34 122 40.5Q125 47 125 81V599Q125 632 122.5 639Q120 646 103 648ZM26 851 313 851V804H26Z" glyph-name="Imacron" horiz-adv-x="337" unicode="Ī" /><glyph d="M99 648 44 653V680H285V653L230 648Q213 646 210.5 639Q208 632 208 599V81Q208 47 211 40.5Q214 34 230 32L285 26V0H223Q166 0 132 -34.5Q98 -69 98 -127Q98 -159 111.5 -176Q125 -193 150 -193Q177 -193 194 -173Q211 -153 218 -112L270 -125Q257 -173 224.5 -198Q192 -223 145 -223Q95 -223 64.5 -197Q34 -171 34 -128Q34 -88 57 -54Q80 -20 121 2V599Q121 632 118.5 639Q116 646 99 648Z" glyph-name="Iogonek" horiz-adv-x="334" unicode="Į" /><glyph d="M103 648 48 653V680H289V653L234 648Q217 646 214.5 639Q212 632 212 599V81Q212 47 215 40.5Q218 34 234 32L289 26V0H48V26L103 32Q119 34 122 40.5Q125 47 125 81V599Q125 632 122.5 639Q120 646 103 648ZM236 774Q218 774 199.5 784Q181 794 151 825Q128 849 116.5 856Q105 863 95 863Q76 863 65 843Q54 823 51 785H20Q24 854 45 889Q66 924 103 924Q122 924 140 914Q158 904 187 873Q210 849 221 842Q232 835 243 835Q261 835 272 855Q283 875 286 913H318Q314 845 293 809.5Q272 774 236 774Z" glyph-name="Itilde" horiz-adv-x="337" unicode="Ĩ" /><glyph d="M239 648 184 653V680H425V653L370 648Q353 646 350.5 639Q348 632 348 599V198Q348 98 302 44Q256 -10 169 -10Q100 -10 60 26.5Q20 63 12 134L70 151Q72 86 96 54Q120 22 165 22Q215 22 238 63Q261 104 261 190V599Q261 632 258.5 639Q256 646 239 648ZM435 784 418 764Q382 790 352.5 815Q323 840 300 863Q277 839 250 814.5Q223 790 190 764L173 784Q212 827 230.5 854Q249 881 270 925H337Q359 880 377 853.5Q395 827 435 784Z" glyph-name="Jcircumflex" horiz-adv-x="461" unicode="Ĵ" /><glyph d="M103 648 48 653V680H289V653L234 648Q217 646 214.5 639Q212 632 212 599V81Q212 47 215 40.5Q218 34 234 32L289 26V0H48V26L103 32Q119 34 122 40.5Q125 47 125 81V599Q125 632 122.5 639Q120 646 103 648ZM576 648 521 653V680H762V653L707 648Q690 646 687.5 639Q685 632 685 599V198Q685 98 639 44Q593 -10 506 -10Q437 -10 397 26.5Q357 63 349 134L407 151Q409 86 433 54Q457 22 502 22Q552 22 575 63Q598 104 598 190V599Q598 632 595.5 639Q593 646 576 648Z" glyph-name="IJ" horiz-adv-x="799" unicode="Ĳ" /><glyph d="M103 648 48 654V680H289V654L234 648Q218 646 215 639.5Q212 633 212 599V305L462 605Q485 632 487 639Q489 646 471 648L420 654V680H610V654L559 648Q545 647 538.5 642Q532 637 505 605L349 417L539 81Q559 46 565.5 39.5Q572 33 591 32L639 26V0H483L291 347L212 253V81Q212 47 215 40.5Q218 34 234 32L289 26V0H48V26L103 32Q119 34 122 40.5Q125 47 125 81V599Q125 633 122 639.5Q119 646 103 648ZM284 -242 265 -226Q282 -189 290 -154.5Q298 -120 300 -77H385Q367 -128 344 -166Q321 -204 284 -242Z" glyph-name="Kcommaaccent" horiz-adv-x="644" unicode="Ķ" /><glyph d="M714 685 735 668Q721 634 712.5 592Q704 550 702 504H617Q635 558 659 603.5Q683 649 714 685ZM103 648 48 654V680H289V654L234 648Q218 646 215 639.5Q212 633 212 599V305L462 605Q485 632 487 639Q489 646 471 648L420 654V680H610V654L559 648Q545 647 538.5 642Q532 637 505 605L349 417L539 81Q559 46 565.5 39.5Q572 33 591 32L639 26V0H483L291 347L212 253V81Q212 47 215 40.5Q218 34 234 32L289 26V0H48V26L103 32Q119 34 122 40.5Q125 47 125 81V599Q125 633 122 639.5Q119 646 103 648Z" glyph-name="kgreenlandic.case" horiz-adv-x="749" unicode="" /><glyph d="M447 58 476 165H503V0H48V26L103 32Q119 34 122 40.5Q125 47 125 81V599Q125 632 122.5 639Q120 646 103 648L48 653V680H289V653L234 648Q217 646 214.5 639Q212 632 212 599V32H393Q426 32 434 35.5Q442 39 447 58ZM177 764 156 783Q183 822 197.5 853Q212 884 223 925H319Q289 879 255 841Q221 803 177 764Z" glyph-name="Lacute" horiz-adv-x="515" unicode="Ĺ" /><glyph d="M447 58 476 165H503V0H48V26L103 32Q119 34 122 40.5Q125 47 125 81V599Q125 632 122.5 639Q120 646 103 648L48 653V680H289V653L234 648Q217 646 214.5 639Q212 632 212 599V32H393Q426 32 434 35.5Q442 39 447 58ZM379 466 358 466V680H440Q425 617 410.5 566Q396 515 379 466Z" glyph-name="Lcaron" horiz-adv-x="515" unicode="Ľ" /><glyph d="M447 58 476 165H503V0H48V26L103 32Q119 34 122 40.5Q125 47 125 81V599Q125 632 122.5 639Q120 646 103 648L48 653V680H289V653L234 648Q217 646 214.5 639Q212 632 212 599V32H393Q426 32 434 35.5Q442 39 447 58ZM235 -242 216 -226Q233 -189 241 -154.5Q249 -120 251 -77H336Q318 -128 295 -166Q272 -204 235 -242Z" glyph-name="Lcommaaccent" horiz-adv-x="515" unicode="Ļ" /><glyph d="M447 58 476 165H503V0H48V26L103 32Q119 34 122 40.5Q125 47 125 81V599Q125 632 122.5 639Q120 646 103 648L48 653V680H289V653L234 648Q217 646 214.5 639Q212 632 212 599V32H393Q426 32 434 35.5Q442 39 447 58ZM480 385Q480 360 464.5 344.5Q449 329 425 329Q401 329 385.5 344.5Q370 360 370 385Q370 409 385.5 424Q401 439 425 439Q449 439 464.5 424Q480 409 480 385Z" glyph-name="Ldot" horiz-adv-x="515" unicode="Ŀ" /><glyph d="M516 648 461 653V680H652V653L597 648Q581 646 578 639Q575 632 575 599V0H526L162 614V81Q162 47 165 40.5Q168 34 184 32L239 26V0H48V26L103 32Q119 34 122 40.5Q125 47 125 81V599Q125 632 122 639Q119 646 103 648L48 653V680H221L538 144V599Q538 632 535 639Q532 646 516 648ZM421 774Q403 774 384.5 784Q366 794 336 825Q313 849 301.5 856Q290 863 280 863Q261 863 250 843Q239 823 236 785H205Q209 854 230 889Q251 924 288 924Q307 924 325 914Q343 904 372 873Q395 849 406 842Q417 835 428 835Q446 835 457 855Q468 875 471 913H503Q499 845 478 809.5Q457 774 421 774Z" glyph-name="Ntilde" horiz-adv-x="691" unicode="Ñ" /><glyph d="M516 648 461 653V680H652V653L597 648Q581 646 578 639Q575 632 575 599V0H526L162 614V81Q162 47 165 40.5Q168 34 184 32L239 26V0H48V26L103 32Q119 34 122 40.5Q125 47 125 81V599Q125 632 122 639Q119 646 103 648L48 653V680H221L538 144V599Q538 632 535 639Q532 646 516 648ZM353 764 332 783Q359 822 373.5 853Q388 884 399 925H495Q465 879 431 841Q397 803 353 764Z" glyph-name="Nacute" horiz-adv-x="691" unicode="Ń" /><glyph d="M516 648 461 653V680H652V653L597 648Q581 646 578 639Q575 632 575 599V0H526L162 614V81Q162 47 165 40.5Q168 34 184 32L239 26V0H48V26L103 32Q119 34 122 40.5Q125 47 125 81V599Q125 632 122 639Q119 646 103 648L48 653V680H221L538 144V599Q538 632 535 639Q532 646 516 648ZM468 930 485 909Q446 866 427.5 839.5Q409 813 387 769H320Q299 813 280.5 839.5Q262 866 223 909L240 930Q279 900 307 876Q335 852 357 830Q380 854 408 879.5Q436 905 468 930Z" glyph-name="Ncaron" horiz-adv-x="691" unicode="Ň" /><glyph d="M516 648 461 653V680H652V653L597 648Q581 646 578 639Q575 632 575 599V0H526L162 614V81Q162 47 165 40.5Q168 34 184 32L239 26V0H48V26L103 32Q119 34 122 40.5Q125 47 125 81V599Q125 632 122 639Q119 646 103 648L48 653V680H221L538 144V599Q538 632 535 639Q532 646 516 648ZM290 -242 271 -226Q288 -189 296 -154.5Q304 -120 306 -77H391Q373 -128 350 -166Q327 -204 290 -242Z" glyph-name="Ncommaaccent" horiz-adv-x="691" unicode="Ņ" /><glyph d="M652 653 597 648Q581 646 578 639Q575 632 575 599V-26Q575 -118 531 -170.5Q487 -223 406 -223Q343 -223 304.5 -187.5Q266 -152 259 -84L317 -67Q319 -129 340.5 -160Q362 -191 403 -191Q448 -191 469 -152.5Q490 -114 490 -34V61L162 614V81Q162 47 165 40.5Q168 34 184 32L239 26V0H48V26L103 32Q119 34 122 40.5Q125 47 125 81V599Q125 632 122 639Q119 646 103 648L48 653V680H221L538 144V599Q538 632 535 639Q532 646 516 648L461 653V680H652Z" glyph-name="Eng" horiz-adv-x="691" unicode="Ŋ" /><glyph d="M652 648 597 653V680H788V653L733 648Q717 646 714 639Q711 632 711 599V0H662L298 614V81Q298 47 301 40.5Q304 34 320 32L375 26V0H184V26L239 32Q255 34 258 40.5Q261 47 261 81V599Q261 632 258 639Q255 646 239 648L184 653V680H357L674 144V599Q674 632 671 639Q668 646 652 648ZM69 690Q93 690 107.5 673Q122 656 122 627Q122 588 97.5 535.5Q73 483 31 432L10 451Q40 489 54.5 521.5Q69 554 71 585H69Q46 585 31.5 599.5Q17 614 17 638Q17 661 32 675.5Q47 690 69 690Z" glyph-name="napostrophe.case" horiz-adv-x="828" unicode="" /><glyph d="M333 690Q456 690 524 608Q592 526 592 378V303Q592 154 524 72Q456 -10 333 -10Q209 -10 141.5 72Q74 154 74 303V378Q74 526 142 608Q210 690 333 690ZM497 253 497 428Q497 547 457.5 602.5Q418 658 333 658Q248 658 208.5 602.5Q169 547 169 428V253Q169 134 208.5 78Q248 22 333 22Q418 22 457.5 78Q497 134 497 253ZM334 764 313 783Q340 822 354.5 853Q369 884 380 925H476Q446 879 412 841Q378 803 334 764Z" glyph-name="Oacute" horiz-adv-x="666" unicode="Ó" /><glyph d="M333 690Q456 690 524 608Q592 526 592 378V303Q592 154 524 72Q456 -10 333 -10Q209 -10 141.5 72Q74 154 74 303V378Q74 526 142 608Q210 690 333 690ZM497 253 497 428Q497 547 457.5 602.5Q418 658 333 658Q248 658 208.5 602.5Q169 547 169 428V253Q169 134 208.5 78Q248 22 333 22Q418 22 457.5 78Q497 134 497 253ZM466 784 449 764Q413 790 383.5 815Q354 840 331 863Q308 839 281 814.5Q254 790 221 764L204 784Q243 827 261.5 854Q280 881 301 925H368Q390 880 408 853.5Q426 827 466 784Z" glyph-name="Ocircumflex" horiz-adv-x="666" unicode="Ô" /><glyph d="M333 690Q456 690 524 608Q592 526 592 378V303Q592 154 524 72Q456 -10 333 -10Q209 -10 141.5 72Q74 154 74 303V378Q74 526 142 608Q210 690 333 690ZM497 253 497 428Q497 547 457.5 602.5Q418 658 333 658Q248 658 208.5 602.5Q169 547 169 428V253Q169 134 208.5 78Q248 22 333 22Q418 22 457.5 78Q497 134 497 253ZM284 848Q284 825 270 810.5Q256 796 233 796Q210 796 196 810.5Q182 825 182 848Q182 870 196.5 884Q211 898 233 898Q255 898 269.5 884Q284 870 284 848ZM488 848Q488 825 473.5 810.5Q459 796 436 796Q413 796 399 810.5Q385 825 385 848Q385 870 399.5 884Q414 898 436 898Q459 898 473.5 884Q488 870 488 848Z" glyph-name="Odieresis" horiz-adv-x="666" unicode="Ö" /><glyph d="M333 690Q456 690 524 608Q592 526 592 378V303Q592 154 524 72Q456 -10 333 -10Q209 -10 141.5 72Q74 154 74 303V378Q74 526 142 608Q210 690 333 690ZM497 253 497 428Q497 547 457.5 602.5Q418 658 333 658Q248 658 208.5 602.5Q169 547 169 428V253Q169 134 208.5 78Q248 22 333 22Q418 22 457.5 78Q497 134 497 253ZM357 783 336 764Q291 802 257.5 840Q224 878 193 925H289Q300 883 314.5 852Q329 821 357 783Z" glyph-name="Ograve" horiz-adv-x="666" unicode="Ò" /><glyph d="M333 690Q456 690 524 608Q592 526 592 378V303Q592 154 524 72Q456 -10 333 -10Q209 -10 141.5 72Q74 154 74 303V378Q74 526 142 608Q210 690 333 690ZM497 253 497 428Q497 547 457.5 602.5Q418 658 333 658Q248 658 208.5 602.5Q169 547 169 428V253Q169 134 208.5 78Q248 22 333 22Q418 22 457.5 78Q497 134 497 253ZM402 774Q384 774 365.5 784Q347 794 317 825Q294 849 282.5 856Q271 863 261 863Q242 863 231 843Q220 823 217 785H186Q190 854 211 889Q232 924 269 924Q288 924 306 914Q324 904 353 873Q376 849 387 842Q398 835 409 835Q427 835 438 855Q449 875 452 913H484Q480 845 459 809.5Q438 774 402 774Z" glyph-name="Otilde" horiz-adv-x="666" unicode="Õ" /><glyph d="M333 690Q456 690 524 608Q592 526 592 378V303Q592 154 524 72Q456 -10 333 -10Q209 -10 141.5 72Q74 154 74 303V378Q74 526 142 608Q210 690 333 690ZM497 253 497 428Q497 547 457.5 602.5Q418 658 333 658Q248 658 208.5 602.5Q169 547 169 428V253Q169 134 208.5 78Q248 22 333 22Q418 22 457.5 78Q497 134 497 253ZM335 828Q382 828 408.5 851.5Q435 875 448 927L476 918Q462 840 427 802Q392 764 335 764Q277 764 242 801.5Q207 839 193 918L222 927Q234 875 261 851.5Q288 828 335 828Z" glyph-name="Obreve" horiz-adv-x="666" unicode="Ŏ" /><glyph d="M333 690Q456 690 524 608Q592 526 592 378V303Q592 154 524 72Q456 -10 333 -10Q209 -10 141.5 72Q74 154 74 303V378Q74 526 142 608Q210 690 333 690ZM497 253 497 428Q497 547 457.5 602.5Q418 658 333 658Q248 658 208.5 602.5Q169 547 169 428V253Q169 134 208.5 78Q248 22 333 22Q418 22 457.5 78Q497 134 497 253ZM262 764 239 782Q257 813 270 846.5Q283 880 294 925H381Q355 880 325 839.5Q295 799 262 764ZM402 764 379 782Q397 813 410 846.5Q423 880 434 925H521Q495 880 465 839.5Q435 799 402 764Z" glyph-name="Ohungarumlaut" horiz-adv-x="666" unicode="Ő" /><glyph d="M333 690Q456 690 524 608Q592 526 592 378V303Q592 154 524 72Q456 -10 333 -10Q209 -10 141.5 72Q74 154 74 303V378Q74 526 142 608Q210 690 333 690ZM497 253 497 428Q497 547 457.5 602.5Q418 658 333 658Q248 658 208.5 602.5Q169 547 169 428V253Q169 134 208.5 78Q248 22 333 22Q418 22 457.5 78Q497 134 497 253ZM192 851 479 851V804H192Z" glyph-name="Omacron" horiz-adv-x="666" unicode="Ō" /><glyph d="M103 648 48 653V680H326Q421 680 475 634.5Q529 589 529 510V479Q529 417 495.5 375Q462 333 400 317L528 81Q537 65 540 59Q543 53 546 49Q551 40 556 36.5Q561 33 574 32L619 26V0H468L310 308H212V81Q212 47 215 40.5Q218 34 234 32L289 26V0H48V26L103 32Q119 34 122 40.5Q125 47 125 81V599Q125 632 122.5 639Q120 646 103 648ZM326 648 212 648V340H326Q380 340 408.5 374.5Q437 409 437 475V514Q437 579 408.5 613.5Q380 648 326 648ZM305 764 284 783Q311 822 325.5 853Q340 884 351 925H447Q417 879 383 841Q349 803 305 764Z" glyph-name="Racute" horiz-adv-x="625" unicode="Ŕ" /><glyph d="M103 648 48 653V680H326Q421 680 475 634.5Q529 589 529 510V479Q529 417 495.5 375Q462 333 400 317L528 81Q537 65 540 59Q543 53 546 49Q551 40 556 36.5Q561 33 574 32L619 26V0H468L310 308H212V81Q212 47 215 40.5Q218 34 234 32L289 26V0H48V26L103 32Q119 34 122 40.5Q125 47 125 81V599Q125 632 122.5 639Q120 646 103 648ZM326 648 212 648V340H326Q380 340 408.5 374.5Q437 409 437 475V514Q437 579 408.5 613.5Q380 648 326 648ZM420 930 437 909Q398 866 379.5 839.5Q361 813 339 769H272Q251 813 232.5 839.5Q214 866 175 909L192 930Q231 900 259 876Q287 852 309 830Q332 854 360 879.5Q388 905 420 930Z" glyph-name="Rcaron" horiz-adv-x="625" unicode="Ř" /><glyph d="M103 648 48 653V680H326Q421 680 475 634.5Q529 589 529 510V479Q529 417 495.5 375Q462 333 400 317L528 81Q537 65 540 59Q543 53 546 49Q551 40 556 36.5Q561 33 574 32L619 26V0H468L310 308H212V81Q212 47 215 40.5Q218 34 234 32L289 26V0H48V26L103 32Q119 34 122 40.5Q125 47 125 81V599Q125 632 122.5 639Q120 646 103 648ZM326 648 212 648V340H326Q380 340 408.5 374.5Q437 409 437 475V514Q437 579 408.5 613.5Q380 648 326 648ZM285 -242 266 -226Q283 -189 291 -154.5Q299 -120 301 -77H386Q368 -128 345 -166Q322 -204 285 -242Z" glyph-name="Rcommaaccent" horiz-adv-x="625" unicode="Ŗ" /><glyph d="M270 22Q340 22 380 56Q420 90 420 152Q420 206 387 239.5Q354 273 281 293L212 313Q136 334 96 383.5Q56 433 56 506Q56 589 112.5 639.5Q169 690 266 690Q375 690 431.5 631.5Q488 573 472 483L388 465Q401 560 368.5 609Q336 658 261 658Q199 658 164.5 624.5Q130 591 130 531Q130 477 161 444Q192 411 257 393L326 373Q410 350 451.5 301.5Q493 253 493 178Q493 91 434 40.5Q375 -10 270 -10Q172 -10 115 35Q58 80 45 169L105 189Q111 106 152.5 64Q194 22 270 22ZM382 930 399 909Q360 866 341.5 839.5Q323 813 301 769H234Q213 813 194.5 839.5Q176 866 137 909L154 930Q193 900 221 876Q249 852 271 830Q294 854 322 879.5Q350 905 382 930Z" glyph-name="Scaron" horiz-adv-x="548" unicode="Š" /><glyph d="M270 22Q340 22 380 56Q420 90 420 152Q420 206 387 239.5Q354 273 281 293L212 313Q136 334 96 383.5Q56 433 56 506Q56 589 112.5 639.5Q169 690 266 690Q375 690 431.5 631.5Q488 573 472 483L388 465Q401 560 368.5 609Q336 658 261 658Q199 658 164.5 624.5Q130 591 130 531Q130 477 161 444Q192 411 257 393L326 373Q410 350 451.5 301.5Q493 253 493 178Q493 91 434 40.5Q375 -10 270 -10Q172 -10 115 35Q58 80 45 169L105 189Q111 106 152.5 64Q194 22 270 22ZM267 764 246 783Q273 822 287.5 853Q302 884 313 925H409Q379 879 345 841Q311 803 267 764Z" glyph-name="Sacute" horiz-adv-x="548" unicode="Ś" /><glyph d="M369 -140Q369 -178 338.5 -200.5Q308 -223 258 -223Q213 -223 185.5 -203Q158 -183 151 -145L199 -131Q203 -164 216 -179.5Q229 -195 254 -195Q278 -195 291 -180.5Q304 -166 304 -140Q304 -113 289.5 -99.5Q275 -86 246 -86Q241 -86 234.5 -86.5Q228 -87 223 -88L213 -63L236 -8Q154 -1 105.5 43.5Q57 88 45 169L105 189Q111 106 152.5 64Q194 22 270 22Q340 22 380 56Q420 90 420 152Q420 206 387 239.5Q354 273 281 293L212 313Q136 334 96 383.5Q56 433 56 506Q56 589 112.5 639.5Q169 690 266 690Q375 690 431.5 631.5Q488 573 472 483L388 465Q401 560 368.5 609Q336 658 261 658Q199 658 164.5 624.5Q130 591 130 531Q130 477 161 444Q192 411 257 393L326 373Q410 350 451.5 301.5Q493 253 493 178Q493 91 434 40.5Q375 -10 270 -10L250 -58Q305 -58 337 -80Q369 -102 369 -140Z" glyph-name="Scedilla" horiz-adv-x="548" unicode="Ş" /><glyph d="M270 22Q340 22 380 56Q420 90 420 152Q420 206 387 239.5Q354 273 281 293L212 313Q136 334 96 383.5Q56 433 56 506Q56 589 112.5 639.5Q169 690 266 690Q375 690 431.5 631.5Q488 573 472 483L388 465Q401 560 368.5 609Q336 658 261 658Q199 658 164.5 624.5Q130 591 130 531Q130 477 161 444Q192 411 257 393L326 373Q410 350 451.5 301.5Q493 253 493 178Q493 91 434 40.5Q375 -10 270 -10Q172 -10 115 35Q58 80 45 169L105 189Q111 106 152.5 64Q194 22 270 22ZM399 784 382 764Q346 790 316.5 815Q287 840 264 863Q241 839 214 814.5Q187 790 154 764L137 784Q176 827 194.5 854Q213 881 234 925H301Q323 880 341 853.5Q359 827 399 784Z" glyph-name="Scircumflex" horiz-adv-x="548" unicode="Ŝ" /><glyph d="M270 22Q340 22 380 56Q420 90 420 152Q420 206 387 239.5Q354 273 281 293L212 313Q136 334 96 383.5Q56 433 56 506Q56 589 112.5 639.5Q169 690 266 690Q375 690 431.5 631.5Q488 573 472 483L388 465Q401 560 368.5 609Q336 658 261 658Q199 658 164.5 624.5Q130 591 130 531Q130 477 161 444Q192 411 257 393L326 373Q410 350 451.5 301.5Q493 253 493 178Q493 91 434 40.5Q375 -10 270 -10Q172 -10 115 35Q58 80 45 169L105 189Q111 106 152.5 64Q194 22 270 22ZM212 -242 193 -226Q210 -189 218 -154.5Q226 -120 228 -77H313Q295 -128 272 -166Q249 -204 212 -242Z" glyph-name="uni0218" horiz-adv-x="548" unicode="Ș" /><glyph d="M345 32 400 26V0H159V26L214 32Q230 34 233 40.5Q236 47 236 81V324H92V355H236V648H122Q89 648 81 644.5Q73 641 68 622L39 517H13V680H545V517H519L490 622Q485 641 477 644.5Q469 648 436 648H323V355H467V324H323V81Q323 47 326 40.5Q329 34 345 32Z" glyph-name="Tbar" horiz-adv-x="559" unicode="Ŧ" /><glyph d="M13 517 13 680H545V517H519L490 622Q485 641 477 644.5Q469 648 436 648H323V81Q323 47 326 40.5Q329 34 345 32L400 26V0H159V26L214 32Q230 34 233 40.5Q236 47 236 81V648H122Q89 648 81 644.5Q73 641 68 622L39 517ZM393 930 410 909Q371 866 352.5 839.5Q334 813 312 769H245Q224 813 205.5 839.5Q187 866 148 909L165 930Q204 900 232 876Q260 852 282 830Q305 854 333 879.5Q361 905 393 930Z" glyph-name="Tcaron" horiz-adv-x="559" unicode="Ť" /><glyph d="M13 517 13 680H545V517H519L490 622Q485 641 477 644.5Q469 648 436 648H323V81Q323 47 326 40.5Q329 34 345 32L400 26V0H159V26L214 32Q230 34 233 40.5Q236 47 236 81V648H122Q89 648 81 644.5Q73 641 68 622L39 517ZM220 -242 201 -226Q218 -189 226 -154.5Q234 -120 236 -77H321Q303 -128 280 -166Q257 -204 220 -242Z" glyph-name="uni0162" horiz-adv-x="559" unicode="Ţ" /><glyph d="M13 517 13 680H545V517H519L490 622Q485 641 477 644.5Q469 648 436 648H323V81Q323 47 326 40.5Q329 34 345 32L400 26V0H159V26L214 32Q230 34 233 40.5Q236 47 236 81V648H122Q89 648 81 644.5Q73 641 68 622L39 517ZM220 -242 201 -226Q218 -189 226 -154.5Q234 -120 236 -77H321Q303 -128 280 -166Q257 -204 220 -242Z" glyph-name="uni021A" horiz-adv-x="559" unicode="Ț" /><glyph d="M507 648 452 653V680H643V653L588 648Q571 646 568.5 639Q566 632 566 599V231Q566 113 511.5 51.5Q457 -10 353 -10Q237 -10 173.5 58Q110 126 110 249V599Q110 632 107.5 639Q105 646 88 648L33 653V680H274V653L219 648Q202 646 199.5 639Q197 632 197 599V234Q197 127 237.5 75Q278 23 361 23Q444 23 486.5 75.5Q529 128 529 230V599Q529 632 526.5 639Q524 646 507 648ZM361 764 340 783Q367 822 381.5 853Q396 884 407 925H503Q473 879 439 841Q405 803 361 764Z" glyph-name="Uacute" horiz-adv-x="677" unicode="Ú" /><glyph d="M507 648 452 653V680H643V653L588 648Q571 646 568.5 639Q566 632 566 599V231Q566 113 511.5 51.5Q457 -10 353 -10Q237 -10 173.5 58Q110 126 110 249V599Q110 632 107.5 639Q105 646 88 648L33 653V680H274V653L219 648Q202 646 199.5 639Q197 632 197 599V234Q197 127 237.5 75Q278 23 361 23Q444 23 486.5 75.5Q529 128 529 230V599Q529 632 526.5 639Q524 646 507 648ZM493 784 476 764Q440 790 410.5 815Q381 840 358 863Q335 839 308 814.5Q281 790 248 764L231 784Q270 827 288.5 854Q307 881 328 925H395Q417 880 435 853.5Q453 827 493 784Z" glyph-name="Ucircumflex" horiz-adv-x="677" unicode="Û" /><glyph d="M507 648 452 653V680H643V653L588 648Q571 646 568.5 639Q566 632 566 599V231Q566 113 511.5 51.5Q457 -10 353 -10Q237 -10 173.5 58Q110 126 110 249V599Q110 632 107.5 639Q105 646 88 648L33 653V680H274V653L219 648Q202 646 199.5 639Q197 632 197 599V234Q197 127 237.5 75Q278 23 361 23Q444 23 486.5 75.5Q529 128 529 230V599Q529 632 526.5 639Q524 646 507 648ZM311 848Q311 825 297 810.5Q283 796 260 796Q237 796 223 810.5Q209 825 209 848Q209 870 223.5 884Q238 898 260 898Q282 898 296.5 884Q311 870 311 848ZM515 848Q515 825 500.5 810.5Q486 796 463 796Q440 796 426 810.5Q412 825 412 848Q412 870 426.5 884Q441 898 463 898Q486 898 500.5 884Q515 870 515 848Z" glyph-name="Udieresis" horiz-adv-x="677" unicode="Ü" /><glyph d="M507 648 452 653V680H643V653L588 648Q571 646 568.5 639Q566 632 566 599V231Q566 113 511.5 51.5Q457 -10 353 -10Q237 -10 173.5 58Q110 126 110 249V599Q110 632 107.5 639Q105 646 88 648L33 653V680H274V653L219 648Q202 646 199.5 639Q197 632 197 599V234Q197 127 237.5 75Q278 23 361 23Q444 23 486.5 75.5Q529 128 529 230V599Q529 632 526.5 639Q524 646 507 648ZM384 783 363 764Q318 802 284.5 840Q251 878 220 925H316Q327 883 341.5 852Q356 821 384 783Z" glyph-name="Ugrave" horiz-adv-x="677" unicode="Ù" /><glyph d="M507 648 452 653V680H643V653L588 648Q571 646 568.5 639Q566 632 566 599V231Q566 113 511.5 51.5Q457 -10 353 -10Q237 -10 173.5 58Q110 126 110 249V599Q110 632 107.5 639Q105 646 88 648L33 653V680H274V653L219 648Q202 646 199.5 639Q197 632 197 599V234Q197 127 237.5 75Q278 23 361 23Q444 23 486.5 75.5Q529 128 529 230V599Q529 632 526.5 639Q524 646 507 648ZM362 828Q409 828 435.5 851.5Q462 875 475 927L503 918Q489 840 454 802Q419 764 362 764Q304 764 269 801.5Q234 839 220 918L249 927Q261 875 288 851.5Q315 828 362 828Z" glyph-name="Ubreve" horiz-adv-x="677" unicode="Ŭ" /><glyph d="M507 648 452 653V680H643V653L588 648Q571 646 568.5 639Q566 632 566 599V231Q566 113 511.5 51.5Q457 -10 353 -10Q237 -10 173.5 58Q110 126 110 249V599Q110 632 107.5 639Q105 646 88 648L33 653V680H274V653L219 648Q202 646 199.5 639Q197 632 197 599V234Q197 127 237.5 75Q278 23 361 23Q444 23 486.5 75.5Q529 128 529 230V599Q529 632 526.5 639Q524 646 507 648ZM289 764 266 782Q284 813 297 846.5Q310 880 321 925H408Q382 880 352 839.5Q322 799 289 764ZM429 764 406 782Q424 813 437 846.5Q450 880 461 925H548Q522 880 492 839.5Q462 799 429 764Z" glyph-name="Uhungarumlaut" horiz-adv-x="677" unicode="Ű" /><glyph d="M507 648 452 653V680H643V653L588 648Q571 646 568.5 639Q566 632 566 599V231Q566 113 511.5 51.5Q457 -10 353 -10Q237 -10 173.5 58Q110 126 110 249V599Q110 632 107.5 639Q105 646 88 648L33 653V680H274V653L219 648Q202 646 199.5 639Q197 632 197 599V234Q197 127 237.5 75Q278 23 361 23Q444 23 486.5 75.5Q529 128 529 230V599Q529 632 526.5 639Q524 646 507 648ZM219 851 506 851V804H219Z" glyph-name="Umacron" horiz-adv-x="677" unicode="Ū" /><glyph d="M507 648 452 653V680H643V653L588 648Q571 646 568.5 639Q566 632 566 599V231Q566 165 549.5 118.5Q533 72 498 37Q483 22 454 0Q425 -22 414 -32Q389 -54 378.5 -76.5Q368 -99 368 -126Q368 -159 381.5 -176Q395 -193 421 -193Q447 -193 464 -172.5Q481 -152 488 -112L540 -125Q527 -173 494.5 -198Q462 -223 415 -223Q365 -223 334.5 -197Q304 -171 304 -127Q304 -96 323.5 -69.5Q343 -43 401 -6Q391 -8 379 -9Q367 -10 353 -10Q237 -10 173.5 58Q110 126 110 249V599Q110 632 107.5 639Q105 646 88 648L33 653V680H274V653L219 648Q202 646 199.5 639Q197 632 197 599V234Q197 127 237.5 75Q278 23 361 23Q444 23 486.5 75.5Q529 128 529 230V599Q529 632 526.5 639Q524 646 507 648Z" glyph-name="Uogonek" horiz-adv-x="677" unicode="Ų" /><glyph d="M507 648 452 653V680H643V653L588 648Q571 646 568.5 639Q566 632 566 599V231Q566 113 511.5 51.5Q457 -10 353 -10Q237 -10 173.5 58Q110 126 110 249V599Q110 632 107.5 639Q105 646 88 648L33 653V680H274V653L219 648Q202 646 199.5 639Q197 632 197 599V234Q197 127 237.5 75Q278 23 361 23Q444 23 486.5 75.5Q529 128 529 230V599Q529 632 526.5 639Q524 646 507 648ZM362 974Q414 974 448 942.5Q482 911 482 866V855Q482 810 448 778Q414 746 362 746Q309 746 275.5 777.5Q242 809 242 855V866Q242 911 275.5 942.5Q309 974 362 974ZM422 848 422 873Q422 909 406.5 929Q391 949 362 949Q333 949 317.5 929Q302 909 302 873V848Q302 811 317.5 791.5Q333 772 362 772Q391 772 406.5 792Q422 812 422 848Z" glyph-name="Uring" horiz-adv-x="677" unicode="Ů" /><glyph d="M507 648 452 653V680H643V653L588 648Q571 646 568.5 639Q566 632 566 599V231Q566 113 511.5 51.5Q457 -10 353 -10Q237 -10 173.5 58Q110 126 110 249V599Q110 632 107.5 639Q105 646 88 648L33 653V680H274V653L219 648Q202 646 199.5 639Q197 632 197 599V234Q197 127 237.5 75Q278 23 361 23Q444 23 486.5 75.5Q529 128 529 230V599Q529 632 526.5 639Q524 646 507 648ZM429 774Q411 774 392.5 784Q374 794 344 825Q321 849 309.5 856Q298 863 288 863Q269 863 258 843Q247 823 244 785H213Q217 854 238 889Q259 924 296 924Q315 924 333 914Q351 904 380 873Q403 849 414 842Q425 835 436 835Q454 835 465 855Q476 875 479 913H511Q507 845 486 809.5Q465 774 429 774Z" glyph-name="Utilde" horiz-adv-x="677" unicode="Ũ" /><glyph d="M695 0 630 0L460 574L292 0H226L80 605Q73 634 69 640Q65 646 49 648L-2 653V680H231V653L180 648Q163 646 162 640Q161 634 168 605L287 105L454 680H516L685 109L805 605Q812 632 810.5 639Q809 646 793 648L741 653V680H923V653L872 648Q856 646 852 639.5Q848 633 841 605ZM475 764 454 783Q481 822 495.5 853Q510 884 521 925H617Q587 879 553 841Q519 803 475 764Z" glyph-name="Wacute" horiz-adv-x="921" unicode="Ẃ" /><glyph d="M695 0 630 0L460 574L292 0H226L80 605Q73 634 69 640Q65 646 49 648L-2 653V680H231V653L180 648Q163 646 162 640Q161 634 168 605L287 105L454 680H516L685 109L805 605Q812 632 810.5 639Q809 646 793 648L741 653V680H923V653L872 648Q856 646 852 639.5Q848 633 841 605ZM607 784 590 764Q554 790 524.5 815Q495 840 472 863Q449 839 422 814.5Q395 790 362 764L345 784Q384 827 402.5 854Q421 881 442 925H509Q531 880 549 853.5Q567 827 607 784Z" glyph-name="Wcircumflex" horiz-adv-x="921" unicode="Ŵ" /><glyph d="M695 0 630 0L460 574L292 0H226L80 605Q73 634 69 640Q65 646 49 648L-2 653V680H231V653L180 648Q163 646 162 640Q161 634 168 605L287 105L454 680H516L685 109L805 605Q812 632 810.5 639Q809 646 793 648L741 653V680H923V653L872 648Q856 646 852 639.5Q848 633 841 605ZM425 848Q425 825 411 810.5Q397 796 374 796Q351 796 337 810.5Q323 825 323 848Q323 870 337.5 884Q352 898 374 898Q396 898 410.5 884Q425 870 425 848ZM629 848Q629 825 614.5 810.5Q600 796 577 796Q554 796 540 810.5Q526 825 526 848Q526 870 540.5 884Q555 898 577 898Q600 898 614.5 884Q629 870 629 848Z" glyph-name="Wdieresis" horiz-adv-x="921" unicode="Ẅ" /><glyph d="M695 0 630 0L460 574L292 0H226L80 605Q73 634 69 640Q65 646 49 648L-2 653V680H231V653L180 648Q163 646 162 640Q161 634 168 605L287 105L454 680H516L685 109L805 605Q812 632 810.5 639Q809 646 793 648L741 653V680H923V653L872 648Q856 646 852 639.5Q848 633 841 605ZM498 783 477 764Q432 802 398.5 840Q365 878 334 925H430Q441 883 455.5 852Q470 821 498 783Z" glyph-name="Wgrave" horiz-adv-x="921" unicode="Ẁ" /><glyph d="M360 32 415 26V0H174V26L229 32Q245 34 248 40.5Q251 47 251 81V290L90 605Q75 633 69.5 639.5Q64 646 47 648L-4 653V680H238V653L187 648Q171 646 171 639.5Q171 633 185 605L321 332L460 605Q474 632 474 639Q474 646 458 648L407 653V680H592V653L540 648Q524 646 518.5 640Q513 634 498 605L338 292V81Q338 47 341 40.5Q344 34 360 32ZM314 764 293 783Q320 822 334.5 853Q349 884 360 925H456Q426 879 392 841Q358 803 314 764Z" glyph-name="Yacute" horiz-adv-x="588" unicode="Ý" /><glyph d="M360 32 415 26V0H174V26L229 32Q245 34 248 40.5Q251 47 251 81V290L90 605Q75 633 69.5 639.5Q64 646 47 648L-4 653V680H238V653L187 648Q171 646 171 639.5Q171 633 185 605L321 332L460 605Q474 632 474 639Q474 646 458 648L407 653V680H592V653L540 648Q524 646 518.5 640Q513 634 498 605L338 292V81Q338 47 341 40.5Q344 34 360 32ZM263 848Q263 825 249 810.5Q235 796 212 796Q189 796 175 810.5Q161 825 161 848Q161 870 175.5 884Q190 898 212 898Q234 898 248.5 884Q263 870 263 848ZM467 848Q467 825 452.5 810.5Q438 796 415 796Q392 796 378 810.5Q364 825 364 848Q364 870 378.5 884Q393 898 415 898Q438 898 452.5 884Q467 870 467 848Z" glyph-name="Ydieresis" horiz-adv-x="588" unicode="Ÿ" /><glyph d="M360 32 415 26V0H174V26L229 32Q245 34 248 40.5Q251 47 251 81V290L90 605Q75 633 69.5 639.5Q64 646 47 648L-4 653V680H238V653L187 648Q171 646 171 639.5Q171 633 185 605L321 332L460 605Q474 632 474 639Q474 646 458 648L407 653V680H592V653L540 648Q524 646 518.5 640Q513 634 498 605L338 292V81Q338 47 341 40.5Q344 34 360 32ZM446 784 429 764Q393 790 363.5 815Q334 840 311 863Q288 839 261 814.5Q234 790 201 764L184 784Q223 827 241.5 854Q260 881 281 925H348Q370 880 388 853.5Q406 827 446 784Z" glyph-name="Ycircumflex" horiz-adv-x="588" unicode="Ŷ" /><glyph d="M360 32 415 26V0H174V26L229 32Q245 34 248 40.5Q251 47 251 81V290L90 605Q75 633 69.5 639.5Q64 646 47 648L-4 653V680H238V653L187 648Q171 646 171 639.5Q171 633 185 605L321 332L460 605Q474 632 474 639Q474 646 458 648L407 653V680H592V653L540 648Q524 646 518.5 640Q513 634 498 605L338 292V81Q338 47 341 40.5Q344 34 360 32ZM337 783 316 764Q271 802 237.5 840Q204 878 173 925H269Q280 883 294.5 852Q309 821 337 783Z" glyph-name="Ygrave" horiz-adv-x="588" unicode="Ỳ" /><glyph d="M436 58 465 163H491V0H39V22L382 648H161Q129 648 120.5 644.5Q112 641 107 622L78 517H52V680H481V658L139 32H382Q415 32 423 35.5Q431 39 436 58ZM380 930 397 909Q358 866 339.5 839.5Q321 813 299 769H232Q211 813 192.5 839.5Q174 866 135 909L152 930Q191 900 219 876Q247 852 269 830Q292 854 320 879.5Q348 905 380 930Z" glyph-name="Zcaron" horiz-adv-x="531" unicode="Ž" /><glyph d="M436 58 465 163H491V0H39V22L382 648H161Q129 648 120.5 644.5Q112 641 107 622L78 517H52V680H481V658L139 32H382Q415 32 423 35.5Q431 39 436 58ZM265 764 244 783Q271 822 285.5 853Q300 884 311 925H407Q377 879 343 841Q309 803 265 764Z" glyph-name="Zacute" horiz-adv-x="531" unicode="Ź" /><glyph d="M436 58 465 163H491V0H39V22L382 648H161Q129 648 120.5 644.5Q112 641 107 622L78 517H52V680H481V658L139 32H382Q415 32 423 35.5Q431 39 436 58ZM320 848Q320 823 304.5 807.5Q289 792 265 792Q241 792 225.5 807.5Q210 823 210 848Q210 872 225.5 887Q241 902 265 902Q289 902 304.5 887Q320 872 320 848Z" glyph-name="Zdotaccent" horiz-adv-x="531" unicode="Ż" /><glyph d="M447 -7Q409 -7 385.5 11.5Q362 30 355 65Q323 28 281.5 9Q240 -10 195 -10Q131 -10 95 26Q59 62 59 123Q59 188 103.5 219.5Q148 251 240 251H353V332Q353 405 328.5 439Q304 473 251 473Q193 473 171 437Q149 401 160 326L81 338Q72 412 119 458.5Q166 505 253 505Q344 505 389.5 462Q435 419 435 332V107Q435 67 443.5 48.5Q452 30 472 30Q482 30 492 34.5Q502 39 513 49L531 24Q514 9 493 1Q472 -7 447 -7ZM144 127Q144 81 164 56.5Q184 32 223 32Q258 32 290 51.5Q322 71 353 110V219H251Q195 219 169.5 197Q144 175 144 127ZM256 579 235 598Q262 637 276.5 668Q291 699 302 740H398Q368 694 334 656Q300 618 256 579Z" glyph-name="aacute" horiz-adv-x="540" unicode="á" /><glyph d="M447 -7Q409 -7 385.5 11.5Q362 30 355 65Q323 28 281.5 9Q240 -10 195 -10Q131 -10 95 26Q59 62 59 123Q59 188 103.5 219.5Q148 251 240 251H353V332Q353 405 328.5 439Q304 473 251 473Q193 473 171 437Q149 401 160 326L81 338Q72 412 119 458.5Q166 505 253 505Q344 505 389.5 462Q435 419 435 332V107Q435 67 443.5 48.5Q452 30 472 30Q482 30 492 34.5Q502 39 513 49L531 24Q514 9 493 1Q472 -7 447 -7ZM144 127Q144 81 164 56.5Q184 32 223 32Q258 32 290 51.5Q322 71 353 110V219H251Q195 219 169.5 197Q144 175 144 127ZM388 599 371 579Q335 605 305.5 630Q276 655 253 678Q230 654 203 629.5Q176 605 143 579L126 599Q165 642 183.5 669Q202 696 223 740H290Q312 695 330 668.5Q348 642 388 599Z" glyph-name="acircumflex" horiz-adv-x="540" unicode="â" /><glyph d="M447 -7Q409 -7 385.5 11.5Q362 30 355 65Q323 28 281.5 9Q240 -10 195 -10Q131 -10 95 26Q59 62 59 123Q59 188 103.5 219.5Q148 251 240 251H353V332Q353 405 328.5 439Q304 473 251 473Q193 473 171 437Q149 401 160 326L81 338Q72 412 119 458.5Q166 505 253 505Q344 505 389.5 462Q435 419 435 332V107Q435 67 443.5 48.5Q452 30 472 30Q482 30 492 34.5Q502 39 513 49L531 24Q514 9 493 1Q472 -7 447 -7ZM144 127Q144 81 164 56.5Q184 32 223 32Q258 32 290 51.5Q322 71 353 110V219H251Q195 219 169.5 197Q144 175 144 127ZM206 663Q206 640 192 625.5Q178 611 155 611Q132 611 118 625.5Q104 640 104 663Q104 685 118.5 699Q133 713 155 713Q177 713 191.5 699Q206 685 206 663ZM410 663Q410 640 395.5 625.5Q381 611 358 611Q335 611 321 625.5Q307 640 307 663Q307 685 321.5 699Q336 713 358 713Q381 713 395.5 699Q410 685 410 663Z" glyph-name="adieresis" horiz-adv-x="540" unicode="ä" /><glyph d="M447 -7Q409 -7 385.5 11.5Q362 30 355 65Q323 28 281.5 9Q240 -10 195 -10Q131 -10 95 26Q59 62 59 123Q59 188 103.5 219.5Q148 251 240 251H353V332Q353 405 328.5 439Q304 473 251 473Q193 473 171 437Q149 401 160 326L81 338Q72 412 119 458.5Q166 505 253 505Q344 505 389.5 462Q435 419 435 332V107Q435 67 443.5 48.5Q452 30 472 30Q482 30 492 34.5Q502 39 513 49L531 24Q514 9 493 1Q472 -7 447 -7ZM144 127Q144 81 164 56.5Q184 32 223 32Q258 32 290 51.5Q322 71 353 110V219H251Q195 219 169.5 197Q144 175 144 127ZM279 598 258 579Q213 617 179.5 655Q146 693 115 740H211Q222 698 236.5 667Q251 636 279 598Z" glyph-name="agrave" horiz-adv-x="540" unicode="à" /><glyph d="M447 -7Q409 -7 385.5 11.5Q362 30 355 65Q323 28 281.5 9Q240 -10 195 -10Q131 -10 95 26Q59 62 59 123Q59 188 103.5 219.5Q148 251 240 251H353V332Q353 405 328.5 439Q304 473 251 473Q193 473 171 437Q149 401 160 326L81 338Q72 412 119 458.5Q166 505 253 505Q344 505 389.5 462Q435 419 435 332V107Q435 67 443.5 48.5Q452 30 472 30Q482 30 492 34.5Q502 39 513 49L531 24Q514 9 493 1Q472 -7 447 -7ZM144 127Q144 81 164 56.5Q184 32 223 32Q258 32 290 51.5Q322 71 353 110V219H251Q195 219 169.5 197Q144 175 144 127ZM257 789Q309 789 343 757.5Q377 726 377 681V670Q377 625 343 593Q309 561 257 561Q204 561 170.5 592.5Q137 624 137 670V681Q137 726 170.5 757.5Q204 789 257 789ZM317 663 317 688Q317 724 301.5 744Q286 764 257 764Q228 764 212.5 744Q197 724 197 688V663Q197 626 212.5 606.5Q228 587 257 587Q286 587 301.5 607Q317 627 317 663Z" glyph-name="aring" horiz-adv-x="540" unicode="å" /><glyph d="M447 -7Q409 -7 385.5 11.5Q362 30 355 65Q323 28 281.5 9Q240 -10 195 -10Q131 -10 95 26Q59 62 59 123Q59 188 103.5 219.5Q148 251 240 251H353V332Q353 405 328.5 439Q304 473 251 473Q193 473 171 437Q149 401 160 326L81 338Q72 412 119 458.5Q166 505 253 505Q344 505 389.5 462Q435 419 435 332V107Q435 67 443.5 48.5Q452 30 472 30Q482 30 492 34.5Q502 39 513 49L531 24Q514 9 493 1Q472 -7 447 -7ZM144 127Q144 81 164 56.5Q184 32 223 32Q258 32 290 51.5Q322 71 353 110V219H251Q195 219 169.5 197Q144 175 144 127ZM324 589Q306 589 287.5 599Q269 609 239 640Q216 664 204.5 671Q193 678 183 678Q164 678 153 658Q142 638 139 600H108Q112 669 133 704Q154 739 191 739Q210 739 228 729Q246 719 275 688Q298 664 309 657Q320 650 331 650Q349 650 360 670Q371 690 374 728H406Q402 660 381 624.5Q360 589 324 589Z" glyph-name="atilde" horiz-adv-x="540" unicode="ã" /><glyph d="M447 -7Q409 -7 385.5 11.5Q362 30 355 65Q323 28 281.5 9Q240 -10 195 -10Q131 -10 95 26Q59 62 59 123Q59 188 103.5 219.5Q148 251 240 251H353V332Q353 405 328.5 439Q304 473 251 473Q193 473 171 437Q149 401 160 326L81 338Q72 412 119 458.5Q166 505 253 505Q344 505 389.5 462Q435 419 435 332V107Q435 67 443.5 48.5Q452 30 472 30Q482 30 492 34.5Q502 39 513 49L531 24Q514 9 493 1Q472 -7 447 -7ZM144 127Q144 81 164 56.5Q184 32 223 32Q258 32 290 51.5Q322 71 353 110V219H251Q195 219 169.5 197Q144 175 144 127ZM257 643Q304 643 330.5 666.5Q357 690 370 742L398 733Q384 655 349 617Q314 579 257 579Q199 579 164 616.5Q129 654 115 733L144 742Q156 690 183 666.5Q210 643 257 643Z" glyph-name="abreve" horiz-adv-x="540" unicode="ă" /><glyph d="M447 -7Q409 -7 385.5 11.5Q362 30 355 65Q323 28 281.5 9Q240 -10 195 -10Q131 -10 95 26Q59 62 59 123Q59 188 103.5 219.5Q148 251 240 251H353V332Q353 405 328.5 439Q304 473 251 473Q193 473 171 437Q149 401 160 326L81 338Q72 412 119 458.5Q166 505 253 505Q344 505 389.5 462Q435 419 435 332V107Q435 67 443.5 48.5Q452 30 472 30Q482 30 492 34.5Q502 39 513 49L531 24Q514 9 493 1Q472 -7 447 -7ZM144 127Q144 81 164 56.5Q184 32 223 32Q258 32 290 51.5Q322 71 353 110V219H251Q195 219 169.5 197Q144 175 144 127ZM114 666 401 666V619H114Z" glyph-name="amacron" horiz-adv-x="540" unicode="ā" /><glyph d="M479 -112 531 -125Q518 -173 485 -198Q452 -223 405 -223Q356 -223 325.5 -198Q295 -173 295 -132Q295 -94 325 -63.5Q355 -33 423 -5Q395 0 377.5 18Q360 36 355 65Q323 28 281.5 9Q240 -10 195 -10Q131 -10 95 26Q59 62 59 123Q59 188 103.5 219.5Q148 251 240 251H353V332Q353 405 328.5 439Q304 473 251 473Q193 473 171 437Q149 401 160 326L81 338Q72 412 119 458.5Q166 505 253 505Q344 505 389.5 462Q435 419 435 332V107Q435 67 443.5 48.5Q452 30 472 30Q482 30 492 34.5Q502 39 513 49L531 24Q510 6 469.5 -14Q429 -34 426 -36Q389 -56 374 -77.5Q359 -99 359 -128Q359 -160 372 -176.5Q385 -193 411 -193Q437 -193 454.5 -172.5Q472 -152 479 -112ZM144 127Q144 81 164 56.5Q184 32 223 32Q258 32 290 51.5Q322 71 353 110V219H251Q195 219 169.5 197Q144 175 144 127Z" glyph-name="aogonek" horiz-adv-x="540" unicode="ą" /><glyph d="M390 -140Q390 -178 359.5 -200.5Q329 -223 279 -223Q234 -223 206.5 -203Q179 -183 172 -145L220 -131Q224 -164 237 -179.5Q250 -195 275 -195Q299 -195 312 -180.5Q325 -166 325 -140Q325 -113 310.5 -99.5Q296 -86 267 -86Q262 -86 255.5 -86.5Q249 -87 244 -88L234 -63L256 -9Q163 -3 113 61.5Q63 126 63 238V258Q63 373 117.5 439Q172 505 269 505Q360 505 409.5 452.5Q459 400 446 319L367 307Q378 387 352.5 430Q327 473 269 473Q210 473 181.5 425Q153 377 153 278V218Q153 114 183.5 68Q214 22 283 22Q334 22 361.5 48Q389 74 398 129L451 114Q436 56 395 24.5Q354 -7 291 -10L271 -58Q326 -58 358 -80Q390 -102 390 -140Z" glyph-name="ccedilla" horiz-adv-x="502" unicode="ç" /><glyph d="M269 473Q210 473 181.5 425Q153 377 153 278V218Q153 114 183.5 68Q214 22 283 22Q334 22 361.5 48Q389 74 398 129L451 114Q435 53 390.5 21.5Q346 -10 278 -10Q175 -10 119 54.5Q63 119 63 238V258Q63 373 117.5 439Q172 505 269 505Q360 505 409.5 452.5Q459 400 446 319L367 307Q378 387 352.5 430Q327 473 269 473ZM266 579 245 598Q272 637 286.5 668Q301 699 312 740H408Q378 694 344 656Q310 618 266 579Z" glyph-name="cacute" horiz-adv-x="502" unicode="ć" /><glyph d="M269 473Q210 473 181.5 425Q153 377 153 278V218Q153 114 183.5 68Q214 22 283 22Q334 22 361.5 48Q389 74 398 129L451 114Q435 53 390.5 21.5Q346 -10 278 -10Q175 -10 119 54.5Q63 119 63 238V258Q63 373 117.5 439Q172 505 269 505Q360 505 409.5 452.5Q459 400 446 319L367 307Q378 387 352.5 430Q327 473 269 473ZM381 745 398 724Q359 681 340.5 654.5Q322 628 300 584H233Q212 628 193.5 654.5Q175 681 136 724L153 745Q192 715 220 691Q248 667 270 645Q293 669 321 694.5Q349 720 381 745Z" glyph-name="ccaron" horiz-adv-x="502" unicode="č" /><glyph d="M269 473Q210 473 181.5 425Q153 377 153 278V218Q153 114 183.5 68Q214 22 283 22Q334 22 361.5 48Q389 74 398 129L451 114Q435 53 390.5 21.5Q346 -10 278 -10Q175 -10 119 54.5Q63 119 63 238V258Q63 373 117.5 439Q172 505 269 505Q360 505 409.5 452.5Q459 400 446 319L367 307Q378 387 352.5 430Q327 473 269 473ZM398 599 381 579Q345 605 315.5 630Q286 655 263 678Q240 654 213 629.5Q186 605 153 579L136 599Q175 642 193.5 669Q212 696 233 740H300Q322 695 340 668.5Q358 642 398 599Z" glyph-name="ccircumflex" horiz-adv-x="502" unicode="ĉ" /><glyph d="M269 473Q210 473 181.5 425Q153 377 153 278V218Q153 114 183.5 68Q214 22 283 22Q334 22 361.5 48Q389 74 398 129L451 114Q435 53 390.5 21.5Q346 -10 278 -10Q175 -10 119 54.5Q63 119 63 238V258Q63 373 117.5 439Q172 505 269 505Q360 505 409.5 452.5Q459 400 446 319L367 307Q378 387 352.5 430Q327 473 269 473ZM322 663Q322 638 306.5 622.5Q291 607 267 607Q243 607 227.5 622.5Q212 638 212 663Q212 687 227.5 702Q243 717 267 717Q291 717 306.5 702Q322 687 322 663Z" glyph-name="cdotaccent" horiz-adv-x="502" unicode="ċ" /><glyph d="M497 32 552 25V0H398V79Q368 34 330.5 12Q293 -10 246 -10Q160 -10 112.5 54.5Q65 119 65 237V257Q65 372 121 438.5Q177 505 273 505Q308 505 338.5 493.5Q369 482 393 461V659Q393 692 390.5 699Q388 706 371 708L316 713V740H475V81Q475 47 478 40.5Q481 34 497 32ZM155 287 155 207Q155 117 181.5 71Q208 25 259 25Q298 25 331 50Q364 75 393 126V412Q371 442 342.5 456.5Q314 471 278 471Q217 471 186 424.5Q155 378 155 287ZM576 526 555 526V740H637Q622 677 607.5 626Q593 575 576 526Z" glyph-name="dcaron" horiz-adv-x="652" unicode="ď" /><glyph d="M497 32 552 25V0H398V79Q368 34 330.5 12Q293 -10 246 -10Q160 -10 112.5 54.5Q65 119 65 237V257Q65 372 121 438.5Q177 505 273 505Q308 505 338.5 493.5Q369 482 393 461V588H240V620H393V659Q393 692 390.5 699Q388 706 371 708L316 713V740H475V620H552V588H475V81Q475 47 478 40.5Q481 34 497 32ZM155 287 155 207Q155 117 181.5 71Q208 25 259 25Q298 25 331 50Q364 75 393 126V412Q371 442 342.5 456.5Q314 471 278 471Q217 471 186 424.5Q155 378 155 287Z" glyph-name="dcroat" horiz-adv-x="580" unicode="đ" /><glyph d="M408 129 461 114Q445 53 399.5 21.5Q354 -10 284 -10Q178 -10 120.5 54.5Q63 119 63 238V258Q63 374 117.5 439.5Q172 505 270 505Q358 505 412 452.5Q466 400 466 311Q466 296 464.5 280.5Q463 265 460 248H153V218Q153 113 185 67.5Q217 22 291 22Q342 22 370.5 48.5Q399 75 408 129ZM382 331Q382 401 353.5 437Q325 473 270 473Q209 473 181 426.5Q153 380 153 280H378V283Q380 294 381 306.5Q382 319 382 331ZM267 579 246 598Q273 637 287.5 668Q302 699 313 740H409Q379 694 345 656Q311 618 267 579Z" glyph-name="eacute" horiz-adv-x="525" unicode="é" /><glyph d="M408 129 461 114Q445 53 399.5 21.5Q354 -10 284 -10Q178 -10 120.5 54.5Q63 119 63 238V258Q63 374 117.5 439.5Q172 505 270 505Q358 505 412 452.5Q466 400 466 311Q466 296 464.5 280.5Q463 265 460 248H153V218Q153 113 185 67.5Q217 22 291 22Q342 22 370.5 48.5Q399 75 408 129ZM382 331Q382 401 353.5 437Q325 473 270 473Q209 473 181 426.5Q153 380 153 280H378V283Q380 294 381 306.5Q382 319 382 331ZM400 599 383 579Q347 605 317.5 630Q288 655 265 678Q242 654 215 629.5Q188 605 155 579L138 599Q177 642 195.5 669Q214 696 235 740H302Q324 695 342 668.5Q360 642 400 599Z" glyph-name="ecircumflex" horiz-adv-x="525" unicode="ê" /><glyph d="M408 129 461 114Q445 53 399.5 21.5Q354 -10 284 -10Q178 -10 120.5 54.5Q63 119 63 238V258Q63 374 117.5 439.5Q172 505 270 505Q358 505 412 452.5Q466 400 466 311Q466 296 464.5 280.5Q463 265 460 248H153V218Q153 113 185 67.5Q217 22 291 22Q342 22 370.5 48.5Q399 75 408 129ZM382 331Q382 401 353.5 437Q325 473 270 473Q209 473 181 426.5Q153 380 153 280H378V283Q380 294 381 306.5Q382 319 382 331ZM217 663Q217 640 203 625.5Q189 611 166 611Q143 611 129 625.5Q115 640 115 663Q115 685 129.5 699Q144 713 166 713Q188 713 202.5 699Q217 685 217 663ZM421 663Q421 640 406.5 625.5Q392 611 369 611Q346 611 332 625.5Q318 640 318 663Q318 685 332.5 699Q347 713 369 713Q392 713 406.5 699Q421 685 421 663Z" glyph-name="edieresis" horiz-adv-x="525" unicode="ë" /><glyph d="M408 129 461 114Q445 53 399.5 21.5Q354 -10 284 -10Q178 -10 120.5 54.5Q63 119 63 238V258Q63 374 117.5 439.5Q172 505 270 505Q358 505 412 452.5Q466 400 466 311Q466 296 464.5 280.5Q463 265 460 248H153V218Q153 113 185 67.5Q217 22 291 22Q342 22 370.5 48.5Q399 75 408 129ZM382 331Q382 401 353.5 437Q325 473 270 473Q209 473 181 426.5Q153 380 153 280H378V283Q380 294 381 306.5Q382 319 382 331ZM290 598 269 579Q224 617 190.5 655Q157 693 126 740H222Q233 698 247.5 667Q262 636 290 598Z" glyph-name="egrave" horiz-adv-x="525" unicode="è" /><glyph d="M408 129 461 114Q445 53 399.5 21.5Q354 -10 284 -10Q178 -10 120.5 54.5Q63 119 63 238V258Q63 374 117.5 439.5Q172 505 270 505Q358 505 412 452.5Q466 400 466 311Q466 296 464.5 280.5Q463 265 460 248H153V218Q153 113 185 67.5Q217 22 291 22Q342 22 370.5 48.5Q399 75 408 129ZM382 331Q382 401 353.5 437Q325 473 270 473Q209 473 181 426.5Q153 380 153 280H378V283Q380 294 381 306.5Q382 319 382 331ZM268 643Q315 643 341.5 666.5Q368 690 381 742L409 733Q395 655 360 617Q325 579 268 579Q210 579 175 616.5Q140 654 126 733L155 742Q167 690 194 666.5Q221 643 268 643Z" glyph-name="ebreve" horiz-adv-x="525" unicode="ĕ" /><glyph d="M408 129 461 114Q445 53 399.5 21.5Q354 -10 284 -10Q178 -10 120.5 54.5Q63 119 63 238V258Q63 374 117.5 439.5Q172 505 270 505Q358 505 412 452.5Q466 400 466 311Q466 296 464.5 280.5Q463 265 460 248H153V218Q153 113 185 67.5Q217 22 291 22Q342 22 370.5 48.5Q399 75 408 129ZM382 331Q382 401 353.5 437Q325 473 270 473Q209 473 181 426.5Q153 380 153 280H378V283Q380 294 381 306.5Q382 319 382 331ZM382 745 399 724Q360 681 341.5 654.5Q323 628 301 584H234Q213 628 194.5 654.5Q176 681 137 724L154 745Q193 715 221 691Q249 667 271 645Q294 669 322 694.5Q350 720 382 745Z" glyph-name="ecaron" horiz-adv-x="525" unicode="ě" /><glyph d="M408 129 461 114Q445 53 399.5 21.5Q354 -10 284 -10Q178 -10 120.5 54.5Q63 119 63 238V258Q63 374 117.5 439.5Q172 505 270 505Q358 505 412 452.5Q466 400 466 311Q466 296 464.5 280.5Q463 265 460 248H153V218Q153 113 185 67.5Q217 22 291 22Q342 22 370.5 48.5Q399 75 408 129ZM382 331Q382 401 353.5 437Q325 473 270 473Q209 473 181 426.5Q153 380 153 280H378V283Q380 294 381 306.5Q382 319 382 331ZM323 663Q323 638 307.5 622.5Q292 607 268 607Q244 607 228.5 622.5Q213 638 213 663Q213 687 228.5 702Q244 717 268 717Q292 717 307.5 702Q323 687 323 663Z" glyph-name="edotaccent" horiz-adv-x="525" unicode="ė" /><glyph d="M408 129 461 114Q445 53 399.5 21.5Q354 -10 284 -10Q178 -10 120.5 54.5Q63 119 63 238V258Q63 374 117.5 439.5Q172 505 270 505Q358 505 412 452.5Q466 400 466 311Q466 296 464.5 280.5Q463 265 460 248H153V218Q153 113 185 67.5Q217 22 291 22Q342 22 370.5 48.5Q399 75 408 129ZM382 331Q382 401 353.5 437Q325 473 270 473Q209 473 181 426.5Q153 380 153 280H378V283Q380 294 381 306.5Q382 319 382 331ZM125 666 412 666V619H125Z" glyph-name="emacron" horiz-adv-x="525" unicode="ē" /><glyph d="M409 -112 461 -125Q448 -173 415.5 -198Q383 -223 336 -223Q287 -223 256 -197.5Q225 -172 225 -131Q225 -98 245.5 -70Q266 -42 320 -8Q305 -9 297.5 -9.5Q290 -10 284 -10Q178 -10 120.5 54.5Q63 119 63 238V258Q63 374 117.5 439.5Q172 505 270 505Q358 505 412 452.5Q466 400 466 311Q466 296 464.5 280.5Q463 265 460 248H153V218Q153 113 185 67.5Q217 22 291 22Q342 22 370.5 48.5Q399 75 408 129L461 114Q454 87 441 66Q428 45 409 29Q395 16 368 -5Q341 -26 330 -37Q308 -58 298.5 -79Q289 -100 289 -126Q289 -158 302.5 -175.5Q316 -193 342 -193Q368 -193 385 -173Q402 -153 409 -112ZM382 331Q382 401 353.5 437Q325 473 270 473Q209 473 181 426.5Q153 380 153 280H378V283Q380 294 381 306.5Q382 319 382 331Z" glyph-name="eogonek" horiz-adv-x="525" unicode="ę" /><glyph d="M501 -58Q501 -137 443 -180Q385 -223 280 -223Q175 -223 117.5 -186.5Q60 -150 58 -84L132 -69Q128 -130 165 -160.5Q202 -191 280 -191Q359 -191 404 -162Q449 -133 449 -81Q449 -40 421 -20.5Q393 -1 333 -1H214Q156 -1 124.5 23.5Q93 48 93 91Q93 121 108 146.5Q123 172 154 196Q111 216 87.5 253.5Q64 291 64 340Q64 416 115.5 460.5Q167 505 252 505H269Q296 505 321 500Q346 495 367 485L512 535L523 460H406Q431 439 443.5 408.5Q456 378 456 340Q456 265 404.5 220.5Q353 176 269 176H252Q236 176 220 178Q204 180 188 184Q167 170 157 154Q147 138 147 120Q147 98 162.5 87Q178 76 208 76H338Q418 76 459.5 41.5Q501 7 501 -58ZM252 208 269 208Q318 208 343.5 241.5Q369 275 369 340Q369 406 343.5 439.5Q318 473 269 473H252Q202 473 176.5 439.5Q151 406 151 340Q151 275 176.5 241.5Q202 208 252 208ZM263 643Q310 643 336.5 666.5Q363 690 376 742L404 733Q390 655 355 617Q320 579 263 579Q205 579 170 616.5Q135 654 121 733L150 742Q162 690 189 666.5Q216 643 263 643Z" glyph-name="gbreve" horiz-adv-x="540" unicode="ğ" /><glyph d="M501 -58Q501 -137 443 -180Q385 -223 280 -223Q175 -223 117.5 -186.5Q60 -150 58 -84L132 -69Q128 -130 165 -160.5Q202 -191 280 -191Q359 -191 404 -162Q449 -133 449 -81Q449 -40 421 -20.5Q393 -1 333 -1H214Q156 -1 124.5 23.5Q93 48 93 91Q93 121 108 146.5Q123 172 154 196Q111 216 87.5 253.5Q64 291 64 340Q64 416 115.5 460.5Q167 505 252 505H269Q296 505 321 500Q346 495 367 485L512 535L523 460H406Q431 439 443.5 408.5Q456 378 456 340Q456 265 404.5 220.5Q353 176 269 176H252Q236 176 220 178Q204 180 188 184Q167 170 157 154Q147 138 147 120Q147 98 162.5 87Q178 76 208 76H338Q418 76 459.5 41.5Q501 7 501 -58ZM252 208 269 208Q318 208 343.5 241.5Q369 275 369 340Q369 406 343.5 439.5Q318 473 269 473H252Q202 473 176.5 439.5Q151 406 151 340Q151 275 176.5 241.5Q202 208 252 208ZM394 599 377 579Q341 605 311.5 630Q282 655 259 678Q236 654 209 629.5Q182 605 149 579L132 599Q171 642 189.5 669Q208 696 229 740H296Q318 695 336 668.5Q354 642 394 599Z" glyph-name="gcircumflex" horiz-adv-x="540" unicode="ĝ" /><glyph d="M501 -58Q501 -137 443 -180Q385 -223 280 -223Q175 -223 117.5 -186.5Q60 -150 58 -84L132 -69Q128 -130 165 -160.5Q202 -191 280 -191Q359 -191 404 -162Q449 -133 449 -81Q449 -40 421 -20.5Q393 -1 333 -1H214Q156 -1 124.5 23.5Q93 48 93 91Q93 121 108 146.5Q123 172 154 196Q111 216 87.5 253.5Q64 291 64 340Q64 416 115.5 460.5Q167 505 252 505H269Q296 505 321 500Q346 495 367 485L512 535L523 460H406Q431 439 443.5 408.5Q456 378 456 340Q456 265 404.5 220.5Q353 176 269 176H252Q236 176 220 178Q204 180 188 184Q167 170 157 154Q147 138 147 120Q147 98 162.5 87Q178 76 208 76H338Q418 76 459.5 41.5Q501 7 501 -58ZM252 208 269 208Q318 208 343.5 241.5Q369 275 369 340Q369 406 343.5 439.5Q318 473 269 473H252Q202 473 176.5 439.5Q151 406 151 340Q151 275 176.5 241.5Q202 208 252 208ZM321 749 341 733Q324 697 315.5 662.5Q307 628 305 584H220Q237 633 260.5 671.5Q284 710 321 749Z" glyph-name="gcommaaccent" horiz-adv-x="540" unicode="ģ" /><glyph d="M501 -58Q501 -137 443 -180Q385 -223 280 -223Q175 -223 117.5 -186.5Q60 -150 58 -84L132 -69Q128 -130 165 -160.5Q202 -191 280 -191Q359 -191 404 -162Q449 -133 449 -81Q449 -40 421 -20.5Q393 -1 333 -1H214Q156 -1 124.5 23.5Q93 48 93 91Q93 121 108 146.5Q123 172 154 196Q111 216 87.5 253.5Q64 291 64 340Q64 416 115.5 460.5Q167 505 252 505H269Q296 505 321 500Q346 495 367 485L512 535L523 460H406Q431 439 443.5 408.5Q456 378 456 340Q456 265 404.5 220.5Q353 176 269 176H252Q236 176 220 178Q204 180 188 184Q167 170 157 154Q147 138 147 120Q147 98 162.5 87Q178 76 208 76H338Q418 76 459.5 41.5Q501 7 501 -58ZM252 208 269 208Q318 208 343.5 241.5Q369 275 369 340Q369 406 343.5 439.5Q318 473 269 473H252Q202 473 176.5 439.5Q151 406 151 340Q151 275 176.5 241.5Q202 208 252 208ZM318 663Q318 638 302.5 622.5Q287 607 263 607Q239 607 223.5 622.5Q208 638 208 663Q208 687 223.5 702Q239 717 263 717Q287 717 302.5 702Q318 687 318 663Z" glyph-name="gdotaccent" horiz-adv-x="540" unicode="ġ" /><glyph d="M209 32 264 26V0H28V26L83 32Q99 34 102 40.5Q105 47 105 81V588H28V620H105V659Q105 692 102.5 699Q100 706 83 708L28 713V740H187V620H340V588H187V419Q220 460 263.5 482.5Q307 505 356 505Q429 505 469.5 459.5Q510 414 510 331V81Q510 47 513 40.5Q516 34 532 32L587 26V0H351V26L406 32Q422 34 425 40.5Q428 47 428 81V330Q428 399 405.5 432Q383 465 336 465Q292 465 254 440Q216 415 187 366V81Q187 47 190 40.5Q193 34 209 32Z" glyph-name="hbar" horiz-adv-x="610" unicode="ħ" /><glyph d="M532 32 587 26V0H351V26L406 32Q422 34 425 40.5Q428 47 428 81V330Q428 399 405.5 432Q383 465 336 465Q292 465 254 440Q216 415 187 366V81Q187 47 190 40.5Q193 34 209 32L264 26V0H28V26L83 32Q99 34 102 40.5Q105 47 105 81V659Q105 692 102.5 699Q100 706 83 708L28 713V740H187V419Q220 460 263.5 482.5Q307 505 356 505Q429 505 469.5 459.5Q510 414 510 331V81Q510 47 513 40.5Q516 34 532 32ZM384 821 367 801Q331 827 301.5 852Q272 877 249 900Q226 876 199 851.5Q172 827 139 801L122 821Q161 864 179.5 891Q198 918 219 962H286Q308 917 326 890.5Q344 864 384 821Z" glyph-name="hcircumflex" horiz-adv-x="610" unicode="ĥ" /><glyph d="M90 463 35 468V495H194V81Q194 47 197 40.5Q200 34 216 32L271 26V0H35V26L90 32Q106 34 109 40.5Q112 47 112 81V414Q112 447 109.5 454Q107 461 90 463ZM146 579 125 598Q152 637 166.5 668Q181 699 192 740H288Q258 694 224 656Q190 618 146 579Z" glyph-name="iacute" horiz-adv-x="299" unicode="í" /><glyph d="M90 463 35 468V495H194V81Q194 47 197 40.5Q200 34 216 32L271 26V0H35V26L90 32Q106 34 109 40.5Q112 47 112 81V414Q112 447 109.5 454Q107 461 90 463ZM278 599 261 579Q225 605 195.5 630Q166 655 143 678Q120 654 93 629.5Q66 605 33 579L16 599Q55 642 73.5 669Q92 696 113 740H180Q202 695 220 668.5Q238 642 278 599Z" glyph-name="icircumflex" horiz-adv-x="299" unicode="î" /><glyph d="M90 463 35 468V495H194V81Q194 47 197 40.5Q200 34 216 32L271 26V0H35V26L90 32Q106 34 109 40.5Q112 47 112 81V414Q112 447 109.5 454Q107 461 90 463ZM96 663Q96 640 82 625.5Q68 611 45 611Q22 611 8 625.5Q-6 640 -6 663Q-6 685 8.5 699Q23 713 45 713Q67 713 81.5 699Q96 685 96 663ZM300 663Q300 640 285.5 625.5Q271 611 248 611Q225 611 211 625.5Q197 640 197 663Q197 685 211.5 699Q226 713 248 713Q271 713 285.5 699Q300 685 300 663Z" glyph-name="idieresis" horiz-adv-x="299" unicode="ï" /><glyph d="M90 463 35 468V495H194V81Q194 47 197 40.5Q200 34 216 32L271 26V0H35V26L90 32Q106 34 109 40.5Q112 47 112 81V414Q112 447 109.5 454Q107 461 90 463ZM169 598 148 579Q103 617 69.5 655Q36 693 5 740H101Q112 698 126.5 667Q141 636 169 598Z" glyph-name="igrave" horiz-adv-x="299" unicode="ì" /><glyph d="M90 463 35 468V495H194V81Q194 47 197 40.5Q200 34 216 32L271 26V0H35V26L90 32Q106 34 109 40.5Q112 47 112 81V414Q112 447 109.5 454Q107 461 90 463ZM147 643Q194 643 220.5 666.5Q247 690 260 742L288 733Q274 655 239 617Q204 579 147 579Q89 579 54 616.5Q19 654 5 733L34 742Q46 690 73 666.5Q100 643 147 643Z" glyph-name="ibreve" horiz-adv-x="299" unicode="ĭ" /><glyph d="M207 663Q207 638 191.5 622.5Q176 607 152 607Q128 607 112.5 622.5Q97 638 97 663Q97 687 112.5 702Q128 717 152 717Q176 717 191.5 702Q207 687 207 663ZM90 463 35 468V495H194V81Q194 47 197 40.5Q200 34 216 32L271 26V0H35V26L90 32Q106 34 109 40.5Q112 47 112 81V414Q112 447 109.5 454Q107 461 90 463Z" glyph-name="i.dot" horiz-adv-x="299" unicode="" /><glyph d="M90 463 35 468V495H194V81Q194 47 197 40.5Q200 34 216 32L271 26V0H35V26L90 32Q106 34 109 40.5Q112 47 112 81V414Q112 447 109.5 454Q107 461 90 463ZM4 666 291 666V619H4Z" glyph-name="imacron" horiz-adv-x="299" unicode="ī" /><glyph d="M206 663Q206 638 190.5 622.5Q175 607 151 607Q127 607 111.5 622.5Q96 638 96 663Q96 687 111.5 702Q127 717 151 717Q175 717 190.5 702Q206 687 206 663ZM88 463 33 468V495H192V81Q192 47 195 40.5Q198 34 214 32L269 26V0H211Q154 0 120 -34.5Q86 -69 86 -127Q86 -159 99.5 -176Q113 -193 138 -193Q165 -193 182 -173Q199 -153 206 -112L258 -125Q245 -173 212.5 -198Q180 -223 133 -223Q83 -223 52.5 -197Q22 -171 22 -128Q22 -88 45 -54Q68 -20 110 3V414Q110 447 107.5 454Q105 461 88 463Z" glyph-name="iogonek" horiz-adv-x="298" unicode="į" /><glyph d="M90 463 35 468V495H194V81Q194 47 197 40.5Q200 34 216 32L271 26V0H35V26L90 32Q106 34 109 40.5Q112 47 112 81V414Q112 447 109.5 454Q107 461 90 463ZM214 589Q196 589 177.5 599Q159 609 129 640Q106 664 94.5 671Q83 678 73 678Q54 678 43 658Q32 638 29 600H-2Q2 669 23 704Q44 739 81 739Q100 739 118 729Q136 719 165 688Q188 664 199 657Q210 650 221 650Q239 650 250 670Q261 690 264 728H296Q292 660 271 624.5Q250 589 214 589Z" glyph-name="itilde" horiz-adv-x="299" unicode="ĩ" /><glyph d="M83 463 28 468V495H187V-52Q187 -133 149 -178Q111 -223 39 -223Q-16 -223 -49 -193.5Q-82 -164 -90 -107L-35 -91Q-31 -142 -15 -166.5Q1 -191 32 -191Q72 -191 88.5 -160.5Q105 -130 105 -60V414Q105 447 102.5 454Q100 461 83 463ZM261 599 244 579Q208 605 178.5 630Q149 655 126 678Q103 654 76 629.5Q49 605 16 579L-1 599Q38 642 56.5 669Q75 696 96 740H163Q185 695 203 668.5Q221 642 261 599Z" glyph-name="jcircumflex" horiz-adv-x="286" unicode="ĵ" /><glyph d="M207 663Q207 638 191.5 622.5Q176 607 152 607Q128 607 112.5 622.5Q97 638 97 663Q97 687 112.5 702Q128 717 152 717Q176 717 191.5 702Q207 687 207 663ZM90 463 35 468V495H194V81Q194 47 197 40.5Q200 34 216 32L271 26V0H35V26L90 32Q106 34 109 40.5Q112 47 112 81V414Q112 447 109.5 454Q107 461 90 463ZM499 663Q499 638 483.5 622.5Q468 607 444 607Q420 607 404.5 622.5Q389 638 389 663Q389 687 404.5 702Q420 717 444 717Q468 717 483.5 702Q499 687 499 663ZM382 463 327 468V495H486V-52Q486 -132 447 -177.5Q408 -223 337 -223Q282 -223 249.5 -193.5Q217 -164 209 -106L263 -91Q266 -142 282.5 -166.5Q299 -191 331 -191Q370 -191 387 -160Q404 -129 404 -60V414Q404 447 401.5 454Q399 461 382 463Z" glyph-name="ij" horiz-adv-x="584" unicode="ĳ" /><glyph d="M83 708 28 713V740H187V228L376 420Q405 449 407.5 455Q410 461 392 463L341 468V495H534V468L483 463Q469 461 461.5 455.5Q454 450 423 420L313 309L460 75Q478 46 485 40Q492 34 508 32L560 26V0H409L257 252L187 181V81Q187 47 190 40.5Q193 34 209 32L264 26V0H28V26L83 32Q99 34 102 40.5Q105 47 105 81V659Q105 692 102.5 699Q100 706 83 708ZM241 -242 222 -226Q239 -189 247 -154.5Q255 -120 257 -77H342Q324 -128 301 -166Q278 -204 241 -242Z" glyph-name="kcommaaccent" horiz-adv-x="562" unicode="ķ" /><glyph d="M90 463 35 468V495H194V229L383 420Q411 448 413.5 454.5Q416 461 399 463L347 468V495H541V468L489 463Q475 461 466.5 454.5Q458 448 430 420L319 308L467 75Q485 46 492 40Q499 34 515 32L566 26V0H416L264 252L194 181V81Q194 47 197 40.5Q200 34 216 32L271 26V0H35V26L90 32Q106 34 109 40.5Q112 47 112 81V414Q112 447 109.5 454Q107 461 90 463Z" glyph-name="kgreenlandic" horiz-adv-x="569" unicode="ĸ" /><glyph d="M83 708 28 713V740H187V81Q187 47 190 40.5Q193 34 209 32L264 26V0H28V26L83 32Q99 34 102 40.5Q105 47 105 81V659Q105 692 102.5 699Q100 706 83 708ZM148 801 127 820Q154 859 168.5 890Q183 921 194 962H290Q260 916 226 878Q192 840 148 801Z" glyph-name="lacute" horiz-adv-x="293" unicode="ĺ" /><glyph d="M83 708 28 713V740H187V81Q187 47 190 40.5Q193 34 209 32L264 26V0H28V26L83 32Q99 34 102 40.5Q105 47 105 81V659Q105 692 102.5 699Q100 706 83 708ZM288 526 267 526V740H349Q334 677 319.5 626Q305 575 288 526Z" glyph-name="lcaron" horiz-adv-x="364" unicode="ľ" /><glyph d="M83 708 28 713V740H187V81Q187 47 190 40.5Q193 34 209 32L264 26V0H28V26L83 32Q99 34 102 40.5Q105 47 105 81V659Q105 692 102.5 699Q100 706 83 708ZM88 -242 69 -226Q86 -189 94 -154.5Q102 -120 104 -77H189Q171 -128 148 -166Q125 -204 88 -242Z" glyph-name="lcommaaccent" horiz-adv-x="293" unicode="ļ" /><glyph d="M83 708 28 713V740H187V81Q187 47 190 40.5Q193 34 209 32L264 26V0H28V26L83 32Q99 34 102 40.5Q105 47 105 81V659Q105 692 102.5 699Q100 706 83 708ZM356 385Q356 360 340.5 344.5Q325 329 301 329Q277 329 261.5 344.5Q246 360 246 385Q246 409 261.5 424Q277 439 301 439Q325 439 340.5 424Q356 409 356 385Z" glyph-name="ldot" horiz-adv-x="309" unicode="ŀ" /><glyph d="M539 32 594 26V0H358V26L413 32Q429 34 432 40.5Q435 47 435 81V330Q435 399 412.5 432Q390 465 342 465Q299 465 261 440Q223 415 194 367V81Q194 47 197 40.5Q200 34 216 32L271 26V0H35V26L90 32Q106 34 109 40.5Q112 47 112 81V414Q112 447 109.5 454Q107 461 90 463L35 468V495H189V414Q222 458 267 481.5Q312 505 362 505Q435 505 476 459.5Q517 414 517 331V81Q517 47 520 40.5Q523 34 539 32ZM383 589Q365 589 346.5 599Q328 609 298 640Q275 664 263.5 671Q252 678 242 678Q223 678 212 658Q201 638 198 600H167Q171 669 192 704Q213 739 250 739Q269 739 287 729Q305 719 334 688Q357 664 368 657Q379 650 390 650Q408 650 419 670Q430 690 433 728H465Q461 660 440 624.5Q419 589 383 589Z" glyph-name="ntilde" horiz-adv-x="617" unicode="ñ" /><glyph d="M539 32 594 26V0H358V26L413 32Q429 34 432 40.5Q435 47 435 81V330Q435 399 412.5 432Q390 465 342 465Q299 465 261 440Q223 415 194 367V81Q194 47 197 40.5Q200 34 216 32L271 26V0H35V26L90 32Q106 34 109 40.5Q112 47 112 81V414Q112 447 109.5 454Q107 461 90 463L35 468V495H189V414Q222 458 267 481.5Q312 505 362 505Q435 505 476 459.5Q517 414 517 331V81Q517 47 520 40.5Q523 34 539 32ZM315 579 294 598Q321 637 335.5 668Q350 699 361 740H457Q427 694 393 656Q359 618 315 579Z" glyph-name="nacute" horiz-adv-x="617" unicode="ń" /><glyph d="M539 32 594 26V0H358V26L413 32Q429 34 432 40.5Q435 47 435 81V330Q435 399 412.5 432Q390 465 342 465Q299 465 261 440Q223 415 194 367V81Q194 47 197 40.5Q200 34 216 32L271 26V0H35V26L90 32Q106 34 109 40.5Q112 47 112 81V414Q112 447 109.5 454Q107 461 90 463L35 468V495H189V414Q222 458 267 481.5Q312 505 362 505Q435 505 476 459.5Q517 414 517 331V81Q517 47 520 40.5Q523 34 539 32ZM430 745 447 724Q408 681 389.5 654.5Q371 628 349 584H282Q261 628 242.5 654.5Q224 681 185 724L202 745Q241 715 269 691Q297 667 319 645Q342 669 370 694.5Q398 720 430 745Z" glyph-name="ncaron" horiz-adv-x="617" unicode="ň" /><glyph d="M539 32 594 26V0H358V26L413 32Q429 34 432 40.5Q435 47 435 81V330Q435 399 412.5 432Q390 465 342 465Q299 465 261 440Q223 415 194 367V81Q194 47 197 40.5Q200 34 216 32L271 26V0H35V26L90 32Q106 34 109 40.5Q112 47 112 81V414Q112 447 109.5 454Q107 461 90 463L35 468V495H189V414Q222 458 267 481.5Q312 505 362 505Q435 505 476 459.5Q517 414 517 331V81Q517 47 520 40.5Q523 34 539 32ZM257 -242 238 -226Q255 -189 263 -154.5Q271 -120 273 -77H358Q340 -128 317 -166Q294 -204 257 -242Z" glyph-name="ncommaaccent" horiz-adv-x="617" unicode="ņ" /><glyph d="M90 463 35 468V495H189V414Q222 458 267 481.5Q312 505 362 505Q435 505 476 459.5Q517 414 517 331V-52Q517 -133 478.5 -178Q440 -223 368 -223Q312 -223 279.5 -194Q247 -165 238 -107L293 -91Q297 -142 313.5 -166.5Q330 -191 361 -191Q401 -191 418 -160Q435 -129 435 -60V330Q435 399 412.5 432Q390 465 342 465Q299 465 261 440Q223 415 194 367V81Q194 47 197 40.5Q200 34 216 32L271 26V0H35V26L90 32Q106 34 109 40.5Q112 47 112 81V414Q112 447 109.5 454Q107 461 90 463Z" glyph-name="eng" horiz-adv-x="613" unicode="ŋ" /><glyph d="M630 32 685 26V0H449V26L504 32Q520 34 523 40.5Q526 47 526 81V330Q526 399 503.5 432Q481 465 433 465Q390 465 352 440Q314 415 285 367V81Q285 47 288 40.5Q291 34 307 32L362 26V0H126V26L181 32Q197 34 200 40.5Q203 47 203 81V414Q203 447 200.5 454Q198 461 181 463L126 468V495H280V414Q313 458 358 481.5Q403 505 453 505Q526 505 567 459.5Q608 414 608 331V81Q608 47 611 40.5Q614 34 630 32ZM41 690Q65 690 79.5 673Q94 656 94 627Q94 588 69.5 535.5Q45 483 3 432L-18 451Q12 489 26.5 521.5Q41 554 43 585H41Q18 585 3.5 599.5Q-11 614 -11 638Q-11 661 4 675.5Q19 690 41 690Z" glyph-name="napostrophe" horiz-adv-x="708" unicode="ŉ" /><glyph d="M278 505Q379 505 437 439Q495 373 495 258V238Q495 122 437.5 56Q380 -10 278 -10Q177 -10 119.5 56Q62 122 62 238V258Q62 373 119.5 439Q177 505 278 505ZM405 218 405 278Q405 377 374 425Q343 473 278 473Q214 473 183 425Q152 377 152 278V218Q152 118 183 70Q214 22 278 22Q343 22 374 70Q405 118 405 218ZM277 579 256 598Q283 637 297.5 668Q312 699 323 740H419Q389 694 355 656Q321 618 277 579Z" glyph-name="oacute" horiz-adv-x="557" unicode="ó" /><glyph d="M278 505Q379 505 437 439Q495 373 495 258V238Q495 122 437.5 56Q380 -10 278 -10Q177 -10 119.5 56Q62 122 62 238V258Q62 373 119.5 439Q177 505 278 505ZM405 218 405 278Q405 377 374 425Q343 473 278 473Q214 473 183 425Q152 377 152 278V218Q152 118 183 70Q214 22 278 22Q343 22 374 70Q405 118 405 218ZM409 599 392 579Q356 605 326.5 630Q297 655 274 678Q251 654 224 629.5Q197 605 164 579L147 599Q186 642 204.5 669Q223 696 244 740H311Q333 695 351 668.5Q369 642 409 599Z" glyph-name="ocircumflex" horiz-adv-x="557" unicode="ô" /><glyph d="M278 505Q379 505 437 439Q495 373 495 258V238Q495 122 437.5 56Q380 -10 278 -10Q177 -10 119.5 56Q62 122 62 238V258Q62 373 119.5 439Q177 505 278 505ZM405 218 405 278Q405 377 374 425Q343 473 278 473Q214 473 183 425Q152 377 152 278V218Q152 118 183 70Q214 22 278 22Q343 22 374 70Q405 118 405 218ZM227 663Q227 640 213 625.5Q199 611 176 611Q153 611 139 625.5Q125 640 125 663Q125 685 139.5 699Q154 713 176 713Q198 713 212.5 699Q227 685 227 663ZM431 663Q431 640 416.5 625.5Q402 611 379 611Q356 611 342 625.5Q328 640 328 663Q328 685 342.5 699Q357 713 379 713Q402 713 416.5 699Q431 685 431 663Z" glyph-name="odieresis" horiz-adv-x="557" unicode="ö" /><glyph d="M278 505Q379 505 437 439Q495 373 495 258V238Q495 122 437.5 56Q380 -10 278 -10Q177 -10 119.5 56Q62 122 62 238V258Q62 373 119.5 439Q177 505 278 505ZM405 218 405 278Q405 377 374 425Q343 473 278 473Q214 473 183 425Q152 377 152 278V218Q152 118 183 70Q214 22 278 22Q343 22 374 70Q405 118 405 218ZM300 598 279 579Q234 617 200.5 655Q167 693 136 740H232Q243 698 257.5 667Q272 636 300 598Z" glyph-name="ograve" horiz-adv-x="557" unicode="ò" /><glyph d="M278 505Q379 505 437 439Q495 373 495 258V238Q495 122 437.5 56Q380 -10 278 -10Q177 -10 119.5 56Q62 122 62 238V258Q62 373 119.5 439Q177 505 278 505ZM405 218 405 278Q405 377 374 425Q343 473 278 473Q214 473 183 425Q152 377 152 278V218Q152 118 183 70Q214 22 278 22Q343 22 374 70Q405 118 405 218ZM345 589Q327 589 308.5 599Q290 609 260 640Q237 664 225.5 671Q214 678 204 678Q185 678 174 658Q163 638 160 600H129Q133 669 154 704Q175 739 212 739Q231 739 249 729Q267 719 296 688Q319 664 330 657Q341 650 352 650Q370 650 381 670Q392 690 395 728H427Q423 660 402 624.5Q381 589 345 589Z" glyph-name="otilde" horiz-adv-x="557" unicode="õ" /><glyph d="M278 505Q379 505 437 439Q495 373 495 258V238Q495 122 437.5 56Q380 -10 278 -10Q177 -10 119.5 56Q62 122 62 238V258Q62 373 119.5 439Q177 505 278 505ZM405 218 405 278Q405 377 374 425Q343 473 278 473Q214 473 183 425Q152 377 152 278V218Q152 118 183 70Q214 22 278 22Q343 22 374 70Q405 118 405 218ZM278 643Q325 643 351.5 666.5Q378 690 391 742L419 733Q405 655 370 617Q335 579 278 579Q220 579 185 616.5Q150 654 136 733L165 742Q177 690 204 666.5Q231 643 278 643Z" glyph-name="obreve" horiz-adv-x="557" unicode="ŏ" /><glyph d="M278 505Q379 505 437 439Q495 373 495 258V238Q495 122 437.5 56Q380 -10 278 -10Q177 -10 119.5 56Q62 122 62 238V258Q62 373 119.5 439Q177 505 278 505ZM405 218 405 278Q405 377 374 425Q343 473 278 473Q214 473 183 425Q152 377 152 278V218Q152 118 183 70Q214 22 278 22Q343 22 374 70Q405 118 405 218ZM205 579 182 597Q200 628 213 661.5Q226 695 237 740H324Q298 695 268 654.5Q238 614 205 579ZM345 579 322 597Q340 628 353 661.5Q366 695 377 740H464Q438 695 408 654.5Q378 614 345 579Z" glyph-name="ohungarumlaut" horiz-adv-x="557" unicode="ő" /><glyph d="M278 505Q379 505 437 439Q495 373 495 258V238Q495 122 437.5 56Q380 -10 278 -10Q177 -10 119.5 56Q62 122 62 238V258Q62 373 119.5 439Q177 505 278 505ZM405 218 405 278Q405 377 374 425Q343 473 278 473Q214 473 183 425Q152 377 152 278V218Q152 118 183 70Q214 22 278 22Q343 22 374 70Q405 118 405 218ZM135 666 422 666V619H135Z" glyph-name="omacron" horiz-adv-x="557" unicode="ō" /><glyph d="M90 463 35 468V495H189V415Q224 461 259 483Q294 505 332 505Q367 505 394 484.5Q421 464 439 425L374 386Q360 419 342 434.5Q324 450 298 450Q270 450 246 432Q222 414 194 374V81Q194 47 197 40Q200 33 216 32L291 26V0H35V26L90 32Q106 34 109 40.5Q112 47 112 81V414Q112 447 109.5 454Q107 461 90 463ZM251 579 230 598Q257 637 271.5 668Q286 699 297 740H393Q363 694 329 656Q295 618 251 579Z" glyph-name="racute" horiz-adv-x="439" unicode="ŕ" /><glyph d="M90 463 35 468V495H189V415Q224 461 259 483Q294 505 332 505Q367 505 394 484.5Q421 464 439 425L374 386Q360 419 342 434.5Q324 450 298 450Q270 450 246 432Q222 414 194 374V81Q194 47 197 40Q200 33 216 32L291 26V0H35V26L90 32Q106 34 109 40.5Q112 47 112 81V414Q112 447 109.5 454Q107 461 90 463ZM369 745 386 724Q347 681 328.5 654.5Q310 628 288 584H221Q200 628 181.5 654.5Q163 681 124 724L141 745Q180 715 208 691Q236 667 258 645Q281 669 309 694.5Q337 720 369 745Z" glyph-name="rcaron" horiz-adv-x="439" unicode="ř" /><glyph d="M90 463 35 468V495H189V415Q224 461 259 483Q294 505 332 505Q367 505 394 484.5Q421 464 439 425L374 386Q360 419 342 434.5Q324 450 298 450Q270 450 246 432Q222 414 194 374V81Q194 47 197 40Q200 33 216 32L291 26V0H35V26L90 32Q106 34 109 40.5Q112 47 112 81V414Q112 447 109.5 454Q107 461 90 463ZM95 -242 76 -226Q93 -189 101 -154.5Q109 -120 111 -77H196Q178 -128 155 -166Q132 -204 95 -242Z" glyph-name="rcommaaccent" horiz-adv-x="439" unicode="ŗ" /><glyph d="M348 109Q348 144 323.5 166Q299 188 246 202L185 217Q124 233 92 269.5Q60 306 60 361Q60 426 104.5 465.5Q149 505 228 505Q317 505 363.5 462Q410 419 400 350L322 336Q334 401 308.5 437Q283 473 225 473Q179 473 152.5 450Q126 427 126 385Q126 350 148 326.5Q170 303 213 292L276 277Q346 260 380.5 224Q415 188 415 134Q415 68 367 29Q319 -10 236 -10Q165 -10 115 22.5Q65 55 48 114L104 134Q114 78 147.5 49.5Q181 21 237 21Q287 21 317.5 44.5Q348 68 348 109ZM353 745 370 724Q331 681 312.5 654.5Q294 628 272 584H205Q184 628 165.5 654.5Q147 681 108 724L125 745Q164 715 192 691Q220 667 242 645Q265 669 293 694.5Q321 720 353 745Z" glyph-name="scaron" horiz-adv-x="474" unicode="š" /><glyph d="M348 109Q348 144 323.5 166Q299 188 246 202L185 217Q124 233 92 269.5Q60 306 60 361Q60 426 104.5 465.5Q149 505 228 505Q317 505 363.5 462Q410 419 400 350L322 336Q334 401 308.5 437Q283 473 225 473Q179 473 152.5 450Q126 427 126 385Q126 350 148 326.5Q170 303 213 292L276 277Q346 260 380.5 224Q415 188 415 134Q415 68 367 29Q319 -10 236 -10Q165 -10 115 22.5Q65 55 48 114L104 134Q114 78 147.5 49.5Q181 21 237 21Q287 21 317.5 44.5Q348 68 348 109ZM238 579 217 598Q244 637 258.5 668Q273 699 284 740H380Q350 694 316 656Q282 618 238 579Z" glyph-name="sacute" horiz-adv-x="474" unicode="ś" /><glyph d="M342 -140Q342 -178 311.5 -200.5Q281 -223 231 -223Q186 -223 158.5 -203Q131 -183 124 -145L172 -131Q176 -164 189 -179.5Q202 -195 227 -195Q251 -195 264 -180.5Q277 -166 277 -140Q277 -113 262.5 -99.5Q248 -86 219 -86Q214 -86 207.5 -86.5Q201 -87 196 -88L186 -63L208 -9Q146 -2 104.5 30Q63 62 48 114L104 134Q114 78 147.5 49.5Q181 21 237 21Q287 21 317.5 44.5Q348 68 348 109Q348 144 323.5 166Q299 188 246 202L185 217Q124 233 92 269.5Q60 306 60 361Q60 426 104.5 465.5Q149 505 228 505Q317 505 363.5 462Q410 419 400 350L322 336Q334 401 308.5 437Q283 473 225 473Q179 473 152.5 450Q126 427 126 385Q126 350 148 326.5Q170 303 213 292L276 277Q346 260 380.5 224Q415 188 415 134Q415 68 368.5 29Q322 -10 243 -10L223 -58Q278 -58 310 -80Q342 -102 342 -140Z" glyph-name="scedilla" horiz-adv-x="474" unicode="ş" /><glyph d="M348 109Q348 144 323.5 166Q299 188 246 202L185 217Q124 233 92 269.5Q60 306 60 361Q60 426 104.5 465.5Q149 505 228 505Q317 505 363.5 462Q410 419 400 350L322 336Q334 401 308.5 437Q283 473 225 473Q179 473 152.5 450Q126 427 126 385Q126 350 148 326.5Q170 303 213 292L276 277Q346 260 380.5 224Q415 188 415 134Q415 68 367 29Q319 -10 236 -10Q165 -10 115 22.5Q65 55 48 114L104 134Q114 78 147.5 49.5Q181 21 237 21Q287 21 317.5 44.5Q348 68 348 109ZM370 599 353 579Q317 605 287.5 630Q258 655 235 678Q212 654 185 629.5Q158 605 125 579L108 599Q147 642 165.5 669Q184 696 205 740H272Q294 695 312 668.5Q330 642 370 599Z" glyph-name="scircumflex" horiz-adv-x="474" unicode="ŝ" /><glyph d="M348 109Q348 144 323.5 166Q299 188 246 202L185 217Q124 233 92 269.5Q60 306 60 361Q60 426 104.5 465.5Q149 505 228 505Q317 505 363.5 462Q410 419 400 350L322 336Q334 401 308.5 437Q283 473 225 473Q179 473 152.5 450Q126 427 126 385Q126 350 148 326.5Q170 303 213 292L276 277Q346 260 380.5 224Q415 188 415 134Q415 68 367 29Q319 -10 236 -10Q165 -10 115 22.5Q65 55 48 114L104 134Q114 78 147.5 49.5Q181 21 237 21Q287 21 317.5 44.5Q348 68 348 109ZM177 -242 158 -226Q175 -189 183 -154.5Q191 -120 193 -77H278Q260 -128 237 -166Q214 -204 177 -242Z" glyph-name="uni0219" horiz-adv-x="474" unicode="ș" /><glyph d="M320 116 372 102Q357 45 325.5 17.5Q294 -10 243 -10Q180 -10 143.5 31.5Q107 73 107 141V274H31V306H107V414Q107 430 107 436Q107 442 106 446Q105 455 102 458Q99 461 85 463L30 468V495H107V626L189 643V495H352V463H189V306H324V274H189V133Q189 76 204.5 49Q220 22 253 22Q282 22 297.5 44Q313 66 320 116Z" glyph-name="tbar" horiz-adv-x="395" unicode="ŧ" /><glyph d="M313 116 365 102Q350 45 318.5 17.5Q287 -10 236 -10Q173 -10 136.5 31.5Q100 73 100 141V414Q100 430 100 436Q100 442 99 446Q98 455 95 458Q92 461 78 463L23 468V495H100V626L182 643V495H345V463H182V133Q182 76 197.5 49Q213 22 246 22Q275 22 290.5 44Q306 66 313 116ZM272 556 251 556V770H333Q318 707 303.5 656Q289 605 272 556Z" glyph-name="tcaron" horiz-adv-x="387" unicode="ť" /><glyph d="M313 116 365 102Q350 45 318.5 17.5Q287 -10 236 -10Q173 -10 136.5 31.5Q100 73 100 141V414Q100 430 100 436Q100 442 99 446Q98 455 95 458Q92 461 78 463L23 468V495H100V626L182 643V495H345V463H182V133Q182 76 197.5 49Q213 22 246 22Q275 22 290.5 44Q306 66 313 116ZM171 -242 152 -226Q169 -189 177 -154.5Q185 -120 187 -77H272Q254 -128 231 -166Q208 -204 171 -242Z" glyph-name="uni0163" horiz-adv-x="387" unicode="ţ" /><glyph d="M313 116 365 102Q350 45 318.5 17.5Q287 -10 236 -10Q173 -10 136.5 31.5Q100 73 100 141V414Q100 430 100 436Q100 442 99 446Q98 455 95 458Q92 461 78 463L23 468V495H100V626L182 643V495H345V463H182V133Q182 76 197.5 49Q213 22 246 22Q275 22 290.5 44Q306 66 313 116ZM171 -242 152 -226Q169 -189 177 -154.5Q185 -120 187 -77H272Q254 -128 231 -166Q208 -204 171 -242Z" glyph-name="uni021B" horiz-adv-x="387" unicode="ț" /><glyph d="M515 32 570 26V0H416V80Q383 36 339.5 13Q296 -10 248 -10Q176 -10 137 35.5Q98 81 98 164V414Q98 447 95.5 454Q93 461 76 463L21 468V495H180V165Q180 95 201 62.5Q222 30 268 30Q309 30 345.5 54.5Q382 79 411 127V414Q411 448 408 454.5Q405 461 389 463L314 468V495H493V81Q493 47 496 40.5Q499 34 515 32ZM294 579 273 598Q300 637 314.5 668Q329 699 340 740H436Q406 694 372 656Q338 618 294 579Z" glyph-name="uacute" horiz-adv-x="599" unicode="ú" /><glyph d="M515 32 570 26V0H416V80Q383 36 339.5 13Q296 -10 248 -10Q176 -10 137 35.5Q98 81 98 164V414Q98 447 95.5 454Q93 461 76 463L21 468V495H180V165Q180 95 201 62.5Q222 30 268 30Q309 30 345.5 54.5Q382 79 411 127V414Q411 448 408 454.5Q405 461 389 463L314 468V495H493V81Q493 47 496 40.5Q499 34 515 32ZM427 599 410 579Q374 605 344.5 630Q315 655 292 678Q269 654 242 629.5Q215 605 182 579L165 599Q204 642 222.5 669Q241 696 262 740H329Q351 695 369 668.5Q387 642 427 599Z" glyph-name="ucircumflex" horiz-adv-x="599" unicode="û" /><glyph d="M515 32 570 26V0H416V80Q383 36 339.5 13Q296 -10 248 -10Q176 -10 137 35.5Q98 81 98 164V414Q98 447 95.5 454Q93 461 76 463L21 468V495H180V165Q180 95 201 62.5Q222 30 268 30Q309 30 345.5 54.5Q382 79 411 127V414Q411 448 408 454.5Q405 461 389 463L314 468V495H493V81Q493 47 496 40.5Q499 34 515 32ZM244 663Q244 640 230 625.5Q216 611 193 611Q170 611 156 625.5Q142 640 142 663Q142 685 156.5 699Q171 713 193 713Q215 713 229.5 699Q244 685 244 663ZM448 663Q448 640 433.5 625.5Q419 611 396 611Q373 611 359 625.5Q345 640 345 663Q345 685 359.5 699Q374 713 396 713Q419 713 433.5 699Q448 685 448 663Z" glyph-name="udieresis" horiz-adv-x="599" unicode="ü" /><glyph d="M515 32 570 26V0H416V80Q383 36 339.5 13Q296 -10 248 -10Q176 -10 137 35.5Q98 81 98 164V414Q98 447 95.5 454Q93 461 76 463L21 468V495H180V165Q180 95 201 62.5Q222 30 268 30Q309 30 345.5 54.5Q382 79 411 127V414Q411 448 408 454.5Q405 461 389 463L314 468V495H493V81Q493 47 496 40.5Q499 34 515 32ZM317 598 296 579Q251 617 217.5 655Q184 693 153 740H249Q260 698 274.5 667Q289 636 317 598Z" glyph-name="ugrave" horiz-adv-x="599" unicode="ù" /><glyph d="M515 32 570 26V0H416V80Q383 36 339.5 13Q296 -10 248 -10Q176 -10 137 35.5Q98 81 98 164V414Q98 447 95.5 454Q93 461 76 463L21 468V495H180V165Q180 95 201 62.5Q222 30 268 30Q309 30 345.5 54.5Q382 79 411 127V414Q411 448 408 454.5Q405 461 389 463L314 468V495H493V81Q493 47 496 40.5Q499 34 515 32ZM295 643Q342 643 368.5 666.5Q395 690 408 742L436 733Q422 655 387 617Q352 579 295 579Q237 579 202 616.5Q167 654 153 733L182 742Q194 690 221 666.5Q248 643 295 643Z" glyph-name="ubreve" horiz-adv-x="599" unicode="ŭ" /><glyph d="M515 32 570 26V0H416V80Q383 36 339.5 13Q296 -10 248 -10Q176 -10 137 35.5Q98 81 98 164V414Q98 447 95.5 454Q93 461 76 463L21 468V495H180V165Q180 95 201 62.5Q222 30 268 30Q309 30 345.5 54.5Q382 79 411 127V414Q411 448 408 454.5Q405 461 389 463L314 468V495H493V81Q493 47 496 40.5Q499 34 515 32ZM222 579 199 597Q217 628 230 661.5Q243 695 254 740H341Q315 695 285 654.5Q255 614 222 579ZM362 579 339 597Q357 628 370 661.5Q383 695 394 740H481Q455 695 425 654.5Q395 614 362 579Z" glyph-name="uhungarumlaut" horiz-adv-x="599" unicode="ű" /><glyph d="M515 32 570 26V0H416V80Q383 36 339.5 13Q296 -10 248 -10Q176 -10 137 35.5Q98 81 98 164V414Q98 447 95.5 454Q93 461 76 463L21 468V495H180V165Q180 95 201 62.5Q222 30 268 30Q309 30 345.5 54.5Q382 79 411 127V414Q411 448 408 454.5Q405 461 389 463L314 468V495H493V81Q493 47 496 40.5Q499 34 515 32ZM152 666 439 666V619H152Z" glyph-name="umacron" horiz-adv-x="599" unicode="ū" /><glyph d="M389 463 314 468V495H493V81Q493 47 496 40.5Q499 34 515 32L570 26V0H513Q456 0 422 -34.5Q388 -69 388 -127Q388 -159 401.5 -176Q415 -193 440 -193Q467 -193 484 -173Q501 -153 508 -112L560 -125Q547 -173 514.5 -198Q482 -223 435 -223Q385 -223 354.5 -197Q324 -171 324 -128Q324 -87 348.5 -52Q373 -17 416 5V80Q383 36 339.5 13Q296 -10 248 -10Q176 -10 137 35.5Q98 81 98 164V414Q98 447 95.5 454Q93 461 76 463L21 468V495H180V165Q180 95 201 62.5Q222 30 268 30Q309 30 345.5 54.5Q382 79 411 127V414Q411 448 408 454.5Q405 461 389 463Z" glyph-name="uogonek" horiz-adv-x="599" unicode="ų" /><glyph d="M515 32 570 26V0H416V80Q383 36 339.5 13Q296 -10 248 -10Q176 -10 137 35.5Q98 81 98 164V414Q98 447 95.5 454Q93 461 76 463L21 468V495H180V165Q180 95 201 62.5Q222 30 268 30Q309 30 345.5 54.5Q382 79 411 127V414Q411 448 408 454.5Q405 461 389 463L314 468V495H493V81Q493 47 496 40.5Q499 34 515 32ZM295 789Q347 789 381 757.5Q415 726 415 681V670Q415 625 381 593Q347 561 295 561Q242 561 208.5 592.5Q175 624 175 670V681Q175 726 208.5 757.5Q242 789 295 789ZM355 663 355 688Q355 724 339.5 744Q324 764 295 764Q266 764 250.5 744Q235 724 235 688V663Q235 626 250.5 606.5Q266 587 295 587Q324 587 339.5 607Q355 627 355 663Z" glyph-name="uring" horiz-adv-x="599" unicode="ů" /><glyph d="M515 32 570 26V0H416V80Q383 36 339.5 13Q296 -10 248 -10Q176 -10 137 35.5Q98 81 98 164V414Q98 447 95.5 454Q93 461 76 463L21 468V495H180V165Q180 95 201 62.5Q222 30 268 30Q309 30 345.5 54.5Q382 79 411 127V414Q411 448 408 454.5Q405 461 389 463L314 468V495H493V81Q493 47 496 40.5Q499 34 515 32ZM362 589Q344 589 325.5 599Q307 609 277 640Q254 664 242.5 671Q231 678 221 678Q202 678 191 658Q180 638 177 600H146Q150 669 171 704Q192 739 229 739Q248 739 266 729Q284 719 313 688Q336 664 347 657Q358 650 369 650Q387 650 398 670Q409 690 412 728H444Q440 660 419 624.5Q398 589 362 589Z" glyph-name="utilde" horiz-adv-x="599" unicode="ũ" /><glyph d="M693 420 581 0H516L385 413L254 0H192L81 420Q74 449 69.5 455Q65 461 49 463L-2 468V495H225V468L173 463Q157 461 155.5 454.5Q154 448 162 420L248 90L375 495H440L569 84L656 420Q664 448 662.5 454.5Q661 461 645 463L593 468V495H776V468L725 463Q710 461 705.5 455Q701 449 693 420ZM404 579 383 598Q410 637 424.5 668Q439 699 450 740H546Q516 694 482 656Q448 618 404 579Z" glyph-name="wacute" horiz-adv-x="774" unicode="ẃ" /><glyph d="M693 420 581 0H516L385 413L254 0H192L81 420Q74 449 69.5 455Q65 461 49 463L-2 468V495H225V468L173 463Q157 461 155.5 454.5Q154 448 162 420L248 90L375 495H440L569 84L656 420Q664 448 662.5 454.5Q661 461 645 463L593 468V495H776V468L725 463Q710 461 705.5 455Q701 449 693 420ZM536 599 519 579Q483 605 453.5 630Q424 655 401 678Q378 654 351 629.5Q324 605 291 579L274 599Q313 642 331.5 669Q350 696 371 740H438Q460 695 478 668.5Q496 642 536 599Z" glyph-name="wcircumflex" horiz-adv-x="774" unicode="ŵ" /><glyph d="M693 420 581 0H516L385 413L254 0H192L81 420Q74 449 69.5 455Q65 461 49 463L-2 468V495H225V468L173 463Q157 461 155.5 454.5Q154 448 162 420L248 90L375 495H440L569 84L656 420Q664 448 662.5 454.5Q661 461 645 463L593 468V495H776V468L725 463Q710 461 705.5 455Q701 449 693 420ZM354 663Q354 640 340 625.5Q326 611 303 611Q280 611 266 625.5Q252 640 252 663Q252 685 266.5 699Q281 713 303 713Q325 713 339.5 699Q354 685 354 663ZM558 663Q558 640 543.5 625.5Q529 611 506 611Q483 611 469 625.5Q455 640 455 663Q455 685 469.5 699Q484 713 506 713Q529 713 543.5 699Q558 685 558 663Z" glyph-name="wdieresis" horiz-adv-x="774" unicode="ẅ" /><glyph d="M693 420 581 0H516L385 413L254 0H192L81 420Q74 449 69.5 455Q65 461 49 463L-2 468V495H225V468L173 463Q157 461 155.5 454.5Q154 448 162 420L248 90L375 495H440L569 84L656 420Q664 448 662.5 454.5Q661 461 645 463L593 468V495H776V468L725 463Q710 461 705.5 455Q701 449 693 420ZM427 598 406 579Q361 617 327.5 655Q294 693 263 740H359Q370 698 384.5 667Q399 636 427 598Z" glyph-name="wgrave" horiz-adv-x="774" unicode="ẁ" /><glyph d="M444 421 280 -50Q245 -147 200.5 -185Q156 -223 80 -223V-143Q154 -143 190.5 -120Q227 -97 248 -37L261 0H232L85 420Q76 447 71 453.5Q66 460 49 462L-2 468V495H226V468L175 462Q160 460 159 453Q158 446 167 420L287 74L408 421Q417 448 416 454Q415 460 399 462L347 468V495H530V468L479 462Q462 460 457.5 453.5Q453 447 444 421ZM284 579 263 598Q290 637 304.5 668Q319 699 330 740H426Q396 694 362 656Q328 618 284 579Z" glyph-name="yacute" horiz-adv-x="528" unicode="ý" /><glyph d="M444 421 280 -50Q245 -147 200.5 -185Q156 -223 80 -223V-143Q154 -143 190.5 -120Q227 -97 248 -37L261 0H232L85 420Q76 447 71 453.5Q66 460 49 462L-2 468V495H226V468L175 462Q160 460 159 453Q158 446 167 420L287 74L408 421Q417 448 416 454Q415 460 399 462L347 468V495H530V468L479 462Q462 460 457.5 453.5Q453 447 444 421ZM233 663Q233 640 219 625.5Q205 611 182 611Q159 611 145 625.5Q131 640 131 663Q131 685 145.5 699Q160 713 182 713Q204 713 218.5 699Q233 685 233 663ZM437 663Q437 640 422.5 625.5Q408 611 385 611Q362 611 348 625.5Q334 640 334 663Q334 685 348.5 699Q363 713 385 713Q408 713 422.5 699Q437 685 437 663Z" glyph-name="ydieresis" horiz-adv-x="528" unicode="ÿ" /><glyph d="M444 421 280 -50Q245 -147 200.5 -185Q156 -223 80 -223V-143Q154 -143 190.5 -120Q227 -97 248 -37L261 0H232L85 420Q76 447 71 453.5Q66 460 49 462L-2 468V495H226V468L175 462Q160 460 159 453Q158 446 167 420L287 74L408 421Q417 448 416 454Q415 460 399 462L347 468V495H530V468L479 462Q462 460 457.5 453.5Q453 447 444 421ZM416 599 399 579Q363 605 333.5 630Q304 655 281 678Q258 654 231 629.5Q204 605 171 579L154 599Q193 642 211.5 669Q230 696 251 740H318Q340 695 358 668.5Q376 642 416 599Z" glyph-name="ycircumflex" horiz-adv-x="528" unicode="ŷ" /><glyph d="M444 421 280 -50Q245 -147 200.5 -185Q156 -223 80 -223V-143Q154 -143 190.5 -120Q227 -97 248 -37L261 0H232L85 420Q76 447 71 453.5Q66 460 49 462L-2 468V495H226V468L175 462Q160 460 159 453Q158 446 167 420L287 74L408 421Q417 448 416 454Q415 460 399 462L347 468V495H530V468L479 462Q462 460 457.5 453.5Q453 447 444 421ZM307 598 286 579Q241 617 207.5 655Q174 693 143 740H239Q250 698 264.5 667Q279 636 307 598Z" glyph-name="ygrave" horiz-adv-x="528" unicode="ỳ" /><glyph d="M361 58 388 143H414V0H45V25L313 463H163Q133 463 124.5 459.5Q116 456 109 437L82 352H56V495H404V470L138 32H307Q339 32 347.5 35.5Q356 39 361 58ZM345 745 362 724Q323 681 304.5 654.5Q286 628 264 584H197Q176 628 157.5 654.5Q139 681 100 724L117 745Q156 715 184 691Q212 667 234 645Q257 669 285 694.5Q313 720 345 745Z" glyph-name="zcaron" horiz-adv-x="461" unicode="ž" /><glyph d="M361 58 388 143H414V0H45V25L313 463H163Q133 463 124.5 459.5Q116 456 109 437L82 352H56V495H404V470L138 32H307Q339 32 347.5 35.5Q356 39 361 58ZM230 579 209 598Q236 637 250.5 668Q265 699 276 740H372Q342 694 308 656Q274 618 230 579Z" glyph-name="zacute" horiz-adv-x="461" unicode="ź" /><glyph d="M361 58 388 143H414V0H45V25L313 463H163Q133 463 124.5 459.5Q116 456 109 437L82 352H56V495H404V470L138 32H307Q339 32 347.5 35.5Q356 39 361 58ZM286 663Q286 638 270.5 622.5Q255 607 231 607Q207 607 191.5 622.5Q176 638 176 663Q176 687 191.5 702Q207 717 231 717Q255 717 270.5 702Q286 687 286 663Z" glyph-name="zdotaccent" horiz-adv-x="461" unicode="ż" /><glyph d="M230 579 209 598Q236 637 250.5 668Q265 699 276 740H372Q342 694 308 656Q274 618 230 579Z" glyph-name="acute" horiz-adv-x="500" unicode="´" /><glyph d="M307 598 286 579Q241 617 207.5 655Q174 693 143 740H239Q250 698 264.5 667Q279 636 307 598Z" glyph-name="grave" horiz-adv-x="500" unicode="`" /><glyph d="M416 599 399 579Q363 605 333.5 630Q304 655 281 678Q258 654 231 629.5Q204 605 171 579L154 599Q193 642 211.5 669Q230 696 251 740H318Q340 695 358 668.5Q376 642 416 599Z" glyph-name="circumflex" horiz-adv-x="500" unicode="ˆ" /><glyph d="M345 745 362 724Q323 681 304.5 654.5Q286 628 264 584H197Q176 628 157.5 654.5Q139 681 100 724L117 745Q156 715 184 691Q212 667 234 645Q257 669 285 694.5Q313 720 345 745Z" glyph-name="caron" horiz-adv-x="500" unicode="ˇ" /><glyph d="M362 589Q344 589 325.5 599Q307 609 277 640Q254 664 242.5 671Q231 678 221 678Q202 678 191 658Q180 638 177 600H146Q150 669 171 704Q192 739 229 739Q248 739 266 729Q284 719 313 688Q336 664 347 657Q358 650 369 650Q387 650 398 670Q409 690 412 728H444Q440 660 419 624.5Q398 589 362 589Z" glyph-name="tilde" horiz-adv-x="500" unicode="˜" /><glyph d="M233 663Q233 640 219 625.5Q205 611 182 611Q159 611 145 625.5Q131 640 131 663Q131 685 145.5 699Q160 713 182 713Q204 713 218.5 699Q233 685 233 663ZM437 663Q437 640 422.5 625.5Q408 611 385 611Q362 611 348 625.5Q334 640 334 663Q334 685 348.5 699Q363 713 385 713Q408 713 422.5 699Q437 685 437 663Z" glyph-name="dieresis" horiz-adv-x="500" unicode="¨" /><glyph d="M295 789Q347 789 381 757.5Q415 726 415 681V670Q415 625 381 593Q347 561 295 561Q242 561 208.5 592.5Q175 624 175 670V681Q175 726 208.5 757.5Q242 789 295 789ZM355 663 355 688Q355 724 339.5 744Q324 764 295 764Q266 764 250.5 744Q235 724 235 688V663Q235 626 250.5 606.5Q266 587 295 587Q324 587 339.5 607Q355 627 355 663Z" glyph-name="ring" horiz-adv-x="500" unicode="˚" /><glyph d="M359 -140Q359 -178 328.5 -200.5Q298 -223 248 -223Q203 -223 175.5 -203Q148 -183 141 -145L189 -131Q193 -164 206 -179.5Q219 -195 244 -195Q268 -195 281 -180.5Q294 -166 294 -140Q294 -113 279.5 -99.5Q265 -86 236 -86Q231 -86 224.5 -86.5Q218 -87 213 -88L203 -63L229 0H264L240 -58Q295 -58 327 -80Q359 -102 359 -140Z" glyph-name="cedilla" horiz-adv-x="500" unicode="¸" /><glyph d="M222 579 199 597Q217 628 230 661.5Q243 695 254 740H341Q315 695 285 654.5Q255 614 222 579ZM362 579 339 597Q357 628 370 661.5Q383 695 394 740H481Q455 695 425 654.5Q395 614 362 579Z" glyph-name="hungarumlaut" horiz-adv-x="500" unicode="˝" /><glyph d="M295 643Q342 643 368.5 666.5Q395 690 408 742L436 733Q422 655 387 617Q352 579 295 579Q237 579 202 616.5Q167 654 153 733L182 742Q194 690 221 666.5Q248 643 295 643Z" glyph-name="breve" horiz-adv-x="500" unicode="˘" /><glyph d="M152 666 439 666V619H152Z" glyph-name="macron" horiz-adv-x="500" unicode="¯" /><glyph d="M286 663Q286 638 270.5 622.5Q255 607 231 607Q207 607 191.5 622.5Q176 638 176 663Q176 687 191.5 702Q207 717 231 717Q255 717 270.5 702Q286 687 286 663Z" glyph-name="dotaccent" horiz-adv-x="500" unicode="˙" /><glyph d="M356 385Q356 360 340.5 344.5Q325 329 301 329Q277 329 261.5 344.5Q246 360 246 385Q246 409 261.5 424Q277 439 301 439Q325 439 340.5 424Q356 409 356 385Z" glyph-name="periodcentered" horiz-adv-x="500" unicode="·" /><glyph d="M243 -223Q193 -223 162.5 -197Q132 -171 132 -128Q132 -64 188 -18.5Q244 27 316 27L321 0Q264 0 230 -34.5Q196 -69 196 -127Q196 -159 209.5 -176Q223 -193 248 -193Q275 -193 292 -173Q309 -153 316 -112L368 -125Q355 -173 322.5 -198Q290 -223 243 -223Z" glyph-name="ogonek" horiz-adv-x="500" unicode="˛" /><glyph d="M171 -242 152 -226Q169 -189 177 -154.5Q185 -120 187 -77H272Q254 -128 231 -166Q208 -204 171 -242Z" glyph-name="commaaccent" horiz-adv-x="500" unicode="" /><glyph d="M272 556 251 556V770H333Q318 707 303.5 656Q289 605 272 556Z" glyph-name="caron.alt" horiz-adv-x="500" unicode="" /><glyph d="M321 749 341 733Q324 697 315.5 662.5Q307 628 305 584H220Q237 633 260.5 671.5Q284 710 321 749Z" glyph-name="revcommaaccent" horiz-adv-x="500" unicode="" /><glyph d="M186 47Q186 22 170 6Q154 -10 128 -10Q103 -10 87.5 6Q72 22 72 47Q72 72 87.5 87.5Q103 103 128 103Q154 103 170 87.5Q186 72 186 47Z" glyph-name="period" horiz-adv-x="258" unicode="." /><glyph d="M129 98Q154 98 169 80.5Q184 63 184 33Q184 -12 154.5 -72Q125 -132 73 -193L51 -175Q88 -130 107.5 -88.5Q127 -47 130 -10H129Q105 -10 90 5Q75 20 75 44Q75 68 90 83Q105 98 129 98Z" glyph-name="comma" horiz-adv-x="258" unicode="," /><glyph d="M186 448Q186 423 170 407Q154 391 128 391Q103 391 87.5 407Q72 423 72 448Q72 473 87.5 489Q103 505 128 505Q153 505 169.5 489Q186 473 186 448ZM186 47Q186 22 170 6Q154 -10 128 -10Q103 -10 87.5 6Q72 22 72 47Q72 72 87.5 87.5Q103 103 128 103Q154 103 170 87.5Q186 72 186 47Z" glyph-name="colon" horiz-adv-x="258" unicode=":" /><glyph d="M186 448Q186 423 170 407Q154 391 128 391Q103 391 87.5 407Q72 423 72 448Q72 473 87.5 489Q103 505 128 505Q153 505 169.5 489Q186 473 186 448ZM129 98Q154 98 169 80.5Q184 63 184 33Q184 -12 154.5 -72Q125 -132 73 -193L51 -175Q88 -130 107.5 -88.5Q127 -47 130 -10H129Q105 -10 90 5Q75 20 75 44Q75 68 90 83Q105 98 129 98Z" glyph-name="semicolon" horiz-adv-x="258" unicode=";" /><glyph d="M586 47Q586 22 570 6Q554 -10 528 -10Q503 -10 487.5 6Q472 22 472 47Q472 72 487.5 87.5Q503 103 528 103Q554 103 570 87.5Q586 72 586 47ZM586 47Q586 22 570 6Q554 -10 528 -10Q503 -10 487.5 6Q472 22 472 47Q472 72 487.5 87.5Q503 103 528 103Q554 103 570 87.5Q586 72 586 47ZM586 47Q586 22 570 6Q554 -10 528 -10Q503 -10 487.5 6Q472 22 472 47Q472 72 487.5 87.5Q503 103 528 103Q554 103 570 87.5Q586 72 586 47Z" glyph-name="ellipsis" horiz-adv-x="658" unicode="…" /><glyph d="M253 207 256 184H209V206Q209 244 221 273.5Q233 303 273 344Q316 388 329.5 423Q343 458 343 505Q343 580 315.5 619Q288 658 235 658Q171 658 144 610Q117 562 127 467L45 483Q29 572 82 631Q135 690 236 690Q330 690 382.5 642.5Q435 595 435 516Q435 466 415 429Q395 392 333 346Q278 305 263.5 275.5Q249 246 253 207ZM288 47Q288 22 272 6Q256 -10 231 -10Q206 -10 190.5 6Q175 22 175 47Q175 72 190.5 87.5Q206 103 231 103Q256 103 272 87.5Q288 72 288 47Z" glyph-name="question" horiz-adv-x="479" unicode="?" /><glyph d="M158 450Q150 361 147.5 304.5Q145 248 145 184H114Q114 248 111.5 304.5Q109 361 100 450Q93 531 90.5 579Q88 627 88 680H170Q170 627 167.5 579Q165 531 158 450ZM186 47Q186 22 170 6Q154 -10 128 -10Q103 -10 87.5 6Q72 22 72 47Q72 72 87.5 87.5Q103 103 128 103Q154 103 170 87.5Q186 72 186 47Z" glyph-name="exclam" horiz-adv-x="258" unicode="!" /><glyph d="M192 447Q192 472 208 488.5Q224 505 249 505Q274 505 290 488.5Q306 472 306 447Q306 422 290 406.5Q274 391 249 391Q224 391 208 406.5Q192 422 192 447ZM227 288 225 311H271V289Q271 250 259 220.5Q247 191 207 150Q164 106 150.5 71Q137 36 137 -10Q137 -85 164.5 -124Q192 -163 245 -163Q309 -163 336 -115Q363 -67 353 28L435 12Q451 -77 398.5 -136Q346 -195 244 -195Q151 -195 98 -147.5Q45 -100 45 -21Q45 28 64.5 65Q84 102 146 148Q202 189 216.5 219Q231 249 227 288Z" glyph-name="questiondown" horiz-adv-x="479" unicode="¿" /><glyph d="M72 447Q72 472 88 488.5Q104 505 129 505Q154 505 170 488.5Q186 472 186 447Q186 422 170 406.5Q154 391 129 391Q104 391 88 406.5Q72 422 72 447ZM100 44Q108 133 110.5 190Q113 247 113 311H144Q144 247 146.5 190Q149 133 158 44Q165 -37 167.5 -85Q170 -133 170 -185H88Q88 -133 90 -85Q92 -37 100 44Z" glyph-name="exclamdown" horiz-adv-x="258" unicode="¡" /><glyph d="M71 280 71 317Q71 441 126 548.5Q181 656 293 750L316 726Q238 653 198.5 550Q159 447 159 317V280Q159 150 198.5 47Q238 -56 316 -129L293 -153Q181 -59 126 48.5Q71 156 71 280Z" glyph-name="parenleft" horiz-adv-x="336" unicode="(" /><glyph d="M265 317 265 280Q265 156 210 48.5Q155 -59 43 -153L20 -129Q98 -56 137 47Q176 150 176 280V317Q176 447 137 550Q98 653 20 726L43 750Q155 656 210 548.5Q265 441 265 317Z" glyph-name="parenright" horiz-adv-x="336" unicode=")" /><glyph d="M295 -112 380 -112V-144H295Q205 -144 163 -94.5Q121 -45 140 41L164 147Q178 206 162 244Q146 282 107 282H30V314H107Q146 314 162 352Q178 390 164 449L140 555Q121 641 163 690.5Q205 740 295 740H380V708H295Q244 708 225.5 674Q207 640 222 574L246 468Q261 403 239.5 358.5Q218 314 165 298Q218 282 239.5 237.5Q261 193 246 128L222 22Q207 -44 225.5 -78Q244 -112 295 -112Z" glyph-name="braceleft" horiz-adv-x="401" unicode="{" /><glyph d="M236 147 260 41Q279 -45 237 -94.5Q195 -144 105 -144H20V-112H105Q156 -112 174.5 -78Q193 -44 178 22L154 128Q139 193 160.5 237.5Q182 282 235 298Q182 314 160.5 358.5Q139 403 154 468L178 574Q193 640 174.5 674Q156 708 105 708H20V740H105Q195 740 237 690.5Q279 641 260 555L236 449Q222 389 238 351Q254 313 293 313H370V281H293Q254 281 238 243.5Q222 206 236 147Z" glyph-name="braceright" horiz-adv-x="401" unicode="}" /><glyph d="M335 740 335 708H184V-111H335V-143H102V740Z" glyph-name="bracketleft" horiz-adv-x="356" unicode="[" /><glyph d="M20 708 20 740H253V-143H20V-111H171V708Z" glyph-name="bracketright" horiz-adv-x="356" unicode="]" /><glyph d="M-17 -128 328 740L364 725L18 -143Z" glyph-name="slash" horiz-adv-x="379" unicode="/" /><glyph d="M14 725 50 740L396 -128L360 -143Z" glyph-name="backslash" horiz-adv-x="379" unicode="\" /><glyph d="M390 -143 18 -143V-109H390Z" glyph-name="underscore" horiz-adv-x="409" unicode="_" /><glyph d="M334 317 70 317V352H334Z" glyph-name="hyphen" horiz-adv-x="404" unicode="-" /><glyph d="" glyph-name="uni00AD" horiz-adv-x="0" unicode="­" /><glyph d="M534 317 70 317V352H534Z" glyph-name="endash" horiz-adv-x="604" unicode="–" /><glyph d="M734 317 70 317V352H734Z" glyph-name="emdash" horiz-adv-x="804" unicode="—" /><glyph d="M93 357 93 740H130V357ZM93 -213 93 170H130V-213Z" glyph-name="brokenbar" horiz-adv-x="224" unicode="¦" /><glyph d="M100 -213 100 740H137V-213Z" glyph-name="bar" horiz-adv-x="237" unicode="|" /><glyph d="M401 244 588 27L570 10L303 232V256L570 478L588 460ZM151 244 338 27L320 10L53 232V256L320 478L338 460Z" glyph-name="guillemotleft" horiz-adv-x="645" unicode="«" /><glyph d="M243 244 57 461L74 478L342 256V232L74 10L57 28ZM493 244 307 461L324 478L592 256V232L324 10L307 28Z" glyph-name="guillemotright" horiz-adv-x="645" unicode="»" /><glyph d="M151 244 338 27L320 10L53 232V256L320 478L338 460Z" glyph-name="guilsinglleft" horiz-adv-x="395" unicode="‹" /><glyph d="M243 245 57 461L74 479L342 257V233L74 11L57 28Z" glyph-name="guilsinglright" horiz-adv-x="395" unicode="›" /><glyph d="M129 94Q153 94 167.5 77Q182 60 182 31Q182 -7 157.5 -59Q133 -111 91 -163L69 -144Q99 -105 114 -73Q129 -41 131 -10H129Q106 -10 91.5 4.5Q77 19 77 42Q77 65 91.5 79.5Q106 94 129 94Z" glyph-name="quotesinglbase" horiz-adv-x="258" unicode="‚" /><glyph d="M129 94Q153 94 167.5 77Q182 60 182 31Q182 -7 157.5 -59Q133 -111 91 -163L69 -144Q99 -105 114 -73Q129 -41 131 -10H129Q106 -10 91.5 4.5Q77 19 77 42Q77 65 91.5 79.5Q106 94 129 94ZM296 94Q320 94 334.5 77Q349 60 349 31Q349 -7 324.5 -59Q300 -111 258 -163L236 -144Q265 -106 280.5 -74Q296 -42 298 -10H296Q273 -10 258.5 4.5Q244 19 244 42Q244 65 258.5 79.5Q273 94 296 94Z" glyph-name="quotedblbase" horiz-adv-x="425" unicode="„" /><glyph d="M179 484Q179 461 165 446.5Q151 432 128 432Q104 432 89.5 449Q75 466 75 495Q75 534 99 586Q123 638 165 690L187 671Q158 633 142.5 600Q127 567 125 536H128Q151 536 165 521.5Q179 507 179 484Z" glyph-name="quoteleft" horiz-adv-x="258" unicode="‘" /><glyph d="M347 484Q347 461 332.5 446.5Q318 432 295 432Q271 432 256.5 449Q242 466 242 495Q242 534 266.5 586Q291 638 333 690L354 671Q324 632 309.5 599Q295 566 293 536H295Q318 536 332.5 521.5Q347 507 347 484ZM179 484Q179 461 165 446.5Q151 432 128 432Q104 432 89.5 449Q75 466 75 495Q75 534 99 586Q123 638 165 690L187 671Q158 633 142.5 600Q127 567 125 536H128Q151 536 165 521.5Q179 507 179 484Z" glyph-name="quotedblleft" horiz-adv-x="425" unicode="“" /><glyph d="M41 690Q65 690 79.5 673Q94 656 94 627Q94 588 69.5 535.5Q45 483 3 432L-18 451Q12 489 26.5 521.5Q41 554 43 585H41Q18 585 3.5 599.5Q-11 614 -11 638Q-11 661 4 675.5Q19 690 41 690Z" glyph-name="quoteright" horiz-adv-x="258" unicode="’" /><glyph d="M130 690Q154 690 168.5 673Q183 656 183 627Q183 588 158.5 535.5Q134 483 92 432L71 451Q101 489 115.5 521.5Q130 554 132 585H130Q107 585 92.5 599.5Q78 614 78 638Q78 661 93 675.5Q108 690 130 690ZM297 690Q321 690 335.5 673Q350 656 350 627Q350 588 326 535Q302 482 260 432L238 451Q268 490 283 522Q298 554 300 585H297Q274 585 260 599.5Q246 614 246 638Q246 661 260.5 675.5Q275 690 297 690Z" glyph-name="quotedblright" horiz-adv-x="425" unicode="”" /><glyph d="M166 587Q152 549 147 515.5Q142 482 142 438H116Q116 482 111 515.5Q106 549 92 587Q85 605 83 614.5Q81 624 81 634Q81 660 94 675Q107 690 129 690Q150 690 163.5 674.5Q177 659 177 634Q177 624 175 614.5Q173 605 166 587Z" glyph-name="quotesingle" horiz-adv-x="258" unicode="'" /><glyph d="M166 587Q152 549 147 515.5Q142 482 142 438H116Q116 482 111 515.5Q106 549 92 587Q85 605 83 614.5Q81 624 81 634Q81 660 94 675Q107 690 129 690Q150 690 163.5 674.5Q177 659 177 634Q177 624 175 614.5Q173 605 166 587ZM333 587Q320 549 315 515.5Q310 482 310 438H283Q283 482 278 515.5Q273 549 260 587Q253 605 251 614.5Q249 624 249 634Q249 660 262 675Q275 690 297 690Q318 690 331 674.5Q344 659 344 634Q344 624 342 614.5Q340 605 333 587Z" glyph-name="quotedbl" horiz-adv-x="426" unicode="&quot;" /><glyph d="M208 334Q208 300 186.5 278Q165 256 131 256Q98 256 76 278Q54 300 54 334Q54 367 76 388.5Q98 410 131 410Q165 410 186.5 388.5Q208 367 208 334Z" glyph-name="bullet" horiz-adv-x="263" unicode="•" /><glyph d="M138 151Q138 90 168.5 56Q199 22 253 22Q331 22 362 88Q393 154 350 236L415 277L538 69Q551 46 558 39Q565 32 584 30L633 25V0H487L407 139Q405 73 361.5 31.5Q318 -10 246 -10Q157 -10 104 32.5Q51 75 51 147Q51 203 88.5 250.5Q126 298 217 353L228 360Q159 398 124.5 442Q90 486 90 536Q90 600 139.5 645Q189 690 264 690Q341 690 389.5 646Q438 602 438 536Q438 490 410.5 453Q383 416 300 365L244 329Q190 295 164 251.5Q138 208 138 151ZM265 658Q223 658 200 628Q177 598 177 541Q177 492 196.5 452Q216 412 256 378L275 391Q314 415 332.5 451.5Q351 488 351 538Q351 595 328.5 626.5Q306 658 265 658Z" glyph-name="ampersand" horiz-adv-x="619" unicode="&amp;" /><glyph d="M38 470 38 499Q38 584 92 632Q146 680 242 680H525V653L470 648Q453 646 450.5 639Q448 632 448 599V-62Q448 -95 450.5 -102Q453 -109 470 -111L525 -116V-143H264V-116L339 -111Q355 -109 358 -102.5Q361 -96 361 -62V648H293V288H242Q146 288 92 336.5Q38 385 38 470Z" glyph-name="paragraph" horiz-adv-x="572" unicode="¶" /><glyph d="M277 270 277 267Q277 239 275 211.5Q273 184 266 130Q256 48 252.5 -12Q249 -72 249 -143H218Q218 -72 214.5 -12Q211 48 200 130Q193 184 191 211.5Q189 239 189 267V270Q189 291 191.5 310Q194 329 203 360Q212 394 215 415Q218 436 218 460Q195 460 174 457Q153 454 121 445Q90 437 71.5 434.5Q53 432 33 432V517Q53 517 71.5 514.5Q90 512 121 503Q154 495 174.5 492Q195 489 218 489Q218 513 215 534.5Q212 556 203 590Q194 621 191.5 640Q189 659 189 680H277Q277 659 274.5 640Q272 621 264 590Q255 556 252 534.5Q249 513 249 489Q272 489 292.5 492Q313 495 345 504Q377 512 395.5 514.5Q414 517 435 517V432Q414 432 395.5 434.5Q377 437 346 446Q313 454 292.5 457Q272 460 249 460Q249 436 252 415Q255 394 264 360Q272 329 274.5 310Q277 291 277 270Z" glyph-name="dagger" horiz-adv-x="468" unicode="†" /><glyph d="M446 104 446 19Q425 19 406.5 21.5Q388 24 357 33Q325 41 304 44Q283 47 260 47Q260 23 263 1.5Q266 -20 275 -53Q284 -85 286.5 -103.5Q289 -122 289 -143H201Q201 -122 203.5 -103Q206 -84 215 -53Q224 -19 227 2Q230 23 230 47Q207 47 186.5 44Q166 41 133 32Q102 24 83.5 21.5Q65 19 44 19V104Q65 104 83.5 101.5Q102 99 133 90Q165 82 186 79Q207 76 230 76Q230 100 227 121.5Q224 143 215 177Q206 208 203.5 227Q201 246 201 267V270Q201 291 203.5 310Q206 329 215 360Q224 394 227 415Q230 436 230 460Q207 460 186.5 457Q166 454 133 445Q102 437 83.5 434.5Q65 432 44 432V517Q65 517 83.5 514.5Q102 512 133 503Q165 495 186 492Q207 489 230 489Q230 513 227 534.5Q224 556 215 590Q206 621 203.5 640Q201 659 201 680H289Q289 659 286.5 640Q284 621 275 590Q266 556 263 534.5Q260 513 260 489Q283 489 303.5 492Q324 495 357 504Q388 512 406.5 514.5Q425 517 446 517V432Q425 432 406.5 434.5Q388 437 357 446Q325 454 304 457Q283 460 260 460Q260 436 263 414.5Q266 393 275 360Q284 328 286.5 309.5Q289 291 289 270V267Q289 246 286.5 227Q284 208 275 177Q266 143 263 121.5Q260 100 260 76Q283 76 303.5 79Q324 82 357 91Q388 99 406.5 101.5Q425 104 446 104Z" glyph-name="daggerdbl" horiz-adv-x="491" unicode="‡" /><glyph d="M378 91Q419 68 439.5 33Q460 -2 460 -51Q460 -130 406.5 -176.5Q353 -223 259 -223Q169 -223 116.5 -179Q64 -135 50 -49L110 -29Q116 -110 153.5 -150.5Q191 -191 259 -191Q320 -191 354.5 -162Q389 -133 389 -81Q389 -34 362 -6Q335 22 273 40L200 62Q130 82 90 126Q50 170 50 226Q50 275 80 315.5Q110 356 163 377Q122 401 100 440Q78 479 78 527Q78 601 127.5 645.5Q177 690 264 690Q362 690 411.5 637Q461 584 447 501L363 483Q375 571 349 614.5Q323 658 260 658Q207 658 178 631Q149 604 149 554Q149 506 174.5 477Q200 448 256 432L331 410Q410 387 450 346Q490 305 490 246Q490 194 460.5 153.5Q431 113 378 91ZM121 258Q121 213 150.5 184.5Q180 156 245 137L334 110Q376 122 397.5 148Q419 174 419 213Q419 258 388.5 286Q358 314 286 335L203 359Q163 349 142 323Q121 297 121 258Z" glyph-name="section" horiz-adv-x="539" unicode="§" /><glyph d="M26 512 49 581Q67 575 82.5 568Q98 561 123 545Q150 529 168.5 520.5Q187 512 209 504Q209 528 206.5 548Q204 568 196 599Q189 627 187 644Q185 661 185 680H258Q258 661 256 644Q254 627 247 599Q240 568 237.5 548Q235 528 235 504Q258 511 276.5 520Q295 529 321 545Q345 560 360.5 567.5Q376 575 394 581L417 511Q399 505 382 502Q365 499 336 497Q305 495 284.5 491Q264 487 242 480Q256 461 270 446Q284 431 308 410Q330 392 341.5 379.5Q353 367 364 351L305 309Q294 324 286 338.5Q278 353 267 380Q255 409 245 427Q235 445 221 464Q207 445 197 427Q187 409 175 380Q165 354 156.5 339Q148 324 137 309L78 352Q89 367 101 379.5Q113 392 135 411Q159 431 173 446Q187 461 201 480Q178 487 158 491Q138 495 106 498Q77 500 60.5 503Q44 506 26 512Z" glyph-name="asterisk" horiz-adv-x="444" unicode="*" /><glyph d="M23 598 23 680H301V598H281L271 642Q269 652 264.5 653.5Q260 655 244 655H189V389Q189 373 190.5 369Q192 365 200 364L228 362V340H96V362L124 364Q132 365 133.5 369Q135 373 135 389V655H80Q63 655 59 653Q55 651 53 642L43 598ZM708 364 736 362V340H604V362L632 364Q640 365 641.5 369Q643 373 643 389V640L538 380H509L405 636V389Q405 373 406.5 369Q408 365 416 364L444 362V340H339V362L367 364Q375 365 376.5 369Q378 373 378 389V631Q378 647 376.5 650.5Q375 654 367 655L339 658V680H443L539 446L632 680H736V658L708 655Q700 654 698.5 650.5Q697 647 697 631V389Q697 373 698.5 369Q700 365 708 364Z" glyph-name="trademark" horiz-adv-x="771" unicode="™" /><glyph d="M512 479Q512 379 444 310Q376 241 278 241Q179 241 111.5 310Q44 379 44 479Q44 580 111.5 648.5Q179 717 278 717Q376 717 444 648Q512 579 512 479ZM76 479Q76 391 134.5 331Q193 271 278 271Q363 271 421 331Q479 391 479 479Q479 567 421 627Q363 687 278 687Q193 687 134.5 627Q76 567 76 479ZM191 586 170 588V609H281Q320 609 342 591.5Q364 574 364 543V527Q364 505 352.5 489Q341 473 320 465L363 396Q364 395 369 386Q374 377 381 377L399 376V354H331L272 459H247V396Q247 382 248 379.5Q249 377 255 377L276 376V354H170V376L191 377Q197 377 198.5 380Q200 383 200 396V568Q200 579 199 582Q198 585 191 586ZM281 586 247 586V483H281Q298 483 307 494.5Q316 506 316 527V543Q316 564 307 575Q298 586 281 586Z" glyph-name="registered" horiz-adv-x="556" unicode="®" /><glyph d="M798 340Q798 181 690.5 72Q583 -37 426 -37Q269 -37 161.5 72Q54 181 54 340Q54 500 161 608.5Q268 717 426 717Q583 717 690.5 608Q798 499 798 340ZM88 340Q88 194 185.5 94.5Q283 -5 426 -5Q569 -5 666.5 94.5Q764 194 764 340Q764 486 666.5 585.5Q569 685 426 685Q283 685 185.5 585.5Q88 486 88 340ZM430 542Q370 542 341 499.5Q312 457 312 371V310Q312 218 341.5 178Q371 138 439 138Q488 138 515 163Q542 188 553 243L604 230Q588 170 544 139Q500 108 434 108Q339 108 287.5 166Q236 224 236 330V351Q236 455 287 513.5Q338 572 430 572Q516 572 562.5 523Q609 474 597 398L532 389Q542 462 515.5 502Q489 542 430 542Z" glyph-name="copyright" horiz-adv-x="852" unicode="©" /><glyph d="M721 -119 741 -167Q690 -193 621.5 -208Q553 -223 487 -223Q297 -223 179.5 -101.5Q62 20 62 214Q62 418 186 554Q310 690 500 690Q674 690 790 572Q906 454 906 278Q906 159 845.5 78.5Q785 -2 695 -2Q645 -2 612 23.5Q579 49 572 93Q540 43 503 18Q466 -7 422 -7Q343 -7 303.5 65Q264 137 284 246L288 268Q305 361 363.5 417.5Q422 474 499 474Q539 474 570.5 457Q602 440 625 406Q639 420 651.5 434.5Q664 449 674 464H709L653 153Q642 90 653 59.5Q664 29 700 29Q772 29 822 100.5Q872 172 872 278Q872 440 766 549Q660 658 500 658Q326 658 211 531Q96 404 96 214Q96 33 203.5 -79Q311 -191 487 -191Q556 -191 615.5 -173Q675 -155 721 -119ZM373 276 363 216Q348 128 366.5 76.5Q385 25 430 25Q470 25 504.5 58Q539 91 575 161L611 366Q592 404 565.5 423Q539 442 504 442Q452 442 419.5 400.5Q387 359 373 276Z" glyph-name="at" horiz-adv-x="965" unicode="@" /><glyph d="M310 339Q285 339 268.5 350.5Q252 362 247 383Q224 359 197.5 347Q171 335 142 335Q99 335 74 360Q49 385 49 426Q49 471 78.5 492Q108 513 169 513H244V568Q244 616 228.5 637.5Q213 659 176 659Q137 659 123 637Q109 615 115 567L65 574Q60 624 90.5 654.5Q121 685 177 685Q236 685 266 655.5Q296 626 296 568V416Q296 390 301.5 378Q307 366 323 366Q330 366 337.5 369Q345 372 352 378L364 359Q353 349 339.5 344Q326 339 310 339ZM103 430Q103 397 116 380Q129 363 154 363Q178 363 200.5 375.5Q223 388 244 413V487H174Q136 487 119.5 473.5Q103 460 103 430Z" glyph-name="ordfeminine" horiz-adv-x="381" unicode="ª" /><glyph d="M197 685Q266 685 304.5 640.5Q343 596 343 517V504Q343 425 304 380Q265 335 197 335Q129 335 90 380Q51 425 51 504V517Q51 595 90 640Q129 685 197 685ZM284 490 284 531Q284 599 264 629Q244 659 197 659Q151 659 130.5 629Q110 599 110 531V490Q110 422 130.5 391Q151 360 197 360Q243 360 263.5 390.5Q284 421 284 490Z" glyph-name="ordmasculine" horiz-adv-x="395" unicode="º" /><glyph d="M551 243 551 211H432L364 -10L330 0L395 211H170L102 -10L68 0L133 211H25V243H143L203 436H94V468H212L281 690L315 679L250 468H474L543 690L577 679L512 468H620V436H502L442 243ZM240 436 180 243H405L465 436Z" glyph-name="numbersign" horiz-adv-x="645" unicode="#" /><glyph d="M884 685Q961 685 1004.5 639Q1048 593 1048 512V492Q1048 411 1004 364.5Q960 318 884 318Q807 318 763.5 364.5Q720 411 720 492V512Q720 594 763 639.5Q806 685 884 685ZM516 648 461 653V680H652V653L597 648Q581 646 578 639Q575 632 575 599V0H526L162 614V81Q162 47 165 40.5Q168 34 184 32L239 26V0H48V26L103 32Q119 34 122 40.5Q125 47 125 81V599Q125 632 122 639Q119 646 103 648L48 653V680H221L538 144V599Q538 632 535 639Q532 646 516 648ZM974 472 974 532Q974 594 951.5 624.5Q929 655 884 655Q839 655 816.5 624.5Q794 594 794 532V472Q794 409 816.5 378Q839 347 884 347Q929 347 951.5 378Q974 409 974 472ZM1023 186 745 186V218H1023Z" glyph-name="uni2116" horiz-adv-x="1091" unicode="№" /><glyph d="M501 151 563 135Q544 63 492 26.5Q440 -10 359 -10Q249 -10 182.5 55.5Q116 121 102 242H22V274H100Q99 279 99 285Q99 291 99 303V382H22V414H100Q109 545 174 617.5Q239 690 349 690Q454 690 512 630Q570 570 558 480L472 459Q482 554 450 606Q418 658 349 658Q270 658 232 601.5Q194 545 194 428V414H420L414 382H194V274H393L387 242H194Q196 129 236.5 75.5Q277 22 361 22Q423 22 458.5 54.5Q494 87 501 151Z" glyph-name="Euro" horiz-adv-x="611" unicode="€" /><glyph d="M493 178Q493 95 439 45Q385 -5 288 -10V-125H253V-10Q163 -5 110.5 40Q58 85 45 169L105 189Q111 110 148 68.5Q185 27 253 23V301L212 313Q136 334 96 383.5Q56 433 56 506Q56 586 108.5 636.5Q161 687 253 690V805H288V689Q387 684 437 626Q487 568 472 483L388 465Q399 550 374 599Q349 648 288 656V384L326 373Q410 350 451.5 301.5Q493 253 493 178ZM130 531Q130 478 160 444.5Q190 411 253 394V658Q195 656 162.5 622.5Q130 589 130 531ZM420 152Q420 206 388 239Q356 272 288 291V23Q350 27 385 61Q420 95 420 152Z" glyph-name="dollar" horiz-adv-x="548" unicode="$" /><glyph d="M370 32 425 26V0H184V26L239 32Q255 34 258 40.5Q261 47 261 81V214H79V246H261V290L228 354H79V386H212L100 605Q85 633 79.5 639.5Q74 646 57 648L6 653V680H248V653L197 648Q181 646 181 639.5Q181 633 195 605L331 332L470 605Q484 632 484 639Q484 646 468 648L417 653V680H602V653L550 648Q534 646 528.5 640Q523 634 508 605L396 386H530V354H380L348 292V246H530V214H348V81Q348 47 351 40.5Q354 34 370 32Z" glyph-name="yen" horiz-adv-x="608" unicode="¥" /><glyph d="M418 99 435 184H461V0H62V56Q117 105 141 143.5Q165 182 165 226Q165 241 162.5 255.5Q160 270 154 284H54V316H140Q134 328 116.5 357Q99 386 90 404Q78 429 72.5 453.5Q67 478 67 503Q67 587 120.5 638.5Q174 690 268 690Q371 690 425 631Q479 572 463 483L376 467Q386 562 359.5 610Q333 658 270 658Q219 658 191.5 620Q164 582 164 510Q164 458 185.5 392.5Q207 327 210 316H384V284H216Q217 272 217.5 265.5Q218 259 218 253Q218 206 195.5 162.5Q173 119 126 73H364Q398 73 406 76.5Q414 80 418 99Z" glyph-name="sterling" horiz-adv-x="525" unicode="£" /><glyph d="M398 129 451 114Q436 56 393.5 24.5Q351 -7 287 -10V-125H252V-9Q160 -1 111.5 63Q63 127 63 238V258Q63 368 113 433Q163 498 252 504V620H287V504Q370 499 414 447Q458 395 446 319L367 307Q377 379 356 422Q335 465 287 472V22Q336 23 362.5 48.5Q389 74 398 129ZM153 278 153 218Q153 125 176.5 79.5Q200 34 252 25V472Q202 466 177.5 417.5Q153 369 153 278Z" glyph-name="cent" horiz-adv-x="502" unicode="¢" /><glyph d="M242 342 205 -52Q197 -143 161.5 -183Q126 -223 59 -223Q1 -223 -29.5 -192.5Q-60 -162 -52 -114L21 -103Q14 -148 24.5 -170Q35 -192 63 -192Q91 -192 103.5 -165Q116 -138 123 -66L161 342H38V374H164L183 579Q191 670 226.5 710Q262 750 329 750Q388 750 418 720Q448 690 441 641L367 630Q374 676 363.5 697.5Q353 719 325 719Q297 719 284 691.5Q271 664 265 593L245 374H368V342Z" glyph-name="florin" horiz-adv-x="435" unicode="ƒ" /><glyph d="M499 26 499 0H344L49 308V340H210Q263 340 292 375Q321 410 321 475V478H49V510H321V514Q321 579 292.5 613.5Q264 648 210 648H49V680H490V648H340Q376 626 394.5 590.5Q413 555 413 510H490V478H413Q412 399 358 353.5Q304 308 210 308H164L387 81Q418 49 428.5 41Q439 33 454 32Z" glyph-name="uni20B9" horiz-adv-x="531" unicode="₹" /><glyph d="M436 171 536 67L513 43L412 147Q387 126 355.5 114.5Q324 103 290 103Q256 103 224.5 114Q193 125 168 147L67 43L44 67L144 171Q122 197 110 230Q98 263 98 300Q98 336 109.5 369.5Q121 403 143 429L44 532L67 557L168 453Q193 475 224.5 486Q256 497 290 497Q324 497 355.5 486Q387 475 412 453L513 557L536 532L436 429Q458 403 470 370Q482 337 482 300Q482 263 470 230Q458 197 436 171ZM132 300Q132 230 177.5 182.5Q223 135 290 135Q357 135 402.5 182.5Q448 230 448 300Q448 369 402 417Q356 465 290 465Q224 465 178 417Q132 369 132 300Z" glyph-name="currency" horiz-adv-x="580" unicode="¤" /><glyph d="M307 690Q415 690 477 605Q539 520 539 372V309Q539 161 477 75.5Q415 -10 307 -10Q198 -10 136.5 75Q75 160 75 309V372Q75 520 136.5 605Q198 690 307 690ZM442 239 442 442Q442 552 409 605Q376 658 307 658Q238 658 205 605Q172 552 172 442V239Q172 128 205 75Q238 22 307 22Q376 22 409 75Q442 128 442 239Z" glyph-name="zero" horiz-adv-x="614" unicode="0" /><glyph d="M47 570 30 597L162 680H233V81Q233 47 236 40.5Q239 34 255 32L310 26V0H49V26L124 32Q140 33 143 40Q146 47 146 81V632Z" glyph-name="one" horiz-adv-x="353" unicode="1" /><glyph d="M411 101 436 198H462V0H61V53Q61 131 94.5 187.5Q128 244 222 306Q279 344 296.5 358Q314 372 326 386Q349 412 360 442Q371 472 371 508Q371 582 342.5 620Q314 658 259 658Q192 658 164 610Q136 562 147 467L60 483Q43 572 98.5 631Q154 690 260 690Q358 690 413 640Q468 590 468 506Q468 458 450 421Q432 384 394 354Q364 331 305 303Q246 275 240 272Q170 235 136.5 188Q103 141 99 75H357Q389 75 397.5 78.5Q406 82 411 101Z" glyph-name="two" horiz-adv-x="539" unicode="2" /><glyph d="M371 170Q371 251 330.5 292.5Q290 334 210 334H183V366H210Q285 366 322.5 404Q360 442 360 516Q360 585 331.5 621.5Q303 658 249 658Q183 658 155 610.5Q127 563 137 467L50 483Q34 572 89 631Q144 690 250 690Q348 690 402.5 643Q457 596 457 516Q457 448 415 406Q373 364 292 350Q379 336 423.5 290.5Q468 245 468 170Q468 87 409.5 38.5Q351 -10 247 -10Q164 -10 113.5 28.5Q63 67 42 146L105 164Q115 93 149.5 57.5Q184 22 243 22Q307 22 339 59Q371 96 371 170Z" glyph-name="three" horiz-adv-x="527" unicode="3" /><glyph d="M305 81 305 176H16V208Q115 314 166.5 417Q218 520 253 680H359Q323 554 251.5 442Q180 330 58 208H305V365L392 379V208H469V176H392V81Q392 47 395 40.5Q398 34 414 32L469 26V0H208V26L283 32Q299 33 302 40Q305 47 305 81Z" glyph-name="four" horiz-adv-x="498" unicode="4" /><glyph d="M395 706 405 762H431V603H123L111 389Q139 409 173.5 419Q208 429 246 429Q345 429 403 369Q461 309 461 207Q461 107 403.5 48.5Q346 -10 242 -10Q165 -10 117 28.5Q69 67 48 146L111 164Q121 93 152.5 57.5Q184 22 237 22Q301 22 332.5 68Q364 114 364 207Q364 301 332 348Q300 395 235 395Q197 395 161.5 381Q126 367 94 339L74 348L93 680H341Q377 680 384.5 683.5Q392 687 395 706Z" glyph-name="five" horiz-adv-x="511" unicode="5" /><glyph d="M517 201 517 191Q517 100 458.5 45Q400 -10 303 -10Q192 -10 133.5 71Q75 152 75 305V368Q75 525 133 607.5Q191 690 300 690Q396 690 454 633.5Q512 577 503 496L417 481Q425 567 395 612.5Q365 658 299 658Q231 658 200.5 602Q170 546 170 427V330Q197 365 235 382.5Q273 400 320 400Q409 400 463 345.5Q517 291 517 201ZM170 280 170 246Q170 128 201.5 75Q233 22 305 22Q365 22 394.5 63.5Q424 105 424 189V199Q424 279 393.5 321Q363 363 305 363Q263 363 228 341.5Q193 320 170 280Z" glyph-name="six" horiz-adv-x="575" unicode="6" /><glyph d="M77 577 52 480H26V680H439V611Q340 483 301 350.5Q262 218 253 0H147Q169 190 226 324.5Q283 459 401 603H131Q99 603 90.5 599.5Q82 596 77 577Z" glyph-name="seven" horiz-adv-x="456" unicode="7" /><glyph d="M337 371Q416 337 452 289.5Q488 242 488 172Q488 87 432 38.5Q376 -10 276 -10Q175 -10 115.5 36Q56 82 56 156Q56 211 93.5 258Q131 305 200 335Q133 367 101.5 410Q70 453 70 511Q70 590 124.5 640Q179 690 269 690Q360 690 416.5 643.5Q473 597 473 526Q473 475 439.5 437Q406 399 337 371ZM144 538Q144 493 171 461.5Q198 430 264 402L306 384Q350 407 370 440.5Q390 474 390 526Q390 590 358 624Q326 658 268 658Q211 658 177.5 626Q144 594 144 538ZM139 158Q139 93 174.5 57.5Q210 22 276 22Q343 22 378.5 54.5Q414 87 414 148Q414 200 386 234Q358 268 291 296L232 321Q188 298 163.5 255.5Q139 213 139 158Z" glyph-name="eight" horiz-adv-x="544" unicode="8" /><glyph d="M500 375 500 312Q500 156 438 73Q376 -10 261 -10Q183 -10 134 29Q85 68 65 146L127 164Q137 93 170 57.5Q203 22 259 22Q334 22 369.5 79Q405 136 405 253V332Q377 298 339 280Q301 262 255 262Q166 262 112 316.5Q58 371 58 461V487Q58 579 117 634.5Q176 690 272 690Q383 690 441.5 609Q500 528 500 375ZM151 491 151 464Q151 384 181.5 341.5Q212 299 270 299Q312 299 347 320.5Q382 342 405 383V434Q405 551 373.5 604.5Q342 658 270 658Q210 658 180.5 616.5Q151 575 151 491Z" glyph-name="nine" horiz-adv-x="575" unicode="9" /><glyph d="M263 690Q371 690 433 605Q495 520 495 372V309Q495 161 433 75.5Q371 -10 263 -10Q154 -10 92.5 75Q31 160 31 309V372Q31 520 92.5 605Q154 690 263 690ZM398 239 398 442Q398 552 365 605Q332 658 263 658Q194 658 161 605Q128 552 128 442V239Q128 128 161 75Q194 22 263 22Q332 22 365 75Q398 128 398 239Z" glyph-name="zero.tlf" horiz-adv-x="525" unicode="" /><glyph d="M98 541 80 569L253 680H325V83Q325 49 328 42.5Q331 36 347 34L448 26V0H101V26L216 34Q232 36 235 42.5Q238 49 238 83V630Z" glyph-name="one.tlf" horiz-adv-x="525" unicode="" /><glyph d="M407 101 432 198H458V0H57V53Q57 131 90.5 187.5Q124 244 218 306Q275 344 292.5 358Q310 372 322 386Q345 412 356 442Q367 472 367 508Q367 582 338.5 620Q310 658 255 658Q188 658 160 610Q132 562 143 467L56 483Q39 572 94.5 631Q150 690 256 690Q354 690 409 640Q464 590 464 506Q464 458 446 421Q428 384 390 354Q360 331 301 303Q242 275 236 272Q166 235 132.5 188Q99 141 95 75H353Q385 75 393.5 78.5Q402 82 407 101Z" glyph-name="two.tlf" horiz-adv-x="525" unicode="" /><glyph d="M372 170Q372 251 331.5 292.5Q291 334 211 334H184V366H211Q286 366 323.5 404Q361 442 361 516Q361 585 332.5 621.5Q304 658 250 658Q184 658 156 610.5Q128 563 138 467L51 483Q35 572 90 631Q145 690 251 690Q349 690 403.5 643Q458 596 458 516Q458 448 416 406Q374 364 293 350Q380 336 424.5 290.5Q469 245 469 170Q469 87 410.5 38.5Q352 -10 248 -10Q165 -10 114.5 28.5Q64 67 43 146L106 164Q116 93 150.5 57.5Q185 22 244 22Q308 22 340 59Q372 96 372 170Z" glyph-name="three.tlf" horiz-adv-x="525" unicode="" /><glyph d="M321 81 321 176H32V208Q131 314 182.5 417Q234 520 269 680H375Q339 554 267.5 442Q196 330 74 208H321V365L408 379V208H485V176H408V81Q408 47 411 40.5Q414 34 430 32L485 26V0H224V26L299 32Q315 33 318 40Q321 47 321 81Z" glyph-name="four.tlf" horiz-adv-x="525" unicode="" /><glyph d="M399 706 409 762H435V603H127L115 389Q143 409 177.5 419Q212 429 250 429Q349 429 407 369Q465 309 465 207Q465 107 407.5 48.5Q350 -10 246 -10Q169 -10 121 28.5Q73 67 52 146L115 164Q125 93 156.5 57.5Q188 22 241 22Q305 22 336.5 68Q368 114 368 207Q368 301 336 348Q304 395 239 395Q201 395 165.5 381Q130 367 98 339L78 348L97 680H345Q381 680 388.5 683.5Q396 687 399 706Z" glyph-name="five.tlf" horiz-adv-x="525" unicode="" /><glyph d="M489 201 489 191Q489 100 430.5 45Q372 -10 275 -10Q164 -10 105.5 71Q47 152 47 305V368Q47 525 105 607.5Q163 690 272 690Q368 690 426 633.5Q484 577 475 496L389 481Q397 567 367 612.5Q337 658 271 658Q203 658 172.5 602Q142 546 142 427V330Q169 365 207 382.5Q245 400 292 400Q381 400 435 345.5Q489 291 489 201ZM142 280 142 246Q142 128 173.5 75Q205 22 277 22Q337 22 366.5 63.5Q396 105 396 189V199Q396 279 365.5 321Q335 363 277 363Q235 363 200 341.5Q165 320 142 280Z" glyph-name="six.tlf" horiz-adv-x="525" unicode="" /><glyph d="M106 577 81 480H55V680H468V611Q369 483 330 350.5Q291 218 282 0H176Q198 190 255 324.5Q312 459 430 603H160Q128 603 119.5 599.5Q111 596 106 577Z" glyph-name="seven.tlf" horiz-adv-x="525" unicode="" /><glyph d="M328 371Q407 337 443 289.5Q479 242 479 172Q479 87 423 38.5Q367 -10 267 -10Q166 -10 106.5 36Q47 82 47 156Q47 211 84.5 258Q122 305 191 335Q124 367 92.5 410Q61 453 61 511Q61 590 115.5 640Q170 690 260 690Q351 690 407.5 643.5Q464 597 464 526Q464 475 430.5 437Q397 399 328 371ZM135 538Q135 493 162 461.5Q189 430 255 402L297 384Q341 407 361 440.5Q381 474 381 526Q381 590 349 624Q317 658 259 658Q202 658 168.5 626Q135 594 135 538ZM130 158Q130 93 165.5 57.5Q201 22 267 22Q334 22 369.5 54.5Q405 87 405 148Q405 200 377 234Q349 268 282 296L223 321Q179 298 154.5 255.5Q130 213 130 158Z" glyph-name="eight.tlf" horiz-adv-x="525" unicode="" /><glyph d="M479 375 479 312Q479 156 417 73Q355 -10 240 -10Q162 -10 113 29Q64 68 44 146L106 164Q116 93 149 57.5Q182 22 238 22Q313 22 348.5 79Q384 136 384 253V332Q356 298 318 280Q280 262 234 262Q145 262 91 316.5Q37 371 37 461V487Q37 579 96 634.5Q155 690 251 690Q362 690 420.5 609Q479 528 479 375ZM130 491 130 464Q130 384 160.5 341.5Q191 299 249 299Q291 299 326 320.5Q361 342 384 383V434Q384 551 352.5 604.5Q321 658 249 658Q189 658 159.5 616.5Q130 575 130 491Z" glyph-name="nine.tlf" horiz-adv-x="525" unicode="" /><glyph d="M283 505Q386 505 445.5 438.5Q505 372 505 258V238Q505 123 446 56.5Q387 -10 283 -10Q179 -10 120.5 56Q62 122 62 238V258Q62 373 120.5 439Q179 505 283 505ZM413 218 413 278Q413 378 381.5 425.5Q350 473 283 473Q217 473 185.5 425.5Q154 378 154 278V218Q154 118 185.5 70Q217 22 283 22Q350 22 381.5 70Q413 118 413 218Z" glyph-name="zero.posf" horiz-adv-x="567" unicode="" /><glyph d="M41 385 24 412L156 495H227V81Q227 47 230 40.5Q233 34 249 32L304 26V0H43V26L118 32Q134 33 137 40Q140 47 140 81V447Z" glyph-name="one.posf" horiz-adv-x="336" unicode="" /><glyph d="M396 100 413 165H439V0H76V55Q76 110 103.5 148Q131 186 195 217Q203 221 227.5 232Q252 243 266 251Q287 262 301 273Q315 284 325 297Q337 312 342.5 330Q348 348 348 369Q348 420 324 446.5Q300 473 255 473Q201 473 178 433Q155 393 164 312L77 328Q63 405 112 455Q161 505 256 505Q345 505 395 467Q445 429 445 365Q445 326 425 297.5Q405 269 362 247Q337 234 287.5 216.5Q238 199 219 191Q165 166 140.5 139Q116 112 112 74H342Q374 74 382 77Q390 80 396 100Z" glyph-name="two.posf" horiz-adv-x="520" unicode="" /><glyph d="M106 392 81 295H55V495H433V426L245 199Q348 195 399 145.5Q450 96 450 0Q450 -89 393 -142Q336 -195 236 -195Q156 -195 106.5 -156Q57 -117 36 -38L99 -20Q109 -91 142.5 -127Q176 -163 231 -163Q292 -163 322.5 -122.5Q353 -82 353 0Q353 83 322 125.5Q291 168 230 168H203V199L382 418H160Q128 418 119.5 414.5Q111 411 106 392Z" glyph-name="three.posf" horiz-adv-x="503" unicode="" /><glyph d="M398 -178 311 -195V0H23V32Q123 139 174.5 240Q226 341 260 495H366Q332 375 261.5 266Q191 157 64 32H311V178L398 192V32H475V0H398Z" glyph-name="four.posf" horiz-adv-x="497" unicode="" /><glyph d="M393 521 403 577H429V418H121L109 204Q137 224 171.5 234Q206 244 244 244Q343 244 401 184Q459 124 459 22Q459 -78 401.5 -136.5Q344 -195 240 -195Q163 -195 115 -156.5Q67 -118 46 -39L109 -21Q119 -92 150.5 -127.5Q182 -163 235 -163Q299 -163 330.5 -117Q362 -71 362 22Q362 116 330 163Q298 210 233 210Q195 210 159.5 196Q124 182 92 154L72 163L91 495H339Q375 495 382.5 498.5Q390 502 393 521Z" glyph-name="five.posf" horiz-adv-x="510" unicode="" /><glyph d="M511 201 511 191Q511 100 452.5 45Q394 -10 297 -10Q186 -10 127.5 71Q69 152 69 305V368Q69 525 127 607.5Q185 690 294 690Q390 690 448 633.5Q506 577 497 496L411 481Q419 567 389 612.5Q359 658 293 658Q225 658 194.5 602Q164 546 164 427V330Q191 365 229 382.5Q267 400 314 400Q403 400 457 345.5Q511 291 511 201ZM164 280 164 246Q164 128 195.5 75Q227 22 299 22Q359 22 388.5 63.5Q418 105 418 189V199Q418 279 387.5 321Q357 363 299 363Q257 363 222 341.5Q187 320 164 280Z" glyph-name="six.posf" horiz-adv-x="575" unicode="" /><glyph d="M83 392 58 295H32V495H445V426Q346 298 307 165.5Q268 33 259 -185H153Q175 5 232 139.5Q289 274 407 418H137Q105 418 96.5 414.5Q88 411 83 392Z" glyph-name="seven.posf" horiz-adv-x="479" unicode="" /><glyph d="M329 371Q408 337 444 289.5Q480 242 480 172Q480 87 424 38.5Q368 -10 268 -10Q167 -10 107.5 36Q48 82 48 156Q48 211 85.5 258Q123 305 192 335Q125 367 93.5 410Q62 453 62 511Q62 590 116.5 640Q171 690 261 690Q352 690 408.5 643.5Q465 597 465 526Q465 475 431.5 437Q398 399 329 371ZM136 538Q136 493 163 461.5Q190 430 256 402L298 384Q342 407 362 440.5Q382 474 382 526Q382 590 350 624Q318 658 260 658Q203 658 169.5 626Q136 594 136 538ZM131 158Q131 93 166.5 57.5Q202 22 268 22Q335 22 370.5 54.5Q406 87 406 148Q406 200 378 234Q350 268 283 296L224 321Q180 298 155.5 255.5Q131 213 131 158Z" glyph-name="eight.posf" horiz-adv-x="535" unicode="" /><glyph d="M498 190 498 127Q498 -29 436 -112Q374 -195 259 -195Q181 -195 132 -156Q83 -117 63 -39L125 -21Q135 -92 168 -127.5Q201 -163 257 -163Q332 -163 367.5 -106Q403 -49 403 68V147Q375 113 337 95Q299 77 253 77Q164 77 110 131.5Q56 186 56 276V302Q56 394 115 449.5Q174 505 270 505Q381 505 439.5 424Q498 343 498 190ZM149 306 149 279Q149 199 179.5 156.5Q210 114 268 114Q310 114 345 135.5Q380 157 403 198V249Q403 366 371.5 419.5Q340 473 268 473Q208 473 178.5 431.5Q149 390 149 306Z" glyph-name="nine.posf" horiz-adv-x="575" unicode="" /><glyph d="M350 528Q350 458 305.5 412Q261 366 193 366Q125 366 80.5 412Q36 458 36 528Q36 598 80.5 644Q125 690 193 690Q261 690 305.5 644Q350 598 350 528ZM74 528Q74 471 107 435Q140 399 193 399Q246 399 279.5 435Q313 471 313 528Q313 584 279.5 620Q246 656 193 656Q141 656 107.5 620Q74 584 74 528Z" glyph-name="degree" horiz-adv-x="387" unicode="°" /><glyph d="M176 685Q237 685 275.5 645.5Q314 606 314 546V515Q314 454 275.5 414.5Q237 375 176 375Q115 375 77 414.5Q39 454 39 515V546Q39 606 77 645.5Q115 685 176 685ZM157 16 532 680L558 663L184 0ZM251 494 251 567Q251 611 231 636.5Q211 662 176 662Q142 662 122.5 636.5Q103 611 103 567V494Q103 449 122 423.5Q141 398 176 398Q211 398 231 423.5Q251 449 251 494ZM541 305Q602 305 640.5 265.5Q679 226 679 166V135Q679 74 640.5 34.5Q602 -5 541 -5Q480 -5 442 34.5Q404 74 404 135V166Q404 226 442 265.5Q480 305 541 305ZM616 114 616 187Q616 231 596 256.5Q576 282 541 282Q507 282 487.5 256.5Q468 231 468 187V114Q468 69 487 43.5Q506 18 541 18Q576 18 596 43.5Q616 69 616 114Z" glyph-name="percent" horiz-adv-x="719" unicode="%" /><glyph d="M176 685Q237 685 275.5 645.5Q314 606 314 546V515Q314 454 275.5 414.5Q237 375 176 375Q115 375 77 414.5Q39 454 39 515V546Q39 606 77 645.5Q115 685 176 685ZM157 16 532 680L558 663L184 0ZM251 494 251 567Q251 611 231 636.5Q211 662 176 662Q142 662 122.5 636.5Q103 611 103 567V494Q103 449 122 423.5Q141 398 176 398Q211 398 231 423.5Q251 449 251 494ZM541 305Q602 305 640.5 265.5Q679 226 679 166V135Q679 74 640.5 34.5Q602 -5 541 -5Q480 -5 442 34.5Q404 74 404 135V166Q404 226 442 265.5Q480 305 541 305ZM891 305Q952 305 990.5 265.5Q1029 226 1029 166V135Q1029 74 990.5 34.5Q952 -5 891 -5Q830 -5 792 34.5Q754 74 754 135V166Q754 226 792 265.5Q830 305 891 305ZM616 114 616 187Q616 231 596 256.5Q576 282 541 282Q507 282 487.5 256.5Q468 231 468 187V114Q468 69 487 43.5Q506 18 541 18Q576 18 596 43.5Q616 69 616 114ZM966 114 966 187Q966 231 946 256.5Q926 282 891 282Q857 282 837.5 256.5Q818 231 818 187V114Q818 69 837 43.5Q856 18 891 18Q926 18 946 43.5Q966 69 966 114Z" glyph-name="perthousand" horiz-adv-x="1069" unicode="‰" /><glyph d="M-175 16 200 680L226 663L-148 0Z" glyph-name="fraction" horiz-adv-x="51" unicode="⁄" /><glyph d="M-175 16 200 680L226 663L-148 0Z" glyph-name="uni2215" horiz-adv-x="51" unicode="∕" /><glyph d="M166 790Q225 790 259.5 747.5Q294 705 294 631V600Q294 526 260 483Q226 440 166 440Q107 440 73 482.5Q39 525 39 600V631Q39 705 73 747.5Q107 790 166 790ZM231 565 231 666Q231 717 215 742Q199 767 166 767Q134 767 118.5 742.5Q103 718 103 666V565Q103 512 118 487.5Q133 463 166 463Q199 463 215 488Q231 513 231 565Z" glyph-name="zerosuperior" horiz-adv-x="334" unicode="⁰" /><glyph d="M41 724 29 744L95 785H145V492Q145 476 146.5 472.5Q148 469 156 468L184 465V445H38V465L76 468Q84 469 85.5 472.5Q87 476 87 492V753Z" glyph-name="onesuperior" horiz-adv-x="216" unicode="¹" /><glyph d="M218 502 226 544H247V445H30V472Q30 515 45.5 541.5Q61 568 116 601Q159 626 172.5 646.5Q186 667 186 695Q186 730 173.5 748.5Q161 767 137 767Q108 767 95.5 744.5Q83 722 88 677L29 685Q21 730 51 760Q81 790 137 790Q190 790 219.5 764Q249 738 249 694Q249 669 238.5 649.5Q228 630 206 615Q191 605 161 591.5Q131 578 124 574Q94 559 79 539Q64 519 61 489H191Q208 489 212 491Q216 493 218 502Z" glyph-name="twosuperior" horiz-adv-x="290" unicode="²" /><glyph d="M190 530Q190 569 171.5 589Q153 609 116 609H98V630H116Q150 630 167.5 648.5Q185 667 185 703Q185 735 172 752Q159 769 135 769Q105 769 92.5 746.5Q80 724 85 679L26 687Q18 732 48 761Q78 790 135 790Q189 790 218.5 766.5Q248 743 248 703Q248 671 231 650Q214 629 180 620Q217 610 235.5 587.5Q254 565 254 530Q254 489 222.5 464.5Q191 440 136 440Q91 440 64 458Q37 476 26 513L59 523Q63 493 82 477Q101 461 131 461Q161 461 175.5 478Q190 495 190 530Z" glyph-name="threesuperior" horiz-adv-x="291" unicode="³" /><glyph d="M153 491 153 530H5V551Q59 610 84.5 661.5Q110 713 123 785H191Q179 735 147.5 687Q116 639 31 551H153V628L211 634V551H250V530H211V491Q211 475 212.5 471.5Q214 468 222 466L250 463V445H110V463L142 466Q150 467 151.5 471Q153 475 153 491Z" glyph-name="foursuperior" horiz-adv-x="265" unicode="⁴" /><glyph d="M216 798 221 826H234V741H68L62 643Q77 653 94 658Q111 663 129 663Q184 663 216.5 632.5Q249 602 249 551Q249 500 218 470Q187 440 130 440Q91 440 65 458Q39 476 29 510L61 520Q66 491 82.5 475.5Q99 460 124 460Q155 460 170.5 482.5Q186 505 186 551Q186 596 170.5 619Q155 642 125 642Q106 642 88 634.5Q70 627 53 612L40 617L50 785H189Q199 785 202 785Q205 785 207 786Q211 786 213 788Q215 790 216 798Z" glyph-name="fivesuperior" horiz-adv-x="277" unicode="⁵" /><glyph d="M282 546 282 541Q282 495 250 467.5Q218 440 166 440Q105 440 73.5 480.5Q42 521 42 598V629Q42 708 73.5 749Q105 790 164 790Q218 790 250 761Q282 732 275 691L216 683Q221 725 207.5 747Q194 769 164 769Q132 769 118 742.5Q104 716 104 658V621Q117 635 134 642Q151 649 174 649Q222 649 252 620.5Q282 592 282 546ZM104 591 104 567Q104 511 118.5 486Q133 461 166 461Q193 461 206.5 481Q220 501 220 540V545Q220 584 205.5 605Q191 626 164 626Q146 626 130.5 617Q115 608 104 591Z" glyph-name="sixsuperior" horiz-adv-x="318" unicode="⁶" /><glyph d="M61 728 53 686H33V785H247V746Q198 682 178.5 616.5Q159 551 155 445H87Q97 527 127 592Q157 657 225 741H88Q71 741 67 739Q63 737 61 728Z" glyph-name="sevensuperior" horiz-adv-x="272" unicode="⁷" /><glyph d="M200 632Q236 614 253 589.5Q270 565 270 531Q270 489 240.5 464.5Q211 440 158 440Q104 440 72.5 463Q41 486 41 523Q41 551 58 572.5Q75 594 109 610Q77 627 62 649.5Q47 672 47 701Q47 740 76 765Q105 790 152 790Q201 790 231.5 767Q262 744 262 708Q262 683 247.5 665Q233 647 200 632ZM99 714Q99 693 111 679Q123 665 152 653L173 644Q190 655 198 670Q206 685 206 707Q206 736 192 751.5Q178 767 153 767Q128 767 113.5 753Q99 739 99 714ZM97 524Q97 495 113 479Q129 463 158 463Q187 463 202.5 477.5Q218 492 218 518Q218 541 205 557Q192 573 164 585L133 599Q115 586 106 567Q97 548 97 524Z" glyph-name="eightsuperior" horiz-adv-x="311" unicode="⁸" /><glyph d="M268 633 268 601Q268 523 234.5 481.5Q201 440 139 440Q99 440 72.5 458Q46 476 35 510L67 521Q72 492 91 476.5Q110 461 138 461Q173 461 189.5 488.5Q206 516 206 572V600Q192 585 174.5 578Q157 571 136 571Q87 571 57.5 599.5Q28 628 28 676V689Q28 734 60 762Q92 790 143 790Q203 790 235.5 749.5Q268 709 268 633ZM90 691 90 677Q90 636 104 615Q118 594 146 594Q164 594 179.5 603Q195 612 206 629V662Q206 718 191.5 743.5Q177 769 143 769Q116 769 103 749.5Q90 730 90 691Z" glyph-name="ninesuperior" horiz-adv-x="307" unicode="⁹" /><glyph d="M166 240Q225 240 259.5 197.5Q294 155 294 81V50Q294 -24 260 -67Q226 -110 166 -110Q107 -110 73 -67.5Q39 -25 39 50V81Q39 155 73 197.5Q107 240 166 240ZM231 15 231 116Q231 167 215 192Q199 217 166 217Q134 217 118.5 192.5Q103 168 103 116V15Q103 -38 118 -62.5Q133 -87 166 -87Q199 -87 215 -62Q231 -37 231 15Z" glyph-name="zeroinferior" horiz-adv-x="334" unicode="₀" /><glyph d="M41 174 29 194L95 235H145V-58Q145 -74 146.5 -77.5Q148 -81 156 -82L184 -85V-105H38V-85L76 -82Q84 -81 85.5 -77.5Q87 -74 87 -58V203Z" glyph-name="oneinferior" horiz-adv-x="216" unicode="₁" /><glyph d="M218 -48 226 -6H247V-105H30V-78Q30 -35 45.5 -8.5Q61 18 116 51Q159 76 172.5 96.5Q186 117 186 145Q186 180 173.5 198.5Q161 217 137 217Q108 217 95.5 194.5Q83 172 88 127L29 135Q21 180 51 210Q81 240 137 240Q190 240 219.5 214Q249 188 249 144Q249 119 238.5 99.5Q228 80 206 65Q191 55 161 41.5Q131 28 124 24Q94 9 79 -11Q64 -31 61 -61H191Q208 -61 212 -59Q216 -57 218 -48Z" glyph-name="twoinferior" horiz-adv-x="290" unicode="₂" /><glyph d="M190 -20Q190 19 171.5 39Q153 59 116 59H98V80H116Q150 80 167.5 98.5Q185 117 185 153Q185 185 172 202Q159 219 135 219Q105 219 92.5 196.5Q80 174 85 129L26 137Q18 182 48 211Q78 240 135 240Q189 240 218.5 216.5Q248 193 248 153Q248 121 231 100Q214 79 180 70Q217 60 235.5 37.5Q254 15 254 -20Q254 -61 222.5 -85.5Q191 -110 136 -110Q91 -110 64 -92Q37 -74 26 -37L59 -27Q63 -57 82 -73Q101 -89 131 -89Q161 -89 175.5 -72Q190 -55 190 -20Z" glyph-name="threeinferior" horiz-adv-x="291" unicode="₃" /><glyph d="M153 -59 153 -20H5V1Q59 60 84.5 111.5Q110 163 123 235H191Q179 185 147.5 137Q116 89 31 1H153V78L211 84V1H250V-20H211V-59Q211 -75 212.5 -78.5Q214 -82 222 -84L250 -87V-105H110V-87L142 -84Q150 -83 151.5 -79Q153 -75 153 -59Z" glyph-name="fourinferior" horiz-adv-x="265" unicode="₄" /><glyph d="M216 248 221 276H234V191H68L62 93Q77 103 94 108Q111 113 129 113Q184 113 216.5 82.5Q249 52 249 1Q249 -50 218 -80Q187 -110 130 -110Q91 -110 65 -92Q39 -74 29 -40L61 -30Q66 -59 82.5 -74.5Q99 -90 124 -90Q155 -90 170.5 -67.5Q186 -45 186 1Q186 46 170.5 69Q155 92 125 92Q106 92 88 84.5Q70 77 53 62L40 67L50 235H189Q199 235 202 235Q205 235 207 236Q211 236 213 238Q215 240 216 248Z" glyph-name="fiveinferior" horiz-adv-x="277" unicode="₅" /><glyph d="M282 -4 282 -9Q282 -55 250 -82.5Q218 -110 166 -110Q105 -110 73.5 -69.5Q42 -29 42 48V79Q42 158 73.5 199Q105 240 164 240Q218 240 250 211Q282 182 275 141L216 133Q221 175 207.5 197Q194 219 164 219Q132 219 118 192.5Q104 166 104 108V71Q117 85 134 92Q151 99 174 99Q222 99 252 70.5Q282 42 282 -4ZM104 41 104 17Q104 -39 118.5 -64Q133 -89 166 -89Q193 -89 206.5 -69Q220 -49 220 -10V-5Q220 34 205.5 55Q191 76 164 76Q146 76 130.5 67Q115 58 104 41Z" glyph-name="sixinferior" horiz-adv-x="318" unicode="₆" /><glyph d="M61 178 53 136H33V235H247V196Q198 132 178.5 66.5Q159 1 155 -105H87Q97 -23 127 42Q157 107 225 191H88Q71 191 67 189Q63 187 61 178Z" glyph-name="seveninferior" horiz-adv-x="272" unicode="₇" /><glyph d="M200 82Q236 64 253 39.5Q270 15 270 -19Q270 -61 240.5 -85.5Q211 -110 158 -110Q104 -110 72.5 -87Q41 -64 41 -27Q41 1 58 22.5Q75 44 109 60Q77 77 62 99.5Q47 122 47 151Q47 190 76 215Q105 240 152 240Q201 240 231.5 217Q262 194 262 158Q262 133 247.5 115Q233 97 200 82ZM99 164Q99 143 111 129Q123 115 152 103L173 94Q190 105 198 120Q206 135 206 157Q206 186 192 201.5Q178 217 153 217Q128 217 113.5 203Q99 189 99 164ZM97 -26Q97 -55 113 -71Q129 -87 158 -87Q187 -87 202.5 -72.5Q218 -58 218 -32Q218 -9 205 7Q192 23 164 35L133 49Q115 36 106 17Q97 -2 97 -26Z" glyph-name="eightinferior" horiz-adv-x="311" unicode="₈" /><glyph d="M268 83 268 51Q268 -27 234.5 -68.5Q201 -110 139 -110Q99 -110 72.5 -92Q46 -74 35 -40L67 -29Q72 -58 91 -73.5Q110 -89 138 -89Q173 -89 189.5 -61.5Q206 -34 206 22V50Q192 35 174.5 28Q157 21 136 21Q87 21 57.5 49.5Q28 78 28 126V139Q28 184 60 212Q92 240 143 240Q203 240 235.5 199.5Q268 159 268 83ZM90 141 90 127Q90 86 104 65Q118 44 146 44Q164 44 179.5 53Q195 62 206 79V112Q206 168 191.5 193.5Q177 219 143 219Q116 219 103 199.5Q90 180 90 141Z" glyph-name="nineinferior" horiz-adv-x="307" unicode="₉" /><glyph d="M166 240Q225 240 259.5 197.5Q294 155 294 81V50Q294 -24 260 -67Q226 -110 166 -110Q107 -110 73 -67.5Q39 -25 39 50V81Q39 155 73 197.5Q107 240 166 240ZM231 15 231 116Q231 167 215 192Q199 217 166 217Q134 217 118.5 192.5Q103 168 103 116V15Q103 -38 118 -62.5Q133 -87 166 -87Q199 -87 215 -62Q231 -37 231 15Z" glyph-name="zero.numerator" horiz-adv-x="334" unicode="" /><glyph d="M41 174 29 194L95 235H145V-58Q145 -74 146.5 -77.5Q148 -81 156 -82L184 -85V-105H38V-85L76 -82Q84 -81 85.5 -77.5Q87 -74 87 -58V203Z" glyph-name="one.numerator" horiz-adv-x="216" unicode="" /><glyph d="M218 -48 226 -6H247V-105H30V-78Q30 -35 45.5 -8.5Q61 18 116 51Q159 76 172.5 96.5Q186 117 186 145Q186 180 173.5 198.5Q161 217 137 217Q108 217 95.5 194.5Q83 172 88 127L29 135Q21 180 51 210Q81 240 137 240Q190 240 219.5 214Q249 188 249 144Q249 119 238.5 99.5Q228 80 206 65Q191 55 161 41.5Q131 28 124 24Q94 9 79 -11Q64 -31 61 -61H191Q208 -61 212 -59Q216 -57 218 -48Z" glyph-name="two.numerator" horiz-adv-x="290" unicode="" /><glyph d="M190 -20Q190 19 171.5 39Q153 59 116 59H98V80H116Q150 80 167.5 98.5Q185 117 185 153Q185 185 172 202Q159 219 135 219Q105 219 92.5 196.5Q80 174 85 129L26 137Q18 182 48 211Q78 240 135 240Q189 240 218.5 216.5Q248 193 248 153Q248 121 231 100Q214 79 180 70Q217 60 235.5 37.5Q254 15 254 -20Q254 -61 222.5 -85.5Q191 -110 136 -110Q91 -110 64 -92Q37 -74 26 -37L59 -27Q63 -57 82 -73Q101 -89 131 -89Q161 -89 175.5 -72Q190 -55 190 -20Z" glyph-name="three.numerator" horiz-adv-x="291" unicode="" /><glyph d="M153 -59 153 -20H5V1Q59 60 84.5 111.5Q110 163 123 235H191Q179 185 147.5 137Q116 89 31 1H153V78L211 84V1H250V-20H211V-59Q211 -75 212.5 -78.5Q214 -82 222 -84L250 -87V-105H110V-87L142 -84Q150 -83 151.5 -79Q153 -75 153 -59Z" glyph-name="four.numerator" horiz-adv-x="265" unicode="" /><glyph d="M216 248 221 276H234V191H68L62 93Q77 103 94 108Q111 113 129 113Q184 113 216.5 82.5Q249 52 249 1Q249 -50 218 -80Q187 -110 130 -110Q91 -110 65 -92Q39 -74 29 -40L61 -30Q66 -59 82.5 -74.5Q99 -90 124 -90Q155 -90 170.5 -67.5Q186 -45 186 1Q186 46 170.5 69Q155 92 125 92Q106 92 88 84.5Q70 77 53 62L40 67L50 235H189Q199 235 202 235Q205 235 207 236Q211 236 213 238Q215 240 216 248Z" glyph-name="five.numerator" horiz-adv-x="277" unicode="" /><glyph d="M282 -4 282 -9Q282 -55 250 -82.5Q218 -110 166 -110Q105 -110 73.5 -69.5Q42 -29 42 48V79Q42 158 73.5 199Q105 240 164 240Q218 240 250 211Q282 182 275 141L216 133Q221 175 207.5 197Q194 219 164 219Q132 219 118 192.5Q104 166 104 108V71Q117 85 134 92Q151 99 174 99Q222 99 252 70.5Q282 42 282 -4ZM104 41 104 17Q104 -39 118.5 -64Q133 -89 166 -89Q193 -89 206.5 -69Q220 -49 220 -10V-5Q220 34 205.5 55Q191 76 164 76Q146 76 130.5 67Q115 58 104 41Z" glyph-name="six.numerator" horiz-adv-x="318" unicode="" /><glyph d="M61 178 53 136H33V235H247V196Q198 132 178.5 66.5Q159 1 155 -105H87Q97 -23 127 42Q157 107 225 191H88Q71 191 67 189Q63 187 61 178Z" glyph-name="seven.numerator" horiz-adv-x="272" unicode="" /><glyph d="M200 82Q236 64 253 39.5Q270 15 270 -19Q270 -61 240.5 -85.5Q211 -110 158 -110Q104 -110 72.5 -87Q41 -64 41 -27Q41 1 58 22.5Q75 44 109 60Q77 77 62 99.5Q47 122 47 151Q47 190 76 215Q105 240 152 240Q201 240 231.5 217Q262 194 262 158Q262 133 247.5 115Q233 97 200 82ZM99 164Q99 143 111 129Q123 115 152 103L173 94Q190 105 198 120Q206 135 206 157Q206 186 192 201.5Q178 217 153 217Q128 217 113.5 203Q99 189 99 164ZM97 -26Q97 -55 113 -71Q129 -87 158 -87Q187 -87 202.5 -72.5Q218 -58 218 -32Q218 -9 205 7Q192 23 164 35L133 49Q115 36 106 17Q97 -2 97 -26Z" glyph-name="eight.numerator" horiz-adv-x="311" unicode="" /><glyph d="M268 83 268 51Q268 -27 234.5 -68.5Q201 -110 139 -110Q99 -110 72.5 -92Q46 -74 35 -40L67 -29Q72 -58 91 -73.5Q110 -89 138 -89Q173 -89 189.5 -61.5Q206 -34 206 22V50Q192 35 174.5 28Q157 21 136 21Q87 21 57.5 49.5Q28 78 28 126V139Q28 184 60 212Q92 240 143 240Q203 240 235.5 199.5Q268 159 268 83ZM90 141 90 127Q90 86 104 65Q118 44 146 44Q164 44 179.5 53Q195 62 206 79V112Q206 168 191.5 193.5Q177 219 143 219Q116 219 103 199.5Q90 180 90 141Z" glyph-name="nine.numerator" horiz-adv-x="307" unicode="" /><glyph d="M166 345Q225 345 259.5 302.5Q294 260 294 186V155Q294 81 260 38Q226 -5 166 -5Q107 -5 73 37.5Q39 80 39 155V186Q39 260 73 302.5Q107 345 166 345ZM231 120 231 221Q231 272 215 297Q199 322 166 322Q134 322 118.5 297.5Q103 273 103 221V120Q103 67 118 42.5Q133 18 166 18Q199 18 215 43Q231 68 231 120Z" glyph-name="zero.denominator" horiz-adv-x="334" unicode="" /><glyph d="M41 279 29 299L95 340H145V47Q145 31 146.5 27.5Q148 24 156 23L184 20V0H38V20L76 23Q84 24 85.5 27.5Q87 31 87 47V308Z" glyph-name="one.denominator" horiz-adv-x="216" unicode="" /><glyph d="M218 57 226 99H247V0H30V27Q30 70 45.5 96.5Q61 123 116 156Q159 181 172.5 201.5Q186 222 186 250Q186 285 173.5 303.5Q161 322 137 322Q108 322 95.5 299.5Q83 277 88 232L29 240Q21 285 51 315Q81 345 137 345Q190 345 219.5 319Q249 293 249 249Q249 224 238.5 204.5Q228 185 206 170Q191 160 161 146.5Q131 133 124 129Q94 114 79 94Q64 74 61 44H191Q208 44 212 46Q216 48 218 57Z" glyph-name="two.denominator" horiz-adv-x="290" unicode="" /><glyph d="M190 85Q190 124 171.5 144Q153 164 116 164H98V185H116Q150 185 167.5 203.5Q185 222 185 258Q185 290 172 307Q159 324 135 324Q105 324 92.5 301.5Q80 279 85 234L26 242Q18 287 48 316Q78 345 135 345Q189 345 218.5 321.5Q248 298 248 258Q248 226 231 205Q214 184 180 175Q217 165 235.5 142.5Q254 120 254 85Q254 44 222.5 19.5Q191 -5 136 -5Q91 -5 64 13Q37 31 26 68L59 78Q63 48 82 32Q101 16 131 16Q161 16 175.5 33Q190 50 190 85Z" glyph-name="three.denominator" horiz-adv-x="291" unicode="" /><glyph d="M153 46 153 85H5V106Q59 165 84.5 216.5Q110 268 123 340H191Q179 290 147.5 242Q116 194 31 106H153V183L211 189V106H250V85H211V46Q211 30 212.5 26.5Q214 23 222 21L250 18V0H110V18L142 21Q150 22 151.5 26Q153 30 153 46Z" glyph-name="four.denominator" horiz-adv-x="265" unicode="" /><glyph d="M216 353 221 381H234V296H68L62 198Q77 208 94 213Q111 218 129 218Q184 218 216.5 187.5Q249 157 249 106Q249 55 218 25Q187 -5 130 -5Q91 -5 65 13Q39 31 29 65L61 75Q66 46 82.5 30.5Q99 15 124 15Q155 15 170.5 37.5Q186 60 186 106Q186 151 170.5 174Q155 197 125 197Q106 197 88 189.5Q70 182 53 167L40 172L50 340H189Q199 340 202 340Q205 340 207 341Q211 341 213 343Q215 345 216 353Z" glyph-name="five.denominator" horiz-adv-x="277" unicode="" /><glyph d="M282 101 282 96Q282 50 250 22.5Q218 -5 166 -5Q105 -5 73.5 35.5Q42 76 42 153V184Q42 263 73.5 304Q105 345 164 345Q218 345 250 316Q282 287 275 246L216 238Q221 280 207.5 302Q194 324 164 324Q132 324 118 297.5Q104 271 104 213V176Q117 190 134 197Q151 204 174 204Q222 204 252 175.5Q282 147 282 101ZM104 146 104 122Q104 66 118.5 41Q133 16 166 16Q193 16 206.5 36Q220 56 220 95V100Q220 139 205.5 160Q191 181 164 181Q146 181 130.5 172Q115 163 104 146Z" glyph-name="six.denominator" horiz-adv-x="318" unicode="" /><glyph d="M61 283 53 241H33V340H247V301Q198 237 178.5 171.5Q159 106 155 0H87Q97 82 127 147Q157 212 225 296H88Q71 296 67 294Q63 292 61 283Z" glyph-name="seven.denominator" horiz-adv-x="272" unicode="" /><glyph d="M200 187Q236 169 253 144.5Q270 120 270 86Q270 44 240.5 19.5Q211 -5 158 -5Q104 -5 72.5 18Q41 41 41 78Q41 106 58 127.5Q75 149 109 165Q77 182 62 204.5Q47 227 47 256Q47 295 76 320Q105 345 152 345Q201 345 231.5 322Q262 299 262 263Q262 238 247.5 220Q233 202 200 187ZM99 269Q99 248 111 234Q123 220 152 208L173 199Q190 210 198 225Q206 240 206 262Q206 291 192 306.5Q178 322 153 322Q128 322 113.5 308Q99 294 99 269ZM97 79Q97 50 113 34Q129 18 158 18Q187 18 202.5 32.5Q218 47 218 73Q218 96 205 112Q192 128 164 140L133 154Q115 141 106 122Q97 103 97 79Z" glyph-name="eight.denominator" horiz-adv-x="311" unicode="" /><glyph d="M268 188 268 156Q268 78 234.5 36.5Q201 -5 139 -5Q99 -5 72.5 13Q46 31 35 65L67 76Q72 47 91 31.5Q110 16 138 16Q173 16 189.5 43.5Q206 71 206 127V155Q192 140 174.5 133Q157 126 136 126Q87 126 57.5 154.5Q28 183 28 231V244Q28 289 60 317Q92 345 143 345Q203 345 235.5 304.5Q268 264 268 188ZM90 246 90 232Q90 191 104 170Q118 149 146 149Q164 149 179.5 158Q195 167 206 184V217Q206 273 191.5 298.5Q177 324 143 324Q116 324 103 304.5Q90 285 90 246Z" glyph-name="nine.denominator" horiz-adv-x="307" unicode="" /><glyph d="M41 619 29 639L95 680H145V387Q145 371 146.5 367.5Q148 364 156 363L184 360V340H38V360L76 363Q84 364 85.5 367.5Q87 371 87 387V648ZM67 16 442 680L468 663L94 0ZM511 57 519 99H540V0H323V27Q323 70 338.5 96.5Q354 123 409 156Q452 181 465.5 201.5Q479 222 479 250Q479 285 466.5 303.5Q454 322 430 322Q401 322 388.5 299.5Q376 277 381 232L322 240Q314 285 344 315Q374 345 430 345Q483 345 512.5 319Q542 293 542 249Q542 224 531.5 204.5Q521 185 499 170Q484 160 454 146.5Q424 133 417 129Q387 114 372 94Q357 74 354 44H484Q501 44 505 46Q509 48 511 57Z" glyph-name="onehalf" horiz-adv-x="584" unicode="½" /><glyph d="M41 619 29 639L95 680H145V387Q145 371 146.5 367.5Q148 364 156 363L184 360V340H38V360L76 363Q84 364 85.5 367.5Q87 371 87 387V648ZM67 16 442 680L468 663L94 0ZM483 85Q483 124 464.5 144Q446 164 409 164H391V185H409Q443 185 460.5 203.5Q478 222 478 258Q478 290 465 307Q452 324 428 324Q398 324 385.5 301.5Q373 279 378 234L319 242Q311 287 341 316Q371 345 428 345Q482 345 511.5 321.5Q541 298 541 258Q541 226 524 205Q507 184 473 175Q510 165 528.5 142.5Q547 120 547 85Q547 44 515.5 19.5Q484 -5 429 -5Q384 -5 357 13Q330 31 319 68L352 78Q356 48 375 32Q394 16 424 16Q454 16 468.5 33Q483 50 483 85Z" glyph-name="onethird" horiz-adv-x="585" unicode="⅓" /><glyph d="M41 619 29 639L95 680H145V387Q145 371 146.5 367.5Q148 364 156 363L184 360V340H38V360L76 363Q84 364 85.5 367.5Q87 371 87 387V648ZM67 16 442 680L468 663L94 0ZM441 46 441 85H293V106Q347 165 372.5 216.5Q398 268 411 340H479Q467 290 435.5 242Q404 194 319 106H441V183L499 189V106H538V85H499V46Q499 30 500.5 26.5Q502 23 510 21L538 18V0H398V18L430 21Q438 22 439.5 26Q441 30 441 46Z" glyph-name="onequarter" horiz-adv-x="547" unicode="¼" /></font>
</defs>
</svg>
