<?xml version="1.0" standalone="no"?>
<!DOCTYPE svg
  PUBLIC '-//W3C//DTD SVG 1.1//EN'
  'http://www.w3.org/Graphics/SVG/1.1/DTD/svg11.dtd'><svg version="1.1" xmlns="http://www.w3.org/2000/svg"><defs><font horiz-adv-x="0" id="font"><font-face ascent="650" bbox="-184 -256 1292 978" cap-height="680" descent="-200" font-family="Inria Sans" font-stretch="normal" font-style="normal" font-weight="680" units-per-em="1000" x-height="507" /><missing-glyph d="M542 0 94 0V680H542ZM214 565 214 115H422V565Z" horiz-adv-x="636" /><glyph d="" glyph-name=".null" horiz-adv-x="0" unicode="" /><glyph d="" glyph-name="CR" horiz-adv-x="0" unicode="" /><glyph d="" glyph-name="space" horiz-adv-x="200" unicode=" " /><glyph d="" glyph-name="uni00A0" horiz-adv-x="200" unicode=" " /><glyph d="M581 0 456 0L414 133H181L139 0H20L247 680H353ZM298 513 246 341L215 243H379L348 341Z" glyph-name="A" horiz-adv-x="601" unicode="A" /><glyph d="M326 0 94 0V680H301Q404 680 454.5 636Q505 592 505 502V474Q505 435 487.5 404Q470 373 437 353Q485 334 510 298Q535 262 535 212V184Q535 91 483 45.5Q431 0 326 0ZM301 570 214 570V400H301Q340 400 361 418Q382 436 382 469V502Q382 534 361 552Q340 570 301 570ZM326 290 214 290V110H326Q367 110 389.5 129.5Q412 149 412 184V217Q412 252 389.5 271Q367 290 326 290Z" glyph-name="B" horiz-adv-x="585" unicode="B" /><glyph d="M186 412 186 269Q186 188 221 145.5Q256 103 323 103Q354 103 386.5 111Q419 119 466 138L503 34Q452 12 406.5 1Q361 -10 316 -10Q197 -10 130 64.5Q63 139 63 269V412Q63 541 130 615.5Q197 690 316 690Q360 690 404.5 679.5Q449 669 497 648L460 542Q413 561 382 569Q351 577 323 577Q256 577 221 535Q186 493 186 412Z" glyph-name="C" horiz-adv-x="534" unicode="C" /><glyph d="M324 0 94 0V680H324Q446 680 510 611.5Q574 543 574 412V269Q574 137 510 68.5Q446 0 324 0ZM319 565 214 565V115H319Q390 115 420.5 150.5Q451 186 451 269V412Q451 494 420.5 529.5Q390 565 319 565Z" glyph-name="D" horiz-adv-x="639" unicode="D" /><glyph d="M214 115 488 115V0H94V680H478V565H214V402H448V287H214Z" glyph-name="E" horiz-adv-x="536" unicode="E" /><glyph d="M442 376 442 261H214V0H94V680H472V565H214V376Z" glyph-name="F" horiz-adv-x="505" unicode="F" /><glyph d="M544 374 544 44Q503 20 445 5Q387 -10 327 -10Q204 -10 133.5 65Q63 140 63 269V412Q63 543 133.5 616.5Q204 690 332 690Q381 690 428 679.5Q475 669 526 646L489 541Q436 561 401.5 569Q367 577 334 577Q261 577 223.5 535Q186 493 186 412V269Q186 191 224 148Q262 105 333 105Q355 105 382.5 109Q410 113 435 120V269H325V374Z" glyph-name="G" horiz-adv-x="603" unicode="G" /><glyph d="M588 0 468 0V287H214V0H94V680H214V402H468V680H588Z" glyph-name="H" horiz-adv-x="682" unicode="H" /><glyph d="M214 680 214 0H94V680Z" glyph-name="I" horiz-adv-x="308" unicode="I" /><glyph d="M26 -10 26 105Q110 105 145 137Q180 169 180 244V680H300V244Q300 109 234.5 49.5Q169 -10 26 -10Z" glyph-name="J" horiz-adv-x="376" unicode="J" /><glyph d="M600 0 455 0L285 297Q281 292 255.5 264.5Q230 237 214 220V0H94V680H214V357Q289 443 343.5 521.5Q398 600 437 680H568Q523 591 474.5 515Q426 439 374 376Z" glyph-name="K" horiz-adv-x="616" unicode="K" /><glyph d="M214 115 486 115V0H94V680H214Z" glyph-name="L" horiz-adv-x="507" unicode="L" /><glyph d="M94 680 225 680L415 215L604 680H735V0H620V260L635 498L466 80H359L194 499L209 260V0H94Z" glyph-name="M" horiz-adv-x="829" unicode="M" /><glyph d="M209 0 94 0V680H204Q285 574 355.5 459.5Q426 345 483 227L474 430V680H589V0H479Q380 196 319 303.5Q258 411 201 494L209 260Z" glyph-name="N" horiz-adv-x="683" unicode="N" /><glyph d="M320 690Q442 690 508.5 617.5Q575 545 575 412V269Q575 136 508.5 63Q442 -10 320 -10Q197 -10 131 62.5Q65 135 65 269V412Q65 545 131 617.5Q197 690 320 690ZM452 269 452 412Q452 496 419.5 536.5Q387 577 320 577Q253 577 220.5 536.5Q188 496 188 412V269Q188 185 220.5 144Q253 103 320 103Q387 103 419.5 144Q452 185 452 269Z" glyph-name="O" horiz-adv-x="640" unicode="O" /><glyph d="M214 0 94 0V680H318Q421 680 476.5 628Q532 576 532 482V429Q532 334 476 282Q420 230 318 230H214ZM318 565 214 565V345H318Q362 345 385.5 367Q409 389 409 429V482Q409 522 385.5 543.5Q362 565 318 565Z" glyph-name="P" horiz-adv-x="574" unicode="P" /><glyph d="M419 5Q432 -41 460 -57Q488 -73 560 -73V-198Q457 -198 402 -164Q347 -130 319 -45L307 -10Q191 -6 128 66.5Q65 139 65 269V412Q65 545 131 617.5Q197 690 320 690Q442 690 508.5 617.5Q575 545 575 412V269Q575 167 535 99Q495 31 419 5ZM452 269 452 412Q452 496 419.5 536.5Q387 577 320 577Q253 577 220.5 536.5Q188 496 188 412V269Q188 185 220.5 144Q253 103 320 103Q387 103 419.5 144Q452 185 452 269Z" glyph-name="Q" horiz-adv-x="640" unicode="Q" /><glyph d="M322 250 214 250V0H94V680H321Q421 680 478 628.5Q535 577 535 487V444Q535 385 510 341.5Q485 298 438 275Q479 205 514 136Q549 67 578 0H441Q416 62 386.5 125Q357 188 322 250ZM321 570 214 570V360H321Q364 360 388 382Q412 404 412 444V487Q412 526 388 548Q364 570 321 570Z" glyph-name="R" horiz-adv-x="609" unicode="R" /><glyph d="M242 101Q301 101 329.5 122Q358 143 358 187Q358 222 339.5 242Q321 262 276 277L194 304Q120 328 83.5 376Q47 424 47 497Q47 588 103.5 639Q160 690 264 690Q311 690 356.5 679.5Q402 669 455 646L418 543Q366 563 333 571Q300 579 268 579Q217 579 193 560.5Q169 542 169 503Q169 470 187.5 450Q206 430 249 416L331 389Q407 364 443.5 315.5Q480 267 480 191Q480 94 419 42Q358 -10 244 -10Q193 -10 141 2.5Q89 15 32 41L69 144Q124 121 163.5 111Q203 101 242 101Z" glyph-name="S" horiz-adv-x="518" unicode="S" /><glyph d="M203 565 13 565V680H513V565H323V0H203Z" glyph-name="T" horiz-adv-x="526" unicode="T" /><glyph d="M78 244 78 680H201V244Q201 174 231.5 138.5Q262 103 323 103Q384 103 414.5 138.5Q445 174 445 244V680H568V244Q568 123 504.5 56.5Q441 -10 323 -10Q205 -10 141.5 56Q78 122 78 244Z" glyph-name="U" horiz-adv-x="646" unicode="U" /><glyph d="M448 680 570 680L354 0H231L14 680H146L249 338L296 162L346 339Z" glyph-name="V" horiz-adv-x="584" unicode="V" /><glyph d="M156 680 208 411L246 159L382 680H490L625 163L667 411L719 680H841L688 0H565L434 506L302 0H179L26 680Z" glyph-name="W" horiz-adv-x="867" unicode="W" /><glyph d="M554 0 418 0L276 249L141 0H15L214 353L26 680H162L293 452L416 680H542L355 347Z" glyph-name="X" horiz-adv-x="569" unicode="X" /><glyph d="M417 680 541 680L333 273V0H213V271L3 680H131L278 390Z" glyph-name="Y" horiz-adv-x="544" unicode="Y" /><glyph d="M179 115 473 115V0H38V105L322 565H48V680H463V575Z" glyph-name="Z" horiz-adv-x="509" unicode="Z" /><glyph d="M132 0 1 0L338 680H785V565H521V402H755V287H521V115H795V0H401V133H196ZM401 557 249 243H401Z" glyph-name="AE" horiz-adv-x="843" unicode="Æ" /><glyph d="M65 269 65 412Q65 543 129 611.5Q193 680 315 680H809V565H545V402H779V287H545V115H819V0H315Q193 0 129 68.5Q65 137 65 269ZM320 115 425 115V565H320Q249 565 218.5 529.5Q188 494 188 412V269Q188 186 218.5 150.5Q249 115 320 115Z" glyph-name="OE" horiz-adv-x="867" unicode="Œ" /><glyph d="M223 115 495 115V0H103V263L21 226V343L103 380V680H223V435L343 489V372L223 318Z" glyph-name="Lslash" horiz-adv-x="516" unicode="Ł" /><glyph d="M320 -10Q282 -10 250 -3Q218 4 192 17L166 -30H65L122 73Q94 109 79.5 158.5Q65 208 65 269V412Q65 545 131 617.5Q197 690 320 690Q358 690 390 683Q422 676 448 663L474 710H575L518 607Q546 571 560.5 522Q575 473 575 412V269Q575 136 508.5 63Q442 -10 320 -10ZM185 412 185 269Q185 248 186.5 231Q188 214 192 200L393 563Q378 572 359.5 576Q341 580 320 580Q252 580 218.5 538.5Q185 497 185 412ZM455 269 455 412Q455 433 453.5 450Q452 467 448 480L247 117Q262 108 280.5 104Q299 100 320 100Q388 100 421.5 142Q455 184 455 269Z" glyph-name="Oslash" horiz-adv-x="640" unicode="Ø" /><glyph d="M21 290 21 399H103V680H333Q455 680 519 611.5Q583 543 583 412V269Q583 137 519 68.5Q455 0 333 0H103V290ZM343 399 343 290H223V115H328Q399 115 429.5 150.5Q460 186 460 269V412Q460 494 429.5 529.5Q399 565 328 565H223V399Z" glyph-name="Eth" horiz-adv-x="648" unicode="Ð" /><glyph d="M318 118 214 118V0H94V680H214V568H318Q421 568 476.5 516Q532 464 532 370V317Q532 222 476 170Q420 118 318 118ZM318 453 214 453V233H318Q362 233 385.5 255Q409 277 409 317V370Q409 410 385.5 431.5Q362 453 318 453Z" glyph-name="Thorn" horiz-adv-x="574" unicode="Þ" /><glyph d="M574 180 574 166Q574 84 524.5 37Q475 -10 389 -10Q351 -10 312.5 -1.5Q274 7 237 24L267 127Q294 114 323 107.5Q352 101 381 101Q416 101 434 117.5Q452 134 452 166V180Q452 215 437 235Q422 255 383 272L292 311V394L379 562Q362 570 342 574.5Q322 579 301 579Q246 579 220 549Q194 519 194 457V0H74V457Q74 569 131 629.5Q188 690 294 690Q350 690 400.5 672Q451 654 492 620V537L408 387L436 375Q514 341 544 297.5Q574 254 574 180Z" glyph-name="uni1E9E" horiz-adv-x="611" unicode="ẞ" /><glyph d="M486 -5 463 -5Q417 -5 384.5 14Q352 33 337 68Q293 27 252.5 8.5Q212 -10 168 -10Q106 -10 72 30Q38 70 38 142Q38 218 81.5 254.5Q125 291 213 291Q236 291 262.5 288Q289 285 323 279V338Q323 376 302.5 393.5Q282 411 238 411Q206 411 170 402.5Q134 394 96 378L63 476Q114 497 159 507Q204 517 246 517Q339 517 386 472Q433 427 433 338V143Q433 123 444 112Q455 101 475 101H486ZM221 206Q184 206 166.5 191Q149 176 149 144Q149 116 161 101Q173 86 196 86Q227 86 257 102.5Q287 119 323 154V197Q297 202 271.5 204Q246 206 221 206Z" glyph-name="a" horiz-adv-x="507" unicode="a" /><glyph d="M506 281 506 227Q506 115 450.5 52.5Q395 -10 294 -10Q240 -10 185 5Q130 20 75 50V740H190V440Q232 482 265 499.5Q298 517 337 517Q417 517 461.5 455Q506 393 506 281ZM306 410Q278 410 251.5 394Q225 378 190 341V114Q216 103 238.5 98Q261 93 284 93Q336 93 362 126.5Q388 160 388 227V281Q388 345 367.5 377.5Q347 410 306 410Z" glyph-name="b" horiz-adv-x="560" unicode="b" /><glyph d="M264 411Q214 411 190.5 380Q167 349 167 283V224Q167 158 190.5 127Q214 96 264 96Q291 96 322.5 103Q354 110 389 123L422 26Q376 7 336 -1.5Q296 -10 258 -10Q161 -10 106.5 52Q52 114 52 224V283Q52 393 106.5 455Q161 517 258 517Q294 517 333 508.5Q372 500 417 482L384 383Q348 397 318 404Q288 411 264 411Z" glyph-name="c" horiz-adv-x="448" unicode="c" /><glyph d="M485 0 376 0V69Q333 26 299.5 8Q266 -10 227 -10Q145 -10 99.5 52Q54 114 54 226V280Q54 392 110.5 454.5Q167 517 268 517Q292 517 317.5 512.5Q343 508 370 498V740H485ZM172 280 172 226Q172 162 193.5 129.5Q215 97 258 97Q284 97 310 112.5Q336 128 370 162V394Q345 404 323 409Q301 414 280 414Q226 414 199 380.5Q172 347 172 280Z" glyph-name="d" horiz-adv-x="564" unicode="d" /><glyph d="M431 126 464 29Q415 9 369 -0.5Q323 -10 279 -10Q170 -10 110 51.5Q50 113 50 224V284Q50 390 107.5 453.5Q165 517 263 517Q354 517 411 462Q468 407 468 312Q468 290 464.5 266Q461 242 455 218H161Q163 154 193 124Q223 94 285 94Q320 94 356.5 102Q393 110 431 126ZM355 324Q355 368 330 394Q305 420 263 420Q218 420 192 390.5Q166 361 162 306H354Q355 309 355 313Q355 317 355 324Z" glyph-name="e" horiz-adv-x="521" unicode="e" /><glyph d="M372 507 372 407H214V0H99V407H17V507H99V560Q99 651 144.5 700.5Q190 750 276 750Q309 750 345 743.5Q381 737 411 725L383 626Q359 634 337.5 638Q316 642 297 642Q253 642 233.5 622.5Q214 603 214 560V507Z" glyph-name="f" horiz-adv-x="377" unicode="f" /><glyph d="M500 -51Q500 -132 436.5 -177.5Q373 -223 260 -223Q199 -223 141.5 -209.5Q84 -196 39 -171L72 -80Q117 -102 164 -113.5Q211 -125 259 -125Q320 -125 354 -108.5Q388 -92 388 -63Q388 -42 375 -31Q362 -20 337 -20H217Q153 -20 116.5 10.5Q80 41 80 91Q80 118 92 143.5Q104 169 127 193Q89 216 68.5 254Q48 292 48 341Q48 423 99.5 470Q151 517 238 517H255Q276 517 295 514.5Q314 512 330 507H511V409L411 425Q427 407 435 383Q443 359 443 328Q443 255 390.5 210Q338 165 255 165H238Q228 165 218.5 166Q209 167 200 168Q190 157 184.5 144.5Q179 132 179 120Q179 103 190.5 94Q202 85 224 85H346Q417 85 458.5 48.5Q500 12 500 -51ZM238 259 255 259Q289 259 311 281.5Q333 304 333 341Q333 378 311 400.5Q289 423 255 423H238Q203 423 181 400.5Q159 378 159 341Q159 304 181 281.5Q203 259 238 259Z" glyph-name="g" horiz-adv-x="531" unicode="g" /><glyph d="M327 410Q297 410 265 395.5Q233 381 194 351V0H79V740H194V444Q239 482 279 499.5Q319 517 362 517Q434 517 472.5 471Q511 425 511 340V0H396V326Q396 369 379 389.5Q362 410 327 410Z" glyph-name="h" horiz-adv-x="584" unicode="h" /><glyph d="M197 722 197 603H76V722ZM194 507 194 0H79V507Z" glyph-name="i" horiz-adv-x="273" unicode="i" /><glyph d="M197 722 197 603H76V722ZM-25 -223 -25 -115Q30 -115 54.5 -88.5Q79 -62 79 -4V507H194V-4Q194 -114 139 -168.5Q84 -223 -25 -223Z" glyph-name="j" horiz-adv-x="273" unicode="j" /><glyph d="M521 0 382 0L257 211Q242 196 226.5 181Q211 166 194 151V0H79V740H194V278Q252 337 293.5 391Q335 445 369 507H501Q471 453 433 399.5Q395 346 343 284Z" glyph-name="k" horiz-adv-x="532" unicode="k" /><glyph d="M76 143 76 740H191V143Q191 123 200.5 112Q210 101 228 101H244V-5H216Q147 -5 111.5 32.5Q76 70 76 143Z" glyph-name="l" horiz-adv-x="276" unicode="l" /><glyph d="M322 410Q293 410 262.5 395.5Q232 381 194 351V0H79V507H188V440Q234 480 274.5 498.5Q315 517 357 517Q403 517 435 496Q467 475 484 435Q533 478 576 497.5Q619 517 664 517Q733 517 770.5 471Q808 425 808 340V0H693V326Q693 369 677 389.5Q661 410 629 410Q600 410 569.5 395.5Q539 381 501 351V0H386V326Q386 369 370 389.5Q354 410 322 410Z" glyph-name="m" horiz-adv-x="881" unicode="m" /><glyph d="M327 410Q297 410 265 395.5Q233 381 194 351V0H79V507H188V439Q235 480 276.5 498.5Q318 517 362 517Q434 517 472.5 471Q511 425 511 340V0H396V326Q396 369 379 389.5Q362 410 327 410Z" glyph-name="n" horiz-adv-x="584" unicode="n" /><glyph d="M272 517Q376 517 435 455Q494 393 494 284V224Q494 115 435 52.5Q376 -10 272 -10Q168 -10 109 52.5Q50 115 50 224V284Q50 393 109 455Q168 517 272 517ZM376 224 376 284Q376 346 349 380Q322 414 272 414Q222 414 195 380Q168 346 168 284V224Q168 162 195.5 127.5Q223 93 272 93Q321 93 348.5 127.5Q376 162 376 224Z" glyph-name="o" horiz-adv-x="544" unicode="o" /><glyph d="M296 -10Q272 -10 246.5 -5.5Q221 -1 194 9V-213H79V507H188V438Q231 481 264.5 499Q298 517 337 517Q419 517 464.5 455Q510 393 510 281V227Q510 115 453.5 52.5Q397 -10 296 -10ZM306 410Q280 410 254 394.5Q228 379 194 345V113Q219 103 241 98Q263 93 284 93Q338 93 365 126.5Q392 160 392 227V281Q392 345 370.5 377.5Q349 410 306 410Z" glyph-name="p" horiz-adv-x="564" unicode="p" /><glyph d="M266 517Q320 517 375 502Q430 487 485 457V-213H370V67Q328 25 295 7.5Q262 -10 223 -10Q143 -10 98.5 52Q54 114 54 226V280Q54 392 109.5 454.5Q165 517 266 517ZM172 280 172 226Q172 162 192.5 129.5Q213 97 254 97Q282 97 308.5 113Q335 129 370 166V393Q344 404 321.5 409Q299 414 276 414Q224 414 198 380.5Q172 347 172 280Z" glyph-name="q" horiz-adv-x="561" unicode="q" /><glyph d="M365 517 365 402Q317 402 274.5 387Q232 372 194 341V0H79V507H188V429Q239 477 279 497Q319 517 365 517Z" glyph-name="r" horiz-adv-x="387" unicode="r" /><glyph d="M221 90Q261 90 283.5 103Q306 116 306 140Q306 162 290.5 174Q275 186 235 197L178 212Q115 229 82 267.5Q49 306 49 364Q49 435 97.5 476Q146 517 233 517Q274 517 316 507.5Q358 498 401 479L368 381Q331 399 296.5 408Q262 417 232 417Q196 417 178.5 405Q161 393 161 369Q161 349 174 338.5Q187 328 220 319L277 304Q348 285 382.5 246.5Q417 208 417 148Q417 72 366 31Q315 -10 220 -10Q176 -10 131 0Q86 10 37 30L68 125Q112 107 150.5 98.5Q189 90 221 90Z" glyph-name="s" horiz-adv-x="456" unicode="s" /><glyph d="M355 114 384 17Q356 4 322 -3Q288 -10 255 -10Q176 -10 136 37.5Q96 85 96 179V407H14V507H96V639H211V507H369V407H211V179Q211 136 227 117Q243 98 279 98Q297 98 315.5 102Q334 106 355 114Z" glyph-name="t" horiz-adv-x="397" unicode="t" /><glyph d="M490 0 381 0V67Q335 27 295 8.5Q255 -10 214 -10Q146 -10 109 36Q72 82 72 167V507H187V181Q187 139 202.5 118Q218 97 249 97Q277 97 307.5 111Q338 125 375 155V507H490Z" glyph-name="u" horiz-adv-x="569" unicode="u" /><glyph d="M368 507 482 507L302 0H197L17 507H133L220 254L253 149L285 254Z" glyph-name="v" horiz-adv-x="499" unicode="v" /><glyph d="M599 507 710 507L580 0H455L371 381L282 0H157L27 507H145L194 306L228 123L314 507H430L519 119L551 305Z" glyph-name="w" horiz-adv-x="737" unicode="w" /><glyph d="M471 0 347 0L242 170L139 0H19L183 260L30 507H154L248 356L339 507H459L306 265Z" glyph-name="x" horiz-adv-x="490" unicode="x" /><glyph d="M482 507 284 -50Q251 -144 199 -183.5Q147 -223 60 -223V-108Q110 -106 141.5 -86Q173 -66 189 -25L198 -2L17 507H131L218 254L252 147L285 254L368 507Z" glyph-name="y" horiz-adv-x="499" unicode="y" /><glyph d="M173 100 397 100V0H35V90L249 407H45V507H387V417Z" glyph-name="z" horiz-adv-x="432" unicode="z" /><glyph d="M704 126 737 29Q688 9 642 -0.5Q596 -10 552 -10Q486 -10 437.5 13Q389 36 360 81Q310 33 265 11.5Q220 -10 168 -10Q106 -10 72 30Q38 70 38 142Q38 218 81.5 254.5Q125 291 213 291Q236 291 262.5 288Q289 285 323 279V338Q323 376 302.5 393.5Q282 411 238 411Q206 411 170 402.5Q134 394 96 378L63 476Q114 497 159 507Q204 517 246 517Q298 517 334 499.5Q370 482 390 447Q416 481 453 499Q490 517 536 517Q627 517 684 462Q741 407 741 312Q741 290 737.5 266Q734 242 728 218H434Q436 154 466 124Q496 94 558 94Q593 94 629.5 102Q666 110 704 126ZM628 324Q628 368 603 394Q578 420 536 420Q491 420 465.5 391Q440 362 435 306H627Q628 309 628 313Q628 317 628 324ZM221 206Q184 206 166.5 191Q149 176 149 144Q149 116 161 101Q173 86 196 86Q228 86 259.5 104Q291 122 329 160Q327 175 326 182.5Q325 190 324 197Q297 202 271.5 204Q246 206 221 206Z" glyph-name="ae" horiz-adv-x="794" unicode="æ" /><glyph d="M757 126 790 29Q741 9 695 -0.5Q649 -10 605 -10Q548 -10 504.5 11Q461 32 435 72Q408 32 366 11Q324 -10 270 -10Q167 -10 108.5 52.5Q50 115 50 224V284Q50 393 108.5 455Q167 517 270 517Q325 517 367 496Q409 475 435 435Q460 475 499.5 496Q539 517 589 517Q680 517 737 462Q794 407 794 312Q794 290 790.5 266Q787 242 781 218H487Q489 154 519 124Q549 94 611 94Q646 94 682.5 102Q719 110 757 126ZM681 324Q681 368 656 394Q631 420 589 420Q544 420 518.5 391Q493 362 488 306H680Q681 309 681 313Q681 317 681 324ZM376 224 376 284Q376 346 349 380Q322 414 272 414Q222 414 195 380Q168 346 168 284V224Q168 162 195.5 127.5Q223 93 272 93Q321 93 348.5 127.5Q376 162 376 224Z" glyph-name="oe" horiz-adv-x="847" unicode="œ" /><glyph d="M257 101 273 101V-5H245Q176 -5 140.5 32.5Q105 70 105 143V293L23 250V363L105 406V740H220V465L304 509V396L220 352V143Q220 123 229.5 112Q239 101 257 101Z" glyph-name="lslash" horiz-adv-x="329" unicode="ł" /><glyph d="M272 -10Q245 -10 219.5 -5Q194 0 171 9L147 -30H50L104 58Q77 89 63.5 131Q50 173 50 224V284Q50 393 109 455Q168 517 272 517Q299 517 324.5 512Q350 507 373 498L397 537H494L440 449Q466 419 480 377Q494 335 494 284V224Q494 115 435 52.5Q376 -10 272 -10ZM163 284 163 224Q163 210 165 195.5Q167 181 170 167L319 410Q308 415 296.5 417Q285 419 272 419Q220 419 191.5 383.5Q163 348 163 284ZM381 224 381 284Q381 301 379.5 315Q378 329 374 341L225 98Q235 93 246.5 90.5Q258 88 272 88Q324 88 352.5 124Q381 160 381 224Z" glyph-name="oslash" horiz-adv-x="544" unicode="ø" /><glyph d="M489 299 489 259Q489 128 431 59Q373 -10 264 -10Q158 -10 101 42.5Q44 95 44 193V223Q44 319 95 377.5Q146 436 230 436Q265 436 296.5 425Q328 414 360 391Q349 434 328.5 472.5Q308 511 277 545L142 463V559L216 604Q197 620 175.5 634Q154 648 131 661L176 750Q211 730 243.5 707Q276 684 306 659L457 750V654L367 600Q428 533 458.5 457.5Q489 382 489 299ZM162 223 162 193Q162 144 188 118.5Q214 93 264 93Q318 93 344.5 134.5Q371 176 371 259V284Q342 308 316 318.5Q290 329 262 329Q216 329 189 300.5Q162 272 162 223Z" glyph-name="eth" horiz-adv-x="537" unicode="ð" /><glyph d="M296 -10Q272 -10 246.5 -5.5Q221 -1 194 9V-213H79V740H194V444Q234 483 266.5 500Q299 517 337 517Q417 517 461.5 455Q506 393 506 281V227Q506 115 450.5 52.5Q395 -10 296 -10ZM306 410Q280 410 254 394.5Q228 379 194 345V113Q219 103 241 98Q263 93 284 93Q336 93 362 126.5Q388 160 388 227V281Q388 345 367.5 377.5Q347 410 306 410Z" glyph-name="thorn" horiz-adv-x="560" unicode="þ" /><glyph d="M603 151Q603 76 557.5 33Q512 -10 430 -10Q393 -10 353.5 -2Q314 6 278 22L305 120Q338 105 370 97Q402 89 429 89Q460 89 476 102.5Q492 116 492 142Q492 162 481.5 179Q471 196 448 212L407 241Q363 272 342.5 305.5Q322 339 322 380Q322 401 328 424.5Q334 448 353 492Q368 529 373 546.5Q378 564 378 579Q378 610 357 626Q336 642 296 642Q253 642 233.5 622Q214 602 214 560V0H99V407H17V507H99V560Q99 651 150 700.5Q201 750 296 750Q386 750 438 708Q490 666 490 590Q490 564 483.5 538.5Q477 513 457 472Q443 442 438.5 427Q434 412 434 399Q434 379 446 363Q458 347 486 327L527 298Q566 270 584.5 234.5Q603 199 603 151Z" glyph-name="germandbls" horiz-adv-x="629" unicode="ß" /><glyph d="M194 507 194 0H79V507Z" glyph-name="dotlessi" horiz-adv-x="273" unicode="ı" /><glyph d="M-25 -223 -25 -115Q30 -115 54.5 -88.5Q79 -62 79 -4V507H194V-4Q194 -114 139 -168.5Q84 -223 -25 -223Z" glyph-name="dotlessj" horiz-adv-x="273" unicode="ȷ" /><glyph d="M312 642Q260 642 237 620Q214 598 214 550V507H521V0H406V407H214V0H99V407H17V507H99V550Q99 648 152.5 699Q206 750 309 750Q357 750 403.5 739Q450 728 495 706L453 612Q413 627 378.5 634.5Q344 642 312 642Z" glyph-name="fi" horiz-adv-x="600" unicode="ﬁ" /><glyph d="M521 0 406 0V407H214V0H99V407H17V507H99V557Q99 646 143.5 693Q188 740 274 740Q298 740 323 736Q348 732 374 724L344 624Q328 628 311.5 630Q295 632 282 632Q246 632 230 614Q214 596 214 557V507H406V550Q406 648 459.5 699Q513 750 616 750Q664 750 710.5 739Q757 728 802 706L760 612Q720 627 685.5 634.5Q651 642 619 642Q567 642 544 620Q521 598 521 550V507H828V0H713V407H521Z" glyph-name="ffi" horiz-adv-x="907" unicode="ﬃ" /><glyph d="M568 101 584 101V-5H556Q487 -5 451.5 32.5Q416 70 416 143V628Q388 635 364 638.5Q340 642 315 642Q261 642 237.5 620Q214 598 214 550V507H352V407H214V0H99V407H17V507H99V550Q99 648 153 699Q207 750 312 750Q366 750 421 736Q476 722 531 695V143Q531 123 540.5 112Q550 101 568 101Z" glyph-name="fl" horiz-adv-x="616" unicode="ﬂ" /><glyph d="M282 632Q246 632 230 614Q214 596 214 557V507H406V550Q406 648 460 699Q514 750 619 750Q673 750 728 736Q783 722 838 695V143Q838 123 847.5 112Q857 101 875 101H891V-5H863Q794 -5 758.5 32.5Q723 70 723 143V628Q695 635 671 638.5Q647 642 622 642Q568 642 544.5 620Q521 598 521 550V507H659V407H521V0H406V407H214V0H99V407H17V507H99V557Q99 646 143.5 693Q188 740 274 740Q298 740 323 736Q348 732 374 724L344 624Q328 628 311.5 630Q295 632 282 632Z" glyph-name="ffl" horiz-adv-x="923" unicode="ﬄ" /><glyph d="M575 -10Q496 -10 456 37.5Q416 85 416 179V407H214V0H99V407H17V507H99V550Q99 648 153 699Q207 750 312 750Q366 750 421 736Q476 722 531 695V507H689V407H531V179Q531 136 547 117Q563 98 599 98Q617 98 635.5 102Q654 106 675 114L704 17Q676 4 642 -3Q608 -10 575 -10ZM315 642Q261 642 237.5 620Q214 598 214 550V507H416V628Q388 635 364 638.5Q340 642 315 642Z" glyph-name="ft" horiz-adv-x="717" unicode="" /><glyph d="M282 632Q246 632 230 614Q214 596 214 557V507H406V550Q406 648 460 699Q514 750 619 750Q673 750 728 736Q783 722 838 695V507H996V407H838V179Q838 136 854 117Q870 98 906 98Q924 98 942.5 102Q961 106 982 114L1011 17Q983 4 949 -3Q915 -10 882 -10Q803 -10 763 37.5Q723 85 723 179V407H521V0H406V407H214V0H99V407H17V507H99V557Q99 646 143.5 693Q188 740 274 740Q298 740 323 736Q348 732 374 724L344 624Q328 628 311.5 630Q295 632 282 632ZM622 642Q568 642 544.5 620Q521 598 521 550V507H723V628Q695 635 671 638.5Q647 642 622 642Z" glyph-name="fft" horiz-adv-x="1024" unicode="" /><glyph d="M847 281 847 227Q847 115 791.5 52.5Q736 -10 635 -10Q581 -10 526 5Q471 20 416 50V628Q388 635 364 638.5Q340 642 315 642Q261 642 237.5 620Q214 598 214 550V507H352V407H214V0H99V407H17V507H99V550Q99 648 153 699Q207 750 312 750Q366 750 421 736Q476 722 531 695V440Q573 482 606 499.5Q639 517 678 517Q758 517 802.5 455Q847 393 847 281ZM647 410Q619 410 592.5 394Q566 378 531 341V114Q557 103 579.5 98Q602 93 625 93Q677 93 703 126.5Q729 160 729 227V281Q729 345 708.5 377.5Q688 410 647 410Z" glyph-name="fb" horiz-adv-x="901" unicode="" /><glyph d="M282 632Q246 632 230 614Q214 596 214 557V507H406V550Q406 648 460 699Q514 750 619 750Q673 750 728 736Q783 722 838 695V440Q880 482 913 499.5Q946 517 985 517Q1065 517 1109.5 455Q1154 393 1154 281V227Q1154 115 1098.5 52.5Q1043 -10 942 -10Q888 -10 833 5Q778 20 723 50V628Q695 635 671 638.5Q647 642 622 642Q568 642 544.5 620Q521 598 521 550V507H659V407H521V0H406V407H214V0H99V407H17V507H99V557Q99 646 143.5 693Q188 740 274 740Q298 740 323 736Q348 732 374 724L344 624Q328 628 311.5 630Q295 632 282 632ZM954 410Q926 410 899.5 394Q873 378 838 341V114Q864 103 886.5 98Q909 93 932 93Q984 93 1010 126.5Q1036 160 1036 227V281Q1036 345 1015.5 377.5Q995 410 954 410Z" glyph-name="ffb" horiz-adv-x="1208" unicode="" /><glyph d="M521 0 406 0V407H214V0H99V407H17V507H99V557Q99 646 143.5 693Q188 740 274 740Q298 740 323 736Q348 732 374 724L344 624Q328 628 311.5 630Q295 632 282 632Q246 632 230 614Q214 596 214 557V507H406V560Q406 651 451.5 700.5Q497 750 583 750Q616 750 652 743.5Q688 737 718 725L690 626Q666 634 644.5 638Q623 642 604 642Q560 642 540.5 622.5Q521 603 521 560V507H679V407H521Z" glyph-name="ff" horiz-adv-x="684" unicode="ﬀ" /><glyph d="M521 0 406 0V407H214V0H99V407H17V507H99V557Q99 646 143.5 693Q188 740 274 740Q298 740 323 736Q348 732 374 724L344 624Q328 628 311.5 630Q295 632 282 632Q246 632 230 614Q214 596 214 557V507H406V557Q406 646 450.5 693Q495 740 581 740Q605 740 630 736Q655 732 681 724L651 624Q635 628 618.5 630Q602 632 589 632Q553 632 537 614Q521 596 521 557V507H713V560Q713 651 758.5 700.5Q804 750 890 750Q923 750 959 743.5Q995 737 1025 725L997 626Q973 634 951.5 638Q930 642 911 642Q867 642 847.5 622.5Q828 603 828 560V507H986V407H828V0H713V407H521Z" glyph-name="fff" horiz-adv-x="991" unicode="" /><glyph d="M352 507 352 407H214V0H99V407H17V507H99V550Q99 648 153 699Q207 750 312 750Q366 750 421 736Q476 722 531 695V444Q576 482 616 499.5Q656 517 699 517Q771 517 809.5 471Q848 425 848 340V0H733V326Q733 369 716 389.5Q699 410 664 410Q634 410 602 395.5Q570 381 531 351V0H416V628Q388 635 364 638.5Q340 642 315 642Q261 642 237.5 620Q214 598 214 550V507Z" glyph-name="fh" horiz-adv-x="921" unicode="" /><glyph d="M521 0 406 0V407H214V0H99V407H17V507H99V557Q99 646 143.5 693Q188 740 274 740Q298 740 323 736Q348 732 374 724L344 624Q328 628 311.5 630Q295 632 282 632Q246 632 230 614Q214 596 214 557V507H406V550Q406 648 460 699Q514 750 619 750Q673 750 728 736Q783 722 838 695V444Q883 482 923 499.5Q963 517 1006 517Q1078 517 1116.5 471Q1155 425 1155 340V0H1040V326Q1040 369 1023 389.5Q1006 410 971 410Q941 410 909 395.5Q877 381 838 351V0H723V628Q695 635 671 638.5Q647 642 622 642Q568 642 544.5 620Q521 598 521 550V507H659V407H521Z" glyph-name="ffh" horiz-adv-x="1228" unicode="" /><glyph d="M312 642Q260 642 237 620Q214 598 214 550V507H521V-4Q521 -114 466 -168.5Q411 -223 302 -223V-115Q357 -115 381.5 -88.5Q406 -62 406 -4V407H214V0H99V407H17V507H99V550Q99 648 152.5 699Q206 750 309 750Q357 750 403.5 739Q450 728 495 706L453 612Q413 627 378.5 634.5Q344 642 312 642Z" glyph-name="fj" horiz-adv-x="600" unicode="" /><glyph d="M619 642Q567 642 544 620Q521 598 521 550V507H828V-4Q828 -114 773 -168.5Q718 -223 609 -223V-115Q664 -115 688.5 -88.5Q713 -62 713 -4V407H521V0H406V407H214V0H99V407H17V507H99V557Q99 646 143.5 693Q188 740 274 740Q298 740 323 736Q348 732 374 724L344 624Q328 628 311.5 630Q295 632 282 632Q246 632 230 614Q214 596 214 557V507H406V550Q406 648 459.5 699Q513 750 616 750Q664 750 710.5 739Q757 728 802 706L760 612Q720 627 685.5 634.5Q651 642 619 642Z" glyph-name="ffj" horiz-adv-x="907" unicode="" /><glyph d="M352 507 352 407H214V0H99V407H17V507H99V550Q99 648 153 699Q207 750 312 750Q366 750 421 736Q476 722 531 695V278Q589 337 630.5 391Q672 445 706 507H838Q808 453 770 399.5Q732 346 680 284L858 0H719L594 211Q579 196 563.5 181Q548 166 531 151V0H416V628Q388 635 364 638.5Q340 642 315 642Q261 642 237.5 620Q214 598 214 550V507Z" glyph-name="fk" horiz-adv-x="869" unicode="" /><glyph d="M521 0 406 0V407H214V0H99V407H17V507H99V557Q99 646 143.5 693Q188 740 274 740Q298 740 323 736Q348 732 374 724L344 624Q328 628 311.5 630Q295 632 282 632Q246 632 230 614Q214 596 214 557V507H406V550Q406 648 460 699Q514 750 619 750Q673 750 728 736Q783 722 838 695V278Q896 337 937.5 391Q979 445 1013 507H1145Q1115 453 1077 399.5Q1039 346 987 284L1165 0H1026L901 211Q886 196 870.5 181Q855 166 838 151V0H723V628Q695 635 671 638.5Q647 642 622 642Q568 642 544.5 620Q521 598 521 550V507H659V407H521Z" glyph-name="ffk" horiz-adv-x="1176" unicode="" /><glyph d="M581 0 456 0L414 133H181L139 0H20L247 680H353ZM298 513 246 341L215 243H379L348 341ZM454 872 351 752H250L346 918Z" glyph-name="Aacute" horiz-adv-x="601" unicode="Á" /><glyph d="M581 0 456 0L414 133H181L139 0H20L247 680H353ZM298 513 246 341L215 243H379L348 341ZM452 752 359 752L298 832L237 752H148L244 913H356Z" glyph-name="Acircumflex" horiz-adv-x="601" unicode="Â" /><glyph d="M581 0 456 0L414 133H181L139 0H20L247 680H353ZM298 513 246 341L215 243H379L348 341ZM258 889 258 782H149V889ZM452 889 452 782H343V889Z" glyph-name="Adieresis" horiz-adv-x="601" unicode="Ä" /><glyph d="M581 0 456 0L414 133H181L139 0H20L247 680H353ZM298 513 246 341L215 243H379L348 341ZM350 752 249 752L146 872L254 918Z" glyph-name="Agrave" horiz-adv-x="601" unicode="À" /><glyph d="M414 133 181 133L139 0H20L231 632Q207 646 194 671Q181 696 181 728V739Q181 790 214 821.5Q247 853 301 853Q355 853 388 821.5Q421 790 421 739V728Q421 696 407.5 670.5Q394 645 370 631L581 0H456ZM350 728 350 739Q350 761 336.5 774Q323 787 301 787Q279 787 265.5 774Q252 761 252 739V728Q252 706 265.5 693Q279 680 301 680Q323 680 336.5 693Q350 706 350 728ZM298 513 246 341L215 243H379L348 341Z" glyph-name="Aring" horiz-adv-x="601" unicode="Å" /><glyph d="M581 0 456 0L414 133H181L139 0H20L247 680H353ZM298 513 246 341L215 243H379L348 341ZM359 761Q339 761 321.5 770.5Q304 780 281 807Q267 824 260.5 828.5Q254 833 247 833Q237 833 233.5 819Q230 805 229 769H148Q148 846 171 884.5Q194 923 241 923Q261 923 278.5 913.5Q296 904 319 877Q333 860 339.5 855.5Q346 851 353 851Q363 851 366.5 865Q370 879 371 915H452Q452 837 429 799Q406 761 359 761Z" glyph-name="Atilde" horiz-adv-x="601" unicode="Ã" /><glyph d="M581 0 456 0L414 133H181L139 0H20L247 680H353ZM298 513 246 341L215 243H379L348 341ZM300 839Q323 839 334.5 854.5Q346 870 347 904H434Q429 832 395 795Q361 758 300 758Q239 758 205 795Q171 832 166 904H253Q254 871 265.5 855Q277 839 300 839Z" glyph-name="Abreve" horiz-adv-x="601" unicode="Ă" /><glyph d="M581 0 456 0L414 133H181L139 0H20L247 680H353ZM298 513 246 341L215 243H379L348 341ZM149 865 452 865V782H149Z" glyph-name="Amacron" horiz-adv-x="601" unicode="Ā" /><glyph d="M565 -124 581 -207Q561 -215 540.5 -219Q520 -223 500 -223Q448 -223 418 -198.5Q388 -174 388 -132Q388 -103 405 -74Q422 -45 459 -11L414 133H181L139 0H20L247 680H353L581 0Q532 -41 510 -66.5Q488 -92 488 -108Q488 -120 495.5 -126.5Q503 -133 518 -133Q528 -133 539.5 -131Q551 -129 565 -124ZM298 513 246 341L215 243H379L348 341Z" glyph-name="Aogonek" horiz-adv-x="601" unicode="Ą" /><glyph d="M411 -124Q411 -171 377.5 -197Q344 -223 285 -223Q265 -223 245.5 -219.5Q226 -216 200 -208L213 -139Q233 -144 252 -147Q271 -150 285 -150Q304 -150 314 -144Q324 -138 324 -126Q324 -115 314 -108.5Q304 -102 285 -102Q278 -102 272.5 -102.5Q267 -103 258 -105L233 -73L245 -2Q158 19 110.5 90Q63 161 63 269V412Q63 541 130 615.5Q197 690 316 690Q360 690 404.5 679.5Q449 669 497 648L460 542Q413 561 382 569Q351 577 323 577Q256 577 221 535Q186 493 186 412V269Q186 188 221 145.5Q256 103 323 103Q354 103 386.5 111Q419 119 466 138L503 34Q453 12 408 1Q363 -10 320 -10L315 -39Q361 -41 386 -63.5Q411 -86 411 -124Z" glyph-name="Ccedilla" horiz-adv-x="534" unicode="Ç" /><glyph d="M186 412 186 269Q186 188 221 145.5Q256 103 323 103Q354 103 386.5 111Q419 119 466 138L503 34Q452 12 406.5 1Q361 -10 316 -10Q197 -10 130 64.5Q63 139 63 269V412Q63 541 130 615.5Q197 690 316 690Q360 690 404.5 679.5Q449 669 497 648L460 542Q413 561 382 569Q351 577 323 577Q256 577 221 535Q186 493 186 412ZM464 872 361 752H260L356 918Z" glyph-name="Cacute" horiz-adv-x="534" unicode="Ć" /><glyph d="M186 412 186 269Q186 188 221 145.5Q256 103 323 103Q354 103 386.5 111Q419 119 466 138L503 34Q452 12 406.5 1Q361 -10 316 -10Q197 -10 130 64.5Q63 139 63 269V412Q63 541 130 615.5Q197 690 316 690Q360 690 404.5 679.5Q449 669 497 648L460 542Q413 561 382 569Q351 577 323 577Q256 577 221 535Q186 493 186 412ZM372 913 461 913L365 752H253L157 913H250L311 833Z" glyph-name="Ccaron" horiz-adv-x="534" unicode="Č" /><glyph d="M186 412 186 269Q186 188 221 145.5Q256 103 323 103Q354 103 386.5 111Q419 119 466 138L503 34Q452 12 406.5 1Q361 -10 316 -10Q197 -10 130 64.5Q63 139 63 269V412Q63 541 130 615.5Q197 690 316 690Q360 690 404.5 679.5Q449 669 497 648L460 542Q413 561 382 569Q351 577 323 577Q256 577 221 535Q186 493 186 412ZM461 752 368 752L307 832L246 752H157L253 913H365Z" glyph-name="Ccircumflex" horiz-adv-x="534" unicode="Ĉ" /><glyph d="M186 412 186 269Q186 188 221 145.5Q256 103 323 103Q354 103 386.5 111Q419 119 466 138L503 34Q452 12 406.5 1Q361 -10 316 -10Q197 -10 130 64.5Q63 139 63 269V412Q63 541 130 615.5Q197 690 316 690Q360 690 404.5 679.5Q449 669 497 648L460 542Q413 561 382 569Q351 577 323 577Q256 577 221 535Q186 493 186 412ZM371 895 371 776H250V895Z" glyph-name="Cdotaccent" horiz-adv-x="534" unicode="Ċ" /><glyph d="M324 0 94 0V680H324Q446 680 510 611.5Q574 543 574 412V269Q574 137 510 68.5Q446 0 324 0ZM319 565 214 565V115H319Q390 115 420.5 150.5Q451 186 451 269V412Q451 494 420.5 529.5Q390 565 319 565ZM381 913 470 913L374 752H262L166 913H259L320 833Z" glyph-name="Dcaron" horiz-adv-x="639" unicode="Ď" /><glyph d="M21 290 21 399H103V680H333Q455 680 519 611.5Q583 543 583 412V269Q583 137 519 68.5Q455 0 333 0H103V290ZM343 399 343 290H223V115H328Q399 115 429.5 150.5Q460 186 460 269V412Q460 494 429.5 529.5Q399 565 328 565H223V399Z" glyph-name="Dcroat" horiz-adv-x="648" unicode="Đ" /><glyph d="M214 115 488 115V0H94V680H478V565H214V402H448V287H214ZM440 872 337 752H236L332 918Z" glyph-name="Eacute" horiz-adv-x="536" unicode="É" /><glyph d="M214 115 488 115V0H94V680H478V565H214V402H448V287H214ZM437 752 344 752L283 832L222 752H133L229 913H341Z" glyph-name="Ecircumflex" horiz-adv-x="536" unicode="Ê" /><glyph d="M214 115 488 115V0H94V680H478V565H214V402H448V287H214ZM244 889 244 782H135V889ZM438 889 438 782H329V889Z" glyph-name="Edieresis" horiz-adv-x="536" unicode="Ë" /><glyph d="M214 115 488 115V0H94V680H478V565H214V402H448V287H214ZM336 752 235 752L132 872L240 918Z" glyph-name="Egrave" horiz-adv-x="536" unicode="È" /><glyph d="M214 115 488 115V0H94V680H478V565H214V402H448V287H214ZM286 839Q309 839 320.5 854.5Q332 870 333 904H420Q415 832 381 795Q347 758 286 758Q225 758 191 795Q157 832 152 904H239Q240 871 251.5 855Q263 839 286 839Z" glyph-name="Ebreve" horiz-adv-x="536" unicode="Ĕ" /><glyph d="M214 115 488 115V0H94V680H478V565H214V402H448V287H214ZM348 913 437 913L341 752H229L133 913H226L287 833Z" glyph-name="Ecaron" horiz-adv-x="536" unicode="Ě" /><glyph d="M214 115 488 115V0H94V680H478V565H214V402H448V287H214ZM347 895 347 776H226V895Z" glyph-name="Edotaccent" horiz-adv-x="536" unicode="Ė" /><glyph d="M214 115 488 115V0H94V680H478V565H214V402H448V287H214ZM135 865 438 865V782H135Z" glyph-name="Emacron" horiz-adv-x="536" unicode="Ē" /><glyph d="M472 -124 488 -207Q468 -215 447.5 -219Q427 -223 407 -223Q355 -223 325 -198.5Q295 -174 295 -132Q295 -100 315 -68.5Q335 -37 379 0H94V680H478V565H214V402H448V287H214V115H488V0Q439 -41 417 -66.5Q395 -92 395 -108Q395 -120 402.5 -126.5Q410 -133 425 -133Q435 -133 446.5 -131Q458 -129 472 -124Z" glyph-name="Eogonek" horiz-adv-x="536" unicode="Ę" /><glyph d="M544 374 544 44Q503 20 445 5Q387 -10 327 -10Q204 -10 133.5 65Q63 140 63 269V412Q63 543 133.5 616.5Q204 690 332 690Q381 690 428 679.5Q475 669 526 646L489 541Q436 561 401.5 569Q367 577 334 577Q261 577 223.5 535Q186 493 186 412V269Q186 191 224 148Q262 105 333 105Q355 105 382.5 109Q410 113 435 120V269H325V374ZM326 839Q349 839 360.5 854.5Q372 870 373 904H460Q455 832 421 795Q387 758 326 758Q265 758 231 795Q197 832 192 904H279Q280 871 291.5 855Q303 839 326 839Z" glyph-name="Gbreve" horiz-adv-x="603" unicode="Ğ" /><glyph d="M544 374 544 44Q503 20 445 5Q387 -10 327 -10Q204 -10 133.5 65Q63 140 63 269V412Q63 543 133.5 616.5Q204 690 332 690Q381 690 428 679.5Q475 669 526 646L489 541Q436 561 401.5 569Q367 577 334 577Q261 577 223.5 535Q186 493 186 412V269Q186 191 224 148Q262 105 333 105Q355 105 382.5 109Q410 113 435 120V269H325V374ZM478 752 385 752L324 832L263 752H174L270 913H382Z" glyph-name="Gcircumflex" horiz-adv-x="603" unicode="Ĝ" /><glyph d="M544 374 544 44Q503 20 445 5Q387 -10 327 -10Q204 -10 133.5 65Q63 140 63 269V412Q63 543 133.5 616.5Q204 690 332 690Q381 690 428 679.5Q475 669 526 646L489 541Q436 561 401.5 569Q367 577 334 577Q261 577 223.5 535Q186 493 186 412V269Q186 191 224 148Q262 105 333 105Q355 105 382.5 109Q410 113 435 120V269H325V374ZM388 -77 315 -256L242 -239L268 -77Z" glyph-name="Gcommaaccent" horiz-adv-x="603" unicode="Ģ" /><glyph d="M544 374 544 44Q503 20 445 5Q387 -10 327 -10Q204 -10 133.5 65Q63 140 63 269V412Q63 543 133.5 616.5Q204 690 332 690Q381 690 428 679.5Q475 669 526 646L489 541Q436 561 401.5 569Q367 577 334 577Q261 577 223.5 535Q186 493 186 412V269Q186 191 224 148Q262 105 333 105Q355 105 382.5 109Q410 113 435 120V269H325V374ZM387 895 387 776H266V895Z" glyph-name="Gdotaccent" horiz-adv-x="603" unicode="Ġ" /><glyph d="M477 287 223 287V0H103V501H21V588H103V680H223V588H477V680H597V588H679V501H597V0H477ZM223 501 223 402H477V501Z" glyph-name="Hbar" horiz-adv-x="700" unicode="Ħ" /><glyph d="M588 0 468 0V287H214V0H94V680H214V402H468V680H588ZM492 752 399 752L338 832L277 752H188L284 913H396Z" glyph-name="Hcircumflex" horiz-adv-x="682" unicode="Ĥ" /><glyph d="M214 680 214 0H94V680ZM308 872 205 752H104L200 918Z" glyph-name="Iacute" horiz-adv-x="308" unicode="Í" /><glyph d="M214 680 214 0H94V680ZM305 752 212 752L151 832L90 752H1L97 913H209Z" glyph-name="Icircumflex" horiz-adv-x="308" unicode="Î" /><glyph d="M214 680 214 0H94V680ZM112 889 112 782H3V889ZM306 889 306 782H197V889Z" glyph-name="Idieresis" horiz-adv-x="308" unicode="Ï" /><glyph d="M214 680 214 0H94V680ZM204 752 103 752L0 872L108 918Z" glyph-name="Igrave" horiz-adv-x="308" unicode="Ì" /><glyph d="M214 680 214 0H94V680ZM154 839Q177 839 188.5 854.5Q200 870 201 904H288Q283 832 249 795Q215 758 154 758Q93 758 59 795Q25 832 20 904H107Q108 871 119.5 855Q131 839 154 839Z" glyph-name="Ibreve" horiz-adv-x="308" unicode="Ĭ" /><glyph d="M214 680 214 0H94V680ZM215 895 215 776H94V895Z" glyph-name="Idotaccent" horiz-adv-x="308" unicode="İ" /><glyph d="M214 680 214 0H94V680ZM3 865 306 865V782H3Z" glyph-name="Imacron" horiz-adv-x="308" unicode="Ī" /><glyph d="M213 -124 229 -207Q209 -215 188.5 -219Q168 -223 148 -223Q96 -223 66 -198.5Q36 -174 36 -132Q36 -103 50.5 -71.5Q65 -40 94 -7V680H214V0Q175 -31 155.5 -57.5Q136 -84 136 -106Q136 -120 143.5 -126.5Q151 -133 166 -133Q176 -133 187.5 -131Q199 -129 213 -124Z" glyph-name="Iogonek" horiz-adv-x="308" unicode="Į" /><glyph d="M214 680 214 0H94V680ZM213 761Q193 761 175.5 770.5Q158 780 135 807Q121 824 114.5 828.5Q108 833 101 833Q91 833 87.5 819Q84 805 83 769H2Q2 846 25 884.5Q48 923 95 923Q115 923 132.5 913.5Q150 904 173 877Q187 860 193.5 855.5Q200 851 207 851Q217 851 220.5 865Q224 879 225 915H306Q306 837 283 799Q260 761 213 761Z" glyph-name="Itilde" horiz-adv-x="308" unicode="Ĩ" /><glyph d="M26 -10 26 105Q110 105 145 137Q180 169 180 244V680H300V244Q300 109 234.5 49.5Q169 -10 26 -10ZM391 752 298 752L237 832L176 752H87L183 913H295Z" glyph-name="Jcircumflex" horiz-adv-x="376" unicode="Ĵ" /><glyph d="M214 680 214 0H94V680ZM334 -10 334 105Q418 105 453 137Q488 169 488 244V680H608V244Q608 109 542.5 49.5Q477 -10 334 -10Z" glyph-name="IJ" horiz-adv-x="684" unicode="Ĳ" /><glyph d="M600 0 455 0L285 297Q281 292 255.5 264.5Q230 237 214 220V0H94V680H214V357Q289 443 343.5 521.5Q398 600 437 680H568Q523 591 474.5 515Q426 439 374 376ZM393 -77 320 -256L247 -239L273 -77Z" glyph-name="Kcommaaccent" horiz-adv-x="616" unicode="Ķ" /><glyph d="M571 474 649 685L722 668L691 474ZM600 0 455 0L285 297Q281 292 255.5 264.5Q230 237 214 220V0H94V680H214V357Q289 443 343.5 521.5Q398 600 437 680H568Q523 591 474.5 515Q426 439 374 376Z" glyph-name="kgreenlandic.case" horiz-adv-x="712" unicode="" /><glyph d="M214 115 486 115V0H94V680H214ZM307 872 204 752H103L199 918Z" glyph-name="Lacute" horiz-adv-x="507" unicode="Ĺ" /><glyph d="M214 115 486 115V0H94V680H214ZM402 680 366 486H289V680Z" glyph-name="Lcaron" horiz-adv-x="507" unicode="Ľ" /><glyph d="M214 115 486 115V0H94V680H214ZM354 -77 281 -256L208 -239L234 -77Z" glyph-name="Lcommaaccent" horiz-adv-x="507" unicode="Ļ" /><glyph d="M214 115 486 115V0H94V680H214ZM468 444 468 325H347V444Z" glyph-name="Ldot" horiz-adv-x="507" unicode="Ŀ" /><glyph d="M209 0 94 0V680H204Q285 574 355.5 459.5Q426 345 483 227L474 430V680H589V0H479Q380 196 319 303.5Q258 411 201 494L209 260ZM401 761Q381 761 363.5 770.5Q346 780 323 807Q309 824 302.5 828.5Q296 833 289 833Q279 833 275.5 819Q272 805 271 769H190Q190 846 213 884.5Q236 923 283 923Q303 923 320.5 913.5Q338 904 361 877Q375 860 381.5 855.5Q388 851 395 851Q405 851 408.5 865Q412 879 413 915H494Q494 837 471 799Q448 761 401 761Z" glyph-name="Ntilde" horiz-adv-x="683" unicode="Ñ" /><glyph d="M209 0 94 0V680H204Q285 574 355.5 459.5Q426 345 483 227L474 430V680H589V0H479Q380 196 319 303.5Q258 411 201 494L209 260ZM496 872 393 752H292L388 918Z" glyph-name="Nacute" horiz-adv-x="683" unicode="Ń" /><glyph d="M209 0 94 0V680H204Q285 574 355.5 459.5Q426 345 483 227L474 430V680H589V0H479Q380 196 319 303.5Q258 411 201 494L209 260ZM403 913 492 913L396 752H284L188 913H281L342 833Z" glyph-name="Ncaron" horiz-adv-x="683" unicode="Ň" /><glyph d="M209 0 94 0V680H204Q285 574 355.5 459.5Q426 345 483 227L474 430V680H589V0H479Q380 196 319 303.5Q258 411 201 494L209 260ZM402 -77 329 -256L256 -239L282 -77Z" glyph-name="Ncommaaccent" horiz-adv-x="683" unicode="Ņ" /><glyph d="M474 430 474 680H589V31Q589 -104 523.5 -163.5Q458 -223 315 -223V-108Q397 -108 433 -80.5Q469 -53 473 11Q379 198 318.5 304.5Q258 411 201 494L209 260V0H94V680H204Q281 579 351 464.5Q421 350 483 225Z" glyph-name="Eng" horiz-adv-x="683" unicode="Ŋ" /><glyph d="M360 0 245 0V680H355Q436 574 506.5 459.5Q577 345 634 227L625 430V680H740V0H630Q531 196 470 303.5Q409 411 352 494L360 260ZM37 680 149 680V661Q149 587 127.5 521.5Q106 456 57 378L-15 417Q15 481 26 531Q37 581 37 680Z" glyph-name="napostrophe.case" horiz-adv-x="834" unicode="" /><glyph d="M320 690Q442 690 508.5 617.5Q575 545 575 412V269Q575 136 508.5 63Q442 -10 320 -10Q197 -10 131 62.5Q65 135 65 269V412Q65 545 131 617.5Q197 690 320 690ZM452 269 452 412Q452 496 419.5 536.5Q387 577 320 577Q253 577 220.5 536.5Q188 496 188 412V269Q188 185 220.5 144Q253 103 320 103Q387 103 419.5 144Q452 185 452 269ZM474 872 371 752H270L366 918Z" glyph-name="Oacute" horiz-adv-x="640" unicode="Ó" /><glyph d="M320 690Q442 690 508.5 617.5Q575 545 575 412V269Q575 136 508.5 63Q442 -10 320 -10Q197 -10 131 62.5Q65 135 65 269V412Q65 545 131 617.5Q197 690 320 690ZM452 269 452 412Q452 496 419.5 536.5Q387 577 320 577Q253 577 220.5 536.5Q188 496 188 412V269Q188 185 220.5 144Q253 103 320 103Q387 103 419.5 144Q452 185 452 269ZM471 752 378 752L317 832L256 752H167L263 913H375Z" glyph-name="Ocircumflex" horiz-adv-x="640" unicode="Ô" /><glyph d="M320 690Q442 690 508.5 617.5Q575 545 575 412V269Q575 136 508.5 63Q442 -10 320 -10Q197 -10 131 62.5Q65 135 65 269V412Q65 545 131 617.5Q197 690 320 690ZM452 269 452 412Q452 496 419.5 536.5Q387 577 320 577Q253 577 220.5 536.5Q188 496 188 412V269Q188 185 220.5 144Q253 103 320 103Q387 103 419.5 144Q452 185 452 269ZM278 889 278 782H169V889ZM472 889 472 782H363V889Z" glyph-name="Odieresis" horiz-adv-x="640" unicode="Ö" /><glyph d="M320 690Q442 690 508.5 617.5Q575 545 575 412V269Q575 136 508.5 63Q442 -10 320 -10Q197 -10 131 62.5Q65 135 65 269V412Q65 545 131 617.5Q197 690 320 690ZM452 269 452 412Q452 496 419.5 536.5Q387 577 320 577Q253 577 220.5 536.5Q188 496 188 412V269Q188 185 220.5 144Q253 103 320 103Q387 103 419.5 144Q452 185 452 269ZM370 752 269 752L166 872L274 918Z" glyph-name="Ograve" horiz-adv-x="640" unicode="Ò" /><glyph d="M320 690Q442 690 508.5 617.5Q575 545 575 412V269Q575 136 508.5 63Q442 -10 320 -10Q197 -10 131 62.5Q65 135 65 269V412Q65 545 131 617.5Q197 690 320 690ZM452 269 452 412Q452 496 419.5 536.5Q387 577 320 577Q253 577 220.5 536.5Q188 496 188 412V269Q188 185 220.5 144Q253 103 320 103Q387 103 419.5 144Q452 185 452 269ZM379 761Q359 761 341.5 770.5Q324 780 301 807Q287 824 280.5 828.5Q274 833 267 833Q257 833 253.5 819Q250 805 249 769H168Q168 846 191 884.5Q214 923 261 923Q281 923 298.5 913.5Q316 904 339 877Q353 860 359.5 855.5Q366 851 373 851Q383 851 386.5 865Q390 879 391 915H472Q472 837 449 799Q426 761 379 761Z" glyph-name="Otilde" horiz-adv-x="640" unicode="Õ" /><glyph d="M320 690Q442 690 508.5 617.5Q575 545 575 412V269Q575 136 508.5 63Q442 -10 320 -10Q197 -10 131 62.5Q65 135 65 269V412Q65 545 131 617.5Q197 690 320 690ZM452 269 452 412Q452 496 419.5 536.5Q387 577 320 577Q253 577 220.5 536.5Q188 496 188 412V269Q188 185 220.5 144Q253 103 320 103Q387 103 419.5 144Q452 185 452 269ZM320 839Q343 839 354.5 854.5Q366 870 367 904H454Q449 832 415 795Q381 758 320 758Q259 758 225 795Q191 832 186 904H273Q274 871 285.5 855Q297 839 320 839Z" glyph-name="Obreve" horiz-adv-x="640" unicode="Ŏ" /><glyph d="M320 690Q442 690 508.5 617.5Q575 545 575 412V269Q575 136 508.5 63Q442 -10 320 -10Q197 -10 131 62.5Q65 135 65 269V412Q65 545 131 617.5Q197 690 320 690ZM452 269 452 412Q452 496 419.5 536.5Q387 577 320 577Q253 577 220.5 536.5Q188 496 188 412V269Q188 185 220.5 144Q253 103 320 103Q387 103 419.5 144Q452 185 452 269ZM364 872 291 752H200L276 918ZM514 872 441 752H350L426 918Z" glyph-name="Ohungarumlaut" horiz-adv-x="640" unicode="Ő" /><glyph d="M320 690Q442 690 508.5 617.5Q575 545 575 412V269Q575 136 508.5 63Q442 -10 320 -10Q197 -10 131 62.5Q65 135 65 269V412Q65 545 131 617.5Q197 690 320 690ZM452 269 452 412Q452 496 419.5 536.5Q387 577 320 577Q253 577 220.5 536.5Q188 496 188 412V269Q188 185 220.5 144Q253 103 320 103Q387 103 419.5 144Q452 185 452 269ZM169 865 472 865V782H169Z" glyph-name="Omacron" horiz-adv-x="640" unicode="Ō" /><glyph d="M322 250 214 250V0H94V680H321Q421 680 478 628.5Q535 577 535 487V444Q535 385 510 341.5Q485 298 438 275Q479 205 514 136Q549 67 578 0H441Q416 62 386.5 125Q357 188 322 250ZM321 570 214 570V360H321Q364 360 388 382Q412 404 412 444V487Q412 526 388 548Q364 570 321 570ZM459 872 356 752H255L351 918Z" glyph-name="Racute" horiz-adv-x="609" unicode="Ŕ" /><glyph d="M322 250 214 250V0H94V680H321Q421 680 478 628.5Q535 577 535 487V444Q535 385 510 341.5Q485 298 438 275Q479 205 514 136Q549 67 578 0H441Q416 62 386.5 125Q357 188 322 250ZM321 570 214 570V360H321Q364 360 388 382Q412 404 412 444V487Q412 526 388 548Q364 570 321 570ZM367 913 456 913L360 752H248L152 913H245L306 833Z" glyph-name="Rcaron" horiz-adv-x="609" unicode="Ř" /><glyph d="M322 250 214 250V0H94V680H321Q421 680 478 628.5Q535 577 535 487V444Q535 385 510 341.5Q485 298 438 275Q479 205 514 136Q549 67 578 0H441Q416 62 386.5 125Q357 188 322 250ZM321 570 214 570V360H321Q364 360 388 382Q412 404 412 444V487Q412 526 388 548Q364 570 321 570ZM383 -77 310 -256L237 -239L263 -77Z" glyph-name="Rcommaaccent" horiz-adv-x="609" unicode="Ŗ" /><glyph d="M242 101Q301 101 329.5 122Q358 143 358 187Q358 222 339.5 242Q321 262 276 277L194 304Q120 328 83.5 376Q47 424 47 497Q47 588 103.5 639Q160 690 264 690Q311 690 356.5 679.5Q402 669 455 646L418 543Q366 563 333 571Q300 579 268 579Q217 579 193 560.5Q169 542 169 503Q169 470 187.5 450Q206 430 249 416L331 389Q407 364 443.5 315.5Q480 267 480 191Q480 94 419 42Q358 -10 244 -10Q193 -10 141 2.5Q89 15 32 41L69 144Q124 121 163.5 111Q203 101 242 101ZM329 913 418 913L322 752H210L114 913H207L268 833Z" glyph-name="Scaron" horiz-adv-x="518" unicode="Š" /><glyph d="M242 101Q301 101 329.5 122Q358 143 358 187Q358 222 339.5 242Q321 262 276 277L194 304Q120 328 83.5 376Q47 424 47 497Q47 588 103.5 639Q160 690 264 690Q311 690 356.5 679.5Q402 669 455 646L418 543Q366 563 333 571Q300 579 268 579Q217 579 193 560.5Q169 542 169 503Q169 470 187.5 450Q206 430 249 416L331 389Q407 364 443.5 315.5Q480 267 480 191Q480 94 419 42Q358 -10 244 -10Q193 -10 141 2.5Q89 15 32 41L69 144Q124 121 163.5 111Q203 101 242 101ZM420 872 317 752H216L312 918Z" glyph-name="Sacute" horiz-adv-x="518" unicode="Ś" /><glyph d="M361 -124Q361 -171 327.5 -197Q294 -223 235 -223Q215 -223 195.5 -219.5Q176 -216 150 -208L163 -139Q183 -144 202 -147Q221 -150 235 -150Q254 -150 264 -144Q274 -138 274 -126Q274 -115 264 -108.5Q254 -102 235 -102Q228 -102 222.5 -102.5Q217 -103 208 -105L183 -73L194 -7Q156 -2 115.5 10Q75 22 32 41L69 144Q124 121 163.5 111Q203 101 242 101Q301 101 329.5 122Q358 143 358 187Q358 222 339.5 242Q321 262 276 277L194 304Q120 328 83.5 376Q47 424 47 497Q47 588 103.5 639Q160 690 264 690Q311 690 356.5 679.5Q402 669 455 646L418 543Q366 563 333 571Q300 579 268 579Q217 579 193 560.5Q169 542 169 503Q169 470 187.5 450Q206 430 249 416L331 389Q407 364 443.5 315.5Q480 267 480 191Q480 100 426 48.5Q372 -3 270 -9L265 -39Q311 -41 336 -63.5Q361 -86 361 -124Z" glyph-name="Scedilla" horiz-adv-x="518" unicode="Ş" /><glyph d="M242 101Q301 101 329.5 122Q358 143 358 187Q358 222 339.5 242Q321 262 276 277L194 304Q120 328 83.5 376Q47 424 47 497Q47 588 103.5 639Q160 690 264 690Q311 690 356.5 679.5Q402 669 455 646L418 543Q366 563 333 571Q300 579 268 579Q217 579 193 560.5Q169 542 169 503Q169 470 187.5 450Q206 430 249 416L331 389Q407 364 443.5 315.5Q480 267 480 191Q480 94 419 42Q358 -10 244 -10Q193 -10 141 2.5Q89 15 32 41L69 144Q124 121 163.5 111Q203 101 242 101ZM418 752 325 752L264 832L203 752H114L210 913H322Z" glyph-name="Scircumflex" horiz-adv-x="518" unicode="Ŝ" /><glyph d="M242 101Q301 101 329.5 122Q358 143 358 187Q358 222 339.5 242Q321 262 276 277L194 304Q120 328 83.5 376Q47 424 47 497Q47 588 103.5 639Q160 690 264 690Q311 690 356.5 679.5Q402 669 455 646L418 543Q366 563 333 571Q300 579 268 579Q217 579 193 560.5Q169 542 169 503Q169 470 187.5 450Q206 430 249 416L331 389Q407 364 443.5 315.5Q480 267 480 191Q480 94 419 42Q358 -10 244 -10Q193 -10 141 2.5Q89 15 32 41L69 144Q124 121 163.5 111Q203 101 242 101ZM321 -77 248 -256L175 -239L201 -77Z" glyph-name="uni0218" horiz-adv-x="518" unicode="Ș" /><glyph d="M435 366 435 279H323V0H203V279H91V366H203V565H13V680H513V565H323V366Z" glyph-name="Tbar" horiz-adv-x="526" unicode="Ŧ" /><glyph d="M203 565 13 565V680H513V565H323V0H203ZM325 913 414 913L318 752H206L110 913H203L264 833Z" glyph-name="Tcaron" horiz-adv-x="526" unicode="Ť" /><glyph d="M203 565 13 565V680H513V565H323V0H203ZM323 -77 250 -256L177 -239L203 -77Z" glyph-name="uni0162" horiz-adv-x="526" unicode="Ţ" /><glyph d="M203 565 13 565V680H513V565H323V0H203ZM323 -77 250 -256L177 -239L203 -77Z" glyph-name="uni021A" horiz-adv-x="526" unicode="Ț" /><glyph d="M78 244 78 680H201V244Q201 174 231.5 138.5Q262 103 323 103Q384 103 414.5 138.5Q445 174 445 244V680H568V244Q568 123 504.5 56.5Q441 -10 323 -10Q205 -10 141.5 56Q78 122 78 244ZM477 872 374 752H273L369 918Z" glyph-name="Uacute" horiz-adv-x="646" unicode="Ú" /><glyph d="M78 244 78 680H201V244Q201 174 231.5 138.5Q262 103 323 103Q384 103 414.5 138.5Q445 174 445 244V680H568V244Q568 123 504.5 56.5Q441 -10 323 -10Q205 -10 141.5 56Q78 122 78 244ZM474 752 381 752L320 832L259 752H170L266 913H378Z" glyph-name="Ucircumflex" horiz-adv-x="646" unicode="Û" /><glyph d="M78 244 78 680H201V244Q201 174 231.5 138.5Q262 103 323 103Q384 103 414.5 138.5Q445 174 445 244V680H568V244Q568 123 504.5 56.5Q441 -10 323 -10Q205 -10 141.5 56Q78 122 78 244ZM281 889 281 782H172V889ZM475 889 475 782H366V889Z" glyph-name="Udieresis" horiz-adv-x="646" unicode="Ü" /><glyph d="M78 244 78 680H201V244Q201 174 231.5 138.5Q262 103 323 103Q384 103 414.5 138.5Q445 174 445 244V680H568V244Q568 123 504.5 56.5Q441 -10 323 -10Q205 -10 141.5 56Q78 122 78 244ZM373 752 272 752L169 872L277 918Z" glyph-name="Ugrave" horiz-adv-x="646" unicode="Ù" /><glyph d="M78 244 78 680H201V244Q201 174 231.5 138.5Q262 103 323 103Q384 103 414.5 138.5Q445 174 445 244V680H568V244Q568 123 504.5 56.5Q441 -10 323 -10Q205 -10 141.5 56Q78 122 78 244ZM323 839Q346 839 357.5 854.5Q369 870 370 904H457Q452 832 418 795Q384 758 323 758Q262 758 228 795Q194 832 189 904H276Q277 871 288.5 855Q300 839 323 839Z" glyph-name="Ubreve" horiz-adv-x="646" unicode="Ŭ" /><glyph d="M78 244 78 680H201V244Q201 174 231.5 138.5Q262 103 323 103Q384 103 414.5 138.5Q445 174 445 244V680H568V244Q568 123 504.5 56.5Q441 -10 323 -10Q205 -10 141.5 56Q78 122 78 244ZM367 872 294 752H203L279 918ZM517 872 444 752H353L429 918Z" glyph-name="Uhungarumlaut" horiz-adv-x="646" unicode="Ű" /><glyph d="M78 244 78 680H201V244Q201 174 231.5 138.5Q262 103 323 103Q384 103 414.5 138.5Q445 174 445 244V680H568V244Q568 123 504.5 56.5Q441 -10 323 -10Q205 -10 141.5 56Q78 122 78 244ZM171 865 474 865V782H171Z" glyph-name="Umacron" horiz-adv-x="646" unicode="Ū" /><glyph d="M431 -124 447 -207Q427 -215 406.5 -219Q386 -223 366 -223Q314 -223 284 -198Q254 -173 254 -130Q254 -101 269.5 -72.5Q285 -44 320 -10Q203 -9 140.5 57Q78 123 78 244V680H201V244Q201 174 231.5 138.5Q262 103 323 103Q384 103 414.5 138.5Q445 174 445 244V680H568V244Q568 180 550.5 131Q533 82 500 52Q406 -31 380 -60Q354 -89 354 -108Q354 -120 361.5 -126.5Q369 -133 384 -133Q394 -133 405.5 -131Q417 -129 431 -124Z" glyph-name="Uogonek" horiz-adv-x="646" unicode="Ų" /><glyph d="M78 244 78 680H201V244Q201 174 231.5 138.5Q262 103 323 103Q384 103 414.5 138.5Q445 174 445 244V680H568V244Q568 123 504.5 56.5Q441 -10 323 -10Q205 -10 141.5 56Q78 122 78 244ZM323 976Q377 976 410 944.5Q443 913 443 862V851Q443 799 410 767.5Q377 736 323 736Q269 736 236 767.5Q203 799 203 851V862Q203 913 236 944.5Q269 976 323 976ZM372 851 372 862Q372 884 358.5 897Q345 910 323 910Q301 910 287.5 897Q274 884 274 862V851Q274 829 287.5 816Q301 803 323 803Q345 803 358.5 816Q372 829 372 851Z" glyph-name="Uring" horiz-adv-x="646" unicode="Ů" /><glyph d="M78 244 78 680H201V244Q201 174 231.5 138.5Q262 103 323 103Q384 103 414.5 138.5Q445 174 445 244V680H568V244Q568 123 504.5 56.5Q441 -10 323 -10Q205 -10 141.5 56Q78 122 78 244ZM382 761Q362 761 344.5 770.5Q327 780 304 807Q290 824 283.5 828.5Q277 833 270 833Q260 833 256.5 819Q253 805 252 769H171Q171 846 194 884.5Q217 923 264 923Q284 923 301.5 913.5Q319 904 342 877Q356 860 362.5 855.5Q369 851 376 851Q386 851 389.5 865Q393 879 394 915H475Q475 837 452 799Q429 761 382 761Z" glyph-name="Utilde" horiz-adv-x="646" unicode="Ũ" /><glyph d="M156 680 208 411L246 159L382 680H490L625 163L667 411L719 680H841L688 0H565L434 506L302 0H179L26 680ZM588 872 485 752H384L480 918Z" glyph-name="Wacute" horiz-adv-x="867" unicode="Ẃ" /><glyph d="M156 680 208 411L246 159L382 680H490L625 163L667 411L719 680H841L688 0H565L434 506L302 0H179L26 680ZM584 752 491 752L430 832L369 752H280L376 913H488Z" glyph-name="Wcircumflex" horiz-adv-x="867" unicode="Ŵ" /><glyph d="M156 680 208 411L246 159L382 680H490L625 163L667 411L719 680H841L688 0H565L434 506L302 0H179L26 680ZM391 889 391 782H282V889ZM585 889 585 782H476V889Z" glyph-name="Wdieresis" horiz-adv-x="867" unicode="Ẅ" /><glyph d="M156 680 208 411L246 159L382 680H490L625 163L667 411L719 680H841L688 0H565L434 506L302 0H179L26 680ZM484 752 383 752L280 872L388 918Z" glyph-name="Wgrave" horiz-adv-x="867" unicode="Ẁ" /><glyph d="M417 680 541 680L333 273V0H213V271L3 680H131L278 390ZM426 872 323 752H222L318 918Z" glyph-name="Yacute" horiz-adv-x="544" unicode="Ý" /><glyph d="M417 680 541 680L333 273V0H213V271L3 680H131L278 390ZM230 889 230 782H121V889ZM424 889 424 782H315V889Z" glyph-name="Ydieresis" horiz-adv-x="544" unicode="Ÿ" /><glyph d="M417 680 541 680L333 273V0H213V271L3 680H131L278 390ZM423 752 330 752L269 832L208 752H119L215 913H327Z" glyph-name="Ycircumflex" horiz-adv-x="544" unicode="Ŷ" /><glyph d="M417 680 541 680L333 273V0H213V271L3 680H131L278 390ZM322 752 221 752L118 872L226 918Z" glyph-name="Ygrave" horiz-adv-x="544" unicode="Ỳ" /><glyph d="M179 115 473 115V0H38V105L322 565H48V680H463V575ZM317 913 406 913L310 752H198L102 913H195L256 833Z" glyph-name="Zcaron" horiz-adv-x="509" unicode="Ž" /><glyph d="M179 115 473 115V0H38V105L322 565H48V680H463V575ZM408 872 305 752H204L300 918Z" glyph-name="Zacute" horiz-adv-x="509" unicode="Ź" /><glyph d="M179 115 473 115V0H38V105L322 565H48V680H463V575ZM315 895 315 776H194V895Z" glyph-name="Zdotaccent" horiz-adv-x="509" unicode="Ż" /><glyph d="M486 -5 463 -5Q417 -5 384.5 14Q352 33 337 68Q293 27 252.5 8.5Q212 -10 168 -10Q106 -10 72 30Q38 70 38 142Q38 218 81.5 254.5Q125 291 213 291Q236 291 262.5 288Q289 285 323 279V338Q323 376 302.5 393.5Q282 411 238 411Q206 411 170 402.5Q134 394 96 378L63 476Q114 497 159 507Q204 517 246 517Q339 517 386 472Q433 427 433 338V143Q433 123 444 112Q455 101 475 101H486ZM221 206Q184 206 166.5 191Q149 176 149 144Q149 116 161 101Q173 86 196 86Q227 86 257 102.5Q287 119 323 154V197Q297 202 271.5 204Q246 206 221 206ZM396 699 293 579H192L288 745Z" glyph-name="aacute" horiz-adv-x="507" unicode="á" /><glyph d="M486 -5 463 -5Q417 -5 384.5 14Q352 33 337 68Q293 27 252.5 8.5Q212 -10 168 -10Q106 -10 72 30Q38 70 38 142Q38 218 81.5 254.5Q125 291 213 291Q236 291 262.5 288Q289 285 323 279V338Q323 376 302.5 393.5Q282 411 238 411Q206 411 170 402.5Q134 394 96 378L63 476Q114 497 159 507Q204 517 246 517Q339 517 386 472Q433 427 433 338V143Q433 123 444 112Q455 101 475 101H486ZM221 206Q184 206 166.5 191Q149 176 149 144Q149 116 161 101Q173 86 196 86Q227 86 257 102.5Q287 119 323 154V197Q297 202 271.5 204Q246 206 221 206ZM394 579 301 579L240 659L179 579H90L186 740H298Z" glyph-name="acircumflex" horiz-adv-x="507" unicode="â" /><glyph d="M486 -5 463 -5Q417 -5 384.5 14Q352 33 337 68Q293 27 252.5 8.5Q212 -10 168 -10Q106 -10 72 30Q38 70 38 142Q38 218 81.5 254.5Q125 291 213 291Q236 291 262.5 288Q289 285 323 279V338Q323 376 302.5 393.5Q282 411 238 411Q206 411 170 402.5Q134 394 96 378L63 476Q114 497 159 507Q204 517 246 517Q339 517 386 472Q433 427 433 338V143Q433 123 444 112Q455 101 475 101H486ZM221 206Q184 206 166.5 191Q149 176 149 144Q149 116 161 101Q173 86 196 86Q227 86 257 102.5Q287 119 323 154V197Q297 202 271.5 204Q246 206 221 206ZM200 716 200 609H91V716ZM394 716 394 609H285V716Z" glyph-name="adieresis" horiz-adv-x="507" unicode="ä" /><glyph d="M486 -5 463 -5Q417 -5 384.5 14Q352 33 337 68Q293 27 252.5 8.5Q212 -10 168 -10Q106 -10 72 30Q38 70 38 142Q38 218 81.5 254.5Q125 291 213 291Q236 291 262.5 288Q289 285 323 279V338Q323 376 302.5 393.5Q282 411 238 411Q206 411 170 402.5Q134 394 96 378L63 476Q114 497 159 507Q204 517 246 517Q339 517 386 472Q433 427 433 338V143Q433 123 444 112Q455 101 475 101H486ZM221 206Q184 206 166.5 191Q149 176 149 144Q149 116 161 101Q173 86 196 86Q227 86 257 102.5Q287 119 323 154V197Q297 202 271.5 204Q246 206 221 206ZM292 579 191 579L88 699L196 745Z" glyph-name="agrave" horiz-adv-x="507" unicode="à" /><glyph d="M486 -5 463 -5Q417 -5 384.5 14Q352 33 337 68Q293 27 252.5 8.5Q212 -10 168 -10Q106 -10 72 30Q38 70 38 142Q38 218 81.5 254.5Q125 291 213 291Q236 291 262.5 288Q289 285 323 279V338Q323 376 302.5 393.5Q282 411 238 411Q206 411 170 402.5Q134 394 96 378L63 476Q114 497 159 507Q204 517 246 517Q339 517 386 472Q433 427 433 338V143Q433 123 444 112Q455 101 475 101H486ZM221 206Q184 206 166.5 191Q149 176 149 144Q149 116 161 101Q173 86 196 86Q227 86 257 102.5Q287 119 323 154V197Q297 202 271.5 204Q246 206 221 206ZM242 803Q296 803 329 771.5Q362 740 362 689V678Q362 626 329 594.5Q296 563 242 563Q188 563 155 594.5Q122 626 122 678V689Q122 740 155 771.5Q188 803 242 803ZM291 678 291 689Q291 711 277.5 724Q264 737 242 737Q220 737 206.5 724Q193 711 193 689V678Q193 656 206.5 643Q220 630 242 630Q264 630 277.5 643Q291 656 291 678Z" glyph-name="aring" horiz-adv-x="507" unicode="å" /><glyph d="M486 -5 463 -5Q417 -5 384.5 14Q352 33 337 68Q293 27 252.5 8.5Q212 -10 168 -10Q106 -10 72 30Q38 70 38 142Q38 218 81.5 254.5Q125 291 213 291Q236 291 262.5 288Q289 285 323 279V338Q323 376 302.5 393.5Q282 411 238 411Q206 411 170 402.5Q134 394 96 378L63 476Q114 497 159 507Q204 517 246 517Q339 517 386 472Q433 427 433 338V143Q433 123 444 112Q455 101 475 101H486ZM221 206Q184 206 166.5 191Q149 176 149 144Q149 116 161 101Q173 86 196 86Q227 86 257 102.5Q287 119 323 154V197Q297 202 271.5 204Q246 206 221 206ZM301 588Q281 588 263.5 597.5Q246 607 223 634Q209 651 202.5 655.5Q196 660 189 660Q179 660 175.5 646Q172 632 171 596H90Q90 673 113 711.5Q136 750 183 750Q203 750 220.5 740.5Q238 731 261 704Q275 687 281.5 682.5Q288 678 295 678Q305 678 308.5 692Q312 706 313 742H394Q394 664 371 626Q348 588 301 588Z" glyph-name="atilde" horiz-adv-x="507" unicode="ã" /><glyph d="M486 -5 463 -5Q417 -5 384.5 14Q352 33 337 68Q293 27 252.5 8.5Q212 -10 168 -10Q106 -10 72 30Q38 70 38 142Q38 218 81.5 254.5Q125 291 213 291Q236 291 262.5 288Q289 285 323 279V338Q323 376 302.5 393.5Q282 411 238 411Q206 411 170 402.5Q134 394 96 378L63 476Q114 497 159 507Q204 517 246 517Q339 517 386 472Q433 427 433 338V143Q433 123 444 112Q455 101 475 101H486ZM221 206Q184 206 166.5 191Q149 176 149 144Q149 116 161 101Q173 86 196 86Q227 86 257 102.5Q287 119 323 154V197Q297 202 271.5 204Q246 206 221 206ZM242 666Q265 666 276.5 681.5Q288 697 289 731H376Q371 659 337 622Q303 585 242 585Q181 585 147 622Q113 659 108 731H195Q196 698 207.5 682Q219 666 242 666Z" glyph-name="abreve" horiz-adv-x="507" unicode="ă" /><glyph d="M486 -5 463 -5Q417 -5 384.5 14Q352 33 337 68Q293 27 252.5 8.5Q212 -10 168 -10Q106 -10 72 30Q38 70 38 142Q38 218 81.5 254.5Q125 291 213 291Q236 291 262.5 288Q289 285 323 279V338Q323 376 302.5 393.5Q282 411 238 411Q206 411 170 402.5Q134 394 96 378L63 476Q114 497 159 507Q204 517 246 517Q339 517 386 472Q433 427 433 338V143Q433 123 444 112Q455 101 475 101H486ZM221 206Q184 206 166.5 191Q149 176 149 144Q149 116 161 101Q173 86 196 86Q227 86 257 102.5Q287 119 323 154V197Q297 202 271.5 204Q246 206 221 206ZM91 692 394 692V609H91Z" glyph-name="amacron" horiz-adv-x="507" unicode="ā" /><glyph d="M470 -124 486 -207Q466 -215 445.5 -219Q425 -223 405 -223Q353 -223 323 -198.5Q293 -174 293 -132Q293 -97 316.5 -63.5Q340 -30 392 10Q374 19 360 34Q346 49 337 68Q293 27 252.5 8.5Q212 -10 168 -10Q106 -10 72 30Q38 70 38 142Q38 218 81.5 254.5Q125 291 213 291Q236 291 262.5 288Q289 285 323 279V338Q323 376 302.5 393.5Q282 411 238 411Q206 411 170 402.5Q134 394 96 378L63 476Q114 497 159 507Q204 517 246 517Q339 517 386 472Q433 427 433 338V143Q433 123 444 112Q455 101 475 101H486V-5Q438 -41 415.5 -66Q393 -91 393 -108Q393 -120 400.5 -126.5Q408 -133 423 -133Q433 -133 444.5 -131Q456 -129 470 -124ZM221 206Q184 206 166.5 191Q149 176 149 144Q149 116 161 101Q173 86 196 86Q227 86 257 102.5Q287 119 323 154V197Q297 202 271.5 204Q246 206 221 206Z" glyph-name="aogonek" horiz-adv-x="507" unicode="ą" /><glyph d="M371 -124Q371 -171 337.5 -197Q304 -223 245 -223Q225 -223 205.5 -219.5Q186 -216 160 -208L173 -139Q193 -144 212 -147Q231 -150 245 -150Q264 -150 274 -144Q284 -138 284 -126Q284 -115 274 -108.5Q264 -102 245 -102Q238 -102 232.5 -102.5Q227 -103 218 -105L193 -73L204 -4Q131 11 91.5 71Q52 131 52 224V283Q52 393 106.5 455Q161 517 258 517Q294 517 333 508.5Q372 500 417 482L384 383Q348 397 318 404Q288 411 264 411Q214 411 190.5 380Q167 349 167 283V224Q167 158 190.5 127Q214 96 264 96Q291 96 322.5 103Q354 110 389 123L422 26Q385 11 349.5 2Q314 -7 280 -9L275 -39Q321 -41 346 -63.5Q371 -86 371 -124Z" glyph-name="ccedilla" horiz-adv-x="448" unicode="ç" /><glyph d="M264 411Q214 411 190.5 380Q167 349 167 283V224Q167 158 190.5 127Q214 96 264 96Q291 96 322.5 103Q354 110 389 123L422 26Q376 7 336 -1.5Q296 -10 258 -10Q161 -10 106.5 52Q52 114 52 224V283Q52 393 106.5 455Q161 517 258 517Q294 517 333 508.5Q372 500 417 482L384 383Q348 397 318 404Q288 411 264 411ZM412 699 309 579H208L304 745Z" glyph-name="cacute" horiz-adv-x="448" unicode="ć" /><glyph d="M264 411Q214 411 190.5 380Q167 349 167 283V224Q167 158 190.5 127Q214 96 264 96Q291 96 322.5 103Q354 110 389 123L422 26Q376 7 336 -1.5Q296 -10 258 -10Q161 -10 106.5 52Q52 114 52 224V283Q52 393 106.5 455Q161 517 258 517Q294 517 333 508.5Q372 500 417 482L384 383Q348 397 318 404Q288 411 264 411ZM320 740 409 740L313 579H201L105 740H198L259 660Z" glyph-name="ccaron" horiz-adv-x="448" unicode="č" /><glyph d="M264 411Q214 411 190.5 380Q167 349 167 283V224Q167 158 190.5 127Q214 96 264 96Q291 96 322.5 103Q354 110 389 123L422 26Q376 7 336 -1.5Q296 -10 258 -10Q161 -10 106.5 52Q52 114 52 224V283Q52 393 106.5 455Q161 517 258 517Q294 517 333 508.5Q372 500 417 482L384 383Q348 397 318 404Q288 411 264 411ZM409 579 316 579L255 659L194 579H105L201 740H313Z" glyph-name="ccircumflex" horiz-adv-x="448" unicode="ĉ" /><glyph d="M264 411Q214 411 190.5 380Q167 349 167 283V224Q167 158 190.5 127Q214 96 264 96Q291 96 322.5 103Q354 110 389 123L422 26Q376 7 336 -1.5Q296 -10 258 -10Q161 -10 106.5 52Q52 114 52 224V283Q52 393 106.5 455Q161 517 258 517Q294 517 333 508.5Q372 500 417 482L384 383Q348 397 318 404Q288 411 264 411ZM319 722 319 603H198V722Z" glyph-name="cdotaccent" horiz-adv-x="448" unicode="ċ" /><glyph d="M485 0 376 0V69Q333 26 299.5 8Q266 -10 227 -10Q145 -10 99.5 52Q54 114 54 226V280Q54 392 110.5 454.5Q167 517 268 517Q292 517 317.5 512.5Q343 508 370 498V740H485ZM172 280 172 226Q172 162 193.5 129.5Q215 97 258 97Q284 97 310 112.5Q336 128 370 162V394Q345 404 323 409Q301 414 280 414Q226 414 199 380.5Q172 347 172 280ZM669 740 633 546H556V740Z" glyph-name="dcaron" horiz-adv-x="651" unicode="ď" /><glyph d="M485 0 376 0V69Q333 26 299.5 8Q266 -10 227 -10Q145 -10 99.5 52Q54 114 54 226V280Q54 392 110.5 454.5Q167 517 268 517Q292 517 317.5 512.5Q343 508 370 498V590H221V665H370V740H485V665H567V590H485ZM172 280 172 226Q172 162 193.5 129.5Q215 97 258 97Q284 97 310 112.5Q336 128 370 162V394Q345 404 323 409Q301 414 280 414Q226 414 199 380.5Q172 347 172 280Z" glyph-name="dcroat" horiz-adv-x="564" unicode="đ" /><glyph d="M431 126 464 29Q415 9 369 -0.5Q323 -10 279 -10Q170 -10 110 51.5Q50 113 50 224V284Q50 390 107.5 453.5Q165 517 263 517Q354 517 411 462Q468 407 468 312Q468 290 464.5 266Q461 242 455 218H161Q163 154 193 124Q223 94 285 94Q320 94 356.5 102Q393 110 431 126ZM355 324Q355 368 330 394Q305 420 263 420Q218 420 192 390.5Q166 361 162 306H354Q355 309 355 313Q355 317 355 324ZM418 699 315 579H214L310 745Z" glyph-name="eacute" horiz-adv-x="521" unicode="é" /><glyph d="M431 126 464 29Q415 9 369 -0.5Q323 -10 279 -10Q170 -10 110 51.5Q50 113 50 224V284Q50 390 107.5 453.5Q165 517 263 517Q354 517 411 462Q468 407 468 312Q468 290 464.5 266Q461 242 455 218H161Q163 154 193 124Q223 94 285 94Q320 94 356.5 102Q393 110 431 126ZM355 324Q355 368 330 394Q305 420 263 420Q218 420 192 390.5Q166 361 162 306H354Q355 309 355 313Q355 317 355 324ZM414 579 321 579L260 659L199 579H110L206 740H318Z" glyph-name="ecircumflex" horiz-adv-x="521" unicode="ê" /><glyph d="M431 126 464 29Q415 9 369 -0.5Q323 -10 279 -10Q170 -10 110 51.5Q50 113 50 224V284Q50 390 107.5 453.5Q165 517 263 517Q354 517 411 462Q468 407 468 312Q468 290 464.5 266Q461 242 455 218H161Q163 154 193 124Q223 94 285 94Q320 94 356.5 102Q393 110 431 126ZM355 324Q355 368 330 394Q305 420 263 420Q218 420 192 390.5Q166 361 162 306H354Q355 309 355 313Q355 317 355 324ZM221 716 221 609H112V716ZM415 716 415 609H306V716Z" glyph-name="edieresis" horiz-adv-x="521" unicode="ë" /><glyph d="M431 126 464 29Q415 9 369 -0.5Q323 -10 279 -10Q170 -10 110 51.5Q50 113 50 224V284Q50 390 107.5 453.5Q165 517 263 517Q354 517 411 462Q468 407 468 312Q468 290 464.5 266Q461 242 455 218H161Q163 154 193 124Q223 94 285 94Q320 94 356.5 102Q393 110 431 126ZM355 324Q355 368 330 394Q305 420 263 420Q218 420 192 390.5Q166 361 162 306H354Q355 309 355 313Q355 317 355 324ZM314 579 213 579L110 699L218 745Z" glyph-name="egrave" horiz-adv-x="521" unicode="è" /><glyph d="M431 126 464 29Q415 9 369 -0.5Q323 -10 279 -10Q170 -10 110 51.5Q50 113 50 224V284Q50 390 107.5 453.5Q165 517 263 517Q354 517 411 462Q468 407 468 312Q468 290 464.5 266Q461 242 455 218H161Q163 154 193 124Q223 94 285 94Q320 94 356.5 102Q393 110 431 126ZM355 324Q355 368 330 394Q305 420 263 420Q218 420 192 390.5Q166 361 162 306H354Q355 309 355 313Q355 317 355 324ZM264 666Q287 666 298.5 681.5Q310 697 311 731H398Q393 659 359 622Q325 585 264 585Q203 585 169 622Q135 659 130 731H217Q218 698 229.5 682Q241 666 264 666Z" glyph-name="ebreve" horiz-adv-x="521" unicode="ĕ" /><glyph d="M431 126 464 29Q415 9 369 -0.5Q323 -10 279 -10Q170 -10 110 51.5Q50 113 50 224V284Q50 390 107.5 453.5Q165 517 263 517Q354 517 411 462Q468 407 468 312Q468 290 464.5 266Q461 242 455 218H161Q163 154 193 124Q223 94 285 94Q320 94 356.5 102Q393 110 431 126ZM355 324Q355 368 330 394Q305 420 263 420Q218 420 192 390.5Q166 361 162 306H354Q355 309 355 313Q355 317 355 324ZM325 740 414 740L318 579H206L110 740H203L264 660Z" glyph-name="ecaron" horiz-adv-x="521" unicode="ě" /><glyph d="M431 126 464 29Q415 9 369 -0.5Q323 -10 279 -10Q170 -10 110 51.5Q50 113 50 224V284Q50 390 107.5 453.5Q165 517 263 517Q354 517 411 462Q468 407 468 312Q468 290 464.5 266Q461 242 455 218H161Q163 154 193 124Q223 94 285 94Q320 94 356.5 102Q393 110 431 126ZM355 324Q355 368 330 394Q305 420 263 420Q218 420 192 390.5Q166 361 162 306H354Q355 309 355 313Q355 317 355 324ZM324 722 324 603H203V722Z" glyph-name="edotaccent" horiz-adv-x="521" unicode="ė" /><glyph d="M431 126 464 29Q415 9 369 -0.5Q323 -10 279 -10Q170 -10 110 51.5Q50 113 50 224V284Q50 390 107.5 453.5Q165 517 263 517Q354 517 411 462Q468 407 468 312Q468 290 464.5 266Q461 242 455 218H161Q163 154 193 124Q223 94 285 94Q320 94 356.5 102Q393 110 431 126ZM355 324Q355 368 330 394Q305 420 263 420Q218 420 192 390.5Q166 361 162 306H354Q355 309 355 313Q355 317 355 324ZM112 692 415 692V609H112Z" glyph-name="emacron" horiz-adv-x="521" unicode="ē" /><glyph d="M441 -124 457 -207Q437 -215 416.5 -219Q396 -223 376 -223Q324 -223 294 -198.5Q264 -174 264 -132Q264 -102 279.5 -70.5Q295 -39 326 -5Q309 -8 294.5 -9Q280 -10 267 -10Q165 -10 107.5 52.5Q50 115 50 224V284Q50 390 107.5 453.5Q165 517 263 517Q354 517 411 462Q468 407 468 312Q468 290 464.5 266Q461 242 455 218H161Q163 154 193 124Q223 94 285 94Q320 94 356.5 102Q393 110 431 126L464 29Q413 -19 388.5 -52.5Q364 -86 364 -108Q364 -120 371.5 -126.5Q379 -133 394 -133Q404 -133 415.5 -131Q427 -129 441 -124ZM355 324Q355 368 330 394Q305 420 263 420Q218 420 192.5 391Q167 362 162 306H354Q355 309 355 313Q355 317 355 324Z" glyph-name="eogonek" horiz-adv-x="521" unicode="ę" /><glyph d="M500 -51Q500 -132 436.5 -177.5Q373 -223 260 -223Q199 -223 141.5 -209.5Q84 -196 39 -171L72 -80Q117 -102 164 -113.5Q211 -125 259 -125Q320 -125 354 -108.5Q388 -92 388 -63Q388 -42 375 -31Q362 -20 337 -20H217Q153 -20 116.5 10.5Q80 41 80 91Q80 118 92 143.5Q104 169 127 193Q89 216 68.5 254Q48 292 48 341Q48 423 99.5 470Q151 517 238 517H255Q276 517 295 514.5Q314 512 330 507H511V409L411 425Q427 407 435 383Q443 359 443 328Q443 255 390.5 210Q338 165 255 165H238Q228 165 218.5 166Q209 167 200 168Q190 157 184.5 144.5Q179 132 179 120Q179 103 190.5 94Q202 85 224 85H346Q417 85 458.5 48.5Q500 12 500 -51ZM238 259 255 259Q289 259 311 281.5Q333 304 333 341Q333 378 311 400.5Q289 423 255 423H238Q203 423 181 400.5Q159 378 159 341Q159 304 181 281.5Q203 259 238 259ZM246 666Q269 666 280.5 681.5Q292 697 293 731H380Q375 659 341 622Q307 585 246 585Q185 585 151 622Q117 659 112 731H199Q200 698 211.5 682Q223 666 246 666Z" glyph-name="gbreve" horiz-adv-x="531" unicode="ğ" /><glyph d="M500 -51Q500 -132 436.5 -177.5Q373 -223 260 -223Q199 -223 141.5 -209.5Q84 -196 39 -171L72 -80Q117 -102 164 -113.5Q211 -125 259 -125Q320 -125 354 -108.5Q388 -92 388 -63Q388 -42 375 -31Q362 -20 337 -20H217Q153 -20 116.5 10.5Q80 41 80 91Q80 118 92 143.5Q104 169 127 193Q89 216 68.5 254Q48 292 48 341Q48 423 99.5 470Q151 517 238 517H255Q276 517 295 514.5Q314 512 330 507H511V409L411 425Q427 407 435 383Q443 359 443 328Q443 255 390.5 210Q338 165 255 165H238Q228 165 218.5 166Q209 167 200 168Q190 157 184.5 144.5Q179 132 179 120Q179 103 190.5 94Q202 85 224 85H346Q417 85 458.5 48.5Q500 12 500 -51ZM238 259 255 259Q289 259 311 281.5Q333 304 333 341Q333 378 311 400.5Q289 423 255 423H238Q203 423 181 400.5Q159 378 159 341Q159 304 181 281.5Q203 259 238 259ZM396 579 303 579L242 659L181 579H92L188 740H300Z" glyph-name="gcircumflex" horiz-adv-x="531" unicode="ĝ" /><glyph d="M500 -51Q500 -132 436.5 -177.5Q373 -223 260 -223Q199 -223 141.5 -209.5Q84 -196 39 -171L72 -80Q117 -102 164 -113.5Q211 -125 259 -125Q320 -125 354 -108.5Q388 -92 388 -63Q388 -42 375 -31Q362 -20 337 -20H217Q153 -20 116.5 10.5Q80 41 80 91Q80 118 92 143.5Q104 169 127 193Q89 216 68.5 254Q48 292 48 341Q48 423 99.5 470Q151 517 238 517H255Q276 517 295 514.5Q314 512 330 507H511V409L411 425Q427 407 435 383Q443 359 443 328Q443 255 390.5 210Q338 165 255 165H238Q228 165 218.5 166Q209 167 200 168Q190 157 184.5 144.5Q179 132 179 120Q179 103 190.5 94Q202 85 224 85H346Q417 85 458.5 48.5Q500 12 500 -51ZM238 259 255 259Q289 259 311 281.5Q333 304 333 341Q333 378 311 400.5Q289 423 255 423H238Q203 423 181 400.5Q159 378 159 341Q159 304 181 281.5Q203 259 238 259ZM185 579 258 758L331 741L305 579Z" glyph-name="gcommaaccent" horiz-adv-x="531" unicode="ģ" /><glyph d="M500 -51Q500 -132 436.5 -177.5Q373 -223 260 -223Q199 -223 141.5 -209.5Q84 -196 39 -171L72 -80Q117 -102 164 -113.5Q211 -125 259 -125Q320 -125 354 -108.5Q388 -92 388 -63Q388 -42 375 -31Q362 -20 337 -20H217Q153 -20 116.5 10.5Q80 41 80 91Q80 118 92 143.5Q104 169 127 193Q89 216 68.5 254Q48 292 48 341Q48 423 99.5 470Q151 517 238 517H255Q276 517 295 514.5Q314 512 330 507H511V409L411 425Q427 407 435 383Q443 359 443 328Q443 255 390.5 210Q338 165 255 165H238Q228 165 218.5 166Q209 167 200 168Q190 157 184.5 144.5Q179 132 179 120Q179 103 190.5 94Q202 85 224 85H346Q417 85 458.5 48.5Q500 12 500 -51ZM238 259 255 259Q289 259 311 281.5Q333 304 333 341Q333 378 311 400.5Q289 423 255 423H238Q203 423 181 400.5Q159 378 159 341Q159 304 181 281.5Q203 259 238 259ZM306 722 306 603H185V722Z" glyph-name="gdotaccent" horiz-adv-x="531" unicode="ġ" /><glyph d="M327 410Q297 410 265 395.5Q233 381 194 351V0H79V590H-3V665H79V740H194V665H343V590H194V444Q239 482 279 499.5Q319 517 362 517Q434 517 472.5 471Q511 425 511 340V0H396V326Q396 369 379 389.5Q362 410 327 410Z" glyph-name="hbar" horiz-adv-x="584" unicode="ħ" /><glyph d="M327 410Q297 410 265 395.5Q233 381 194 351V0H79V740H194V444Q239 482 279 499.5Q319 517 362 517Q434 517 472.5 471Q511 425 511 340V0H396V326Q396 369 379 389.5Q362 410 327 410ZM393 812 300 812L239 892L178 812H89L185 973H297Z" glyph-name="hcircumflex" horiz-adv-x="584" unicode="ĥ" /><glyph d="M194 507 194 0H79V507ZM290 699 187 579H86L182 745Z" glyph-name="iacute" horiz-adv-x="273" unicode="í" /><glyph d="M194 507 194 0H79V507ZM288 579 195 579L134 659L73 579H-16L80 740H192Z" glyph-name="icircumflex" horiz-adv-x="273" unicode="î" /><glyph d="M194 507 194 0H79V507ZM94 716 94 609H-15V716ZM288 716 288 609H179V716Z" glyph-name="idieresis" horiz-adv-x="273" unicode="ï" /><glyph d="M194 507 194 0H79V507ZM186 579 85 579L-18 699L90 745Z" glyph-name="igrave" horiz-adv-x="273" unicode="ì" /><glyph d="M194 507 194 0H79V507ZM136 666Q159 666 170.5 681.5Q182 697 183 731H270Q265 659 231 622Q197 585 136 585Q75 585 41 622Q7 659 2 731H89Q90 698 101.5 682Q113 666 136 666Z" glyph-name="ibreve" horiz-adv-x="273" unicode="ĭ" /><glyph d="M197 722 197 603H76V722ZM194 507 194 0H79V507Z" glyph-name="i.dot" horiz-adv-x="273" unicode="" /><glyph d="M194 507 194 0H79V507ZM-15 692 288 692V609H-15Z" glyph-name="imacron" horiz-adv-x="273" unicode="ī" /><glyph d="M194 719 194 606H79V719ZM193 -124 209 -207Q189 -215 168.5 -219Q148 -223 128 -223Q76 -223 46 -198.5Q16 -174 16 -132Q16 -102 32 -69Q48 -36 79 -2V507H194V0Q155 -31 135.5 -57.5Q116 -84 116 -106Q116 -120 123.5 -126.5Q131 -133 146 -133Q156 -133 167.5 -131Q179 -129 193 -124Z" glyph-name="iogonek" horiz-adv-x="273" unicode="į" /><glyph d="M194 507 194 0H79V507ZM195 588Q175 588 157.5 597.5Q140 607 117 634Q103 651 96.5 655.5Q90 660 83 660Q73 660 69.5 646Q66 632 65 596H-16Q-16 673 7 711.5Q30 750 77 750Q97 750 114.5 740.5Q132 731 155 704Q169 687 175.5 682.5Q182 678 189 678Q199 678 202.5 692Q206 706 207 742H288Q288 664 265 626Q242 588 195 588Z" glyph-name="itilde" horiz-adv-x="273" unicode="ĩ" /><glyph d="M-25 -223 -25 -115Q30 -115 54.5 -88.5Q79 -62 79 -4V507H194V-4Q194 -114 139 -168.5Q84 -223 -25 -223ZM288 579 195 579L134 659L73 579H-16L80 740H192Z" glyph-name="jcircumflex" horiz-adv-x="273" unicode="ĵ" /><glyph d="M197 722 197 603H76V722ZM194 507 194 0H79V507ZM470 722 470 603H349V722ZM248 -223 248 -115Q303 -115 327.5 -88.5Q352 -62 352 -4V507H467V-4Q467 -114 412 -168.5Q357 -223 248 -223Z" glyph-name="ij" horiz-adv-x="546" unicode="ĳ" /><glyph d="M521 0 382 0L257 211Q242 196 226.5 181Q211 166 194 151V0H79V740H194V278Q252 337 293.5 391Q335 445 369 507H501Q471 453 433 399.5Q395 346 343 284ZM346 -77 273 -256L200 -239L226 -77Z" glyph-name="kcommaaccent" horiz-adv-x="532" unicode="ķ" /><glyph d="M521 0 382 0L257 211Q242 196 226.5 181Q211 166 194 151V0H79V507H194V278Q252 337 293.5 391Q335 445 369 507H501Q471 453 433 399.5Q395 346 343 284Z" glyph-name="kgreenlandic" horiz-adv-x="532" unicode="ĸ" /><glyph d="M76 143 76 740H191V143Q191 123 200.5 112Q210 101 228 101H244V-5H216Q147 -5 111.5 32.5Q76 70 76 143ZM290 932 187 812H86L182 978Z" glyph-name="lacute" horiz-adv-x="276" unicode="ĺ" /><glyph d="M76 143 76 740H191V143Q191 123 200.5 112Q210 101 228 101H244V-5H216Q147 -5 111.5 32.5Q76 70 76 143ZM382 740 346 546H269V740Z" glyph-name="lcaron" horiz-adv-x="360" unicode="ľ" /><glyph d="M76 143 76 740H191V143Q191 123 200.5 112Q210 101 228 101H244V-5H216Q147 -5 111.5 32.5Q76 70 76 143ZM228 -77 155 -256L82 -239L108 -77Z" glyph-name="lcommaaccent" horiz-adv-x="276" unicode="ļ" /><glyph d="M76 143 76 740H191V143Q191 123 200.5 112Q210 101 228 101H244V-5H216Q147 -5 111.5 32.5Q76 70 76 143ZM362 444 362 325H241V444Z" glyph-name="ldot" horiz-adv-x="336" unicode="ŀ" /><glyph d="M327 410Q297 410 265 395.5Q233 381 194 351V0H79V507H188V439Q235 480 276.5 498.5Q318 517 362 517Q434 517 472.5 471Q511 425 511 340V0H396V326Q396 369 379 389.5Q362 410 327 410ZM359 588Q339 588 321.5 597.5Q304 607 281 634Q267 651 260.5 655.5Q254 660 247 660Q237 660 233.5 646Q230 632 229 596H148Q148 673 171 711.5Q194 750 241 750Q261 750 278.5 740.5Q296 731 319 704Q333 687 339.5 682.5Q346 678 353 678Q363 678 366.5 692Q370 706 371 742H452Q452 664 429 626Q406 588 359 588Z" glyph-name="ntilde" horiz-adv-x="584" unicode="ñ" /><glyph d="M327 410Q297 410 265 395.5Q233 381 194 351V0H79V507H188V439Q235 480 276.5 498.5Q318 517 362 517Q434 517 472.5 471Q511 425 511 340V0H396V326Q396 369 379 389.5Q362 410 327 410ZM454 699 351 579H250L346 745Z" glyph-name="nacute" horiz-adv-x="584" unicode="ń" /><glyph d="M327 410Q297 410 265 395.5Q233 381 194 351V0H79V507H188V439Q235 480 276.5 498.5Q318 517 362 517Q434 517 472.5 471Q511 425 511 340V0H396V326Q396 369 379 389.5Q362 410 327 410ZM362 740 451 740L355 579H243L147 740H240L301 660Z" glyph-name="ncaron" horiz-adv-x="584" unicode="ň" /><glyph d="M327 410Q297 410 265 395.5Q233 381 194 351V0H79V507H188V439Q235 480 276.5 498.5Q318 517 362 517Q434 517 472.5 471Q511 425 511 340V0H396V326Q396 369 379 389.5Q362 410 327 410ZM353 -77 280 -256L207 -239L233 -77Z" glyph-name="ncommaaccent" horiz-adv-x="584" unicode="ņ" /><glyph d="M362 517Q434 517 472.5 471Q511 425 511 340V-4Q511 -114 456 -168.5Q401 -223 292 -223V-115Q347 -115 371.5 -88.5Q396 -62 396 -4V326Q396 369 379 389.5Q362 410 327 410Q297 410 265 395.5Q233 381 194 351V0H79V507H188V439Q235 480 276.5 498.5Q318 517 362 517Z" glyph-name="eng" horiz-adv-x="584" unicode="ŋ" /><glyph d="M466 410Q436 410 404 395.5Q372 381 333 351V0H218V507H327V439Q374 480 415.5 498.5Q457 517 501 517Q573 517 611.5 471Q650 425 650 340V0H535V326Q535 369 518 389.5Q501 410 466 410ZM55 680 167 680V661Q167 587 145.5 521.5Q124 456 75 378L3 417Q33 481 44 531Q55 581 55 680Z" glyph-name="napostrophe" horiz-adv-x="723" unicode="ŉ" /><glyph d="M272 517Q376 517 435 455Q494 393 494 284V224Q494 115 435 52.5Q376 -10 272 -10Q168 -10 109 52.5Q50 115 50 224V284Q50 393 109 455Q168 517 272 517ZM376 224 376 284Q376 346 349 380Q322 414 272 414Q222 414 195 380Q168 346 168 284V224Q168 162 195.5 127.5Q223 93 272 93Q321 93 348.5 127.5Q376 162 376 224ZM426 699 323 579H222L318 745Z" glyph-name="oacute" horiz-adv-x="544" unicode="ó" /><glyph d="M272 517Q376 517 435 455Q494 393 494 284V224Q494 115 435 52.5Q376 -10 272 -10Q168 -10 109 52.5Q50 115 50 224V284Q50 393 109 455Q168 517 272 517ZM376 224 376 284Q376 346 349 380Q322 414 272 414Q222 414 195 380Q168 346 168 284V224Q168 162 195.5 127.5Q223 93 272 93Q321 93 348.5 127.5Q376 162 376 224ZM423 579 330 579L269 659L208 579H119L215 740H327Z" glyph-name="ocircumflex" horiz-adv-x="544" unicode="ô" /><glyph d="M272 517Q376 517 435 455Q494 393 494 284V224Q494 115 435 52.5Q376 -10 272 -10Q168 -10 109 52.5Q50 115 50 224V284Q50 393 109 455Q168 517 272 517ZM376 224 376 284Q376 346 349 380Q322 414 272 414Q222 414 195 380Q168 346 168 284V224Q168 162 195.5 127.5Q223 93 272 93Q321 93 348.5 127.5Q376 162 376 224ZM230 716 230 609H121V716ZM424 716 424 609H315V716Z" glyph-name="odieresis" horiz-adv-x="544" unicode="ö" /><glyph d="M272 517Q376 517 435 455Q494 393 494 284V224Q494 115 435 52.5Q376 -10 272 -10Q168 -10 109 52.5Q50 115 50 224V284Q50 393 109 455Q168 517 272 517ZM376 224 376 284Q376 346 349 380Q322 414 272 414Q222 414 195 380Q168 346 168 284V224Q168 162 195.5 127.5Q223 93 272 93Q321 93 348.5 127.5Q376 162 376 224ZM322 579 221 579L118 699L226 745Z" glyph-name="ograve" horiz-adv-x="544" unicode="ò" /><glyph d="M272 517Q376 517 435 455Q494 393 494 284V224Q494 115 435 52.5Q376 -10 272 -10Q168 -10 109 52.5Q50 115 50 224V284Q50 393 109 455Q168 517 272 517ZM376 224 376 284Q376 346 349 380Q322 414 272 414Q222 414 195 380Q168 346 168 284V224Q168 162 195.5 127.5Q223 93 272 93Q321 93 348.5 127.5Q376 162 376 224ZM331 588Q311 588 293.5 597.5Q276 607 253 634Q239 651 232.5 655.5Q226 660 219 660Q209 660 205.5 646Q202 632 201 596H120Q120 673 143 711.5Q166 750 213 750Q233 750 250.5 740.5Q268 731 291 704Q305 687 311.5 682.5Q318 678 325 678Q335 678 338.5 692Q342 706 343 742H424Q424 664 401 626Q378 588 331 588Z" glyph-name="otilde" horiz-adv-x="544" unicode="õ" /><glyph d="M272 517Q376 517 435 455Q494 393 494 284V224Q494 115 435 52.5Q376 -10 272 -10Q168 -10 109 52.5Q50 115 50 224V284Q50 393 109 455Q168 517 272 517ZM376 224 376 284Q376 346 349 380Q322 414 272 414Q222 414 195 380Q168 346 168 284V224Q168 162 195.5 127.5Q223 93 272 93Q321 93 348.5 127.5Q376 162 376 224ZM272 666Q295 666 306.5 681.5Q318 697 319 731H406Q401 659 367 622Q333 585 272 585Q211 585 177 622Q143 659 138 731H225Q226 698 237.5 682Q249 666 272 666Z" glyph-name="obreve" horiz-adv-x="544" unicode="ŏ" /><glyph d="M272 517Q376 517 435 455Q494 393 494 284V224Q494 115 435 52.5Q376 -10 272 -10Q168 -10 109 52.5Q50 115 50 224V284Q50 393 109 455Q168 517 272 517ZM376 224 376 284Q376 346 349 380Q322 414 272 414Q222 414 195 380Q168 346 168 284V224Q168 162 195.5 127.5Q223 93 272 93Q321 93 348.5 127.5Q376 162 376 224ZM316 699 243 579H152L228 745ZM466 699 393 579H302L378 745Z" glyph-name="ohungarumlaut" horiz-adv-x="544" unicode="ő" /><glyph d="M272 517Q376 517 435 455Q494 393 494 284V224Q494 115 435 52.5Q376 -10 272 -10Q168 -10 109 52.5Q50 115 50 224V284Q50 393 109 455Q168 517 272 517ZM376 224 376 284Q376 346 349 380Q322 414 272 414Q222 414 195 380Q168 346 168 284V224Q168 162 195.5 127.5Q223 93 272 93Q321 93 348.5 127.5Q376 162 376 224ZM121 692 424 692V609H121Z" glyph-name="omacron" horiz-adv-x="544" unicode="ō" /><glyph d="M365 517 365 402Q317 402 274.5 387Q232 372 194 341V0H79V507H188V429Q239 477 279 497Q319 517 365 517ZM374 699 271 579H170L266 745Z" glyph-name="racute" horiz-adv-x="387" unicode="ŕ" /><glyph d="M365 517 365 402Q317 402 274.5 387Q232 372 194 341V0H79V507H188V429Q239 477 279 497Q319 517 365 517ZM281 740 370 740L274 579H162L66 740H159L220 660Z" glyph-name="rcaron" horiz-adv-x="387" unicode="ř" /><glyph d="M365 517 365 402Q317 402 274.5 387Q232 372 194 341V0H79V507H188V429Q239 477 279 497Q319 517 365 517ZM196 -77 123 -256L50 -239L76 -77Z" glyph-name="rcommaaccent" horiz-adv-x="387" unicode="ŗ" /><glyph d="M221 90Q261 90 283.5 103Q306 116 306 140Q306 162 290.5 174Q275 186 235 197L178 212Q115 229 82 267.5Q49 306 49 364Q49 435 97.5 476Q146 517 233 517Q274 517 316 507.5Q358 498 401 479L368 381Q331 399 296.5 408Q262 417 232 417Q196 417 178.5 405Q161 393 161 369Q161 349 174 338.5Q187 328 220 319L277 304Q348 285 382.5 246.5Q417 208 417 148Q417 72 366 31Q315 -10 220 -10Q176 -10 131 0Q86 10 37 30L68 125Q112 107 150.5 98.5Q189 90 221 90ZM292 740 381 740L285 579H173L77 740H170L231 660Z" glyph-name="scaron" horiz-adv-x="456" unicode="š" /><glyph d="M221 90Q261 90 283.5 103Q306 116 306 140Q306 162 290.5 174Q275 186 235 197L178 212Q115 229 82 267.5Q49 306 49 364Q49 435 97.5 476Q146 517 233 517Q274 517 316 507.5Q358 498 401 479L368 381Q331 399 296.5 408Q262 417 232 417Q196 417 178.5 405Q161 393 161 369Q161 349 174 338.5Q187 328 220 319L277 304Q348 285 382.5 246.5Q417 208 417 148Q417 72 366 31Q315 -10 220 -10Q176 -10 131 0Q86 10 37 30L68 125Q112 107 150.5 98.5Q189 90 221 90ZM384 699 281 579H180L276 745Z" glyph-name="sacute" horiz-adv-x="456" unicode="ś" /><glyph d="M326 -124Q326 -171 292.5 -197Q259 -223 200 -223Q180 -223 160.5 -219.5Q141 -216 115 -208L128 -139Q148 -144 167 -147Q186 -150 200 -150Q219 -150 229 -144Q239 -138 239 -126Q239 -115 229 -108.5Q219 -102 200 -102Q193 -102 187.5 -102.5Q182 -103 173 -105L148 -73L159 -5Q128 0 98 8.5Q68 17 37 30L68 125Q112 107 150.5 98.5Q189 90 221 90Q261 90 283.5 103Q306 116 306 140Q306 162 290.5 174Q275 186 235 197L178 212Q115 229 82 267.5Q49 306 49 364Q49 435 97.5 476Q146 517 233 517Q274 517 316 507.5Q358 498 401 479L368 381Q331 399 296.5 408Q262 417 232 417Q196 417 178.5 405Q161 393 161 369Q161 349 174 338.5Q187 328 220 319L277 304Q348 285 382.5 246.5Q417 208 417 148Q417 76 370 34.5Q323 -7 235 -10L230 -39Q276 -41 301 -63.5Q326 -86 326 -124Z" glyph-name="scedilla" horiz-adv-x="456" unicode="ş" /><glyph d="M221 90Q261 90 283.5 103Q306 116 306 140Q306 162 290.5 174Q275 186 235 197L178 212Q115 229 82 267.5Q49 306 49 364Q49 435 97.5 476Q146 517 233 517Q274 517 316 507.5Q358 498 401 479L368 381Q331 399 296.5 408Q262 417 232 417Q196 417 178.5 405Q161 393 161 369Q161 349 174 338.5Q187 328 220 319L277 304Q348 285 382.5 246.5Q417 208 417 148Q417 72 366 31Q315 -10 220 -10Q176 -10 131 0Q86 10 37 30L68 125Q112 107 150.5 98.5Q189 90 221 90ZM381 579 288 579L227 659L166 579H77L173 740H285Z" glyph-name="scircumflex" horiz-adv-x="456" unicode="ŝ" /><glyph d="M221 90Q261 90 283.5 103Q306 116 306 140Q306 162 290.5 174Q275 186 235 197L178 212Q115 229 82 267.5Q49 306 49 364Q49 435 97.5 476Q146 517 233 517Q274 517 316 507.5Q358 498 401 479L368 381Q331 399 296.5 408Q262 417 232 417Q196 417 178.5 405Q161 393 161 369Q161 349 174 338.5Q187 328 220 319L277 304Q348 285 382.5 246.5Q417 208 417 148Q417 72 366 31Q315 -10 220 -10Q176 -10 131 0Q86 10 37 30L68 125Q112 107 150.5 98.5Q189 90 221 90ZM289 -77 216 -256L143 -239L169 -77Z" glyph-name="uni0219" horiz-adv-x="456" unicode="ș" /><glyph d="M373 114 402 17Q374 4 340 -3Q306 -10 273 -10Q194 -10 154 37.5Q114 85 114 179V227H32V302H114V407H32V507H114V639H229V507H387V407H229V302H348V227H229V179Q229 136 245 117Q261 98 297 98Q315 98 333.5 102Q352 106 373 114Z" glyph-name="tbar" horiz-adv-x="420" unicode="ŧ" /><glyph d="M355 114 384 17Q356 4 322 -3Q288 -10 255 -10Q176 -10 136 37.5Q96 85 96 179V407H14V507H96V639H211V507H369V407H211V179Q211 136 227 117Q243 98 279 98Q297 98 315.5 102Q334 106 355 114ZM389 765 353 571H276V765Z" glyph-name="tcaron" horiz-adv-x="397" unicode="ť" /><glyph d="M355 114 384 17Q356 4 322 -3Q288 -10 255 -10Q176 -10 136 37.5Q96 85 96 179V407H14V507H96V639H211V507H369V407H211V179Q211 136 227 117Q243 98 279 98Q297 98 315.5 102Q334 106 355 114ZM300 -77 227 -256L154 -239L180 -77Z" glyph-name="uni0163" horiz-adv-x="397" unicode="ţ" /><glyph d="M355 114 384 17Q356 4 322 -3Q288 -10 255 -10Q176 -10 136 37.5Q96 85 96 179V407H14V507H96V639H211V507H369V407H211V179Q211 136 227 117Q243 98 279 98Q297 98 315.5 102Q334 106 355 114ZM300 -77 227 -256L154 -239L180 -77Z" glyph-name="uni021B" horiz-adv-x="397" unicode="ț" /><glyph d="M490 0 381 0V67Q335 27 295 8.5Q255 -10 214 -10Q146 -10 109 36Q72 82 72 167V507H187V181Q187 139 202.5 118Q218 97 249 97Q277 97 307.5 111Q338 125 375 155V507H490ZM434 699 331 579H230L326 745Z" glyph-name="uacute" horiz-adv-x="569" unicode="ú" /><glyph d="M490 0 381 0V67Q335 27 295 8.5Q255 -10 214 -10Q146 -10 109 36Q72 82 72 167V507H187V181Q187 139 202.5 118Q218 97 249 97Q277 97 307.5 111Q338 125 375 155V507H490ZM432 579 339 579L278 659L217 579H128L224 740H336Z" glyph-name="ucircumflex" horiz-adv-x="569" unicode="û" /><glyph d="M490 0 381 0V67Q335 27 295 8.5Q255 -10 214 -10Q146 -10 109 36Q72 82 72 167V507H187V181Q187 139 202.5 118Q218 97 249 97Q277 97 307.5 111Q338 125 375 155V507H490ZM238 716 238 609H129V716ZM432 716 432 609H323V716Z" glyph-name="udieresis" horiz-adv-x="569" unicode="ü" /><glyph d="M490 0 381 0V67Q335 27 295 8.5Q255 -10 214 -10Q146 -10 109 36Q72 82 72 167V507H187V181Q187 139 202.5 118Q218 97 249 97Q277 97 307.5 111Q338 125 375 155V507H490ZM330 579 229 579L126 699L234 745Z" glyph-name="ugrave" horiz-adv-x="569" unicode="ù" /><glyph d="M490 0 381 0V67Q335 27 295 8.5Q255 -10 214 -10Q146 -10 109 36Q72 82 72 167V507H187V181Q187 139 202.5 118Q218 97 249 97Q277 97 307.5 111Q338 125 375 155V507H490ZM280 666Q303 666 314.5 681.5Q326 697 327 731H414Q409 659 375 622Q341 585 280 585Q219 585 185 622Q151 659 146 731H233Q234 698 245.5 682Q257 666 280 666Z" glyph-name="ubreve" horiz-adv-x="569" unicode="ŭ" /><glyph d="M490 0 381 0V67Q335 27 295 8.5Q255 -10 214 -10Q146 -10 109 36Q72 82 72 167V507H187V181Q187 139 202.5 118Q218 97 249 97Q277 97 307.5 111Q338 125 375 155V507H490ZM324 699 251 579H160L236 745ZM474 699 401 579H310L386 745Z" glyph-name="uhungarumlaut" horiz-adv-x="569" unicode="ű" /><glyph d="M490 0 381 0V67Q335 27 295 8.5Q255 -10 214 -10Q146 -10 109 36Q72 82 72 167V507H187V181Q187 139 202.5 118Q218 97 249 97Q277 97 307.5 111Q338 125 375 155V507H490ZM129 692 432 692V609H129Z" glyph-name="umacron" horiz-adv-x="569" unicode="ū" /><glyph d="M474 -124 490 -207Q470 -215 449.5 -219Q429 -223 409 -223Q357 -223 327 -198.5Q297 -174 297 -132Q297 -100 317 -68.5Q337 -37 381 0V67Q335 27 295 8.5Q255 -10 214 -10Q146 -10 109 36Q72 82 72 167V507H187V181Q187 139 202.5 118Q218 97 249 97Q277 97 307.5 111Q338 125 375 155V507H490V0Q441 -41 419 -66.5Q397 -92 397 -108Q397 -120 404.5 -126.5Q412 -133 427 -133Q437 -133 448.5 -131Q460 -129 474 -124Z" glyph-name="uogonek" horiz-adv-x="569" unicode="ų" /><glyph d="M490 0 381 0V67Q335 27 295 8.5Q255 -10 214 -10Q146 -10 109 36Q72 82 72 167V507H187V181Q187 139 202.5 118Q218 97 249 97Q277 97 307.5 111Q338 125 375 155V507H490ZM280 803Q334 803 367 771.5Q400 740 400 689V678Q400 626 367 594.5Q334 563 280 563Q226 563 193 594.5Q160 626 160 678V689Q160 740 193 771.5Q226 803 280 803ZM329 678 329 689Q329 711 315.5 724Q302 737 280 737Q258 737 244.5 724Q231 711 231 689V678Q231 656 244.5 643Q258 630 280 630Q302 630 315.5 643Q329 656 329 678Z" glyph-name="uring" horiz-adv-x="569" unicode="ů" /><glyph d="M490 0 381 0V67Q335 27 295 8.5Q255 -10 214 -10Q146 -10 109 36Q72 82 72 167V507H187V181Q187 139 202.5 118Q218 97 249 97Q277 97 307.5 111Q338 125 375 155V507H490ZM339 588Q319 588 301.5 597.5Q284 607 261 634Q247 651 240.5 655.5Q234 660 227 660Q217 660 213.5 646Q210 632 209 596H128Q128 673 151 711.5Q174 750 221 750Q241 750 258.5 740.5Q276 731 299 704Q313 687 319.5 682.5Q326 678 333 678Q343 678 346.5 692Q350 706 351 742H432Q432 664 409 626Q386 588 339 588Z" glyph-name="utilde" horiz-adv-x="569" unicode="ũ" /><glyph d="M599 507 710 507L580 0H455L371 381L282 0H157L27 507H145L194 306L228 123L314 507H430L519 119L551 305ZM522 699 419 579H318L414 745Z" glyph-name="wacute" horiz-adv-x="737" unicode="ẃ" /><glyph d="M599 507 710 507L580 0H455L371 381L282 0H157L27 507H145L194 306L228 123L314 507H430L519 119L551 305ZM520 579 427 579L366 659L305 579H216L312 740H424Z" glyph-name="wcircumflex" horiz-adv-x="737" unicode="ŵ" /><glyph d="M599 507 710 507L580 0H455L371 381L282 0H157L27 507H145L194 306L228 123L314 507H430L519 119L551 305ZM326 716 326 609H217V716ZM520 716 520 609H411V716Z" glyph-name="wdieresis" horiz-adv-x="737" unicode="ẅ" /><glyph d="M599 507 710 507L580 0H455L371 381L282 0H157L27 507H145L194 306L228 123L314 507H430L519 119L551 305ZM418 579 317 579L214 699L322 745Z" glyph-name="wgrave" horiz-adv-x="737" unicode="ẁ" /><glyph d="M482 507 284 -50Q251 -144 199 -183.5Q147 -223 60 -223V-108Q110 -106 141.5 -86Q173 -66 189 -25L198 -2L17 507H131L218 254L252 147L285 254L368 507ZM404 699 301 579H200L296 745Z" glyph-name="yacute" horiz-adv-x="499" unicode="ý" /><glyph d="M482 507 284 -50Q251 -144 199 -183.5Q147 -223 60 -223V-108Q110 -106 141.5 -86Q173 -66 189 -25L198 -2L17 507H131L218 254L252 147L285 254L368 507ZM207 716 207 609H98V716ZM401 716 401 609H292V716Z" glyph-name="ydieresis" horiz-adv-x="499" unicode="ÿ" /><glyph d="M482 507 284 -50Q251 -144 199 -183.5Q147 -223 60 -223V-108Q110 -106 141.5 -86Q173 -66 189 -25L198 -2L17 507H131L218 254L252 147L285 254L368 507ZM400 579 307 579L246 659L185 579H96L192 740H304Z" glyph-name="ycircumflex" horiz-adv-x="499" unicode="ŷ" /><glyph d="M482 507 284 -50Q251 -144 199 -183.5Q147 -223 60 -223V-108Q110 -106 141.5 -86Q173 -66 189 -25L198 -2L17 507H131L218 254L252 147L285 254L368 507ZM300 579 199 579L96 699L204 745Z" glyph-name="ygrave" horiz-adv-x="499" unicode="ỳ" /><glyph d="M173 100 397 100V0H35V90L249 407H45V507H387V417ZM276 740 365 740L269 579H157L61 740H154L215 660Z" glyph-name="zcaron" horiz-adv-x="432" unicode="ž" /><glyph d="M173 100 397 100V0H35V90L249 407H45V507H387V417ZM368 699 265 579H164L260 745Z" glyph-name="zacute" horiz-adv-x="432" unicode="ź" /><glyph d="M173 100 397 100V0H35V90L249 407H45V507H387V417ZM275 722 275 603H154V722Z" glyph-name="zdotaccent" horiz-adv-x="432" unicode="ż" /><glyph d="M368 699 265 579H164L260 745Z" glyph-name="acute" horiz-adv-x="500" unicode="´" /><glyph d="M300 579 199 579L96 699L204 745Z" glyph-name="grave" horiz-adv-x="500" unicode="`" /><glyph d="M400 579 307 579L246 659L185 579H96L192 740H304Z" glyph-name="circumflex" horiz-adv-x="500" unicode="ˆ" /><glyph d="M276 740 365 740L269 579H157L61 740H154L215 660Z" glyph-name="caron" horiz-adv-x="500" unicode="ˇ" /><glyph d="M339 588Q319 588 301.5 597.5Q284 607 261 634Q247 651 240.5 655.5Q234 660 227 660Q217 660 213.5 646Q210 632 209 596H128Q128 673 151 711.5Q174 750 221 750Q241 750 258.5 740.5Q276 731 299 704Q313 687 319.5 682.5Q326 678 333 678Q343 678 346.5 692Q350 706 351 742H432Q432 664 409 626Q386 588 339 588Z" glyph-name="tilde" horiz-adv-x="500" unicode="˜" /><glyph d="M207 716 207 609H98V716ZM401 716 401 609H292V716Z" glyph-name="dieresis" horiz-adv-x="500" unicode="¨" /><glyph d="M280 803Q334 803 367 771.5Q400 740 400 689V678Q400 626 367 594.5Q334 563 280 563Q226 563 193 594.5Q160 626 160 678V689Q160 740 193 771.5Q226 803 280 803ZM329 678 329 689Q329 711 315.5 724Q302 737 280 737Q258 737 244.5 724Q231 711 231 689V678Q231 656 244.5 643Q258 630 280 630Q302 630 315.5 643Q329 656 329 678Z" glyph-name="ring" horiz-adv-x="500" unicode="˚" /><glyph d="M364 -124Q364 -171 330.5 -197Q297 -223 238 -223Q218 -223 198.5 -219.5Q179 -216 153 -208L166 -139Q186 -144 205 -147Q224 -150 238 -150Q257 -150 267 -144Q277 -138 277 -126Q277 -115 267 -108.5Q257 -102 238 -102Q231 -102 225.5 -102.5Q220 -103 211 -105L186 -73L198 0H275L268 -39Q314 -41 339 -63.5Q364 -86 364 -124Z" glyph-name="cedilla" horiz-adv-x="500" unicode="¸" /><glyph d="M324 699 251 579H160L236 745ZM474 699 401 579H310L386 745Z" glyph-name="hungarumlaut" horiz-adv-x="500" unicode="˝" /><glyph d="M280 666Q303 666 314.5 681.5Q326 697 327 731H414Q409 659 375 622Q341 585 280 585Q219 585 185 622Q151 659 146 731H233Q234 698 245.5 682Q257 666 280 666Z" glyph-name="breve" horiz-adv-x="500" unicode="˘" /><glyph d="M129 692 432 692V609H129Z" glyph-name="macron" horiz-adv-x="500" unicode="¯" /><glyph d="M275 722 275 603H154V722Z" glyph-name="dotaccent" horiz-adv-x="500" unicode="˙" /><glyph d="M362 444 362 325H241V444Z" glyph-name="periodcentered" horiz-adv-x="500" unicode="·" /><glyph d="M246 -108Q246 -120 253.5 -126.5Q261 -133 276 -133Q286 -133 297.5 -131Q309 -129 323 -124L339 -207Q319 -215 298.5 -219Q278 -223 258 -223Q206 -223 176 -198.5Q146 -174 146 -132Q146 -93 178.5 -52.5Q211 -12 286 44L339 0Q290 -41 268 -66.5Q246 -92 246 -108Z" glyph-name="ogonek" horiz-adv-x="500" unicode="˛" /><glyph d="M300 -77 227 -256L154 -239L180 -77Z" glyph-name="commaaccent" horiz-adv-x="500" unicode="" /><glyph d="M389 765 353 571H276V765Z" glyph-name="caron.alt" horiz-adv-x="500" unicode="" /><glyph d="M185 579 258 758L331 741L305 579Z" glyph-name="revcommaaccent" horiz-adv-x="500" unicode="" /><glyph d="M166 119 166 0H45V119Z" glyph-name="period" horiz-adv-x="211" unicode="." /><glyph d="M49 119 161 119V100Q161 5 139 -70.5Q117 -146 69 -223L-3 -184Q26 -129 37.5 -66Q49 -3 49 119Z" glyph-name="comma" horiz-adv-x="211" unicode="," /><glyph d="M166 507 166 388H45V507ZM166 119 166 0H45V119Z" glyph-name="colon" horiz-adv-x="211" unicode=":" /><glyph d="M166 507 166 388H45V507ZM49 119 161 119V100Q161 5 139 -70.5Q117 -146 69 -223L-3 -184Q26 -129 37.5 -66Q49 -3 49 119Z" glyph-name="semicolon" horiz-adv-x="211" unicode=";" /><glyph d="M566 119 566 0H445V119ZM566 119 566 0H445V119ZM566 119 566 0H445V119Z" glyph-name="ellipsis" horiz-adv-x="611" unicode="…" /><glyph d="M204 583Q170 583 132.5 574Q95 565 47 545L10 644Q62 667 112 678.5Q162 690 212 690Q316 690 370 645Q424 600 424 514V496Q424 441 407.5 403Q391 365 352 330L316 297Q291 275 281 257Q271 239 271 208V199H151V217Q151 264 166.5 294.5Q182 325 220 360L257 394Q285 420 295.5 439.5Q306 459 306 486V504Q306 543 280.5 563Q255 583 204 583ZM272 119 272 0H151V119Z" glyph-name="question" horiz-adv-x="454" unicode="?" /><glyph d="M199 460 186 199H96L84 460V680H199ZM201 119 201 0H80V119Z" glyph-name="exclam" horiz-adv-x="281" unicode="!" /><glyph d="M195 388 195 507H316V388ZM263 -76Q297 -76 334.5 -67Q372 -58 420 -38L457 -137Q405 -160 355 -171.5Q305 -183 255 -183Q151 -183 97 -138Q43 -93 43 -7V11Q43 66 59.5 104Q76 142 115 177L151 210Q176 232 186 250Q196 268 196 299V308H316V290Q316 243 300.5 212.5Q285 182 247 147L210 113Q182 87 171.5 67.5Q161 48 161 21V3Q161 -36 186.5 -56Q212 -76 263 -76Z" glyph-name="questiondown" horiz-adv-x="454" unicode="¿" /><glyph d="M80 388 80 507H201V388ZM82 47 95 308H185L197 47V-173H82Z" glyph-name="exclamdown" horiz-adv-x="281" unicode="¡" /><glyph d="M49 280 49 317Q49 434 100 543Q151 652 252 750L332 675Q247 588 207 501.5Q167 415 167 317V280Q167 182 207 95.5Q247 9 332 -78L252 -153Q151 -55 100 54Q49 163 49 280Z" glyph-name="parenleft" horiz-adv-x="333" unicode="(" /><glyph d="M284 317 284 280Q284 163 233 54Q182 -55 81 -153L1 -78Q86 9 126 95.5Q166 182 166 280V317Q166 415 126 501.5Q86 588 1 675L81 750Q182 652 233 543Q284 434 284 317Z" glyph-name="parenright" horiz-adv-x="333" unicode=")" /><glyph d="M291 -44 380 -44V-144H291Q187 -144 143.5 -90.5Q100 -37 123 61L143 147Q156 201 139 224.5Q122 248 73 248H20V348H73Q122 348 139 371.5Q156 395 143 449L123 535Q100 633 143.5 686.5Q187 740 291 740H380V640H291Q256 640 241.5 617Q227 594 237 554L257 468Q272 400 253.5 356.5Q235 313 184 298Q236 283 254.5 239.5Q273 196 257 128L237 42Q227 2 241.5 -21Q256 -44 291 -44Z" glyph-name="braceleft" horiz-adv-x="381" unicode="{" /><glyph d="M238 147 258 61Q281 -37 237.5 -90.5Q194 -144 90 -144H1V-44H90Q125 -44 139.5 -21Q154 2 144 42L124 128Q109 196 127.5 239.5Q146 283 197 298Q145 313 126.5 356.5Q108 400 124 468L144 554Q154 594 139.5 617Q125 640 90 640H1V740H90Q194 740 237.5 686.5Q281 633 258 535L238 449Q225 395 242 371.5Q259 348 308 348H361V248H308Q259 248 242 224.5Q225 201 238 147Z" glyph-name="braceright" horiz-adv-x="381" unicode="}" /><glyph d="M209 -43 349 -43V-143H94V740H349V640H209Z" glyph-name="bracketleft" horiz-adv-x="350" unicode="[" /><glyph d="M1 740 256 740V-143H1V-43H141V640H1Z" glyph-name="bracketright" horiz-adv-x="350" unicode="]" /><glyph d="M-39 -143 285 740H403L79 -143Z" glyph-name="slash" horiz-adv-x="394" unicode="/" /><glyph d="M-9 740 109 740L433 -143H315Z" glyph-name="backslash" horiz-adv-x="394" unicode="\" /><glyph d="M409 -163 5 -163V-90H409Z" glyph-name="underscore" horiz-adv-x="414" unicode="_" /><glyph d="M354 265 50 265V365H354Z" glyph-name="hyphen" horiz-adv-x="404" unicode="-" /><glyph d="" glyph-name="uni00AD" horiz-adv-x="0" unicode="­" /><glyph d="M554 265 50 265V365H554Z" glyph-name="endash" horiz-adv-x="604" unicode="–" /><glyph d="M754 265 50 265V365H754Z" glyph-name="emdash" horiz-adv-x="804" unicode="—" /><glyph d="M83 357 83 740H198V357ZM83 -213 83 170H198V-213Z" glyph-name="brokenbar" horiz-adv-x="281" unicode="¦" /><glyph d="M94 -213 94 740H209V-213Z" glyph-name="bar" horiz-adv-x="303" unicode="|" /><glyph d="M154 249 338 134V14L42 209V286L338 478V362ZM474 249 658 134V14L362 209V286L658 478V362Z" glyph-name="guillemotleft" horiz-adv-x="711" unicode="«" /><glyph d="M669 283 669 206L373 14V130L557 243L373 358V478ZM349 283 349 206L53 14V130L237 243L53 358V478Z" glyph-name="guillemotright" horiz-adv-x="711" unicode="»" /><glyph d="M154 249 338 134V14L42 209V286L338 478V362Z" glyph-name="guilsinglleft" horiz-adv-x="391" unicode="‹" /><glyph d="M349 283 349 206L53 14V130L237 243L53 358V478Z" glyph-name="guilsinglright" horiz-adv-x="391" unicode="›" /><glyph d="M50 119 162 119V100Q162 26 140.5 -39.5Q119 -105 70 -183L-2 -144Q28 -80 39 -30Q50 20 50 119Z" glyph-name="quotesinglbase" horiz-adv-x="211" unicode="‚" /><glyph d="M50 119 162 119V100Q162 26 140.5 -39.5Q119 -105 70 -183L-2 -144Q28 -80 39 -30Q50 20 50 119ZM235 119 347 119V100Q347 26 325.5 -39.5Q304 -105 255 -183L183 -144Q213 -80 224 -30Q235 20 235 119Z" glyph-name="quotedblbase" horiz-adv-x="396" unicode="„" /><glyph d="M143 388 31 388V407Q31 481 52.5 546.5Q74 612 123 690L195 651Q165 587 154 537Q143 487 143 388Z" glyph-name="quoteleft" horiz-adv-x="211" unicode="‘" /><glyph d="M328 388 216 388V407Q216 481 237.5 546.5Q259 612 308 690L380 651Q350 587 339 537Q328 487 328 388ZM143 388 31 388V407Q31 481 52.5 546.5Q74 612 123 690L195 651Q165 587 154 537Q143 487 143 388Z" glyph-name="quotedblleft" horiz-adv-x="396" unicode="“" /><glyph d="M55 680 167 680V661Q167 587 145.5 521.5Q124 456 75 378L3 417Q33 481 44 531Q55 581 55 680Z" glyph-name="quoteright" horiz-adv-x="211" unicode="’" /><glyph d="M68 680 180 680V661Q180 587 158.5 521.5Q137 456 88 378L16 417Q46 481 57 531Q68 581 68 680ZM253 680 365 680V661Q365 587 343.5 521.5Q322 456 273 378L201 417Q231 481 242 531Q253 581 253 680Z" glyph-name="quotedblright" horiz-adv-x="396" unicode="”" /><glyph d="M159 584 139 388H72L52 584V680H159Z" glyph-name="quotesingle" horiz-adv-x="211" unicode="'" /><glyph d="M159 584 139 388H72L52 584V680H159ZM334 584 314 388H247L227 584V680H334Z" glyph-name="quotedbl" horiz-adv-x="386" unicode="&quot;" /><glyph d="M194 405 194 262H49V405Z" glyph-name="bullet" horiz-adv-x="243" unicode="•" /><glyph d="M153 174Q153 136 175 116Q197 96 237 96Q299 96 324.5 138.5Q350 181 320 239L412 295L564 0H439L395 99Q380 48 335 19Q290 -10 226 -10Q139 -10 87.5 39Q36 88 36 169Q36 229 67.5 277Q99 325 166 369Q118 406 95.5 444.5Q73 483 73 528Q73 601 122.5 645.5Q172 690 255 690Q341 690 390.5 645.5Q440 601 440 524Q440 467 410 423.5Q380 380 296 327L226 282Q189 258 171 232Q153 206 153 174ZM256 586Q224 586 204 568.5Q184 551 184 522Q184 497 198.5 469.5Q213 442 240 418Q292 453 308.5 472Q325 491 325 517Q325 550 306.5 568Q288 586 256 586Z" glyph-name="ampersand" horiz-adv-x="561" unicode="&amp;" /><glyph d="M37 429 37 482Q37 576 92.5 628Q148 680 251 680H557V593H475V-143H355V593H292V230H251Q149 230 93 282Q37 334 37 429Z" glyph-name="paragraph" horiz-adv-x="569" unicode="¶" /><glyph d="M418 422 358 422L256 439L273 308V199L250 -143H180L158 199V308L176 439L75 423H15V532H75L175 516L159 620V680H274V620L257 515L358 531H418Z" glyph-name="dagger" horiz-adv-x="433" unicode="†" /><glyph d="M268 21 284 -83V-143H169V-83L186 22L85 6H25V115H85L187 98L170 229V308L188 439L87 423H27V532H87L187 516L171 620V680H286V620L269 515L370 531H430V422H370L268 439L285 308V229L267 98L368 114H428V5H368Z" glyph-name="daggerdbl" horiz-adv-x="455" unicode="‡" /><glyph d="M388 108Q423 82 440.5 45Q458 8 458 -38Q458 -125 401.5 -174Q345 -223 241 -223Q191 -223 137 -211Q83 -199 30 -175L67 -70Q118 -91 159 -100.5Q200 -110 239 -110Q288 -110 311.5 -94Q335 -78 335 -46Q335 -19 315 -0.5Q295 18 249 35L167 65Q108 87 76.5 127.5Q45 168 45 222Q45 265 67.5 303.5Q90 342 131 368Q99 393 82 429.5Q65 466 65 511Q65 593 119 641.5Q173 690 267 690Q312 690 357.5 680Q403 670 457 649L420 544Q371 562 337.5 569.5Q304 577 270 577Q231 577 209.5 560.5Q188 544 188 514Q188 488 207.5 470Q227 452 272 435L354 405Q415 383 446.5 343.5Q478 304 478 252Q478 209 454.5 171Q431 133 388 108ZM168 245Q168 217 186 199.5Q204 182 247 167L300 148Q332 170 343.5 188Q355 206 355 231Q355 258 339 273.5Q323 289 274 306L213 327Q190 307 179 287.5Q168 268 168 245Z" glyph-name="section" horiz-adv-x="521" unicode="§" /><glyph d="M325 407 354 366L277 310L248 351L205 446L161 350L132 310L55 366L84 406L162 476L57 488L9 504L39 594L86 579L177 527L156 630V680H251V630L230 528L321 580L369 595L398 505L351 489L246 477Z" glyph-name="asterisk" horiz-adv-x="407" unicode="*" /><glyph d="M342 680 433 680L514 503L597 680H685V340H607V427L613 564L535 391H490L414 563L420 427V340H342ZM109 603 5 603V680H294V603H190V340H109Z" glyph-name="trademark" horiz-adv-x="734" unicode="™" /><glyph d="M498 479Q498 377 431 309Q364 241 264 241Q164 241 97 309Q30 377 30 479Q30 582 96.5 649.5Q163 717 264 717Q365 717 431.5 649.5Q498 582 498 479ZM92 479Q92 402 141 350.5Q190 299 264 299Q338 299 387 350.5Q436 402 436 479Q436 557 387 608Q338 659 264 659Q190 659 141 608Q92 557 92 479ZM236 353 175 353V608H270Q309 608 331.5 586Q354 564 354 526V517Q354 494 345 475.5Q336 457 320 447Q334 425 346 401.5Q358 378 369 353H302Q292 376 282 396Q272 416 262 434H236ZM270 550 236 550V493H270Q280 493 285.5 499.5Q291 506 291 517V526Q291 537 285.5 543.5Q280 550 270 550Z" glyph-name="registered" horiz-adv-x="528" unicode="®" /><glyph d="M789 340Q789 177 683.5 70Q578 -37 417 -37Q256 -37 150.5 70Q45 177 45 340Q45 503 150.5 610Q256 717 417 717Q578 717 683.5 610Q789 503 789 340ZM121 340Q121 206 204.5 119.5Q288 33 417 33Q546 33 629.5 119.5Q713 206 713 340Q713 473 629 560Q545 647 417 647Q289 647 205 560Q121 473 121 340ZM418 472Q375 472 354 445Q333 418 333 361V320Q333 263 353.5 235.5Q374 208 418 208Q442 208 469 215Q496 222 526 237L555 158Q522 141 485.5 132Q449 123 413 123Q329 123 284.5 174Q240 225 240 320V361Q240 455 284.5 506Q329 557 413 557Q448 557 482 548.5Q516 540 546 525L517 446Q489 459 464.5 465.5Q440 472 418 472Z" glyph-name="copyright" horiz-adv-x="834" unicode="©" /><glyph d="M698 -75 728 -167Q668 -194 600 -208.5Q532 -223 466 -223Q270 -223 154.5 -106Q39 11 39 209Q39 420 166 555Q293 690 495 690Q679 690 796 577.5Q913 465 913 289Q913 162 847 78.5Q781 -5 681 -5Q632 -5 600.5 15Q569 35 557 73Q516 30 478 10Q440 -10 398 -10Q330 -10 298.5 51Q267 112 283 211L290 255Q307 362 360 414.5Q413 467 503 467Q550 467 599.5 450.5Q649 434 700 402L658 162Q651 126 660.5 106.5Q670 87 694 87Q741 87 775.5 145.5Q810 204 810 289Q810 424 722.5 509.5Q635 595 495 595Q338 595 240 487Q142 379 142 209Q142 53 228.5 -37.5Q315 -128 466 -128Q525 -128 586.5 -114Q648 -100 698 -75ZM406 255 399 211Q390 153 400 124Q410 95 440 95Q465 95 491.5 115Q518 135 548 176L578 348Q557 358 542 362Q527 366 513 366Q469 366 442 337.5Q415 309 406 255Z" glyph-name="at" horiz-adv-x="945" unicode="@" /><glyph d="M314 338 307 338Q276 338 253 348.5Q230 359 219 379Q192 356 168.5 345.5Q145 335 119 335Q75 335 49.5 361.5Q24 388 24 432Q24 482 51.5 507.5Q79 533 134 533Q144 533 157 532Q170 531 203 527V568Q203 591 190.5 601.5Q178 612 148 612Q126 612 103 606Q80 600 53 587L34 655Q65 670 93 677.5Q121 685 149 685Q214 685 247 657.5Q280 630 280 575V443Q280 425 286 417.5Q292 410 305 410H314ZM143 473Q121 473 111 464.5Q101 456 101 437Q101 420 109 411Q117 402 131 402Q149 402 165.5 409.5Q182 417 203 435V468Q185 470 169 471.5Q153 473 143 473Z" glyph-name="ordfeminine" horiz-adv-x="327" unicode="ª" /><glyph d="M172 685Q242 685 282.5 643.5Q323 602 323 531V489Q323 416 283 375.5Q243 335 172 335Q100 335 60.5 375.5Q21 416 21 489V531Q21 603 61 644Q101 685 172 685ZM243 489 243 531Q243 568 224 589Q205 610 172 610Q139 610 120 589Q101 568 101 531V489Q101 451 119.5 430.5Q138 410 172 410Q206 410 224.5 430.5Q243 451 243 489Z" glyph-name="ordmasculine" horiz-adv-x="344" unicode="º" /><glyph d="M391 0 296 0L353 185H207L150 0H55L112 185H15V272H138L180 408H85V495H206L263 680H358L301 495H447L504 680H599L542 495H639V408H516L474 272H569V185H448ZM275 408 233 272H379L421 408Z" glyph-name="numbersign" horiz-adv-x="654" unicode="#" /><glyph d="M884 685Q958 685 1001.5 640Q1045 595 1045 521V479Q1045 403 1002 359Q959 315 884 315Q809 315 766 359Q723 403 723 479V521Q723 595 766.5 640Q810 685 884 685ZM209 0 94 0V680H204Q285 574 355.5 459.5Q426 345 483 227L474 430V680H589V0H479Q380 196 319 303.5Q258 411 201 494L209 260ZM958 479 958 521Q958 560 938.5 581.5Q919 603 884 603Q849 603 829.5 581.5Q810 560 810 521V479Q810 440 829.5 418.5Q849 397 884 397Q920 397 939 418.5Q958 440 958 479ZM1026 159 742 159V241H1026Z" glyph-name="uni2116" horiz-adv-x="1085" unicode="№" /><glyph d="M530 138 567 34Q516 12 470.5 1Q425 -10 380 -10Q277 -10 212 47Q147 104 131 207H45V294H127V370H45V457H129Q141 567 206.5 628.5Q272 690 380 690Q424 690 468.5 679.5Q513 669 561 648L524 542Q477 561 446 569Q415 577 387 577Q330 577 296 546.5Q262 516 253 457H468L450 370H250V294H437L419 207H256Q268 155 301 129Q334 103 387 103Q418 103 450.5 111Q483 119 530 138Z" glyph-name="Euro" horiz-adv-x="598" unicode="€" /><glyph d="M480 191Q480 110 437 60Q394 10 312 -4V-145H202V-8Q162 -4 120.5 8Q79 20 32 41L69 144Q124 121 163.5 111Q203 101 242 101Q301 101 329.5 122Q358 143 358 187Q358 222 339.5 242Q321 262 276 277L194 304Q120 328 83.5 376Q47 424 47 497Q47 573 87 622Q127 671 202 685V825H312V687Q345 683 380 673Q415 663 455 646L418 543Q366 563 333 571Q300 579 268 579Q217 579 193 560.5Q169 542 169 503Q169 470 187.5 450Q206 430 249 416L331 389Q407 364 443.5 315.5Q480 267 480 191Z" glyph-name="dollar" horiz-adv-x="518" unicode="$" /><glyph d="M509 236 509 149H344V0H224V149H59V236H224V271L203 312H59V399H158L14 680H142L289 390L428 680H552L408 399H509V312H364L344 273V236Z" glyph-name="yen" horiz-adv-x="566" unicode="¥" /><glyph d="M461 115 461 0H61V105Q108 143 130.5 179Q153 215 153 252Q153 255 152.5 258.5Q152 262 151 272H53V372H112Q86 422 77 455Q68 488 68 520Q68 602 120 646Q172 690 271 690Q317 690 361 680Q405 670 454 648L417 542Q374 560 339.5 568.5Q305 577 276 577Q233 577 212 558.5Q191 540 191 503Q191 483 197.5 460Q204 437 237 372H392V272H270V260Q270 225 253.5 188.5Q237 152 203 115Z" glyph-name="sterling" horiz-adv-x="487" unicode="£" /><glyph d="M389 123 422 26Q390 13 364 5.5Q338 -2 315 -5V-125H205V-5Q132 11 92 71Q52 131 52 224V283Q52 376 92 436Q132 496 205 512V632H315V512Q339 508 364.5 500.5Q390 493 417 482L384 383Q348 397 318 404Q288 411 264 411Q214 411 190.5 380Q167 349 167 283V224Q167 158 190.5 127Q214 96 264 96Q291 96 322.5 103Q354 110 389 123Z" glyph-name="cent" horiz-adv-x="448" unicode="¢" /><glyph d="M244 307 214 -33Q204 -139 166 -181Q128 -223 51 -223Q22 -223 -9 -217.5Q-40 -212 -64 -203L-36 -104Q-21 -109 -3.5 -112Q14 -115 30 -115Q65 -115 80 -97Q95 -79 99 -33L129 307H13V407H138L152 560Q162 666 200 708Q238 750 315 750Q344 750 375 744.5Q406 739 430 730L402 631Q387 636 369.5 639Q352 642 336 642Q301 642 286 624Q271 606 267 560L253 407H368V307Z" glyph-name="florin" horiz-adv-x="393" unicode="ƒ" /><glyph d="M511 422 428 422Q421 341 365 295.5Q309 250 216 250Q296 185 353.5 128.5Q411 72 472 0H315Q240 86 185 139.5Q130 193 59 250V337H215Q257 337 283.5 359Q310 381 316 422H59V509H315Q310 549 283.5 571Q257 593 215 593H59V680H511V593H386Q403 577 413.5 555.5Q424 534 428 509H511Z" glyph-name="uni20B9" horiz-adv-x="552" unicode="₹" /><glyph d="M443 194 546 87L489 28L386 134Q363 119 336 111Q309 103 279 103Q249 103 222 111Q195 119 172 134L69 28L12 87L115 194Q101 217 94 244Q87 271 87 300Q87 329 94 356Q101 383 115 406L12 513L69 572L172 466Q195 481 222 489Q249 497 279 497Q309 497 336 489Q363 481 386 466L489 572L546 513L443 406Q457 383 464 356Q471 329 471 300Q471 271 464 244Q457 217 443 194ZM182 300Q182 251 208.5 222Q235 193 279 193Q323 193 349.5 222Q376 251 376 300Q376 349 349.5 378Q323 407 279 407Q235 407 208.5 378Q182 349 182 300Z" glyph-name="currency" horiz-adv-x="558" unicode="¤" /><glyph d="M305 690Q420 690 482.5 617.5Q545 545 545 412V269Q545 136 482.5 63Q420 -10 305 -10Q190 -10 127.5 62.5Q65 135 65 269V412Q65 545 127.5 617.5Q190 690 305 690ZM424 269 424 412Q424 496 394.5 537.5Q365 579 305 579Q245 579 215.5 538Q186 497 186 412V269Q186 184 215.5 142.5Q245 101 305 101Q365 101 394.5 142.5Q424 184 424 269Z" glyph-name="zero" horiz-adv-x="610" unicode="0" /><glyph d="M63 492 10 583L183 680H283V0H165V548Z" glyph-name="one" horiz-adv-x="377" unicode="1" /><glyph d="M452 113 452 0H40V95Q40 187 74.5 249Q109 311 180 346L248 380Q297 404 316.5 427.5Q336 451 336 481V499Q336 538 309 558.5Q282 579 229 579Q202 579 172 572Q142 565 77 541L40 644Q93 668 140 679Q187 690 233 690Q340 690 397 640Q454 590 454 499V481Q454 416 418.5 368Q383 320 300 279L232 245Q196 227 178 195.5Q160 164 158 113Z" glyph-name="two" horiz-adv-x="505" unicode="2" /><glyph d="M446 199 446 185Q446 92 388.5 41Q331 -10 224 -10Q174 -10 124.5 1.5Q75 13 20 38L57 141Q122 117 155.5 109Q189 101 220 101Q275 101 301.5 123Q328 145 328 190V204Q328 245 303 267Q278 289 232 289H126V397H232Q276 397 299.5 418Q323 439 323 478V492Q323 536 298.5 557.5Q274 579 223 579Q193 579 160 571.5Q127 564 67 541L30 644Q82 668 130 679Q178 690 227 690Q330 690 385.5 639.5Q441 589 441 497V483Q441 438 419 402Q397 366 356 344Q399 321 422.5 283.5Q446 246 446 199Z" glyph-name="three" horiz-adv-x="501" unicode="3" /><glyph d="M505 261 505 154H434V0H318V154H26V251Q141 430 188.5 519Q236 608 263 680H394Q365 600 312 503Q259 406 164 261H318V364H434V261Z" glyph-name="four" horiz-adv-x="527" unicode="4" /><glyph d="M132 294 67 351L87 680H435V567H193L184 417Q201 422 220 424Q239 426 259 426Q360 426 415 373.5Q470 321 470 223V196Q470 99 410 44.5Q350 -10 240 -10Q190 -10 140.5 1.5Q91 13 36 38L73 141Q129 119 165 110Q201 101 236 101Q293 101 321 124.5Q349 148 349 196V223Q349 270 322 294.5Q295 319 242 319Q218 319 191.5 313Q165 307 132 294Z" glyph-name="five" horiz-adv-x="519" unicode="5" /><glyph d="M523 224 523 204Q523 109 461.5 49.5Q400 -10 300 -10Q190 -10 127.5 64.5Q65 139 65 271V412Q65 548 129.5 619Q194 690 317 690Q364 690 409.5 679Q455 668 505 644L462 541Q420 560 385.5 569.5Q351 579 320 579Q250 579 215 537.5Q180 496 180 412V376Q214 406 251 421.5Q288 437 327 437Q415 437 469 378.5Q523 320 523 224ZM180 275 180 271Q180 187 211 144Q242 101 302 101Q350 101 378 128.5Q406 156 406 204V224Q406 272 380 300.5Q354 329 309 329Q274 329 241.5 315.5Q209 302 180 275Z" glyph-name="six" horiz-adv-x="569" unicode="6" /><glyph d="M441 680 441 577Q374 435 326 290.5Q278 146 250 0H124Q153 146 199.5 288Q246 430 311 567H19V680Z" glyph-name="seven" horiz-adv-x="464" unicode="7" /><glyph d="M406 357Q457 328 483 285Q509 242 509 185Q509 95 446.5 42.5Q384 -10 274 -10Q168 -10 109.5 37.5Q51 85 51 168Q51 220 75.5 261Q100 302 150 335Q107 364 85 405Q63 446 63 500Q63 584 121.5 637Q180 690 276 690Q377 690 436 641Q495 592 495 511Q495 464 473 426Q451 388 406 357ZM181 498Q181 466 202 444Q223 422 267 408L316 393Q348 420 362.5 444.5Q377 469 377 497Q377 538 351 561Q325 584 279 584Q233 584 207 561.5Q181 539 181 498ZM169 185Q169 144 198.5 120Q228 96 280 96Q331 96 361 119.5Q391 143 391 184Q391 217 367.5 241Q344 265 296 279L242 296Q203 264 186 238Q169 212 169 185Z" glyph-name="eight" horiz-adv-x="560" unicode="8" /><glyph d="M504 409 504 268Q504 132 439.5 61Q375 -10 252 -10Q205 -10 159.5 1Q114 12 64 36L107 139Q149 120 183.5 110.5Q218 101 249 101Q319 101 354 142.5Q389 184 389 268V304Q355 274 318 258.5Q281 243 242 243Q154 243 100 301.5Q46 360 46 456V476Q46 567 108.5 628.5Q171 690 269 690Q379 690 441.5 615.5Q504 541 504 409ZM163 476 163 456Q163 408 189 379.5Q215 351 260 351Q295 351 327.5 364.5Q360 378 389 405V409Q389 493 358 536Q327 579 267 579Q222 579 192.5 549Q163 519 163 476Z" glyph-name="nine" horiz-adv-x="569" unicode="9" /><glyph d="M275 690Q390 690 452.5 617.5Q515 545 515 412V269Q515 136 452.5 63Q390 -10 275 -10Q160 -10 97.5 62.5Q35 135 35 269V412Q35 545 97.5 617.5Q160 690 275 690ZM394 269 394 412Q394 496 364.5 537.5Q335 579 275 579Q215 579 185.5 538Q156 497 156 412V269Q156 184 185.5 142.5Q215 101 275 101Q335 101 364.5 142.5Q394 184 394 269Z" glyph-name="zero.tlf" horiz-adv-x="550" unicode="" /><glyph d="M115 471 60 568L258 680H358V113H480V0H93V113H240V541Z" glyph-name="one.tlf" horiz-adv-x="550" unicode="" /><glyph d="M478 113 478 0H66V95Q66 187 100.5 249Q135 311 206 346L274 380Q323 404 342.5 427.5Q362 451 362 481V499Q362 538 335 558.5Q308 579 255 579Q228 579 198 572Q168 565 103 541L66 644Q119 668 166 679Q213 690 259 690Q366 690 423 640Q480 590 480 499V481Q480 416 444.5 368Q409 320 326 279L258 245Q222 227 204 195.5Q186 164 184 113Z" glyph-name="two.tlf" horiz-adv-x="550" unicode="" /><glyph d="M472 199 472 185Q472 92 414.5 41Q357 -10 250 -10Q200 -10 150.5 1.5Q101 13 46 38L83 141Q148 117 181.5 109Q215 101 246 101Q301 101 327.5 123Q354 145 354 190V204Q354 245 329 267Q304 289 258 289H152V397H258Q302 397 325.5 418Q349 439 349 478V492Q349 536 324.5 557.5Q300 579 249 579Q219 579 186 571.5Q153 564 93 541L56 644Q108 668 156 679Q204 690 253 690Q356 690 411.5 639.5Q467 589 467 497V483Q467 438 445 402Q423 366 382 344Q425 321 448.5 283.5Q472 246 472 199Z" glyph-name="three.tlf" horiz-adv-x="550" unicode="" /><glyph d="M528 261 528 154H457V0H341V154H49V251Q164 430 211.5 519Q259 608 286 680H417Q388 600 335 503Q282 406 187 261H341V364H457V261Z" glyph-name="four.tlf" horiz-adv-x="550" unicode="" /><glyph d="M147 294 82 351L102 680H450V567H208L199 417Q216 422 235 424Q254 426 274 426Q375 426 430 373.5Q485 321 485 223V196Q485 99 425 44.5Q365 -10 255 -10Q205 -10 155.5 1.5Q106 13 51 38L88 141Q144 119 180 110Q216 101 251 101Q308 101 336 124.5Q364 148 364 196V223Q364 270 337 294.5Q310 319 257 319Q233 319 206.5 313Q180 307 147 294Z" glyph-name="five.tlf" horiz-adv-x="550" unicode="" /><glyph d="M512 224 512 204Q512 109 450.5 49.5Q389 -10 289 -10Q179 -10 116.5 64.5Q54 139 54 271V412Q54 548 118.5 619Q183 690 306 690Q353 690 398.5 679Q444 668 494 644L451 541Q409 560 374.5 569.5Q340 579 309 579Q239 579 204 537.5Q169 496 169 412V376Q203 406 240 421.5Q277 437 316 437Q404 437 458 378.5Q512 320 512 224ZM169 275 169 271Q169 187 200 144Q231 101 291 101Q339 101 367 128.5Q395 156 395 204V224Q395 272 369 300.5Q343 329 298 329Q263 329 230.5 315.5Q198 302 169 275Z" glyph-name="six.tlf" horiz-adv-x="550" unicode="" /><glyph d="M485 680 485 577Q418 435 370 290.5Q322 146 294 0H168Q197 146 243.5 288Q290 430 355 567H63V680Z" glyph-name="seven.tlf" horiz-adv-x="550" unicode="" /><glyph d="M401 357Q452 328 478 285Q504 242 504 185Q504 95 441.5 42.5Q379 -10 269 -10Q163 -10 104.5 37.5Q46 85 46 168Q46 220 70.5 261Q95 302 145 335Q102 364 80 405Q58 446 58 500Q58 584 116.5 637Q175 690 271 690Q372 690 431 641Q490 592 490 511Q490 464 468 426Q446 388 401 357ZM176 498Q176 466 197 444Q218 422 262 408L311 393Q343 420 357.5 444.5Q372 469 372 497Q372 538 346 561Q320 584 274 584Q228 584 202 561.5Q176 539 176 498ZM164 185Q164 144 193.5 120Q223 96 275 96Q326 96 356 119.5Q386 143 386 184Q386 217 362.5 241Q339 265 291 279L237 296Q198 264 181 238Q164 212 164 185Z" glyph-name="eight.tlf" horiz-adv-x="550" unicode="" /><glyph d="M496 409 496 268Q496 132 431.5 61Q367 -10 244 -10Q197 -10 151.5 1Q106 12 56 36L99 139Q141 120 175.5 110.5Q210 101 241 101Q311 101 346 142.5Q381 184 381 268V304Q347 274 310 258.5Q273 243 234 243Q146 243 92 301.5Q38 360 38 456V476Q38 567 100.5 628.5Q163 690 261 690Q371 690 433.5 615.5Q496 541 496 409ZM155 476 155 456Q155 408 181 379.5Q207 351 252 351Q287 351 319.5 364.5Q352 378 381 405V409Q381 493 350 536Q319 579 259 579Q214 579 184.5 549Q155 519 155 476Z" glyph-name="nine.tlf" horiz-adv-x="550" unicode="" /><glyph d="M282 517Q393 517 453.5 455Q514 393 514 279V229Q514 115 453.5 52.5Q393 -10 282 -10Q171 -10 110.5 52.5Q50 115 50 229V279Q50 393 110 455Q170 517 282 517ZM398 229 398 279Q398 346 369 379.5Q340 413 282 413Q223 413 194.5 380Q166 347 166 279V229Q166 161 195 127.5Q224 94 282 94Q340 94 369 128Q398 162 398 229Z" glyph-name="zero.posf" horiz-adv-x="564" unicode="" /><glyph d="M72 319 19 410L192 507H292V0H174V375Z" glyph-name="one.posf" horiz-adv-x="371" unicode="" /><glyph d="M421 105 421 0H53V95Q53 164 83 206Q113 248 179 272L247 296Q277 306 291 320Q305 334 305 353V361Q305 385 285.5 397.5Q266 410 228 410Q194 410 163 402.5Q132 395 90 376L53 473Q105 496 147.5 506.5Q190 517 232 517Q324 517 373.5 477.5Q423 438 423 366V358Q423 303 392.5 265.5Q362 228 299 205L231 181Q201 170 186 151.5Q171 133 171 105Z" glyph-name="two.posf" horiz-adv-x="480" unicode="" /><glyph d="M428 26 428 12Q428 -81 370.5 -132Q313 -183 206 -183Q156 -183 106.5 -171.5Q57 -160 2 -135L39 -32Q104 -56 137.5 -64Q171 -72 202 -72Q257 -72 283.5 -50Q310 -28 310 17V31Q310 72 285 94Q260 116 214 116H108V224H214Q258 224 281.5 245Q305 266 305 305V319Q305 363 280.5 384.5Q256 406 205 406Q175 406 142 398.5Q109 391 49 368L12 471Q64 495 112 506Q160 517 209 517Q312 517 367.5 466.5Q423 416 423 324V310Q423 265 401 229Q379 193 338 171Q381 148 404.5 110.5Q428 73 428 26Z" glyph-name="three.posf" horiz-adv-x="470" unicode="" /><glyph d="M509 107 509 0H438V-173H322V0H30V97Q117 212 174.5 312.5Q232 413 267 507H398Q363 412 307 314Q251 216 170 107H322V191H438V107Z" glyph-name="four.posf" horiz-adv-x="528" unicode="" /><glyph d="M121 121 56 178L76 507H424V394H182L173 244Q190 249 209 251Q228 253 248 253Q349 253 404 200.5Q459 148 459 50V23Q459 -74 399 -128.5Q339 -183 229 -183Q179 -183 129.5 -171.5Q80 -160 25 -135L62 -32Q118 -54 154 -63Q190 -72 225 -72Q282 -72 310 -48.5Q338 -25 338 23V50Q338 97 311 121.5Q284 146 231 146Q207 146 180.5 140Q154 134 121 121Z" glyph-name="five.posf" horiz-adv-x="487" unicode="" /><glyph d="M514 224 514 204Q514 109 452.5 49.5Q391 -10 291 -10Q181 -10 118.5 64.5Q56 139 56 271V412Q56 548 120.5 619Q185 690 308 690Q355 690 400.5 679Q446 668 496 644L453 541Q411 560 376.5 569.5Q342 579 311 579Q241 579 206 537.5Q171 496 171 412V376Q205 406 242 421.5Q279 437 318 437Q406 437 460 378.5Q514 320 514 224ZM171 275 171 271Q171 187 202 144Q233 101 293 101Q341 101 369 128.5Q397 156 397 204V224Q397 272 371 300.5Q345 329 300 329Q265 329 232.5 315.5Q200 302 171 275Z" glyph-name="six.posf" horiz-adv-x="560" unicode="" /><glyph d="M443 507 443 404Q376 262 328 117.5Q280 -27 252 -173H126Q155 -27 201.5 115Q248 257 313 394H21V507Z" glyph-name="seven.posf" horiz-adv-x="476" unicode="" /><glyph d="M390 357Q441 328 467 285Q493 242 493 185Q493 95 430.5 42.5Q368 -10 258 -10Q152 -10 93.5 37.5Q35 85 35 168Q35 220 59.5 261Q84 302 134 335Q91 364 69 405Q47 446 47 500Q47 584 105.5 637Q164 690 260 690Q361 690 420 641Q479 592 479 511Q479 464 457 426Q435 388 390 357ZM165 498Q165 466 186 444Q207 422 251 408L300 393Q332 420 346.5 444.5Q361 469 361 497Q361 538 335 561Q309 584 263 584Q217 584 191 561.5Q165 539 165 498ZM153 185Q153 144 182.5 120Q212 96 264 96Q315 96 345 119.5Q375 143 375 184Q375 217 351.5 241Q328 265 280 279L226 296Q187 264 170 238Q153 212 153 185Z" glyph-name="eight.posf" horiz-adv-x="528" unicode="" /><glyph d="M500 236 500 95Q500 -41 435.5 -112Q371 -183 248 -183Q201 -183 155.5 -172Q110 -161 60 -137L103 -34Q145 -53 179.5 -62.5Q214 -72 245 -72Q315 -72 350 -30.5Q385 11 385 95V131Q351 101 314 85.5Q277 70 238 70Q150 70 96 128.5Q42 187 42 283V303Q42 394 104.5 455.5Q167 517 265 517Q375 517 437.5 442.5Q500 368 500 236ZM159 303 159 283Q159 235 185 206.5Q211 178 256 178Q291 178 323.5 191.5Q356 205 385 232V236Q385 320 354 363Q323 406 263 406Q218 406 188.5 376Q159 346 159 303Z" glyph-name="nine.posf" horiz-adv-x="551" unicode="" /><glyph d="M331 528Q331 457 287 411.5Q243 366 174 366Q105 366 61 411Q17 456 17 528Q17 600 60.5 645Q104 690 174 690Q243 690 287 645Q331 600 331 528ZM97 528Q97 489 118 466Q139 443 174 443Q209 443 230 466Q251 489 251 528Q251 567 230 590Q209 613 174 613Q139 613 118 590Q97 567 97 528Z" glyph-name="degree" horiz-adv-x="348" unicode="°" /><glyph d="M173 685Q239 685 274.5 649Q310 613 310 546V515Q310 448 274.5 411.5Q239 375 173 375Q107 375 71.5 411.5Q36 448 36 515V546Q36 613 71.5 649Q107 685 173 685ZM156 0 485 680H575L246 0ZM230 515 230 546Q230 578 216 594Q202 610 173 610Q145 610 131 594Q117 578 117 546V515Q117 482 130.5 466.5Q144 451 173 451Q202 451 216 466.5Q230 482 230 515ZM559 305Q625 305 660.5 269Q696 233 696 166V135Q696 68 660.5 31.5Q625 -5 559 -5Q493 -5 457.5 31.5Q422 68 422 135V166Q422 233 457.5 269Q493 305 559 305ZM616 135 616 166Q616 198 602 214Q588 230 559 230Q531 230 517 214Q503 198 503 166V135Q503 102 516.5 86.5Q530 71 559 71Q588 71 602 86.5Q616 102 616 135Z" glyph-name="percent" horiz-adv-x="732" unicode="%" /><glyph d="M173 685Q239 685 274.5 649Q310 613 310 546V515Q310 448 274.5 411.5Q239 375 173 375Q107 375 71.5 411.5Q36 448 36 515V546Q36 613 71.5 649Q107 685 173 685ZM156 0 485 680H575L246 0ZM230 515 230 546Q230 578 216 594Q202 610 173 610Q145 610 131 594Q117 578 117 546V515Q117 482 130.5 466.5Q144 451 173 451Q202 451 216 466.5Q230 482 230 515ZM559 305Q625 305 660.5 269Q696 233 696 166V135Q696 68 660.5 31.5Q625 -5 559 -5Q493 -5 457.5 31.5Q422 68 422 135V166Q422 233 457.5 269Q493 305 559 305ZM902 305Q968 305 1003.5 269Q1039 233 1039 166V135Q1039 68 1003.5 31.5Q968 -5 902 -5Q836 -5 800.5 31.5Q765 68 765 135V166Q765 233 800.5 269Q836 305 902 305ZM616 135 616 166Q616 198 602 214Q588 230 559 230Q531 230 517 214Q503 198 503 166V135Q503 102 516.5 86.5Q530 71 559 71Q588 71 602 86.5Q616 102 616 135ZM959 135 959 166Q959 198 945 214Q931 230 902 230Q874 230 860 214Q846 198 846 166V135Q846 102 859.5 86.5Q873 71 902 71Q931 71 945 86.5Q959 102 959 135Z" glyph-name="perthousand" horiz-adv-x="1075" unicode="‰" /><glyph d="M-154 0 175 680H265L-64 0Z" glyph-name="fraction" horiz-adv-x="111" unicode="⁄" /><glyph d="M-154 0 175 680H265L-64 0Z" glyph-name="uni2215" horiz-adv-x="111" unicode="∕" /><glyph d="M163 790Q226 790 259.5 754Q293 718 293 651V580Q293 513 259 476.5Q225 440 163 440Q100 440 66.5 476.5Q33 513 33 580V651Q33 718 66.5 754Q100 790 163 790ZM213 580 213 651Q213 683 200.5 699Q188 715 163 715Q138 715 126 699Q114 683 114 651V580Q114 547 126 531.5Q138 516 163 516Q188 516 200.5 532Q213 548 213 580Z" glyph-name="zerosuperior" horiz-adv-x="326" unicode="⁰" /><glyph d="M47 674 17 737L113 785H173V445H94V697Z" glyph-name="onesuperior" horiz-adv-x="220" unicode="¹" /><glyph d="M242 522 242 445H21V513Q21 556 39.5 585.5Q58 615 96 632L130 647Q148 655 156 664Q164 673 164 685V688Q164 701 153 708Q142 715 121 715Q106 715 89 711Q72 707 40 696L21 767Q47 779 72.5 784.5Q98 790 124 790Q182 790 212.5 764Q243 738 243 691V682Q243 649 225 626Q207 603 167 585L133 570Q117 563 109.5 552Q102 541 100 522Z" glyph-name="twosuperior" horiz-adv-x="269" unicode="²" /><glyph d="M243 545 243 538Q243 492 211 466Q179 440 119 440Q92 440 65 445.5Q38 451 15 461L35 531Q56 523 75.5 519.5Q95 516 115 516Q140 516 152 523Q164 530 164 545V552Q164 567 152.5 576Q141 585 121 585H70V649H121Q140 649 150.5 657Q161 665 161 679V686Q161 701 150 708Q139 715 115 715Q99 715 81.5 711.5Q64 708 42 700L20 770Q45 780 69 785Q93 790 117 790Q177 790 208.5 765Q240 740 240 694V687Q240 664 227.5 646Q215 628 192 617Q216 606 229.5 587.5Q243 569 243 545Z" glyph-name="threesuperior" horiz-adv-x="275" unicode="³" /><glyph d="M268 581 268 512H234V445H161V512H13V576Q57 643 84 692.5Q111 742 127 785H212Q195 740 168 690.5Q141 641 99 581H161V627H234V581Z" glyph-name="foursuperior" horiz-adv-x="279" unicode="⁴" /><glyph d="M75 584 36 621L46 785H237V716H111L108 658Q116 660 124 660.5Q132 661 141 661Q194 661 223 635.5Q252 610 252 562V548Q252 497 219.5 468.5Q187 440 127 440Q96 440 70.5 445.5Q45 451 20 462L41 533Q63 524 83.5 520Q104 516 125 516Q150 516 161 524Q172 532 172 549V563Q172 579 161 587Q150 595 128 595Q115 595 102 592.5Q89 590 75 584Z" glyph-name="fivesuperior" horiz-adv-x="276" unicode="⁵" /><glyph d="M278 560 278 545Q278 498 246 469Q214 440 161 440Q101 440 67.5 477.5Q34 515 34 581V651Q34 719 68 754.5Q102 790 167 790Q193 790 217 785.5Q241 781 266 771L245 700Q226 708 207.5 712Q189 716 169 716Q139 716 124.5 700Q110 684 110 651V637Q126 651 144.5 657.5Q163 664 185 664Q227 664 252.5 636Q278 608 278 560ZM161 595Q148 595 135 590Q122 585 110 574Q111 544 124 528.5Q137 513 161 513Q180 513 190 521.5Q200 530 200 545V560Q200 576 189.5 585.5Q179 595 161 595Z" glyph-name="sixsuperior" horiz-adv-x="303" unicode="⁶" /><glyph d="M239 785 239 714Q201 634 178 568.5Q155 503 144 445H61Q72 502 94.5 565Q117 628 155 709H8V785Z" glyph-name="sevensuperior" horiz-adv-x="253" unicode="⁷" /><glyph d="M223 628Q249 613 261.5 592Q274 571 274 542Q274 495 240.5 467.5Q207 440 149 440Q92 440 60.5 465Q29 490 29 533Q29 555 41 573.5Q53 592 79 609Q57 624 46 644.5Q35 665 35 692Q35 737 66 763.5Q97 790 150 790Q204 790 235.5 765Q267 740 267 698Q267 677 256.5 660Q246 643 223 628ZM112 691Q112 679 120 670.5Q128 662 145 657L170 649Q180 659 185 669Q190 679 190 691Q190 705 179.5 712.5Q169 720 151 720Q133 720 122.5 712.5Q112 705 112 691ZM106 542Q106 527 118 518.5Q130 510 152 510Q173 510 185 518Q197 526 197 541Q197 554 187.5 563Q178 572 160 577L133 585Q119 573 112.5 563Q106 553 106 542Z" glyph-name="eightsuperior" horiz-adv-x="303" unicode="⁸" /><glyph d="M269 649 269 579Q269 511 235 475.5Q201 440 136 440Q110 440 86 444.5Q62 449 37 459L58 530Q77 522 95.5 518Q114 514 134 514Q164 514 178.5 530Q193 546 193 579V593Q177 580 158.5 573Q140 566 118 566Q76 566 50.5 594Q25 622 25 670V685Q25 732 57 761Q89 790 142 790Q202 790 235.5 752.5Q269 715 269 649ZM103 685 103 670Q103 654 113.5 644.5Q124 635 142 635Q156 635 168.5 640.5Q181 646 193 656Q192 686 179 701.5Q166 717 142 717Q123 717 113 708.5Q103 700 103 685Z" glyph-name="ninesuperior" horiz-adv-x="303" unicode="⁹" /><glyph d="M163 240Q226 240 259.5 204Q293 168 293 101V30Q293 -37 259 -73.5Q225 -110 163 -110Q100 -110 66.5 -73.5Q33 -37 33 30V101Q33 168 66.5 204Q100 240 163 240ZM213 30 213 101Q213 133 200.5 149Q188 165 163 165Q138 165 126 149Q114 133 114 101V30Q114 -3 126 -18.5Q138 -34 163 -34Q188 -34 200.5 -18Q213 -2 213 30Z" glyph-name="zeroinferior" horiz-adv-x="326" unicode="₀" /><glyph d="M47 124 17 187L113 235H173V-105H94V147Z" glyph-name="oneinferior" horiz-adv-x="220" unicode="₁" /><glyph d="M242 -28 242 -105H21V-37Q21 6 39.5 35.5Q58 65 96 82L130 97Q148 105 156 114Q164 123 164 135V138Q164 151 153 158Q142 165 121 165Q106 165 89 161Q72 157 40 146L21 217Q47 229 72.5 234.5Q98 240 124 240Q182 240 212.5 214Q243 188 243 141V132Q243 99 225 76Q207 53 167 35L133 20Q117 13 109.5 2Q102 -9 100 -28Z" glyph-name="twoinferior" horiz-adv-x="269" unicode="₂" /><glyph d="M243 -5 243 -12Q243 -58 211 -84Q179 -110 119 -110Q92 -110 65 -104.5Q38 -99 15 -89L35 -19Q56 -27 75.5 -30.5Q95 -34 115 -34Q140 -34 152 -27Q164 -20 164 -5V2Q164 17 152.5 26Q141 35 121 35H70V99H121Q140 99 150.5 107Q161 115 161 129V136Q161 151 150 158Q139 165 115 165Q99 165 81.5 161.5Q64 158 42 150L20 220Q45 230 69 235Q93 240 117 240Q177 240 208.5 215Q240 190 240 144V137Q240 114 227.5 96Q215 78 192 67Q216 56 229.5 37.5Q243 19 243 -5Z" glyph-name="threeinferior" horiz-adv-x="275" unicode="₃" /><glyph d="M268 31 268 -38H234V-105H161V-38H13V26Q57 93 84 142.5Q111 192 127 235H212Q195 190 168 140.5Q141 91 99 31H161V77H234V31Z" glyph-name="fourinferior" horiz-adv-x="279" unicode="₄" /><glyph d="M75 34 36 71L46 235H237V166H111L108 108Q116 110 124 110.5Q132 111 141 111Q194 111 223 85.5Q252 60 252 12V-2Q252 -53 219.5 -81.5Q187 -110 127 -110Q96 -110 70.5 -104.5Q45 -99 20 -88L41 -17Q63 -26 83.5 -30Q104 -34 125 -34Q150 -34 161 -26Q172 -18 172 -1V13Q172 29 161 37Q150 45 128 45Q115 45 102 42.5Q89 40 75 34Z" glyph-name="fiveinferior" horiz-adv-x="276" unicode="₅" /><glyph d="M278 10 278 -5Q278 -52 246 -81Q214 -110 161 -110Q101 -110 67.5 -72.5Q34 -35 34 31V101Q34 169 68 204.5Q102 240 167 240Q193 240 217 235.5Q241 231 266 221L245 150Q226 158 207.5 162Q189 166 169 166Q139 166 124.5 150Q110 134 110 101V87Q126 101 144.5 107.5Q163 114 185 114Q227 114 252.5 86Q278 58 278 10ZM161 45Q148 45 135 40Q122 35 110 24Q111 -6 124 -21.5Q137 -37 161 -37Q180 -37 190 -28.5Q200 -20 200 -5V10Q200 26 189.5 35.5Q179 45 161 45Z" glyph-name="sixinferior" horiz-adv-x="303" unicode="₆" /><glyph d="M239 235 239 164Q201 84 178 18.5Q155 -47 144 -105H61Q72 -48 94.5 15Q117 78 155 159H8V235Z" glyph-name="seveninferior" horiz-adv-x="253" unicode="₇" /><glyph d="M223 78Q249 63 261.5 42Q274 21 274 -8Q274 -55 240.5 -82.5Q207 -110 149 -110Q92 -110 60.5 -85Q29 -60 29 -17Q29 5 41 23.5Q53 42 79 59Q57 74 46 94.5Q35 115 35 142Q35 187 66 213.5Q97 240 150 240Q204 240 235.5 215Q267 190 267 148Q267 127 256.5 110Q246 93 223 78ZM112 141Q112 129 120 120.5Q128 112 145 107L170 99Q180 109 185 119Q190 129 190 141Q190 155 179.5 162.5Q169 170 151 170Q133 170 122.5 162.5Q112 155 112 141ZM106 -8Q106 -23 118 -31.5Q130 -40 152 -40Q173 -40 185 -32Q197 -24 197 -9Q197 4 187.5 13Q178 22 160 27L133 35Q119 23 112.5 13Q106 3 106 -8Z" glyph-name="eightinferior" horiz-adv-x="303" unicode="₈" /><glyph d="M269 99 269 29Q269 -39 235 -74.5Q201 -110 136 -110Q110 -110 86 -105.5Q62 -101 37 -91L58 -20Q77 -28 95.5 -32Q114 -36 134 -36Q164 -36 178.5 -20Q193 -4 193 29V43Q177 30 158.5 23Q140 16 118 16Q76 16 50.5 44Q25 72 25 120V135Q25 182 57 211Q89 240 142 240Q202 240 235.5 202.5Q269 165 269 99ZM103 135 103 120Q103 104 113.5 94.5Q124 85 142 85Q156 85 168.5 90.5Q181 96 193 106Q192 136 179 151.5Q166 167 142 167Q123 167 113 158.5Q103 150 103 135Z" glyph-name="nineinferior" horiz-adv-x="303" unicode="₉" /><glyph d="M163 240Q226 240 259.5 204Q293 168 293 101V30Q293 -37 259 -73.5Q225 -110 163 -110Q100 -110 66.5 -73.5Q33 -37 33 30V101Q33 168 66.5 204Q100 240 163 240ZM213 30 213 101Q213 133 200.5 149Q188 165 163 165Q138 165 126 149Q114 133 114 101V30Q114 -3 126 -18.5Q138 -34 163 -34Q188 -34 200.5 -18Q213 -2 213 30Z" glyph-name="zero.numerator" horiz-adv-x="326" unicode="" /><glyph d="M47 124 17 187L113 235H173V-105H94V147Z" glyph-name="one.numerator" horiz-adv-x="220" unicode="" /><glyph d="M242 -28 242 -105H21V-37Q21 6 39.5 35.5Q58 65 96 82L130 97Q148 105 156 114Q164 123 164 135V138Q164 151 153 158Q142 165 121 165Q106 165 89 161Q72 157 40 146L21 217Q47 229 72.5 234.5Q98 240 124 240Q182 240 212.5 214Q243 188 243 141V132Q243 99 225 76Q207 53 167 35L133 20Q117 13 109.5 2Q102 -9 100 -28Z" glyph-name="two.numerator" horiz-adv-x="269" unicode="" /><glyph d="M243 -5 243 -12Q243 -58 211 -84Q179 -110 119 -110Q92 -110 65 -104.5Q38 -99 15 -89L35 -19Q56 -27 75.5 -30.5Q95 -34 115 -34Q140 -34 152 -27Q164 -20 164 -5V2Q164 17 152.5 26Q141 35 121 35H70V99H121Q140 99 150.5 107Q161 115 161 129V136Q161 151 150 158Q139 165 115 165Q99 165 81.5 161.5Q64 158 42 150L20 220Q45 230 69 235Q93 240 117 240Q177 240 208.5 215Q240 190 240 144V137Q240 114 227.5 96Q215 78 192 67Q216 56 229.5 37.5Q243 19 243 -5Z" glyph-name="three.numerator" horiz-adv-x="275" unicode="" /><glyph d="M268 31 268 -38H234V-105H161V-38H13V26Q57 93 84 142.5Q111 192 127 235H212Q195 190 168 140.5Q141 91 99 31H161V77H234V31Z" glyph-name="four.numerator" horiz-adv-x="279" unicode="" /><glyph d="M75 34 36 71L46 235H237V166H111L108 108Q116 110 124 110.5Q132 111 141 111Q194 111 223 85.5Q252 60 252 12V-2Q252 -53 219.5 -81.5Q187 -110 127 -110Q96 -110 70.5 -104.5Q45 -99 20 -88L41 -17Q63 -26 83.5 -30Q104 -34 125 -34Q150 -34 161 -26Q172 -18 172 -1V13Q172 29 161 37Q150 45 128 45Q115 45 102 42.5Q89 40 75 34Z" glyph-name="five.numerator" horiz-adv-x="276" unicode="" /><glyph d="M278 10 278 -5Q278 -52 246 -81Q214 -110 161 -110Q101 -110 67.5 -72.5Q34 -35 34 31V101Q34 169 68 204.5Q102 240 167 240Q193 240 217 235.5Q241 231 266 221L245 150Q226 158 207.5 162Q189 166 169 166Q139 166 124.5 150Q110 134 110 101V87Q126 101 144.5 107.5Q163 114 185 114Q227 114 252.5 86Q278 58 278 10ZM161 45Q148 45 135 40Q122 35 110 24Q111 -6 124 -21.5Q137 -37 161 -37Q180 -37 190 -28.5Q200 -20 200 -5V10Q200 26 189.5 35.5Q179 45 161 45Z" glyph-name="six.numerator" horiz-adv-x="303" unicode="" /><glyph d="M239 235 239 164Q201 84 178 18.5Q155 -47 144 -105H61Q72 -48 94.5 15Q117 78 155 159H8V235Z" glyph-name="seven.numerator" horiz-adv-x="253" unicode="" /><glyph d="M223 78Q249 63 261.5 42Q274 21 274 -8Q274 -55 240.5 -82.5Q207 -110 149 -110Q92 -110 60.5 -85Q29 -60 29 -17Q29 5 41 23.5Q53 42 79 59Q57 74 46 94.5Q35 115 35 142Q35 187 66 213.5Q97 240 150 240Q204 240 235.5 215Q267 190 267 148Q267 127 256.5 110Q246 93 223 78ZM112 141Q112 129 120 120.5Q128 112 145 107L170 99Q180 109 185 119Q190 129 190 141Q190 155 179.5 162.5Q169 170 151 170Q133 170 122.5 162.5Q112 155 112 141ZM106 -8Q106 -23 118 -31.5Q130 -40 152 -40Q173 -40 185 -32Q197 -24 197 -9Q197 4 187.5 13Q178 22 160 27L133 35Q119 23 112.5 13Q106 3 106 -8Z" glyph-name="eight.numerator" horiz-adv-x="303" unicode="" /><glyph d="M269 99 269 29Q269 -39 235 -74.5Q201 -110 136 -110Q110 -110 86 -105.5Q62 -101 37 -91L58 -20Q77 -28 95.5 -32Q114 -36 134 -36Q164 -36 178.5 -20Q193 -4 193 29V43Q177 30 158.5 23Q140 16 118 16Q76 16 50.5 44Q25 72 25 120V135Q25 182 57 211Q89 240 142 240Q202 240 235.5 202.5Q269 165 269 99ZM103 135 103 120Q103 104 113.5 94.5Q124 85 142 85Q156 85 168.5 90.5Q181 96 193 106Q192 136 179 151.5Q166 167 142 167Q123 167 113 158.5Q103 150 103 135Z" glyph-name="nine.numerator" horiz-adv-x="303" unicode="" /><glyph d="M163 345Q226 345 259.5 309Q293 273 293 206V135Q293 68 259 31.5Q225 -5 163 -5Q100 -5 66.5 31.5Q33 68 33 135V206Q33 273 66.5 309Q100 345 163 345ZM213 135 213 206Q213 238 200.5 254Q188 270 163 270Q138 270 126 254Q114 238 114 206V135Q114 102 126 86.5Q138 71 163 71Q188 71 200.5 87Q213 103 213 135Z" glyph-name="zero.denominator" horiz-adv-x="326" unicode="" /><glyph d="M47 229 17 292L113 340H173V0H94V252Z" glyph-name="one.denominator" horiz-adv-x="220" unicode="" /><glyph d="M242 77 242 0H21V68Q21 111 39.5 140.5Q58 170 96 187L130 202Q148 210 156 219Q164 228 164 240V243Q164 256 153 263Q142 270 121 270Q106 270 89 266Q72 262 40 251L21 322Q47 334 72.5 339.5Q98 345 124 345Q182 345 212.5 319Q243 293 243 246V237Q243 204 225 181Q207 158 167 140L133 125Q117 118 109.5 107Q102 96 100 77Z" glyph-name="two.denominator" horiz-adv-x="269" unicode="" /><glyph d="M243 100 243 93Q243 47 211 21Q179 -5 119 -5Q92 -5 65 0.5Q38 6 15 16L35 86Q56 78 75.5 74.5Q95 71 115 71Q140 71 152 78Q164 85 164 100V107Q164 122 152.5 131Q141 140 121 140H70V204H121Q140 204 150.5 212Q161 220 161 234V241Q161 256 150 263Q139 270 115 270Q99 270 81.5 266.5Q64 263 42 255L20 325Q45 335 69 340Q93 345 117 345Q177 345 208.5 320Q240 295 240 249V242Q240 219 227.5 201Q215 183 192 172Q216 161 229.5 142.5Q243 124 243 100Z" glyph-name="three.denominator" horiz-adv-x="275" unicode="" /><glyph d="M268 136 268 67H234V0H161V67H13V131Q57 198 84 247.5Q111 297 127 340H212Q195 295 168 245.5Q141 196 99 136H161V182H234V136Z" glyph-name="four.denominator" horiz-adv-x="279" unicode="" /><glyph d="M75 139 36 176L46 340H237V271H111L108 213Q116 215 124 215.5Q132 216 141 216Q194 216 223 190.5Q252 165 252 117V103Q252 52 219.5 23.5Q187 -5 127 -5Q96 -5 70.5 0.5Q45 6 20 17L41 88Q63 79 83.5 75Q104 71 125 71Q150 71 161 79Q172 87 172 104V118Q172 134 161 142Q150 150 128 150Q115 150 102 147.5Q89 145 75 139Z" glyph-name="five.denominator" horiz-adv-x="276" unicode="" /><glyph d="M278 115 278 100Q278 53 246 24Q214 -5 161 -5Q101 -5 67.5 32.5Q34 70 34 136V206Q34 274 68 309.5Q102 345 167 345Q193 345 217 340.5Q241 336 266 326L245 255Q226 263 207.5 267Q189 271 169 271Q139 271 124.5 255Q110 239 110 206V192Q126 206 144.5 212.5Q163 219 185 219Q227 219 252.5 191Q278 163 278 115ZM161 150Q148 150 135 145Q122 140 110 129Q111 99 124 83.5Q137 68 161 68Q180 68 190 76.5Q200 85 200 100V115Q200 131 189.5 140.5Q179 150 161 150Z" glyph-name="six.denominator" horiz-adv-x="303" unicode="" /><glyph d="M239 340 239 269Q201 189 178 123.5Q155 58 144 0H61Q72 57 94.5 120Q117 183 155 264H8V340Z" glyph-name="seven.denominator" horiz-adv-x="253" unicode="" /><glyph d="M223 183Q249 168 261.5 147Q274 126 274 97Q274 50 240.5 22.5Q207 -5 149 -5Q92 -5 60.5 20Q29 45 29 88Q29 110 41 128.5Q53 147 79 164Q57 179 46 199.5Q35 220 35 247Q35 292 66 318.5Q97 345 150 345Q204 345 235.5 320Q267 295 267 253Q267 232 256.5 215Q246 198 223 183ZM112 246Q112 234 120 225.5Q128 217 145 212L170 204Q180 214 185 224Q190 234 190 246Q190 260 179.5 267.5Q169 275 151 275Q133 275 122.5 267.5Q112 260 112 246ZM106 97Q106 82 118 73.5Q130 65 152 65Q173 65 185 73Q197 81 197 96Q197 109 187.5 118Q178 127 160 132L133 140Q119 128 112.5 118Q106 108 106 97Z" glyph-name="eight.denominator" horiz-adv-x="303" unicode="" /><glyph d="M269 204 269 134Q269 66 235 30.5Q201 -5 136 -5Q110 -5 86 -0.5Q62 4 37 14L58 85Q77 77 95.5 73Q114 69 134 69Q164 69 178.5 85Q193 101 193 134V148Q177 135 158.5 128Q140 121 118 121Q76 121 50.5 149Q25 177 25 225V240Q25 287 57 316Q89 345 142 345Q202 345 235.5 307.5Q269 270 269 204ZM103 240 103 225Q103 209 113.5 199.5Q124 190 142 190Q156 190 168.5 195.5Q181 201 193 211Q192 241 179 256.5Q166 272 142 272Q123 272 113 263.5Q103 255 103 240Z" glyph-name="nine.denominator" horiz-adv-x="303" unicode="" /><glyph d="M47 569 17 632L113 680H173V340H94V592ZM91 0 420 680H510L181 0ZM618 77 618 0H397V68Q397 111 415.5 140.5Q434 170 472 187L506 202Q524 210 532 219Q540 228 540 240V243Q540 256 529 263Q518 270 497 270Q482 270 465 266Q448 262 416 251L397 322Q423 334 448.5 339.5Q474 345 500 345Q558 345 588.5 319Q619 293 619 246V237Q619 204 601 181Q583 158 543 140L509 125Q493 118 485.5 107Q478 96 476 77Z" glyph-name="onehalf" horiz-adv-x="645" unicode="½" /><glyph d="M47 569 17 632L113 680H173V340H94V592ZM91 0 420 680H510L181 0ZM612 100 612 93Q612 47 580 21Q548 -5 488 -5Q461 -5 434 0.5Q407 6 384 16L404 86Q425 78 444.5 74.5Q464 71 484 71Q509 71 521 78Q533 85 533 100V107Q533 122 521.5 131Q510 140 490 140H439V204H490Q509 204 519.5 212Q530 220 530 234V241Q530 256 519 263Q508 270 484 270Q468 270 450.5 266.5Q433 263 411 255L389 325Q414 335 438 340Q462 345 486 345Q546 345 577.5 320Q609 295 609 249V242Q609 219 596.5 201Q584 183 561 172Q585 161 598.5 142.5Q612 124 612 100Z" glyph-name="onethird" horiz-adv-x="644" unicode="⅓" /><glyph d="M47 569 17 632L113 680H173V340H94V592ZM91 0 420 680H510L181 0ZM608 136 608 67H574V0H501V67H353V131Q397 198 424 247.5Q451 297 467 340H552Q535 295 508 245.5Q481 196 439 136H501V182H574V136Z" glyph-name="onequarter" horiz-adv-x="614" unicode="¼" /><glyph d="M47 569 17 632L113 680H173V340H94V592ZM91 0 420 680H510L181 0ZM437 139 398 176L408 340H599V271H473L470 213Q478 215 486 215.5Q494 216 503 216Q556 216 585 190.5Q614 165 614 117V103Q614 52 581.5 23.5Q549 -5 489 -5Q458 -5 432.5 0.5Q407 6 382 17L403 88Q425 79 445.5 75Q466 71 487 71Q512 71 523 79Q534 87 534 104V118Q534 134 523 142Q512 150 490 150Q477 150 464 147.5Q451 145 437 139Z" glyph-name="onefifth" horiz-adv-x="638" unicode="" /><glyph d="M47 569 17 632L113 680H173V340H94V592ZM91 0 420 680H510L181 0ZM634 115 634 100Q634 53 602 24Q570 -5 517 -5Q457 -5 423.5 32.5Q390 70 390 136V206Q390 274 424 309.5Q458 345 523 345Q549 345 573 340.5Q597 336 622 326L601 255Q582 263 563.5 267Q545 271 525 271Q495 271 480.5 255Q466 239 466 206V192Q482 206 500.5 212.5Q519 219 541 219Q583 219 608.5 191Q634 163 634 115ZM517 150Q504 150 491 145Q478 140 466 129Q467 99 480 83.5Q493 68 517 68Q536 68 546 76.5Q556 85 556 100V115Q556 131 545.5 140.5Q535 150 517 150Z" glyph-name="onesixth" horiz-adv-x="659" unicode="" /><glyph d="M47 569 17 632L113 680H173V340H94V592ZM91 0 420 680H510L181 0ZM635 340 635 269Q597 189 574 123.5Q551 58 540 0H457Q468 57 490.5 120Q513 183 551 264H404V340Z" glyph-name="oneseventh" horiz-adv-x="649" unicode="" /><glyph d="M47 569 17 632L113 680H173V340H94V592ZM91 0 420 680H510L181 0ZM579 183Q605 168 617.5 147Q630 126 630 97Q630 50 596.5 22.5Q563 -5 505 -5Q448 -5 416.5 20Q385 45 385 88Q385 110 397 128.5Q409 147 435 164Q413 179 402 199.5Q391 220 391 247Q391 292 422 318.5Q453 345 506 345Q560 345 591.5 320Q623 295 623 253Q623 232 612.5 215Q602 198 579 183ZM468 246Q468 234 476 225.5Q484 217 501 212L526 204Q536 214 541 224Q546 234 546 246Q546 260 535.5 267.5Q525 275 507 275Q489 275 478.5 267.5Q468 260 468 246ZM462 97Q462 82 474 73.5Q486 65 508 65Q529 65 541 73Q553 81 553 96Q553 109 543.5 118Q534 127 516 132L489 140Q475 128 468.5 118Q462 108 462 97Z" glyph-name="oneeighth" horiz-adv-x="659" unicode="⅛" /><glyph d="M47 569 17 632L113 680H173V340H94V592ZM91 0 420 680H510L181 0ZM625 204 625 134Q625 66 591 30.5Q557 -5 492 -5Q466 -5 442 -0.5Q418 4 393 14L414 85Q433 77 451.5 73Q470 69 490 69Q520 69 534.5 85Q549 101 549 134V148Q533 135 514.5 128Q496 121 474 121Q432 121 406.5 149Q381 177 381 225V240Q381 287 413 316Q445 345 498 345Q558 345 591.5 307.5Q625 270 625 204ZM459 240 459 225Q459 209 469.5 199.5Q480 190 498 190Q512 190 524.5 195.5Q537 201 549 211Q548 241 535 256.5Q522 272 498 272Q479 272 469 263.5Q459 255 459 240Z" glyph-name="oneninth" horiz-adv-x="659" unicode="" /><glyph d="M242 417 242 340H21V408Q21 451 39.5 480.5Q58 510 96 527L130 542Q148 550 156 559Q164 568 164 580V583Q164 596 153 603Q142 610 121 610Q106 610 89 606Q72 602 40 591L21 662Q47 674 72.5 679.5Q98 685 124 685Q182 685 212.5 659Q243 633 243 586V577Q243 544 225 521Q207 498 167 480L133 465Q117 458 109.5 447Q102 436 100 417ZM140 0 469 680H559L230 0ZM661 100 661 93Q661 47 629 21Q597 -5 537 -5Q510 -5 483 0.5Q456 6 433 16L453 86Q474 78 493.5 74.5Q513 71 533 71Q558 71 570 78Q582 85 582 100V107Q582 122 570.5 131Q559 140 539 140H488V204H539Q558 204 568.5 212Q579 220 579 234V241Q579 256 568 263Q557 270 533 270Q517 270 499.5 266.5Q482 263 460 255L438 325Q463 335 487 340Q511 345 535 345Q595 345 626.5 320Q658 295 658 249V242Q658 219 645.5 201Q633 183 610 172Q634 161 647.5 142.5Q661 124 661 100Z" glyph-name="twothirds" horiz-adv-x="693" unicode="⅔" /><glyph d="M242 417 242 340H21V408Q21 451 39.5 480.5Q58 510 96 527L130 542Q148 550 156 559Q164 568 164 580V583Q164 596 153 603Q142 610 121 610Q106 610 89 606Q72 602 40 591L21 662Q47 674 72.5 679.5Q98 685 124 685Q182 685 212.5 659Q243 633 243 586V577Q243 544 225 521Q207 498 167 480L133 465Q117 458 109.5 447Q102 436 100 417ZM140 0 469 680H559L230 0ZM486 139 447 176L457 340H648V271H522L519 213Q527 215 535 215.5Q543 216 552 216Q605 216 634 190.5Q663 165 663 117V103Q663 52 630.5 23.5Q598 -5 538 -5Q507 -5 481.5 0.5Q456 6 431 17L452 88Q474 79 494.5 75Q515 71 536 71Q561 71 572 79Q583 87 583 104V118Q583 134 572 142Q561 150 539 150Q526 150 513 147.5Q500 145 486 139Z" glyph-name="twofifths" horiz-adv-x="687" unicode="" /><glyph d="M242 417 242 340H21V408Q21 451 39.5 480.5Q58 510 96 527L130 542Q148 550 156 559Q164 568 164 580V583Q164 596 153 603Q142 610 121 610Q106 610 89 606Q72 602 40 591L21 662Q47 674 72.5 679.5Q98 685 124 685Q182 685 212.5 659Q243 633 243 586V577Q243 544 225 521Q207 498 167 480L133 465Q117 458 109.5 447Q102 436 100 417ZM140 0 469 680H559L230 0ZM684 340 684 269Q646 189 623 123.5Q600 58 589 0H506Q517 57 539.5 120Q562 183 600 264H453V340Z" glyph-name="twosevenths" horiz-adv-x="698" unicode="" /><glyph d="M242 417 242 340H21V408Q21 451 39.5 480.5Q58 510 96 527L130 542Q148 550 156 559Q164 568 164 580V583Q164 596 153 603Q142 610 121 610Q106 610 89 606Q72 602 40 591L21 662Q47 674 72.5 679.5Q98 685 124 685Q182 685 212.5 659Q243 633 243 586V577Q243 544 225 521Q207 498 167 480L133 465Q117 458 109.5 447Q102 436 100 417ZM140 0 469 680H559L230 0ZM674 204 674 134Q674 66 640 30.5Q606 -5 541 -5Q515 -5 491 -0.5Q467 4 442 14L463 85Q482 77 500.5 73Q519 69 539 69Q569 69 583.5 85Q598 101 598 134V148Q582 135 563.5 128Q545 121 523 121Q481 121 455.5 149Q430 177 430 225V240Q430 287 462 316Q494 345 547 345Q607 345 640.5 307.5Q674 270 674 204ZM508 240 508 225Q508 209 518.5 199.5Q529 190 547 190Q561 190 573.5 195.5Q586 201 598 211Q597 241 584 256.5Q571 272 547 272Q528 272 518 263.5Q508 255 508 240Z" glyph-name="twoninths" horiz-adv-x="708" unicode="" /><glyph d="M243 440 243 433Q243 387 211 361Q179 335 119 335Q92 335 65 340.5Q38 346 15 356L35 426Q56 418 75.5 414.5Q95 411 115 411Q140 411 152 418Q164 425 164 440V447Q164 462 152.5 471Q141 480 121 480H70V544H121Q140 544 150.5 552Q161 560 161 574V581Q161 596 150 603Q139 610 115 610Q99 610 81.5 606.5Q64 603 42 595L20 665Q45 675 69 680Q93 685 117 685Q177 685 208.5 660Q240 635 240 589V582Q240 559 227.5 541Q215 523 192 512Q216 501 229.5 482.5Q243 464 243 440ZM121 0 450 680H540L211 0ZM638 136 638 67H604V0H531V67H383V131Q427 198 454 247.5Q481 297 497 340H582Q565 295 538 245.5Q511 196 469 136H531V182H604V136Z" glyph-name="threequarters" horiz-adv-x="644" unicode="¾" /><glyph d="M243 440 243 433Q243 387 211 361Q179 335 119 335Q92 335 65 340.5Q38 346 15 356L35 426Q56 418 75.5 414.5Q95 411 115 411Q140 411 152 418Q164 425 164 440V447Q164 462 152.5 471Q141 480 121 480H70V544H121Q140 544 150.5 552Q161 560 161 574V581Q161 596 150 603Q139 610 115 610Q99 610 81.5 606.5Q64 603 42 595L20 665Q45 675 69 680Q93 685 117 685Q177 685 208.5 660Q240 635 240 589V582Q240 559 227.5 541Q215 523 192 512Q216 501 229.5 482.5Q243 464 243 440ZM121 0 450 680H540L211 0ZM467 139 428 176L438 340H629V271H503L500 213Q508 215 516 215.5Q524 216 533 216Q586 216 615 190.5Q644 165 644 117V103Q644 52 611.5 23.5Q579 -5 519 -5Q488 -5 462.5 0.5Q437 6 412 17L433 88Q455 79 475.5 75Q496 71 517 71Q542 71 553 79Q564 87 564 104V118Q564 134 553 142Q542 150 520 150Q507 150 494 147.5Q481 145 467 139Z" glyph-name="threefifths" horiz-adv-x="668" unicode="" /><glyph d="M243 440 243 433Q243 387 211 361Q179 335 119 335Q92 335 65 340.5Q38 346 15 356L35 426Q56 418 75.5 414.5Q95 411 115 411Q140 411 152 418Q164 425 164 440V447Q164 462 152.5 471Q141 480 121 480H70V544H121Q140 544 150.5 552Q161 560 161 574V581Q161 596 150 603Q139 610 115 610Q99 610 81.5 606.5Q64 603 42 595L20 665Q45 675 69 680Q93 685 117 685Q177 685 208.5 660Q240 635 240 589V582Q240 559 227.5 541Q215 523 192 512Q216 501 229.5 482.5Q243 464 243 440ZM121 0 450 680H540L211 0ZM665 340 665 269Q627 189 604 123.5Q581 58 570 0H487Q498 57 520.5 120Q543 183 581 264H434V340Z" glyph-name="threesevenths" horiz-adv-x="679" unicode="" /><glyph d="M243 440 243 433Q243 387 211 361Q179 335 119 335Q92 335 65 340.5Q38 346 15 356L35 426Q56 418 75.5 414.5Q95 411 115 411Q140 411 152 418Q164 425 164 440V447Q164 462 152.5 471Q141 480 121 480H70V544H121Q140 544 150.5 552Q161 560 161 574V581Q161 596 150 603Q139 610 115 610Q99 610 81.5 606.5Q64 603 42 595L20 665Q45 675 69 680Q93 685 117 685Q177 685 208.5 660Q240 635 240 589V582Q240 559 227.5 541Q215 523 192 512Q216 501 229.5 482.5Q243 464 243 440ZM121 0 450 680H540L211 0ZM609 183Q635 168 647.5 147Q660 126 660 97Q660 50 626.5 22.5Q593 -5 535 -5Q478 -5 446.5 20Q415 45 415 88Q415 110 427 128.5Q439 147 465 164Q443 179 432 199.5Q421 220 421 247Q421 292 452 318.5Q483 345 536 345Q590 345 621.5 320Q653 295 653 253Q653 232 642.5 215Q632 198 609 183ZM498 246Q498 234 506 225.5Q514 217 531 212L556 204Q566 214 571 224Q576 234 576 246Q576 260 565.5 267.5Q555 275 537 275Q519 275 508.5 267.5Q498 260 498 246ZM492 97Q492 82 504 73.5Q516 65 538 65Q559 65 571 73Q583 81 583 96Q583 109 573.5 118Q564 127 546 132L519 140Q505 128 498.5 118Q492 108 492 97Z" glyph-name="threeeighths" horiz-adv-x="689" unicode="⅜" /><glyph d="M268 476 268 407H234V340H161V407H13V471Q57 538 84 587.5Q111 637 127 680H212Q195 635 168 585.5Q141 536 99 476H161V522H234V476ZM145 0 474 680H564L235 0ZM491 139 452 176L462 340H653V271H527L524 213Q532 215 540 215.5Q548 216 557 216Q610 216 639 190.5Q668 165 668 117V103Q668 52 635.5 23.5Q603 -5 543 -5Q512 -5 486.5 0.5Q461 6 436 17L457 88Q479 79 499.5 75Q520 71 541 71Q566 71 577 79Q588 87 588 104V118Q588 134 577 142Q566 150 544 150Q531 150 518 147.5Q505 145 491 139Z" glyph-name="fourfifths" horiz-adv-x="692" unicode="" /><glyph d="M268 476 268 407H234V340H161V407H13V471Q57 538 84 587.5Q111 637 127 680H212Q195 635 168 585.5Q141 536 99 476H161V522H234V476ZM145 0 474 680H564L235 0ZM689 340 689 269Q651 189 628 123.5Q605 58 594 0H511Q522 57 544.5 120Q567 183 605 264H458V340Z" glyph-name="foursevenths" horiz-adv-x="703" unicode="" /><glyph d="M268 476 268 407H234V340H161V407H13V471Q57 538 84 587.5Q111 637 127 680H212Q195 635 168 585.5Q141 536 99 476H161V522H234V476ZM145 0 474 680H564L235 0ZM679 204 679 134Q679 66 645 30.5Q611 -5 546 -5Q520 -5 496 -0.5Q472 4 447 14L468 85Q487 77 505.5 73Q524 69 544 69Q574 69 588.5 85Q603 101 603 134V148Q587 135 568.5 128Q550 121 528 121Q486 121 460.5 149Q435 177 435 225V240Q435 287 467 316Q499 345 552 345Q612 345 645.5 307.5Q679 270 679 204ZM513 240 513 225Q513 209 523.5 199.5Q534 190 552 190Q566 190 578.5 195.5Q591 201 603 211Q602 241 589 256.5Q576 272 552 272Q533 272 523 263.5Q513 255 513 240Z" glyph-name="fourninths" horiz-adv-x="713" unicode="" /><glyph d="M75 479 36 516L46 680H237V611H111L108 553Q116 555 124 555.5Q132 556 141 556Q194 556 223 530.5Q252 505 252 457V443Q252 392 219.5 363.5Q187 335 127 335Q96 335 70.5 340.5Q45 346 20 357L41 428Q63 419 83.5 415Q104 411 125 411Q150 411 161 419Q172 427 172 444V458Q172 474 161 482Q150 490 128 490Q115 490 102 487.5Q89 485 75 479ZM122 0 451 680H541L212 0ZM665 115 665 100Q665 53 633 24Q601 -5 548 -5Q488 -5 454.5 32.5Q421 70 421 136V206Q421 274 455 309.5Q489 345 554 345Q580 345 604 340.5Q628 336 653 326L632 255Q613 263 594.5 267Q576 271 556 271Q526 271 511.5 255Q497 239 497 206V192Q513 206 531.5 212.5Q550 219 572 219Q614 219 639.5 191Q665 163 665 115ZM548 150Q535 150 522 145Q509 140 497 129Q498 99 511 83.5Q524 68 548 68Q567 68 577 76.5Q587 85 587 100V115Q587 131 576.5 140.5Q566 150 548 150Z" glyph-name="fivesixths" horiz-adv-x="690" unicode="" /><glyph d="M75 479 36 516L46 680H237V611H111L108 553Q116 555 124 555.5Q132 556 141 556Q194 556 223 530.5Q252 505 252 457V443Q252 392 219.5 363.5Q187 335 127 335Q96 335 70.5 340.5Q45 346 20 357L41 428Q63 419 83.5 415Q104 411 125 411Q150 411 161 419Q172 427 172 444V458Q172 474 161 482Q150 490 128 490Q115 490 102 487.5Q89 485 75 479ZM122 0 451 680H541L212 0ZM666 340 666 269Q628 189 605 123.5Q582 58 571 0H488Q499 57 521.5 120Q544 183 582 264H435V340Z" glyph-name="fivesevenths" horiz-adv-x="680" unicode="" /><glyph d="M75 479 36 516L46 680H237V611H111L108 553Q116 555 124 555.5Q132 556 141 556Q194 556 223 530.5Q252 505 252 457V443Q252 392 219.5 363.5Q187 335 127 335Q96 335 70.5 340.5Q45 346 20 357L41 428Q63 419 83.5 415Q104 411 125 411Q150 411 161 419Q172 427 172 444V458Q172 474 161 482Q150 490 128 490Q115 490 102 487.5Q89 485 75 479ZM122 0 451 680H541L212 0ZM610 183Q636 168 648.5 147Q661 126 661 97Q661 50 627.5 22.5Q594 -5 536 -5Q479 -5 447.5 20Q416 45 416 88Q416 110 428 128.5Q440 147 466 164Q444 179 433 199.5Q422 220 422 247Q422 292 453 318.5Q484 345 537 345Q591 345 622.5 320Q654 295 654 253Q654 232 643.5 215Q633 198 610 183ZM499 246Q499 234 507 225.5Q515 217 532 212L557 204Q567 214 572 224Q577 234 577 246Q577 260 566.5 267.5Q556 275 538 275Q520 275 509.5 267.5Q499 260 499 246ZM493 97Q493 82 505 73.5Q517 65 539 65Q560 65 572 73Q584 81 584 96Q584 109 574.5 118Q565 127 547 132L520 140Q506 128 499.5 118Q493 108 493 97Z" glyph-name="fiveeighths" horiz-adv-x="690" unicode="⅝" /><glyph d="M75 479 36 516L46 680H237V611H111L108 553Q116 555 124 555.5Q132 556 141 556Q194 556 223 530.5Q252 505 252 457V443Q252 392 219.5 363.5Q187 335 127 335Q96 335 70.5 340.5Q45 346 20 357L41 428Q63 419 83.5 415Q104 411 125 411Q150 411 161 419Q172 427 172 444V458Q172 474 161 482Q150 490 128 490Q115 490 102 487.5Q89 485 75 479ZM122 0 451 680H541L212 0ZM656 204 656 134Q656 66 622 30.5Q588 -5 523 -5Q497 -5 473 -0.5Q449 4 424 14L445 85Q464 77 482.5 73Q501 69 521 69Q551 69 565.5 85Q580 101 580 134V148Q564 135 545.5 128Q527 121 505 121Q463 121 437.5 149Q412 177 412 225V240Q412 287 444 316Q476 345 529 345Q589 345 622.5 307.5Q656 270 656 204ZM490 240 490 225Q490 209 500.5 199.5Q511 190 529 190Q543 190 555.5 195.5Q568 201 580 211Q579 241 566 256.5Q553 272 529 272Q510 272 500 263.5Q490 255 490 240Z" glyph-name="fiveninths" horiz-adv-x="690" unicode="" /><glyph d="M278 455 278 440Q278 393 246 364Q214 335 161 335Q101 335 67.5 372.5Q34 410 34 476V546Q34 614 68 649.5Q102 685 167 685Q193 685 217 680.5Q241 676 266 666L245 595Q226 603 207.5 607Q189 611 169 611Q139 611 124.5 595Q110 579 110 546V532Q126 546 144.5 552.5Q163 559 185 559Q227 559 252.5 531Q278 503 278 455ZM161 490Q148 490 135 485Q122 480 110 469Q111 439 124 423.5Q137 408 161 408Q180 408 190 416.5Q200 425 200 440V455Q200 471 189.5 480.5Q179 490 161 490ZM149 0 478 680H568L239 0ZM693 340 693 269Q655 189 632 123.5Q609 58 598 0H515Q526 57 548.5 120Q571 183 609 264H462V340Z" glyph-name="sixsevenths" horiz-adv-x="707" unicode="" /><glyph d="M239 680 239 609Q201 529 178 463.5Q155 398 144 340H61Q72 397 94.5 460Q117 523 155 604H8V680ZM84 0 413 680H503L174 0ZM572 183Q598 168 610.5 147Q623 126 623 97Q623 50 589.5 22.5Q556 -5 498 -5Q441 -5 409.5 20Q378 45 378 88Q378 110 390 128.5Q402 147 428 164Q406 179 395 199.5Q384 220 384 247Q384 292 415 318.5Q446 345 499 345Q553 345 584.5 320Q616 295 616 253Q616 232 605.5 215Q595 198 572 183ZM461 246Q461 234 469 225.5Q477 217 494 212L519 204Q529 214 534 224Q539 234 539 246Q539 260 528.5 267.5Q518 275 500 275Q482 275 471.5 267.5Q461 260 461 246ZM455 97Q455 82 467 73.5Q479 65 501 65Q522 65 534 73Q546 81 546 96Q546 109 536.5 118Q527 127 509 132L482 140Q468 128 461.5 118Q455 108 455 97Z" glyph-name="seveneighths" horiz-adv-x="652" unicode="⅞" /><glyph d="M239 680 239 609Q201 529 178 463.5Q155 398 144 340H61Q72 397 94.5 460Q117 523 155 604H8V680ZM84 0 413 680H503L174 0ZM618 204 618 134Q618 66 584 30.5Q550 -5 485 -5Q459 -5 435 -0.5Q411 4 386 14L407 85Q426 77 444.5 73Q463 69 483 69Q513 69 527.5 85Q542 101 542 134V148Q526 135 507.5 128Q489 121 467 121Q425 121 399.5 149Q374 177 374 225V240Q374 287 406 316Q438 345 491 345Q551 345 584.5 307.5Q618 270 618 204ZM452 240 452 225Q452 209 462.5 199.5Q473 190 491 190Q505 190 517.5 195.5Q530 201 542 211Q541 241 528 256.5Q515 272 491 272Q472 272 462 263.5Q452 255 452 240Z" glyph-name="sevenninths" horiz-adv-x="652" unicode="" /><glyph d="M223 523Q249 508 261.5 487Q274 466 274 437Q274 390 240.5 362.5Q207 335 149 335Q92 335 60.5 360Q29 385 29 428Q29 450 41 468.5Q53 487 79 504Q57 519 46 539.5Q35 560 35 587Q35 632 66 658.5Q97 685 150 685Q204 685 235.5 660Q267 635 267 593Q267 572 256.5 555Q246 538 223 523ZM112 586Q112 574 120 565.5Q128 557 145 552L170 544Q180 554 185 564Q190 574 190 586Q190 600 179.5 607.5Q169 615 151 615Q133 615 122.5 607.5Q112 600 112 586ZM106 437Q106 422 118 413.5Q130 405 152 405Q173 405 185 413Q197 421 197 436Q197 449 187.5 458Q178 467 160 472L133 480Q119 468 112.5 458Q106 448 106 437ZM149 0 478 680H568L239 0ZM683 204 683 134Q683 66 649 30.5Q615 -5 550 -5Q524 -5 500 -0.5Q476 4 451 14L472 85Q491 77 509.5 73Q528 69 548 69Q578 69 592.5 85Q607 101 607 134V148Q591 135 572.5 128Q554 121 532 121Q490 121 464.5 149Q439 177 439 225V240Q439 287 471 316Q503 345 556 345Q616 345 649.5 307.5Q683 270 683 204ZM517 240 517 225Q517 209 527.5 199.5Q538 190 556 190Q570 190 582.5 195.5Q595 201 607 211Q606 241 593 256.5Q580 272 556 272Q537 272 527 263.5Q517 255 517 240Z" glyph-name="eightninths" horiz-adv-x="717" unicode="" /><glyph d="M501 355 501 255H345V95H243V255H87V355H243V515H345V355Z" glyph-name="plus" horiz-adv-x="588" unicode="+" /><glyph d="M501 265 87 265V365H501Z" glyph-name="minus" horiz-adv-x="588" unicode="−" /><glyph d="M365 315 504 176L433 105L294 244L155 105L84 176L223 315L84 454L155 525L294 386L433 525L504 454Z" glyph-name="multiply" horiz-adv-x="588" unicode="×" /><glyph d="M355 566 355 447H234V566ZM501 265 87 265V365H501ZM355 178 355 59H234V178Z" glyph-name="divide" horiz-adv-x="588" unicode="÷" /><glyph d="M501 364 87 364V464H501ZM501 165 87 165V265H501Z" glyph-name="equal" horiz-adv-x="588" unicode="=" /><glyph d="M87 375 87 475H501V218H399V375Z" glyph-name="logicalnot" horiz-adv-x="588" unicode="¬" /><glyph d="M376 210Q348 210 322 224.5Q296 239 257 280Q236 303 227 309.5Q218 316 210 316Q194 316 184 292.5Q174 269 167 220L77 240Q90 329 123 372.5Q156 416 211 416Q239 416 265 401.5Q291 387 330 346Q350 323 359.5 316.5Q369 310 376 310Q392 310 402.5 334Q413 358 421 407L511 387Q497 297 464 253.5Q431 210 376 210Z" glyph-name="asciitilde" horiz-adv-x="588" unicode="~" /><glyph d="M241 313 501 213V103L87 271V352L501 517V411Z" glyph-name="less" horiz-adv-x="588" unicode="&lt;" /><glyph d="M501 349 501 268L87 103V209L347 307L87 407V517Z" glyph-name="greater" horiz-adv-x="588" unicode="&gt;" /><glyph d="M501 395 501 295H345V145H243V295H87V395H243V545H345V395ZM501 0 87 0V100H501Z" glyph-name="plusminus" horiz-adv-x="588" unicode="±" /><glyph d="M501 266 391 266L292 526L193 266H87L253 680H334Z" glyph-name="asciicircum" horiz-adv-x="588" unicode="^" /><glyph d="M501 265 501 165H265L203 34L137 68L183 165H87V265H230L277 364H87V464H324L385 594L451 560L406 464H501V364H359L312 265Z" glyph-name="notequal" horiz-adv-x="588" unicode="≠" /><glyph d="M376 320Q348 320 322 334.5Q296 349 257 390Q236 413 227 419.5Q218 426 210 426Q194 426 184 402.5Q174 379 167 330L77 350Q90 439 123 482.5Q156 526 211 526Q239 526 265 511.5Q291 497 330 456Q350 433 359.5 426.5Q369 420 376 420Q392 420 402.5 444Q413 468 421 517L511 497Q497 407 464 363.5Q431 320 376 320ZM376 100Q348 100 322 114.5Q296 129 257 170Q236 193 227 199.5Q218 206 210 206Q194 206 184 182.5Q174 159 167 110L77 130Q90 219 123 262.5Q156 306 211 306Q239 306 265 291.5Q291 277 330 236Q350 213 359.5 206.5Q369 200 376 200Q392 200 402.5 224Q413 248 421 297L511 277Q497 187 464 143.5Q431 100 376 100Z" glyph-name="approxequal" horiz-adv-x="588" unicode="≈" /><glyph d="M241 334 501 234V124L87 292V373L501 538V432ZM501 0 87 0V100H501Z" glyph-name="lessequal" horiz-adv-x="588" unicode="≤" /><glyph d="M501 370 501 289L87 124V230L347 328L87 428V538ZM501 0 87 0V100H501Z" glyph-name="greaterequal" horiz-adv-x="588" unicode="≥" /><glyph d="M731 319Q731 221 679 163.5Q627 106 541 106Q486 106 442 131.5Q398 157 369 206Q345 155 307.5 130Q270 105 219 105Q138 105 89 164Q40 223 40 324Q40 422 92 479.5Q144 537 230 537Q285 537 329 511.5Q373 486 402 437Q426 488 463.5 513Q501 538 552 538Q633 538 682 479Q731 420 731 319ZM438 346 449 310Q463 266 485.5 245Q508 224 541 224Q580 224 602.5 250Q625 276 625 322Q625 368 602 394Q579 420 538 420Q507 420 483.5 402.5Q460 385 438 346ZM230 419Q191 419 168.5 393Q146 367 146 321Q146 275 169 249Q192 223 233 223Q264 223 287.5 240.5Q311 258 333 297L322 333Q308 377 285.5 398Q263 419 230 419Z" glyph-name="infinity" horiz-adv-x="771" unicode="∞" /><glyph d="M334 0 257 0L89 340L254 680H331L499 340ZM292 540 200 343L297 139L390 337Z" glyph-name="lozenge" horiz-adv-x="588" unicode="◊" /><glyph d="M130 285 17 285V385H205L290 160L490 680H596L325 0H244Z" glyph-name="radical" horiz-adv-x="588" unicode="√" /><glyph d="M264 560 211 -33Q201 -139 163 -181Q125 -223 48 -223Q19 -223 -12 -217.5Q-43 -212 -67 -203L-39 -104Q-24 -109 -6.5 -112Q11 -115 27 -115Q62 -115 77 -97Q92 -79 96 -33L149 560Q159 666 197 708Q235 750 312 750Q341 750 372 744.5Q403 739 427 730L399 631Q384 636 366.5 639Q349 642 333 642Q298 642 283 624Q268 606 264 560Z" glyph-name="integral" horiz-adv-x="355" unicode="∫" /><glyph d="M488 293 486 250Q480 129 416 59.5Q352 -10 248 -10Q151 -10 93.5 51.5Q36 113 43 211L45 241Q51 323 105.5 379.5Q160 436 239 436Q273 436 303 425Q333 414 362 391Q345 474 292 541.5Q239 609 155 656L205 750Q351 664 423 548Q495 432 488 293ZM163 234 161 204Q158 154 181.5 123.5Q205 93 248 93Q301 93 334 137.5Q367 182 369 259L370 282Q342 305 313.5 317Q285 329 257 329Q217 329 191.5 303Q166 277 163 234Z" glyph-name="partialdiff" horiz-adv-x="541" unicode="∂" /><glyph d="M103 565 21 565V680H679V565H597V-143H477V565H223V-143H103Z" glyph-name="product" horiz-adv-x="700" unicode="∏" /><glyph d="M97 407 15 407V507H566V407H484V143Q484 123 494.5 112Q505 101 525 101H566V-5H513Q440 -5 404.5 31.5Q369 68 369 143V407H212V0H97Z" glyph-name="pi" horiz-adv-x="584" unicode="π" /><glyph d="M194 -125 194 -213H79V507H194V181Q194 139 209.5 118Q225 97 256 97Q284 97 314.5 111Q345 125 382 155V507H497V143Q497 123 508 112Q519 101 539 101H550V-5H527Q473 -5 440 14.5Q407 34 395 74Q347 30 307 10Q267 -10 229 -10Q211 -10 196.5 -6.5Q182 -3 171 5Z" glyph-name="mu" horiz-adv-x="574" unicode="µ" /><glyph d="M183 -28 528 -28V-143H29V-38L266 269L29 575V680H508V565H188L388 305V238Z" glyph-name="summation" horiz-adv-x="530" unicode="∑" /><glyph d="M177 416 177 374Q177 311 202 271Q227 231 275 218V0H56V109H166V154Q112 186 83 243Q54 300 54 374V416Q54 544 126.5 617Q199 690 327 690Q456 690 529 616.5Q602 543 602 416V374Q602 303 574.5 247.5Q547 192 496 159V109H606V0H387V220Q432 235 455.5 274.5Q479 314 479 374V416Q479 494 440 535.5Q401 577 327 577Q254 577 215.5 535.5Q177 494 177 416Z" glyph-name="Omega" horiz-adv-x="660" unicode="Ω" /><glyph d="M334 680 527 94V0H36V94L228 680ZM279 514 227 341L153 104H406L331 341Z" glyph-name="Delta" horiz-adv-x="563" unicode="∆" /><glyph d="M303 113 328 15Q300 2 272 -4Q244 -10 216 -10Q139 -10 100 30Q61 70 61 149V525Q61 600 102.5 645Q144 690 217 690Q289 690 329 649Q369 608 369 532Q369 455 324.5 385Q280 315 176 224V154Q176 125 188 111.5Q200 98 227 98Q242 98 262.5 102Q283 106 303 113ZM218 582Q196 582 186 568.5Q176 555 176 526V355Q218 402 238 443Q258 484 258 527Q258 555 248.5 568.5Q239 582 218 582Z" glyph-name="uni2113" horiz-adv-x="391" unicode="ℓ" /><glyph d="M198 314 335 188L287 126L31 328V385L287 587L335 525L202 402H612V314Z" glyph-name="arrowleft" horiz-adv-x="651" unicode="←" /><glyph d="M556 392 494 344L371 477V67H283V481L157 344L95 392L297 648H354Z" glyph-name="arrowup" horiz-adv-x="651" unicode="↑" /><glyph d="M620 387 620 330L364 128L316 190L449 313H39V401H453L316 527L364 589Z" glyph-name="arrowright" horiz-adv-x="651" unicode="→" /><glyph d="M494 373 556 325L354 69H297L95 325L157 373L280 240V650H368V236Z" glyph-name="arrowdown" horiz-adv-x="651" unicode="↓" /><glyph d="M198 314 335 188L287 126L31 328V385L287 587L335 525L202 402H595L458 528L506 590L762 388V331L506 129L458 191L591 314Z" glyph-name="uni2194" horiz-adv-x="793" unicode="↔" /><glyph d="M496 297 558 249L356 -7H299L97 249L159 297L282 164V557L156 420L94 468L296 724H353L555 468L493 420L370 553V160Z" glyph-name="uni2195" horiz-adv-x="651" unicode="↕" /><glyph d="M269 474 559 184L497 122L204 414L212 228L134 218L96 542L136 583L460 544L450 467Z" glyph-name="uni2196" horiz-adv-x="651" unicode="↖" /><glyph d="M513 219 435 229L442 410L152 120L90 183L382 475L197 468L187 545L511 584L551 543Z" glyph-name="uni2197" horiz-adv-x="651" unicode="↗" /><glyph d="M509 498 547 174L507 133L183 172L193 249L374 242L84 532L146 594L438 302L431 488Z" glyph-name="uni2198" horiz-adv-x="651" unicode="↘" /><glyph d="M450 250 460 173L136 134L96 175L134 499L212 489L204 307L495 598L557 535L265 243Z" glyph-name="uni2199" horiz-adv-x="651" unicode="↙" /><glyph d="M774 314 774 305H191Q188 305 187 304Q186 303 186 301V125Q186 119 188 114Q190 109 194 105Q238 59 295 34Q352 9 415 9Q482 9 542 37Q602 65 647 116H699Q648 57 573 23.5Q498 -10 414 -10Q265 -10 159.5 85Q54 180 54 314Q54 448 159.5 543Q265 638 414 638Q563 638 668.5 543Q774 448 774 314ZM642 328 642 506Q642 512 640 517.5Q638 523 633 527Q589 571 532.5 595Q476 619 415 619Q353 619 296 594.5Q239 570 195 524Q190 519 188 514Q186 509 186 502V328Q186 326 187.5 324.5Q189 323 191 323H638Q640 323 641 324.5Q642 326 642 328Z" glyph-name="estimated" horiz-adv-x="813" unicode="℮" /><glyph d="M698 15 728 -77Q668 -104 600 -118.5Q532 -133 466 -133Q270 -133 154.5 -16Q39 101 39 299Q39 510 166 645Q293 780 495 780Q679 780 796 667.5Q913 555 913 379Q913 252 847 168.5Q781 85 681 85Q632 85 600.5 105Q569 125 557 163Q516 120 478 100Q440 80 398 80Q330 80 298.5 141Q267 202 283 301L290 345Q307 452 360 504.5Q413 557 503 557Q550 557 599.5 540.5Q649 524 700 492L658 252Q651 216 660.5 196.5Q670 177 694 177Q741 177 775.5 235.5Q810 294 810 379Q810 514 722.5 599.5Q635 685 495 685Q338 685 240 577Q142 469 142 299Q142 143 228.5 52.5Q315 -38 466 -38Q525 -38 586.5 -24Q648 -10 698 15ZM406 345 399 301Q390 243 400 214Q410 185 440 185Q465 185 491.5 205Q518 225 548 266L578 438Q557 448 542 452Q527 456 513 456Q469 456 442 427.5Q415 399 406 345Z" glyph-name="at.case" horiz-adv-x="945" unicode="" /><glyph d="M183 561 183 680H304V561ZM251 97Q285 97 322.5 106Q360 115 408 135L445 36Q393 13 343 1.5Q293 -10 243 -10Q139 -10 85 35Q31 80 31 166V184Q31 239 47.5 277Q64 315 103 350L139 383Q164 405 174 423Q184 441 184 472V481H304V463Q304 416 288.5 385.5Q273 355 235 320L198 286Q170 260 159.5 240.5Q149 221 149 194V176Q149 137 174.5 117Q200 97 251 97Z" glyph-name="questiondown.case" horiz-adv-x="454" unicode="" /><glyph d="M80 561 80 680H201V561ZM82 220 95 481H185L197 220V0H82Z" glyph-name="exclamdown.case" horiz-adv-x="281" unicode="" /><glyph d="M49 322 49 359Q49 476 100 585Q151 694 252 792L332 717Q247 630 207 543.5Q167 457 167 359V322Q167 224 207 137.5Q247 51 332 -36L252 -111Q151 -13 100 96Q49 205 49 322Z" glyph-name="parenleft.case" horiz-adv-x="333" unicode="" /><glyph d="M284 358 284 321Q284 204 233 95Q182 -14 81 -112L1 -37Q86 50 126 136.5Q166 223 166 321V358Q166 456 126 542.5Q86 629 1 716L81 791Q182 693 233 584Q284 475 284 358Z" glyph-name="parenright.case" horiz-adv-x="333" unicode="" /><glyph d="M291 -2 380 -2V-102H291Q187 -102 143.5 -48.5Q100 5 123 103L143 189Q156 243 139 266.5Q122 290 73 290H20V390H73Q122 390 139 413.5Q156 437 143 491L123 577Q100 675 143.5 728.5Q187 782 291 782H380V682H291Q256 682 241.5 659Q227 636 237 596L257 510Q272 442 253.5 398.5Q235 355 184 340Q236 325 254.5 281.5Q273 238 257 170L237 84Q227 44 241.5 21Q256 -2 291 -2Z" glyph-name="braceleft.case" horiz-adv-x="381" unicode="" /><glyph d="M238 189 258 103Q281 5 237.5 -48.5Q194 -102 90 -102H1V-2H90Q125 -2 139.5 21Q154 44 144 84L124 170Q109 238 127.5 281.5Q146 325 197 340Q145 355 126.5 398.5Q108 442 124 510L144 596Q154 636 139.5 659Q125 682 90 682H1V782H90Q194 782 237.5 728.5Q281 675 258 577L238 491Q225 437 242 413.5Q259 390 308 390H361V290H308Q259 290 242 266.5Q225 243 238 189Z" glyph-name="braceright.case" horiz-adv-x="381" unicode="" /><glyph d="M209 -2 349 -2V-102H94V781H349V681H209Z" glyph-name="bracketleft.case" horiz-adv-x="350" unicode="" /><glyph d="M1 781 256 781V-102H1V-2H141V681H1Z" glyph-name="bracketright.case" horiz-adv-x="350" unicode="" /><glyph d="M354 285 50 285V385H354Z" glyph-name="hyphen.case" horiz-adv-x="404" unicode="" /><glyph d="M554 285 50 285V385H554Z" glyph-name="endash.case" horiz-adv-x="604" unicode="" /><glyph d="M754 285 50 285V385H754Z" glyph-name="emdash.case" horiz-adv-x="804" unicode="" /><glyph d="M83 433 83 816H198V433ZM83 -137 83 246H198V-137Z" glyph-name="brokenbar.case" horiz-adv-x="281" unicode="" /><glyph d="M94 -137 94 816H209V-137Z" glyph-name="bar.case" horiz-adv-x="303" unicode="" /><glyph d="M154 339 338 224V104L42 299V376L338 568V452ZM474 339 658 224V104L362 299V376L658 568V452Z" glyph-name="guillemotleft.case" horiz-adv-x="711" unicode="" /><glyph d="M669 373 669 296L373 104V220L557 333L373 448V568ZM349 373 349 296L53 104V220L237 333L53 448V568Z" glyph-name="guillemotright.case" horiz-adv-x="711" unicode="" /><glyph d="M154 339 338 224V104L42 299V376L338 568V452Z" glyph-name="guilsinglleft.case" horiz-adv-x="391" unicode="" /><glyph d="M349 373 349 296L53 104V220L237 333L53 448V568Z" glyph-name="guilsinglright.case" horiz-adv-x="391" unicode="" /><glyph d="M148 412 35 412Q35 543 96 611.5Q157 680 275 680H482L710 0H585L543 133H311L307 119Q249 -69 164.5 -146Q80 -223 -55 -223V-108Q37 -108 92.5 -55Q148 -2 188 119L341 575H280Q209 575 178.5 537.5Q148 500 148 412ZM427 513 375 341L345 243H508L477 341Z" glyph-name="A.alt" horiz-adv-x="730" unicode="" /><glyph d="M134 412 21 412Q21 543 82 611.5Q143 680 261 680H490Q593 680 643.5 636Q694 592 694 502V474Q694 435 676.5 404Q659 373 626 353Q674 334 699 298Q724 262 724 212V184Q724 91 672 45.5Q620 0 515 0H283V575H266Q195 575 164.5 537.5Q134 500 134 412ZM490 570 403 570V400H490Q529 400 550 418Q571 436 571 469V502Q571 534 550 552Q529 570 490 570ZM515 290 403 290V110H515Q556 110 578.5 129.5Q601 149 601 184V217Q601 252 578.5 271Q556 290 515 290Z" glyph-name="B.alt" horiz-adv-x="774" unicode="" /><glyph d="M134 412 21 412Q21 543 82 611.5Q143 680 261 680H513Q635 680 699 611.5Q763 543 763 412V269Q763 137 699 68.5Q635 0 513 0H283V575H266Q195 575 164.5 537.5Q134 500 134 412ZM508 565 403 565V115H508Q579 115 609.5 150.5Q640 186 640 269V412Q640 494 609.5 529.5Q579 565 508 565Z" glyph-name="D.alt" horiz-adv-x="828" unicode="" /><glyph d="M134 412 21 412Q21 543 82 611.5Q143 680 261 680H667V565H403V402H637V287H403V115H677V0H283V575H266Q195 575 164.5 537.5Q134 500 134 412Z" glyph-name="E.alt" horiz-adv-x="725" unicode="" /><glyph d="M134 412 21 412Q21 543 82 611.5Q143 680 261 680H661V565H403V376H631V261H403V0H283V575H266Q195 575 164.5 537.5Q134 500 134 412Z" glyph-name="F.alt" horiz-adv-x="694" unicode="" /><glyph d="M325 269 325 374H544V31Q544 -104 478.5 -163.5Q413 -223 270 -223V-118Q366 -118 400.5 -87Q435 -56 435 27Q409 19 381 14.5Q353 10 324 10Q202 10 132.5 85Q63 160 63 289V412Q63 543 133.5 616.5Q204 690 332 690Q381 690 428 679.5Q475 669 526 646L489 541Q436 561 401.5 569Q367 577 334 577Q261 577 223.5 535Q186 493 186 412V289Q186 211 224 168Q262 125 333 125Q355 125 382.5 129Q410 133 435 140V269Z" glyph-name="G.alt" horiz-adv-x="603" unicode="" /><glyph d="M134 412 21 412Q21 543 82 611.5Q143 680 261 680H403V402H657V680H777V0H657V287H403V0H283V575H266Q195 575 164.5 537.5Q134 500 134 412Z" glyph-name="H.alt" horiz-adv-x="871" unicode="" /><glyph d="M134 412 21 412Q21 543 82 611.5Q143 680 261 680H419V244Q419 109 353.5 49.5Q288 -10 145 -10V105Q229 105 264 137Q299 169 299 244V575H266Q195 575 164.5 537.5Q134 500 134 412Z" glyph-name="J.alt" horiz-adv-x="495" unicode="" /><glyph d="M134 412 21 412Q21 543 82 611.5Q143 680 261 680H403V357Q478 443 532.5 521.5Q587 600 626 680H757Q712 591 663.5 515Q615 439 563 376L789 0H644L474 297Q470 292 444.5 264.5Q419 237 403 220V0H283V575H266Q195 575 164.5 537.5Q134 500 134 412Z" glyph-name="K.alt" horiz-adv-x="805" unicode="" /><glyph d="M134 412 21 412Q21 543 82 611.5Q143 680 261 680H403V115H675V0H283V575H266Q195 575 164.5 537.5Q134 500 134 412Z" glyph-name="L.alt" horiz-adv-x="696" unicode="" /><glyph d="M261 680 414 680L604 215L793 680H924V0H809V260L824 498L655 80H548L383 499L398 260V0H283V575H266Q195 575 164.5 537.5Q134 500 134 412H21Q21 543 82 611.5Q143 680 261 680Z" glyph-name="M.alt" horiz-adv-x="1018" unicode="" /><glyph d="M134 412 21 412Q21 543 82 611.5Q143 680 261 680H393Q474 574 544.5 459.5Q615 345 672 227L663 430V680H778V0H668Q569 196 508 303.5Q447 411 390 494L398 260V0H283V575H266Q195 575 164.5 537.5Q134 500 134 412Z" glyph-name="N.alt" horiz-adv-x="872" unicode="" /><glyph d="M134 412 21 412Q21 543 82 611.5Q143 680 261 680H507Q610 680 665.5 628Q721 576 721 482V429Q721 334 665 282Q609 230 507 230H403V0H283V575H266Q195 575 164.5 537.5Q134 500 134 412ZM507 565 403 565V345H507Q551 345 574.5 367Q598 389 598 429V482Q598 522 574.5 543.5Q551 565 507 565Z" glyph-name="P.alt" horiz-adv-x="763" unicode="" /><glyph d="M511 250 403 250V0H283V575H266Q195 575 164.5 537.5Q134 500 134 412H21Q21 543 82 611.5Q143 680 261 680H510Q610 680 667 628.5Q724 577 724 487V444Q724 385 699 341.5Q674 298 627 275Q668 205 703 136Q738 67 767 0H630Q605 62 575.5 125Q546 188 511 250ZM510 570 403 570V360H510Q553 360 577 382Q601 404 601 444V487Q601 526 577 548Q553 570 510 570Z" glyph-name="R.alt" horiz-adv-x="798" unicode="" /><glyph d="M134 412 21 412Q21 543 82 611.5Q143 680 261 680H628V565H438V0H318V565H266Q195 565 164.5 529.5Q134 494 134 412Z" glyph-name="T.alt" horiz-adv-x="641" unicode="" /><glyph d="M134 412 21 412Q21 543 82 611.5Q143 680 261 680H404V244Q404 174 434.5 138.5Q465 103 526 103Q587 103 617.5 138.5Q648 174 648 244V680H771V244Q771 123 707.5 56.5Q644 -10 526 -10Q408 -10 344.5 56Q281 122 281 244V575H266Q195 575 164.5 537.5Q134 500 134 412Z" glyph-name="U.alt" horiz-adv-x="849" unicode="" /><glyph d="M134 412 21 412Q21 543 82 611.5Q143 680 261 680H371L474 338L521 162L571 339L638 561Q695 748 779.5 825.5Q864 903 1000 903V788Q907 788 851 734.5Q795 681 757 561L579 0H456L273 575H266Q195 575 164.5 537.5Q134 500 134 412Z" glyph-name="V.alt" horiz-adv-x="819" unicode="" /><glyph d="M381 680 433 411L471 159L607 680H715L850 164L892 412L915 530Q954 728 1043 815.5Q1132 903 1292 903V788Q1180 788 1119.5 720Q1059 652 1025 501L913 0H790L659 506L527 0H404L274 575H266Q195 575 164.5 537.5Q134 500 134 412H21Q21 543 82 611.5Q143 680 261 680Z" glyph-name="W.alt" horiz-adv-x="1099" unicode="" /><glyph d="M134 412 21 412Q21 543 80 611.5Q139 680 251 680H327L458 452L581 680H707L520 347L719 0H583L441 249L306 0H180L379 353L251 575Q188 573 161 535.5Q134 498 134 412Z" glyph-name="X.alt" horiz-adv-x="734" unicode="" /><glyph d="M134 412 21 412Q21 543 80 611.5Q139 680 251 680H350L497 390L636 680H760L552 273V0H432V271L276 575H256Q190 575 162 537.5Q134 500 134 412Z" glyph-name="Y.alt" horiz-adv-x="763" unicode="" /><glyph d="M148 412 35 412Q35 543 96 611.5Q157 680 275 680H482L710 0H585L543 133H311L307 119Q249 -69 164.5 -146Q80 -223 -55 -223V-108Q37 -108 92.5 -55Q148 -2 188 119L341 575H280Q209 575 178.5 537.5Q148 500 148 412ZM427 513 375 341L345 243H508L477 341ZM584 872 481 752H380L476 918Z" glyph-name="Aacute.alt" horiz-adv-x="730" unicode="" /><glyph d="M148 412 35 412Q35 543 96 611.5Q157 680 275 680H482L710 0H585L543 133H311L307 119Q249 -69 164.5 -146Q80 -223 -55 -223V-108Q37 -108 92.5 -55Q148 -2 188 119L341 575H280Q209 575 178.5 537.5Q148 500 148 412ZM427 513 375 341L345 243H508L477 341ZM581 752 488 752L427 832L366 752H277L373 913H485Z" glyph-name="Acircumflex.alt" horiz-adv-x="730" unicode="" /><glyph d="M148 412 35 412Q35 543 96 611.5Q157 680 275 680H482L710 0H585L543 133H311L307 119Q249 -69 164.5 -146Q80 -223 -55 -223V-108Q37 -108 92.5 -55Q148 -2 188 119L341 575H280Q209 575 178.5 537.5Q148 500 148 412ZM427 513 375 341L345 243H508L477 341ZM387 889 387 782H278V889ZM581 889 581 782H472V889Z" glyph-name="Adieresis.alt" horiz-adv-x="730" unicode="" /><glyph d="M148 412 35 412Q35 543 96 611.5Q157 680 275 680H482L710 0H585L543 133H311L307 119Q249 -69 164.5 -146Q80 -223 -55 -223V-108Q37 -108 92.5 -55Q148 -2 188 119L341 575H280Q209 575 178.5 537.5Q148 500 148 412ZM427 513 375 341L345 243H508L477 341ZM480 752 379 752L276 872L384 918Z" glyph-name="Agrave.alt" horiz-adv-x="730" unicode="" /><glyph d="M182 133 178 119Q120 -69 35.5 -146Q-49 -223 -184 -223V-108Q-92 -108 -36.5 -55Q19 -2 59 119L231 632Q207 646 194 671Q181 696 181 728V739Q181 790 214 821.5Q247 853 301 853Q355 853 388 821.5Q421 790 421 739V728Q421 696 407.5 670.5Q394 645 370 631L581 0H456L414 133ZM350 728 350 739Q350 761 336.5 774Q323 787 301 787Q279 787 265.5 774Q252 761 252 739V728Q252 706 265.5 693Q279 680 301 680Q323 680 336.5 693Q350 706 350 728ZM298 513 246 341L216 243H379L348 341Z" glyph-name="Aring.alt" horiz-adv-x="601" unicode="" /><glyph d="M148 412 35 412Q35 543 96 611.5Q157 680 275 680H482L710 0H585L543 133H311L307 119Q249 -69 164.5 -146Q80 -223 -55 -223V-108Q37 -108 92.5 -55Q148 -2 188 119L341 575H280Q209 575 178.5 537.5Q148 500 148 412ZM427 513 375 341L345 243H508L477 341ZM489 761Q469 761 451.5 770.5Q434 780 411 807Q397 824 390.5 828.5Q384 833 377 833Q367 833 363.5 819Q360 805 359 769H278Q278 846 301 884.5Q324 923 371 923Q391 923 408.5 913.5Q426 904 449 877Q463 860 469.5 855.5Q476 851 483 851Q493 851 496.5 865Q500 879 501 915H582Q582 837 559 799Q536 761 489 761Z" glyph-name="Atilde.alt" horiz-adv-x="730" unicode="" /><glyph d="M148 412 35 412Q35 543 96 611.5Q157 680 275 680H482L710 0H585L543 133H311L307 119Q249 -69 164.5 -146Q80 -223 -55 -223V-108Q37 -108 92.5 -55Q148 -2 188 119L341 575H280Q209 575 178.5 537.5Q148 500 148 412ZM427 513 375 341L345 243H508L477 341ZM430 839Q453 839 464.5 854.5Q476 870 477 904H564Q559 832 525 795Q491 758 430 758Q369 758 335 795Q301 832 296 904H383Q384 871 395.5 855Q407 839 430 839Z" glyph-name="Abreve.alt" horiz-adv-x="730" unicode="" /><glyph d="M148 412 35 412Q35 543 96 611.5Q157 680 275 680H482L710 0H585L543 133H311L307 119Q249 -69 164.5 -146Q80 -223 -55 -223V-108Q37 -108 92.5 -55Q148 -2 188 119L341 575H280Q209 575 178.5 537.5Q148 500 148 412ZM427 513 375 341L345 243H508L477 341ZM278 865 581 865V782H278Z" glyph-name="Amacron.alt" horiz-adv-x="730" unicode="" /><glyph d="M148 412 35 412Q35 543 96 611.5Q157 680 275 680H482L710 0Q661 -41 639 -66.5Q617 -92 617 -108Q617 -120 624.5 -126.5Q632 -133 647 -133Q657 -133 668.5 -131Q680 -129 694 -124L710 -207Q690 -215 669.5 -219Q649 -223 629 -223Q577 -223 547 -198.5Q517 -174 517 -132Q517 -103 534 -74Q551 -45 588 -11L543 133H311L307 119Q249 -69 164.5 -146Q80 -223 -55 -223V-108Q37 -108 92.5 -55Q148 -2 188 119L341 575H280Q209 575 178.5 537.5Q148 500 148 412ZM427 513 375 341L345 243H508L477 341Z" glyph-name="Aogonek.alt" horiz-adv-x="730" unicode="" /><glyph d="M134 412 21 412Q21 543 82 611.5Q143 680 261 680H513Q635 680 699 611.5Q763 543 763 412V269Q763 137 699 68.5Q635 0 513 0H283V575H266Q195 575 164.5 537.5Q134 500 134 412ZM508 565 403 565V115H508Q579 115 609.5 150.5Q640 186 640 269V412Q640 494 609.5 529.5Q579 565 508 565ZM571 913 660 913L564 752H452L356 913H449L510 833Z" glyph-name="Dcaron.alt" horiz-adv-x="828" unicode="" /><glyph d="M134 412 21 412Q21 543 82 611.5Q143 680 261 680H667V565H403V402H637V287H403V115H677V0H283V575H266Q195 575 164.5 537.5Q134 500 134 412ZM629 872 526 752H425L521 918Z" glyph-name="Eacute.alt" horiz-adv-x="725" unicode="" /><glyph d="M134 412 21 412Q21 543 82 611.5Q143 680 261 680H667V565H403V402H637V287H403V115H677V0H283V575H266Q195 575 164.5 537.5Q134 500 134 412ZM626 752 533 752L472 832L411 752H322L418 913H530Z" glyph-name="Ecircumflex.alt" horiz-adv-x="725" unicode="" /><glyph d="M134 412 21 412Q21 543 82 611.5Q143 680 261 680H667V565H403V402H637V287H403V115H677V0H283V575H266Q195 575 164.5 537.5Q134 500 134 412ZM433 889 433 782H324V889ZM627 889 627 782H518V889Z" glyph-name="Edieresis.alt" horiz-adv-x="725" unicode="" /><glyph d="M134 412 21 412Q21 543 82 611.5Q143 680 261 680H667V565H403V402H637V287H403V115H677V0H283V575H266Q195 575 164.5 537.5Q134 500 134 412ZM525 752 424 752L321 872L429 918Z" glyph-name="Egrave.alt" horiz-adv-x="725" unicode="" /><glyph d="M134 412 21 412Q21 543 82 611.5Q143 680 261 680H667V565H403V402H637V287H403V115H677V0H283V575H266Q195 575 164.5 537.5Q134 500 134 412ZM475 839Q498 839 509.5 854.5Q521 870 522 904H609Q604 832 570 795Q536 758 475 758Q414 758 380 795Q346 832 341 904H428Q429 871 440.5 855Q452 839 475 839Z" glyph-name="Ebreve.alt" horiz-adv-x="725" unicode="" /><glyph d="M134 412 21 412Q21 543 82 611.5Q143 680 261 680H667V565H403V402H637V287H403V115H677V0H283V575H266Q195 575 164.5 537.5Q134 500 134 412ZM537 913 626 913L530 752H418L322 913H415L476 833Z" glyph-name="Ecaron.alt" horiz-adv-x="725" unicode="" /><glyph d="M134 412 21 412Q21 543 82 611.5Q143 680 261 680H667V565H403V402H637V287H403V115H677V0H283V575H266Q195 575 164.5 537.5Q134 500 134 412ZM536 895 536 776H415V895Z" glyph-name="Edotaccent.alt" horiz-adv-x="725" unicode="" /><glyph d="M134 412 21 412Q21 543 82 611.5Q143 680 261 680H667V565H403V402H637V287H403V115H677V0H283V575H266Q195 575 164.5 537.5Q134 500 134 412ZM324 865 627 865V782H324Z" glyph-name="Emacron.alt" horiz-adv-x="725" unicode="" /><glyph d="M134 412 21 412Q21 543 82 611.5Q143 680 261 680H667V565H403V402H637V287H403V115H677V0Q628 -41 606 -66.5Q584 -92 584 -108Q584 -120 591.5 -126.5Q599 -133 614 -133Q624 -133 635.5 -131Q647 -129 661 -124L677 -207Q657 -215 636.5 -219Q616 -223 596 -223Q544 -223 514 -198.5Q484 -174 484 -132Q484 -100 504 -68.5Q524 -37 568 0H283V575H266Q195 575 164.5 537.5Q134 500 134 412Z" glyph-name="Eogonek.alt" horiz-adv-x="725" unicode="" /><glyph d="M325 269 325 374H544V31Q544 -104 478.5 -163.5Q413 -223 270 -223V-118Q366 -118 400.5 -87Q435 -56 435 27Q409 19 381 14.5Q353 10 324 10Q202 10 132.5 85Q63 160 63 289V412Q63 543 133.5 616.5Q204 690 332 690Q381 690 428 679.5Q475 669 526 646L489 541Q436 561 401.5 569Q367 577 334 577Q261 577 223.5 535Q186 493 186 412V289Q186 211 224 168Q262 125 333 125Q355 125 382.5 129Q410 133 435 140V269ZM327 839Q350 839 361.5 854.5Q373 870 374 904H461Q456 832 422 795Q388 758 327 758Q266 758 232 795Q198 832 193 904H280Q281 871 292.5 855Q304 839 327 839Z" glyph-name="Gbreve.alt" horiz-adv-x="603" unicode="" /><glyph d="M325 269 325 374H544V31Q544 -104 478.5 -163.5Q413 -223 270 -223V-118Q366 -118 400.5 -87Q435 -56 435 27Q409 19 381 14.5Q353 10 324 10Q202 10 132.5 85Q63 160 63 289V412Q63 543 133.5 616.5Q204 690 332 690Q381 690 428 679.5Q475 669 526 646L489 541Q436 561 401.5 569Q367 577 334 577Q261 577 223.5 535Q186 493 186 412V289Q186 211 224 168Q262 125 333 125Q355 125 382.5 129Q410 133 435 140V269ZM478 752 385 752L324 832L263 752H174L270 913H382Z" glyph-name="Gcircumflex.alt" horiz-adv-x="603" unicode="" /><glyph d="M325 269 325 374H544V31Q544 -104 478.5 -163.5Q413 -223 270 -223V-118Q366 -118 400.5 -87Q435 -56 435 27Q409 19 381 14.5Q353 10 324 10Q202 10 132.5 85Q63 160 63 289V412Q63 543 133.5 616.5Q204 690 332 690Q381 690 428 679.5Q475 669 526 646L489 541Q436 561 401.5 569Q367 577 334 577Q261 577 223.5 535Q186 493 186 412V289Q186 211 224 168Q262 125 333 125Q355 125 382.5 129Q410 133 435 140V269ZM387 895 387 776H266V895Z" glyph-name="Gdotaccent.alt" horiz-adv-x="603" unicode="" /><glyph d="M134 412 21 412Q21 543 82 611.5Q143 680 261 680H403V402H657V680H777V0H657V287H403V0H283V575H266Q195 575 164.5 537.5Q134 500 134 412ZM681 752 588 752L527 832L466 752H377L473 913H585Z" glyph-name="Hcircumflex.alt" horiz-adv-x="871" unicode="" /><glyph d="M134 412 21 412Q21 543 82 611.5Q143 680 261 680H419V244Q419 109 353.5 49.5Q288 -10 145 -10V105Q229 105 264 137Q299 169 299 244V575H266Q195 575 164.5 537.5Q134 500 134 412ZM510 752 417 752L356 832L295 752H206L302 913H414Z" glyph-name="Jcircumflex.alt" horiz-adv-x="495" unicode="" /><glyph d="M134 412 21 412Q21 543 82 611.5Q143 680 261 680H403V357Q478 443 532.5 521.5Q587 600 626 680H757Q712 591 663.5 515Q615 439 563 376L789 0H644L474 297Q470 292 444.5 264.5Q419 237 403 220V0H283V575H266Q195 575 164.5 537.5Q134 500 134 412ZM586 -77 513 -256L440 -239L466 -77Z" glyph-name="Kcommaaccent.alt" horiz-adv-x="805" unicode="" /><glyph d="M134 412 21 412Q21 543 82 611.5Q143 680 261 680H403V115H675V0H283V575H266Q195 575 164.5 537.5Q134 500 134 412ZM496 872 393 752H292L388 918Z" glyph-name="Lacute.alt" horiz-adv-x="696" unicode="" /><glyph d="M134 412 21 412Q21 543 82 611.5Q143 680 261 680H403V115H675V0H283V575H266Q195 575 164.5 537.5Q134 500 134 412ZM591 680 555 486H478V680Z" glyph-name="Lcaron.alt" horiz-adv-x="696" unicode="" /><glyph d="M134 412 21 412Q21 543 82 611.5Q143 680 261 680H403V115H675V0H283V575H266Q195 575 164.5 537.5Q134 500 134 412ZM543 -77 470 -256L397 -239L423 -77Z" glyph-name="Lcommaaccent.alt" horiz-adv-x="696" unicode="" /><glyph d="M134 412 21 412Q21 543 82 611.5Q143 680 261 680H393Q474 574 544.5 459.5Q615 345 672 227L663 430V680H778V0H668Q569 196 508 303.5Q447 411 390 494L398 260V0H283V575H266Q195 575 164.5 537.5Q134 500 134 412ZM590 761Q570 761 552.5 770.5Q535 780 512 807Q498 824 491.5 828.5Q485 833 478 833Q468 833 464.5 819Q461 805 460 769H379Q379 846 402 884.5Q425 923 472 923Q492 923 509.5 913.5Q527 904 550 877Q564 860 570.5 855.5Q577 851 584 851Q594 851 597.5 865Q601 879 602 915H683Q683 837 660 799Q637 761 590 761Z" glyph-name="Ntilde.alt" horiz-adv-x="872" unicode="" /><glyph d="M134 412 21 412Q21 543 82 611.5Q143 680 261 680H393Q474 574 544.5 459.5Q615 345 672 227L663 430V680H778V0H668Q569 196 508 303.5Q447 411 390 494L398 260V0H283V575H266Q195 575 164.5 537.5Q134 500 134 412ZM685 872 582 752H481L577 918Z" glyph-name="Nacute.alt" horiz-adv-x="872" unicode="" /><glyph d="M134 412 21 412Q21 543 82 611.5Q143 680 261 680H393Q474 574 544.5 459.5Q615 345 672 227L663 430V680H778V0H668Q569 196 508 303.5Q447 411 390 494L398 260V0H283V575H266Q195 575 164.5 537.5Q134 500 134 412ZM593 913 682 913L586 752H474L378 913H471L532 833Z" glyph-name="Ncaron.alt" horiz-adv-x="872" unicode="" /><glyph d="M134 412 21 412Q21 543 82 611.5Q143 680 261 680H393Q474 574 544.5 459.5Q615 345 672 227L663 430V680H778V0H668Q569 196 508 303.5Q447 411 390 494L398 260V0H283V575H266Q195 575 164.5 537.5Q134 500 134 412ZM591 -77 518 -256L445 -239L471 -77Z" glyph-name="Ncommaaccent.alt" horiz-adv-x="872" unicode="" /><glyph d="M663 430 663 680H778V31Q778 -104 712.5 -163.5Q647 -223 504 -223V-108Q586 -108 622 -80.5Q658 -53 662 11Q568 198 507.5 304.5Q447 411 390 494L398 260V0H283V575H266Q195 575 164.5 537.5Q134 500 134 412H21Q21 543 82 611.5Q143 680 261 680H393Q470 579 540 464.5Q610 350 672 225Z" glyph-name="Eng.alt" horiz-adv-x="872" unicode="" /><glyph d="M511 250 403 250V0H283V575H266Q195 575 164.5 537.5Q134 500 134 412H21Q21 543 82 611.5Q143 680 261 680H510Q610 680 667 628.5Q724 577 724 487V444Q724 385 699 341.5Q674 298 627 275Q668 205 703 136Q738 67 767 0H630Q605 62 575.5 125Q546 188 511 250ZM510 570 403 570V360H510Q553 360 577 382Q601 404 601 444V487Q601 526 577 548Q553 570 510 570ZM648 872 545 752H444L540 918Z" glyph-name="Racute.alt" horiz-adv-x="798" unicode="" /><glyph d="M511 250 403 250V0H283V575H266Q195 575 164.5 537.5Q134 500 134 412H21Q21 543 82 611.5Q143 680 261 680H510Q610 680 667 628.5Q724 577 724 487V444Q724 385 699 341.5Q674 298 627 275Q668 205 703 136Q738 67 767 0H630Q605 62 575.5 125Q546 188 511 250ZM510 570 403 570V360H510Q553 360 577 382Q601 404 601 444V487Q601 526 577 548Q553 570 510 570ZM556 913 645 913L549 752H437L341 913H434L495 833Z" glyph-name="Rcaron.alt" horiz-adv-x="798" unicode="" /><glyph d="M511 250 403 250V0H283V575H266Q195 575 164.5 537.5Q134 500 134 412H21Q21 543 82 611.5Q143 680 261 680H510Q610 680 667 628.5Q724 577 724 487V444Q724 385 699 341.5Q674 298 627 275Q668 205 703 136Q738 67 767 0H630Q605 62 575.5 125Q546 188 511 250ZM510 570 403 570V360H510Q553 360 577 382Q601 404 601 444V487Q601 526 577 548Q553 570 510 570ZM568 -77 495 -256L422 -239L448 -77Z" glyph-name="Rcommaaccent.alt" horiz-adv-x="798" unicode="" /><glyph d="M550 366 550 279H438V0H318V279H206V366H318V565H266Q195 565 164.5 529.5Q134 494 134 412H21Q21 543 82 611.5Q143 680 261 680H628V565H438V366Z" glyph-name="Tbar.alt" horiz-adv-x="641" unicode="" /><glyph d="M134 412 21 412Q21 543 82 611.5Q143 680 261 680H628V565H438V0H318V565H266Q195 565 164.5 529.5Q134 494 134 412ZM440 913 529 913L433 752H321L225 913H318L379 833Z" glyph-name="Tcaron.alt" horiz-adv-x="641" unicode="" /><glyph d="M134 412 21 412Q21 543 82 611.5Q143 680 261 680H628V565H438V0H318V565H266Q195 565 164.5 529.5Q134 494 134 412ZM439 -77 366 -256L293 -239L319 -77Z" glyph-name="uni0162.alt" horiz-adv-x="641" unicode="" /><glyph d="M134 412 21 412Q21 543 82 611.5Q143 680 261 680H628V565H438V0H318V565H266Q195 565 164.5 529.5Q134 494 134 412ZM439 -77 366 -256L293 -239L319 -77Z" glyph-name="uni021A.alt" horiz-adv-x="641" unicode="" /><glyph d="M134 412 21 412Q21 543 82 611.5Q143 680 261 680H404V244Q404 174 434.5 138.5Q465 103 526 103Q587 103 617.5 138.5Q648 174 648 244V680H771V244Q771 123 707.5 56.5Q644 -10 526 -10Q408 -10 344.5 56Q281 122 281 244V575H266Q195 575 164.5 537.5Q134 500 134 412ZM680 872 577 752H476L572 918Z" glyph-name="Uacute.alt" horiz-adv-x="849" unicode="" /><glyph d="M134 412 21 412Q21 543 82 611.5Q143 680 261 680H404V244Q404 174 434.5 138.5Q465 103 526 103Q587 103 617.5 138.5Q648 174 648 244V680H771V244Q771 123 707.5 56.5Q644 -10 526 -10Q408 -10 344.5 56Q281 122 281 244V575H266Q195 575 164.5 537.5Q134 500 134 412ZM677 752 584 752L523 832L462 752H373L469 913H581Z" glyph-name="Ucircumflex.alt" horiz-adv-x="849" unicode="" /><glyph d="M134 412 21 412Q21 543 82 611.5Q143 680 261 680H404V244Q404 174 434.5 138.5Q465 103 526 103Q587 103 617.5 138.5Q648 174 648 244V680H771V244Q771 123 707.5 56.5Q644 -10 526 -10Q408 -10 344.5 56Q281 122 281 244V575H266Q195 575 164.5 537.5Q134 500 134 412ZM484 889 484 782H375V889ZM678 889 678 782H569V889Z" glyph-name="Udieresis.alt" horiz-adv-x="849" unicode="" /><glyph d="M134 412 21 412Q21 543 82 611.5Q143 680 261 680H404V244Q404 174 434.5 138.5Q465 103 526 103Q587 103 617.5 138.5Q648 174 648 244V680H771V244Q771 123 707.5 56.5Q644 -10 526 -10Q408 -10 344.5 56Q281 122 281 244V575H266Q195 575 164.5 537.5Q134 500 134 412ZM576 752 475 752L372 872L480 918Z" glyph-name="Ugrave.alt" horiz-adv-x="849" unicode="" /><glyph d="M134 412 21 412Q21 543 82 611.5Q143 680 261 680H404V244Q404 174 434.5 138.5Q465 103 526 103Q587 103 617.5 138.5Q648 174 648 244V680H771V244Q771 123 707.5 56.5Q644 -10 526 -10Q408 -10 344.5 56Q281 122 281 244V575H266Q195 575 164.5 537.5Q134 500 134 412ZM526 839Q549 839 560.5 854.5Q572 870 573 904H660Q655 832 621 795Q587 758 526 758Q465 758 431 795Q397 832 392 904H479Q480 871 491.5 855Q503 839 526 839Z" glyph-name="Ubreve.alt" horiz-adv-x="849" unicode="" /><glyph d="M134 412 21 412Q21 543 82 611.5Q143 680 261 680H404V244Q404 174 434.5 138.5Q465 103 526 103Q587 103 617.5 138.5Q648 174 648 244V680H771V244Q771 123 707.5 56.5Q644 -10 526 -10Q408 -10 344.5 56Q281 122 281 244V575H266Q195 575 164.5 537.5Q134 500 134 412ZM570 872 497 752H406L482 918ZM720 872 647 752H556L632 918Z" glyph-name="Uhungarumlaut.alt" horiz-adv-x="849" unicode="" /><glyph d="M134 412 21 412Q21 543 82 611.5Q143 680 261 680H404V244Q404 174 434.5 138.5Q465 103 526 103Q587 103 617.5 138.5Q648 174 648 244V680H771V244Q771 123 707.5 56.5Q644 -10 526 -10Q408 -10 344.5 56Q281 122 281 244V575H266Q195 575 164.5 537.5Q134 500 134 412ZM375 865 678 865V782H375Z" glyph-name="Umacron.alt" horiz-adv-x="849" unicode="" /><glyph d="M134 412 21 412Q21 543 82 611.5Q143 680 261 680H404V244Q404 174 434.5 138.5Q465 103 526 103Q587 103 617.5 138.5Q648 174 648 244V680H771V244Q771 180 753.5 131Q736 82 703 52Q609 -31 583 -60Q557 -89 557 -108Q557 -120 564.5 -126.5Q572 -133 587 -133Q597 -133 608.5 -131Q620 -129 634 -124L650 -207Q630 -215 609.5 -219Q589 -223 569 -223Q517 -223 487 -198Q457 -173 457 -130Q457 -101 472.5 -72.5Q488 -44 523 -10Q406 -9 343.5 57Q281 123 281 244V575H266Q195 575 164.5 537.5Q134 500 134 412Z" glyph-name="Uogonek.alt" horiz-adv-x="849" unicode="" /><glyph d="M134 412 21 412Q21 543 82 611.5Q143 680 261 680H404V244Q404 174 434.5 138.5Q465 103 526 103Q587 103 617.5 138.5Q648 174 648 244V680H771V244Q771 123 707.5 56.5Q644 -10 526 -10Q408 -10 344.5 56Q281 122 281 244V575H266Q195 575 164.5 537.5Q134 500 134 412ZM526 976Q580 976 613 944.5Q646 913 646 862V851Q646 799 613 767.5Q580 736 526 736Q472 736 439 767.5Q406 799 406 851V862Q406 913 439 944.5Q472 976 526 976ZM575 851 575 862Q575 884 561.5 897Q548 910 526 910Q504 910 490.5 897Q477 884 477 862V851Q477 829 490.5 816Q504 803 526 803Q548 803 561.5 816Q575 829 575 851Z" glyph-name="Uring.alt" horiz-adv-x="849" unicode="" /><glyph d="M134 412 21 412Q21 543 82 611.5Q143 680 261 680H404V244Q404 174 434.5 138.5Q465 103 526 103Q587 103 617.5 138.5Q648 174 648 244V680H771V244Q771 123 707.5 56.5Q644 -10 526 -10Q408 -10 344.5 56Q281 122 281 244V575H266Q195 575 164.5 537.5Q134 500 134 412ZM585 761Q565 761 547.5 770.5Q530 780 507 807Q493 824 486.5 828.5Q480 833 473 833Q463 833 459.5 819Q456 805 455 769H374Q374 846 397 884.5Q420 923 467 923Q487 923 504.5 913.5Q522 904 545 877Q559 860 565.5 855.5Q572 851 579 851Q589 851 592.5 865Q596 879 597 915H678Q678 837 655 799Q632 761 585 761Z" glyph-name="Utilde.alt" horiz-adv-x="849" unicode="" /><glyph d="M381 680 433 411L471 159L607 680H715L850 164L892 412L915 530Q954 728 1043 815.5Q1132 903 1292 903V788Q1180 788 1119.5 720Q1059 652 1025 501L913 0H790L659 506L527 0H404L274 575H266Q195 575 164.5 537.5Q134 500 134 412H21Q21 543 82 611.5Q143 680 261 680ZM813 872 710 752H609L705 918Z" glyph-name="Wacute.alt" horiz-adv-x="1099" unicode="" /><glyph d="M381 680 433 411L471 159L607 680H715L850 164L892 412L915 530Q954 728 1043 815.5Q1132 903 1292 903V788Q1180 788 1119.5 720Q1059 652 1025 501L913 0H790L659 506L527 0H404L274 575H266Q195 575 164.5 537.5Q134 500 134 412H21Q21 543 82 611.5Q143 680 261 680ZM810 752 717 752L656 832L595 752H506L602 913H714Z" glyph-name="Wcircumflex.alt" horiz-adv-x="1099" unicode="" /><glyph d="M381 680 433 411L471 159L607 680H715L850 164L892 412L915 530Q954 728 1043 815.5Q1132 903 1292 903V788Q1180 788 1119.5 720Q1059 652 1025 501L913 0H790L659 506L527 0H404L274 575H266Q195 575 164.5 537.5Q134 500 134 412H21Q21 543 82 611.5Q143 680 261 680ZM616 889 616 782H507V889ZM810 889 810 782H701V889Z" glyph-name="Wdieresis.alt" horiz-adv-x="1099" unicode="" /><glyph d="M381 680 433 411L471 159L607 680H715L850 164L892 412L915 530Q954 728 1043 815.5Q1132 903 1292 903V788Q1180 788 1119.5 720Q1059 652 1025 501L913 0H790L659 506L527 0H404L274 575H266Q195 575 164.5 537.5Q134 500 134 412H21Q21 543 82 611.5Q143 680 261 680ZM709 752 608 752L505 872L613 918Z" glyph-name="Wgrave.alt" horiz-adv-x="1099" unicode="" /><glyph d="M134 412 21 412Q21 543 80 611.5Q139 680 251 680H350L497 390L636 680H760L552 273V0H432V271L276 575H256Q190 575 162 537.5Q134 500 134 412ZM649 872 546 752H445L541 918Z" glyph-name="Yacute.alt" horiz-adv-x="763" unicode="" /><glyph d="M134 412 21 412Q21 543 80 611.5Q139 680 251 680H350L497 390L636 680H760L552 273V0H432V271L276 575H256Q190 575 162 537.5Q134 500 134 412ZM453 889 453 782H344V889ZM647 889 647 782H538V889Z" glyph-name="Ydieresis.alt" horiz-adv-x="763" unicode="" /><glyph d="M134 412 21 412Q21 543 80 611.5Q139 680 251 680H350L497 390L636 680H760L552 273V0H432V271L276 575H256Q190 575 162 537.5Q134 500 134 412ZM646 752 553 752L492 832L431 752H342L438 913H550Z" glyph-name="Ycircumflex.alt" horiz-adv-x="763" unicode="" /><glyph d="M134 412 21 412Q21 543 80 611.5Q139 680 251 680H350L497 390L636 680H760L552 273V0H432V271L276 575H256Q190 575 162 537.5Q134 500 134 412ZM545 752 444 752L341 872L449 918Z" glyph-name="Ygrave.alt" horiz-adv-x="763" unicode="" /></font>
</defs>
</svg>
