<?xml version="1.0" standalone="no"?>
<!DOCTYPE svg
  PUBLIC '-//W3C//DTD SVG 1.1//EN'
  'http://www.w3.org/Graphics/SVG/1.1/DTD/svg11.dtd'><svg version="1.1" xmlns="http://www.w3.org/2000/svg"><defs><font horiz-adv-x="0" id="font"><font-face ascent="650" bbox="-228 -242 1379 974" cap-height="680" descent="-200" font-family="Inria Serif" font-stretch="normal" font-style="normal" font-weight="680" units-per-em="1000" x-height="495" /><missing-glyph d="M501 0 67 0L187 680H621ZM268 648 160 32H420L528 648Z" horiz-adv-x="657" /><glyph d="" glyph-name=".null" horiz-adv-x="0" unicode="" /><glyph d="" glyph-name="CR" horiz-adv-x="0" unicode="" /><glyph d="" glyph-name="space" horiz-adv-x="227" unicode=" " /><glyph d="" glyph-name="uni00A0" horiz-adv-x="227" unicode=" " /><glyph d="M98 32 152 26L147 0H-46L-41 26L14 32Q31 34 37 40.5Q43 47 59 81L358 680H421L510 81Q515 47 518.5 40.5Q522 34 537 32L591 26L587 0H347L352 26L408 32Q425 34 427 41Q429 48 425 81L407 209H163L99 81Q83 48 82.5 41Q82 34 98 32ZM352 589 179 241H402Z" glyph-name="A" horiz-adv-x="628" unicode="A" /><glyph d="M174 648 119 653L124 680H392Q483 680 529 634Q575 588 563 514L559 486Q550 433 514.5 398Q479 363 421 349Q485 335 515.5 292.5Q546 250 536 188L531 161Q519 85 460 42.5Q401 0 307 0H4L9 26L65 32Q82 34 86 40.5Q90 47 96 81L187 599Q193 632 191.5 639Q190 646 174 648ZM391 648 282 648L232 362H340Q391 362 423 391.5Q455 421 465 478L472 519Q484 582 463 615Q442 648 391 648ZM360 330 226 330L174 32H307Q360 32 393.5 63.5Q427 95 438 156L445 197Q457 261 435 295.5Q413 330 360 330Z" glyph-name="B" horiz-adv-x="605" unicode="B" /><glyph d="M297 -10Q175 -10 118.5 77.5Q62 165 86 315L97 382Q120 528 198 609Q276 690 393 690Q497 690 549 627.5Q601 565 574 480L484 459Q511 554 487 606Q463 658 392 658Q316 658 268 601.5Q220 545 201 432L173 265Q152 141 183 81.5Q214 22 300 22Q358 22 397.5 56Q437 90 456 156L518 135Q485 63 429.5 26.5Q374 -10 297 -10Z" glyph-name="C" horiz-adv-x="586" unicode="C" /><glyph d="M174 648 119 653L124 680H386Q511 680 571 593.5Q631 507 606 366L594 301Q569 159 489.5 79.5Q410 0 292 0H4L9 26L65 32Q82 34 86 40.5Q90 47 96 81L187 599Q193 632 191.5 639Q190 646 174 648ZM387 648 282 648L174 32H291Q371 32 421.5 88Q472 144 491 253L520 418Q539 531 505.5 589.5Q472 648 387 648Z" glyph-name="D" horiz-adv-x="659" unicode="D" /><glyph d="M486 163 512 163L483 0H4L9 26L65 32Q82 34 86 40.5Q90 47 96 81L187 599Q193 632 191.5 639Q190 646 174 648L119 653L124 680H591L562 517H536L526 622Q523 642 515 645Q507 648 477 648H283L232 359H366Q399 359 407.5 362.5Q416 366 425 385L457 460H482L441 226H416L410 301Q408 320 400.5 323.5Q393 327 360 327H226L174 32H380Q413 32 421.5 35.5Q430 39 439 58Z" glyph-name="E" horiz-adv-x="580" unicode="E" /><glyph d="M196 32 270 26L265 0H4L9 26L65 32Q82 34 85.5 40.5Q89 47 95 81L187 599Q193 632 191 639Q189 646 173 648L119 653L124 680H581L553 517H526L516 622Q513 641 505 644.5Q497 648 466 648H282L229 350H354Q387 350 395.5 353.5Q404 357 412 376L445 451H471L430 217H404L398 292Q396 311 388.5 314.5Q381 318 348 318H224L182 81Q176 47 178 40Q180 33 196 32Z" glyph-name="F" horiz-adv-x="543" unicode="F" /><glyph d="M508 12 484 12Q478 25 469.5 36Q461 47 450 56Q419 23 378.5 6.5Q338 -10 290 -10Q172 -10 117 77.5Q62 165 86 315L97 382Q120 527 200 608.5Q280 690 401 690Q509 690 562.5 628.5Q616 567 590 480L500 459Q527 556 501.5 607Q476 658 399 658Q320 658 270 601Q220 544 201 432L173 265Q153 142 182.5 82Q212 22 294 22Q343 22 381 41.5Q419 61 442 98L465 227Q472 260 470 267Q468 274 452 276L378 281L382 308H637L633 281L577 276Q560 274 556 266.5Q552 259 546 227Z" glyph-name="G" horiz-adv-x="649" unicode="G" /><glyph d="M196 32 250 26L245 0H4L9 26L65 32Q82 34 85.5 40.5Q89 47 95 81L187 599Q193 632 191 639Q189 646 173 648L119 653L124 680H365L360 653L304 648Q287 646 283.5 639Q280 632 274 599L231 359H533L576 599Q582 632 580 639Q578 646 562 648L508 653L513 680H754L749 653L693 648Q676 646 672.5 639Q669 632 663 599L571 81Q565 47 567 40.5Q569 34 585 32L639 26L634 0H393L398 26L454 32Q471 34 474.5 40.5Q478 47 484 81L528 327H226L182 81Q176 47 178 40.5Q180 34 196 32Z" glyph-name="H" horiz-adv-x="726" unicode="H" /><glyph d="M173 648 119 653L124 680H365L360 653L304 648Q287 646 283.5 639Q280 632 274 599L182 81Q176 47 178 40.5Q180 34 196 32L250 26L245 0H4L9 26L65 32Q82 34 85.5 40.5Q89 47 95 81L187 599Q193 632 191 639Q189 646 173 648Z" glyph-name="I" horiz-adv-x="337" unicode="I" /><glyph d="M310 648 255 653L260 680H501L496 653L441 648Q424 646 420 639Q416 632 410 599L339 194Q322 97 267 43.5Q212 -10 127 -10Q59 -10 24 27Q-11 64 -7 134L58 153Q50 88 66 55Q82 22 123 22Q174 22 205 63.5Q236 105 251 190L323 599Q329 632 327.5 639Q326 646 310 648Z" glyph-name="J" horiz-adv-x="461" unicode="J" /><glyph d="M196 32 250 26L245 0H4L9 26L65 32Q82 34 86 40.5Q90 47 96 81L187 599Q193 632 191.5 639Q190 646 174 648L120 654L124 680H365L361 654L305 648Q288 646 284 638.5Q280 631 274 599L225 320L515 605Q541 631 545 638.5Q549 646 532 648L482 654L486 680H682L678 654L625 648Q612 647 605.5 643Q599 639 564 605L373 417L506 81Q518 50 524.5 42Q531 34 548 32L595 26L590 0H440L307 352L215 261L183 81Q177 48 178.5 41Q180 34 196 32Z" glyph-name="K" horiz-adv-x="644" unicode="K" /><glyph d="M462 165 488 165L459 0H4L9 26L65 32Q82 34 85.5 40.5Q89 47 95 81L187 599Q193 632 191 639Q189 646 173 648L119 653L124 680H365L360 653L304 648Q287 646 283.5 639Q280 632 274 599L174 32H355Q388 32 396.5 35.5Q405 39 414 58Z" glyph-name="L" horiz-adv-x="515" unicode="L" /><glyph d="M124 680 303 680L412 157L704 680H888L883 653L827 648Q810 646 806 638.5Q802 631 796 599L705 81Q699 48 700.5 41Q702 34 718 32L772 26L768 0H527L531 26L587 32Q604 34 608 41.5Q612 49 618 81L714 625L409 80H341L227 628L133 81Q127 48 128.5 41Q130 34 146 32L200 26L195 0H4L9 26L65 32Q81 34 86 43Q91 52 96 81L187 599Q193 632 191.5 639Q190 646 174 648L119 653Z" glyph-name="M" horiz-adv-x="860" unicode="M" /><glyph d="M174 648 119 653L124 680H291L519 146L600 599Q606 632 604.5 639Q603 646 587 648L532 653L537 680H728L723 653L668 648Q651 646 647 639Q643 632 637 599L531 0H491L227 613L133 81Q127 48 128.5 41Q130 34 146 32L200 26L195 0H4L9 26L65 32Q82 34 86 40.5Q90 47 96 81L187 599Q193 632 191.5 639Q190 646 174 648Z" glyph-name="N" horiz-adv-x="691" unicode="N" /><glyph d="M397 690Q521 690 580 600Q639 510 614 366L602 301Q577 155 497.5 72.5Q418 -10 301 -10Q176 -10 118 79Q60 168 85 315L96 380Q122 526 201 608Q280 690 397 690ZM499 253 528 418Q548 535 514.5 596.5Q481 658 397 658Q319 658 269.5 600Q220 542 200 428L171 263Q150 146 183.5 84Q217 22 301 22Q379 22 429 80.5Q479 139 499 253Z" glyph-name="O" horiz-adv-x="666" unicode="O" /><glyph d="M174 648 119 653L124 680H403Q496 680 544.5 627Q593 574 578 491L573 462Q558 376 500 332Q442 288 344 288H219L183 81Q177 45 178.5 39Q180 33 196 32L270 26L265 0H4L9 26L65 32Q82 34 86 40.5Q90 47 96 81L187 599Q193 632 191.5 639Q190 646 174 648ZM402 648 282 648L225 320H344Q400 320 434 353Q468 386 479 450L489 507Q500 577 478 612.5Q456 648 402 648Z" glyph-name="P" horiz-adv-x="574" unicode="P" /><glyph d="M331 -9Q344 -58 382 -78Q420 -98 503 -98L500 -187Q419 -187 366 -141.5Q313 -96 296 -10Q174 -7 117.5 82Q61 171 86 315L97 380Q123 526 202 608Q281 690 397 690Q521 690 580.5 600Q640 510 615 366L603 301Q579 164 508 82.5Q437 1 331 -9ZM500 253 529 418Q549 535 515.5 596.5Q482 658 398 658Q320 658 270 600Q220 542 200 428L172 263Q151 146 184.5 84Q218 22 302 22Q380 22 430 80.5Q480 139 500 253Z" glyph-name="Q" horiz-adv-x="668" unicode="Q" /><glyph d="M174 648 119 653L124 680H395Q490 680 539 630.5Q588 581 574 502L569 472Q558 409 518 369Q478 329 412 315L498 81Q510 48 515 41Q520 34 536 32L580 26L576 0H430L325 308H223L183 81Q177 48 178.5 41Q180 34 196 32L250 26L245 0H4L9 26L65 32Q82 34 86 40.5Q90 47 96 81L187 599Q193 632 191.5 639Q190 646 174 648ZM397 648 282 648L228 340H342Q395 340 431 374Q467 408 477 468L483 506Q495 573 472 610.5Q449 648 397 648Z" glyph-name="R" horiz-adv-x="625" unicode="R" /><glyph d="M486 197Q486 105 419 47.5Q352 -10 239 -10Q139 -10 86 36Q33 82 32 172L95 192Q91 107 126.5 64.5Q162 22 240 22Q320 22 363.5 58.5Q407 95 407 161Q407 208 382 237.5Q357 267 299 291L225 320Q162 345 131 388.5Q100 432 100 494Q100 583 160 636.5Q220 690 325 690Q375 690 414.5 676.5Q454 663 480 637Q511 607 520 566Q529 525 514 483L427 465Q455 558 428 608Q401 658 321 658Q253 658 215.5 623Q178 588 178 524Q178 476 202 446Q226 416 281 395L355 365Q422 339 454 297.5Q486 256 486 197Z" glyph-name="S" horiz-adv-x="548" unicode="S" /><glyph d="M86 517 60 517L89 680H621L593 517H566L556 622Q554 641 546.5 644.5Q539 648 507 648H393L293 81Q287 47 288.5 40.5Q290 34 306 32L360 26L356 0H115L119 26L175 32Q192 34 196 40.5Q200 47 206 81L306 648H192Q159 648 150.5 644.5Q142 641 134 622Z" glyph-name="T" horiz-adv-x="559" unicode="T" /><glyph d="M579 648 524 653L529 680H720L715 653L660 648Q643 645 638.5 637Q634 629 629 599L564 230Q543 112 480 51Q417 -10 315 -10Q198 -10 143.5 58Q89 126 110 246L172 599Q178 632 176.5 639Q175 646 159 648L104 653L109 680H350L345 653L290 648Q273 645 268.5 637Q264 629 259 599L194 230Q175 124 206 73Q237 22 320 22Q404 22 456.5 74.5Q509 127 527 230L592 599Q598 632 596.5 639Q595 646 579 648Z" glyph-name="U" horiz-adv-x="677" unicode="U" /><glyph d="M600 605 300 0H232L145 605Q143 620 142 625Q141 630 140 633Q138 641 135 643.5Q132 646 119 648L68 653L73 680H306L301 653L249 648Q232 646 230 639.5Q228 633 232 605L306 89L561 605Q575 633 575 639.5Q575 646 559 648L508 653L513 680H698L693 653L641 648Q625 646 619.5 639.5Q614 633 600 605Z" glyph-name="V" horiz-adv-x="620" unicode="V" /><glyph d="M651 0 586 0L517 573L248 0H183L143 605Q142 634 138.5 640Q135 646 120 648L69 653L74 680H304L299 653L247 648Q233 646 230 643.5Q227 641 226 634Q226 631 226 625.5Q226 620 227 605L259 105L527 680H589L659 109L865 605Q877 634 876.5 640Q876 646 860 648L809 653L814 680H1000L995 653L943 648Q926 646 921 639.5Q916 633 904 605Z" glyph-name="W" horiz-adv-x="921" unicode="W" /><glyph d="M102 32 152 26L148 0H-42L-38 26L14 32Q30 34 37 40Q44 46 67 75L273 335L167 605Q156 633 151.5 639.5Q147 646 132 648L81 653L86 680H325L320 653L268 648Q251 646 250 639.5Q249 633 260 605L341 397L504 605Q527 634 528.5 640Q530 646 515 648L464 653L469 680H659L654 653L602 648Q586 646 579 639.5Q572 633 549 605L355 359L466 75Q476 47 481 40.5Q486 34 501 32L552 26L547 0H309L314 26L366 32Q383 34 384 40Q385 46 374 75L287 297L112 75Q90 48 88 41Q86 34 102 32Z" glyph-name="X" horiz-adv-x="598" unicode="X" /><glyph d="M322 32 376 26L371 0H130L135 26L191 32Q204 33 208.5 36.5Q213 40 216 49L258 292L153 605Q144 632 139 639Q134 646 118 648L67 653L72 680H311L306 653L254 648Q238 646 237 639.5Q236 633 245 605L333 332L520 605Q538 632 540 639Q542 646 526 648L475 653L480 680H668L663 653L611 648Q595 646 588 640Q581 634 561 605L345 291L308 79L309 81Q303 47 304.5 40.5Q306 34 322 32Z" glyph-name="Y" horiz-adv-x="588" unicode="Y" /><glyph d="M450 163 476 163L448 0H-4L0 22L447 648H232Q200 648 190.5 644.5Q181 641 173 622L125 517H99L128 680H558L553 658L106 32H344Q377 32 385.5 35.5Q394 39 403 58Z" glyph-name="Z" horiz-adv-x="531" unicode="Z" /><glyph d="M449 648 395 653L400 680H899L870 517H845L834 622Q832 641 824 644.5Q816 648 785 648H591L540 359H674Q707 359 716 362.5Q725 366 733 385L765 460H790L749 226H724L717 301Q716 320 708.5 323.5Q701 327 668 327H534L482 32H686Q719 32 727.5 35.5Q736 39 745 58L792 163H818L789 0H312L316 26L373 32Q389 34 393 40.5Q397 47 403 81L426 209H204L113 81Q88 46 87 39.5Q86 33 101 32L155 26L151 0H-46L-41 26L14 32Q30 33 37.5 39.5Q45 46 70 81L437 599Q461 632 463 639Q465 646 449 648ZM499 626 227 241H431Z" glyph-name="AE" horiz-adv-x="888" unicode="Æ" /><glyph d="M85 314 96 379Q121 520 200.5 600Q280 680 398 680H912L883 517H858L847 622Q845 641 837 644.5Q829 648 798 648H604L553 359H687Q720 359 729 362.5Q738 366 746 385L776 460H803L762 226H737L730 301Q729 320 721.5 323.5Q714 327 681 327H547L495 32H699Q732 32 741 35.5Q750 39 758 58L805 163H831L802 0H304Q179 0 119.5 86.5Q60 173 85 314ZM304 32 408 32L516 648H400Q321 648 270 591.5Q219 535 199 427L171 262Q152 149 185.5 90.5Q219 32 304 32Z" glyph-name="OE" horiz-adv-x="901" unicode="Œ" /><glyph d="M464 163 490 163L462 0H7L12 26L68 32Q85 34 88.5 40.5Q92 47 98 81L136 296L52 257L42 289L143 336L190 599Q196 632 194 639Q192 646 176 648L122 653L127 680H368L363 653L307 648Q290 646 286.5 639Q283 632 277 599L238 380L380 446L390 414L231 340L177 32H358Q391 32 399.5 35.5Q408 39 417 58Z" glyph-name="Lslash" horiz-adv-x="518" unicode="Ł" /><glyph d="M614 366 602 301Q576 154 497 72Q418 -10 301 -10Q246 -10 203 8.5Q160 27 131 62L77 0H30L110 92Q86 135 80 191.5Q74 248 85 315L96 380Q122 526 201 608Q280 690 397 690Q451 690 494 672Q537 654 567 618L621 680H668L588 588Q612 545 618.5 488Q625 431 614 366ZM200 428 171 263Q166 233 164 206Q162 179 164 155L525 570Q511 614 479 636Q447 658 397 658Q319 658 269.5 600Q220 542 200 428ZM499 253 528 418Q533 449 534.5 476Q536 503 534 526L173 110Q187 66 219 44Q251 22 301 22Q379 22 429 80.5Q479 139 499 253Z" glyph-name="Oslash" horiz-adv-x="666" unicode="Ø" /><glyph d="M178 648 123 653L128 680H390Q515 680 574.5 593.5Q634 507 609 366L598 301Q573 159 493.5 79.5Q414 0 296 0H8L12 26L68 32Q85 34 89 40.5Q93 47 99 81L145 338H68L73 370H150L191 599Q197 632 195.5 639Q194 646 178 648ZM390 370 385 338H232L178 32H295Q374 32 425 88.5Q476 145 495 253L523 418Q542 531 508.5 589.5Q475 648 390 648H286L237 370Z" glyph-name="Eth" horiz-adv-x="663" unicode="Ð" /><glyph d="M196 32 270 26L265 0H4L9 26L65 32Q82 34 85.5 40.5Q89 47 95 81L187 599Q193 632 191 639Q189 646 173 648L119 653L124 680H385L380 653L304 648Q288 646 284 639.5Q280 633 274 599L263 538H378Q472 538 520 485.5Q568 433 554 349L549 320Q533 234 475.5 190Q418 146 320 146H194L182 81Q176 47 178 40Q180 33 196 32ZM378 506 257 506L199 178H320Q375 178 409 211Q443 244 454 308L464 365Q476 434 454 470Q432 506 378 506Z" glyph-name="Thorn" horiz-adv-x="574" unicode="Þ" /><glyph d="M594 170 592 154Q580 78 524 34Q468 -10 386 -10Q319 -10 279.5 23.5Q240 57 242 115L303 132Q300 76 319.5 48.5Q339 21 383 21Q429 21 459.5 56.5Q490 92 501 157L507 195Q520 277 484.5 318.5Q449 360 365 360H357L361 386L530 604Q509 631 478.5 644.5Q448 658 409 658Q339 658 297.5 616.5Q256 575 242 491L155 0H-8L-3 26L52 32Q69 34 72.5 40.5Q76 47 82 81L153 481Q172 587 235.5 638.5Q299 690 410 690Q473 690 528 668Q583 646 616 608L613 589L451 381Q529 360 567.5 303.5Q606 247 594 170Z" glyph-name="uni1E9E" horiz-adv-x="654" unicode="ẞ" /><glyph d="M444 -5Q405 -5 384 18.5Q363 42 362 86Q332 38 293.5 14Q255 -10 209 -10Q123 -10 82.5 66.5Q42 143 64 260L68 282Q86 383 149.5 444Q213 505 298 505Q339 505 370.5 489Q402 473 423 442Q434 451 447 464Q460 477 476 495H511L450 150Q438 83 439.5 55.5Q441 28 459 28Q477 28 493.5 48Q510 68 523 105L558 83Q536 39 507.5 17Q479 -5 444 -5ZM158 291 149 234Q132 138 152.5 81Q173 24 222 24Q262 24 299 58.5Q336 93 370 160L411 396Q393 434 367 452.5Q341 471 304 471Q247 471 210 425.5Q173 380 158 291Z" glyph-name="a" horiz-adv-x="581" unicode="a" /><glyph d="M504 235 500 213Q482 112 418 51Q354 -10 268 -10Q227 -10 196 5Q165 20 143 49Q127 40 111.5 27.5Q96 15 77 -5H53L169 659Q175 692 173.5 699Q172 706 156 708L103 713L107 740H266L208 412Q239 459 276 482Q313 505 358 505Q444 505 484.5 428.5Q525 352 504 235ZM344 470Q304 470 266 433.5Q228 397 192 324L153 98Q170 60 197 42Q224 24 262 24Q320 24 357 69Q394 114 409 203L419 260Q435 357 414.5 413.5Q394 470 344 470Z" glyph-name="b" horiz-adv-x="568" unicode="b" /><glyph d="M307 473Q251 473 211 425Q171 377 157 289L147 229Q130 128 153.5 75Q177 22 237 22Q283 22 320 48.5Q357 75 374 124L420 98Q389 44 341 17Q293 -10 231 -10Q133 -10 86 63Q39 136 61 254L65 276Q84 380 151 442.5Q218 505 311 505Q398 505 439.5 451Q481 397 455 320L374 304Q399 383 381 428Q363 473 307 473Z" glyph-name="c" horiz-adv-x="485" unicode="c" /><glyph d="M448 -5Q409 -5 388 20Q367 45 366 92Q334 41 295.5 15.5Q257 -10 210 -10Q124 -10 83 66.5Q42 143 64 260L68 282Q86 383 150 444Q214 505 299 505Q339 505 370.5 490Q402 475 424 446L461 659Q467 692 465.5 699Q464 706 448 708L394 713L398 740H558L454 150Q442 83 443.5 55.5Q445 28 463 28Q481 28 497.5 48Q514 68 526 105L562 83Q540 39 511.5 17Q483 -5 448 -5ZM158 291 149 234Q132 137 152.5 80.5Q173 24 223 24Q263 24 301.5 60.5Q340 97 375 168L415 395Q397 434 370 452.5Q343 471 305 471Q247 471 210 425.5Q173 380 158 291Z" glyph-name="d" horiz-adv-x="585" unicode="d" /><glyph d="M388 123 435 98Q405 45 355 17.5Q305 -10 242 -10Q138 -10 88.5 62.5Q39 135 61 254L65 276Q83 380 151.5 442.5Q220 505 317 505Q387 505 430.5 471Q474 437 474 385Q474 314 400.5 269.5Q327 225 196 216L144 212Q131 119 156.5 70.5Q182 22 245 22Q293 22 332 48.5Q371 75 388 123ZM314 473Q254 473 212.5 425Q171 377 156 289L149 244L195 247Q295 253 347 290Q399 327 399 389Q399 428 376.5 450.5Q354 473 314 473Z" glyph-name="e" horiz-adv-x="502" unicode="e" /><glyph d="M388 495 383 463H223L104 -213H22L133 414Q139 447 137.5 454Q136 461 120 463L65 468L70 495H147L160 567Q177 659 224.5 704.5Q272 750 350 750Q431 750 467 706Q503 662 481 595L399 579Q421 649 409 683.5Q397 718 350 718Q305 718 281 686Q257 654 244 581L229 495Z" glyph-name="f" horiz-adv-x="331" unicode="f" /><glyph d="M514 495 428 9Q408 -101 342.5 -162Q277 -223 175 -223Q100 -223 60.5 -182.5Q21 -142 26 -72L83 -60Q76 -126 99 -159.5Q122 -193 175 -193Q244 -193 285.5 -146Q327 -99 345 -1L359 75Q329 32 291.5 11Q254 -10 210 -10Q124 -10 83 66.5Q42 143 64 260L68 282Q86 383 150 444Q214 505 299 505Q340 505 372.5 489Q405 473 427 442Q441 454 454 467.5Q467 481 479 495ZM158 291 149 234Q132 137 152.5 80.5Q173 24 223 24Q264 24 302 58.5Q340 93 374 160L415 394Q398 433 370.5 452Q343 471 305 471Q247 471 210 425.5Q173 380 158 291Z" glyph-name="g" horiz-adv-x="564" unicode="g" /><glyph d="M553 105 588 83Q566 39 537.5 17Q509 -5 472 -5Q423 -5 403 29Q383 63 396 127L435 323Q450 393 435 430Q420 467 378 467Q331 467 284 428.5Q237 390 195 316L139 0H57L173 659Q179 692 177.5 699Q176 706 160 708L105 713L110 740H269L208 393Q249 449 296.5 477Q344 505 396 505Q469 505 502 455.5Q535 406 518 324L477 124Q465 67 468 47.5Q471 28 488 28Q507 28 524 48Q541 68 553 105Z" glyph-name="h" horiz-adv-x="611" unicode="h" /><glyph d="M273 669Q273 643 256 625.5Q239 608 212 608Q189 608 176 620.5Q163 633 163 656Q163 682 180 699Q197 716 223 716Q246 716 259.5 703.5Q273 691 273 669ZM120 463 66 468L71 495H230L170 150Q158 83 159.5 55.5Q161 28 179 28Q197 28 213.5 48Q230 68 242 105L278 83Q257 40 228 17.5Q199 -5 164 -5Q115 -5 94.5 33Q74 71 86 142L133 414Q139 447 137.5 454Q136 461 120 463Z" glyph-name="i" horiz-adv-x="300" unicode="i" /><glyph d="M275 666Q273 641 255 624.5Q237 608 212 608Q189 608 176 622Q163 636 165 659Q167 684 184.5 700Q202 716 227 716Q251 716 264 702.5Q277 689 275 666ZM122 463 68 468L72 495H231L135 -52Q120 -135 75 -179Q30 -223 -41 -223Q-96 -223 -126 -192Q-156 -161 -152 -107L-95 -91Q-98 -141 -85.5 -166Q-73 -191 -44 -191Q-4 -191 18 -160.5Q40 -130 52 -60L135 414Q141 447 139.5 454Q138 461 122 463Z" glyph-name="j" horiz-adv-x="284" unicode="j" /><glyph d="M501 0 357 0L245 260L164 188L131 0H50L166 659Q172 692 170.5 699Q169 706 153 708L99 713L103 740H262L174 241L294 353Q385 436 423.5 462.5Q462 489 507 505L523 420Q460 407 406.5 381.5Q353 356 307 316L415 75Q427 48 433 41Q439 34 455 32L506 26Z" glyph-name="k" horiz-adv-x="521" unicode="k" /><glyph d="M153 708 99 713L103 740H262L159 150Q147 83 149 55.5Q151 28 169 28Q186 28 203 48.5Q220 69 232 105L267 83Q245 39 217 17Q189 -5 154 -5Q104 -5 84 33Q64 71 76 142L166 659Q172 692 170.5 699Q169 706 153 708Z" glyph-name="l" horiz-adv-x="291" unicode="l" /><glyph d="M858 105 894 83Q872 39 843.5 17Q815 -5 778 -5Q729 -5 708.5 29Q688 63 701 127L741 323Q755 393 741 430Q727 467 688 467Q643 467 598.5 429.5Q554 392 512 319L456 0H374L431 323Q444 393 430 430Q416 467 378 467Q333 467 288 428.5Q243 390 201 316L145 0H63L135 414Q141 447 139.5 454Q138 461 122 463L68 468L73 495H229L212 390Q253 448 299 476.5Q345 505 396 505Q451 505 483 473Q515 441 518 384Q559 444 606.5 474.5Q654 505 706 505Q777 505 808.5 455.5Q840 406 823 324L782 124Q771 68 773.5 48Q776 28 793 28Q812 28 829 48Q846 68 858 105Z" glyph-name="m" horiz-adv-x="920" unicode="m" /><glyph d="M558 105 594 83Q572 39 543.5 17Q515 -5 478 -5Q429 -5 408.5 29Q388 63 401 127L441 323Q455 394 440 430.5Q425 467 383 467Q336 467 289.5 428.5Q243 390 200 316L145 0H63L135 414Q141 447 139.5 454Q138 461 122 463L68 468L73 495H229L211 389Q252 447 300 476Q348 505 401 505Q474 505 507 456Q540 407 523 324L482 124Q471 68 473.5 48Q476 28 493 28Q512 28 529 48Q546 68 558 105Z" glyph-name="n" horiz-adv-x="616" unicode="n" /><glyph d="M310 505Q411 505 462 430.5Q513 356 492 242L488 220Q468 110 404 50Q340 -10 241 -10Q140 -10 90.5 64Q41 138 61 252L65 275Q85 385 148.5 445Q212 505 310 505ZM395 207 406 268Q423 367 397.5 420.5Q372 474 308 474Q249 474 211 427.5Q173 381 157 288L147 227Q130 128 155 74Q180 20 244 20Q303 20 341 67Q379 114 395 207Z" glyph-name="o" horiz-adv-x="554" unicode="o" /><glyph d="M277 -10Q237 -10 206 4.5Q175 19 153 48L107 -213H25L135 414Q141 447 139.5 454Q138 461 122 463L68 469L73 495H229L213 406Q245 456 283 480.5Q321 505 367 505Q453 505 493.5 428.5Q534 352 513 235L509 213Q491 112 427 51Q363 -10 277 -10ZM353 470Q313 470 274.5 433Q236 396 201 323L162 98Q179 60 206 42Q233 24 271 24Q329 24 366 69Q403 114 418 203L428 260Q444 357 423.5 413.5Q403 470 353 470Z" glyph-name="p" horiz-adv-x="577" unicode="p" /><glyph d="M492 500 516 500L389 -213H307L360 83Q329 36 292 13Q255 -10 210 -10Q124 -10 83 66.5Q42 143 64 260L68 282Q86 383 150 444Q214 505 299 505Q340 505 371.5 489.5Q403 474 425 444Q443 454 458.5 467.5Q474 481 492 500ZM158 291 149 234Q132 137 152.5 80.5Q173 24 223 24Q263 24 301.5 60.5Q340 97 375 169L415 394Q398 433 370.5 452Q343 471 305 471Q247 471 210 425.5Q173 380 158 291Z" glyph-name="q" horiz-adv-x="565" unicode="q" /><glyph d="M332 450Q299 450 266.5 417Q234 384 201 316L145 0H63L136 414Q142 447 140.5 454Q139 461 123 463L68 468L73 495H230L212 391Q248 447 288.5 476Q329 505 372 505Q407 505 430.5 485Q454 465 464 428L394 381Q386 417 371 433.5Q356 450 332 450Z" glyph-name="r" horiz-adv-x="428" unicode="r" /><glyph d="M390 141Q390 73 337.5 31.5Q285 -10 193 -10Q115 -10 71 22Q27 54 23 114L81 134Q80 77 107.5 49Q135 21 192 21Q250 21 284.5 46.5Q319 72 319 115Q319 147 298 169Q277 191 232 205L174 224Q126 239 99.5 272Q73 305 73 351Q73 419 122 462Q171 505 256 505Q346 505 389 458.5Q432 412 409 346L327 330Q351 398 331 435.5Q311 473 251 473Q203 473 174 448.5Q145 424 145 382Q145 349 163 327.5Q181 306 219 295L277 276Q332 258 361 223.5Q390 189 390 141Z" glyph-name="s" horiz-adv-x="458" unicode="s" /><glyph d="M285 121 334 102Q310 45 276 17.5Q242 -10 196 -10Q126 -10 96 35.5Q66 81 81 165L124 415Q130 447 128 454Q126 461 110 463L56 468L61 495H138L161 626L246 643L220 495H383L377 463H214L158 145Q147 83 157 52.5Q167 22 199 22Q228 22 248 45.5Q268 69 285 121Z" glyph-name="t" horiz-adv-x="363" unicode="t" /><glyph d="M468 -5Q425 -5 404 23Q383 51 386 105Q345 47 298.5 18.5Q252 -10 200 -10Q131 -10 100 38Q69 86 83 170L126 414Q132 447 130.5 454Q129 461 113 463L58 468L63 495H223L166 171Q153 100 166.5 63.5Q180 27 218 27Q263 27 308 65Q353 103 396 178L452 495H534L474 150Q462 83 463.5 55.5Q465 28 483 28Q501 28 517.5 48Q534 68 546 105L582 83Q561 40 532 17.5Q503 -5 468 -5Z" glyph-name="u" horiz-adv-x="605" unicode="u" /><glyph d="M107 463 53 468L58 495H217L170 222Q152 121 166 74Q180 27 228 27Q274 27 315 63Q356 99 383 163Q401 207 410 261.5Q419 316 419 378Q419 399 418 422.5Q417 446 414 475L506 505Q500 409 484 329.5Q468 250 442 188Q402 93 340.5 41.5Q279 -10 209 -10Q132 -10 100 50.5Q68 111 87 221L121 414Q127 447 125 454Q123 461 107 463Z" glyph-name="v" horiz-adv-x="538" unicode="v" /><glyph d="M677 475 769 505Q754 258 678 124Q602 -10 487 -10Q436 -10 405.5 18.5Q375 47 367 102Q333 47 289 18.5Q245 -10 197 -10Q123 -10 94 45Q65 100 84 202L122 414Q128 447 126 454Q124 461 108 463L53 468L58 495H218L166 203Q149 106 159.5 66.5Q170 27 212 27Q256 27 296.5 64.5Q337 102 366 171Q367 182 368.5 194.5Q370 207 372 221L420 495H502L455 222Q437 116 448.5 71.5Q460 27 505 27Q580 27 631 122Q682 217 682 372Q682 401 681 426Q680 451 677 475Z" glyph-name="w" horiz-adv-x="804" unicode="w" /><glyph d="M233 214 208 179Q152 104 120.5 65Q89 26 57 -10L-12 38Q48 80 98.5 121.5Q149 163 195 209L224 238L152 420Q143 445 137 452.5Q131 460 113 463L62 468L67 495H206L283 298L296 316Q354 393 385 431.5Q416 470 448 505L517 456Q454 413 403.5 371.5Q353 330 309 285L294 270L371 75Q381 49 387 41.5Q393 34 410 32L460 26L456 0H317Z" glyph-name="x" horiz-adv-x="502" unicode="x" /><glyph d="M534 495 448 9Q429 -101 363.5 -162Q298 -223 195 -223Q120 -223 80.5 -182.5Q41 -142 47 -72L104 -60Q96 -126 119.5 -159.5Q143 -193 195 -193Q265 -193 306.5 -145.5Q348 -98 365 -1L383 101Q342 45 296.5 17.5Q251 -10 200 -10Q131 -10 100 38Q69 86 83 170L126 414Q132 447 130.5 454Q129 461 113 463L58 468L63 495H223L166 171Q153 100 166.5 63.5Q180 27 218 27Q263 27 308 65Q353 103 396 178L452 495Z" glyph-name="y" horiz-adv-x="585" unicode="y" /><glyph d="M386 147 413 140Q401 67 370.5 28.5Q340 -10 292 -10Q272 -10 251 -3.5Q230 3 191 24Q159 41 143 46.5Q127 52 114 52Q93 52 72 39Q51 26 29 0L4 23L354 429H189Q154 429 145.5 426Q137 423 130 407L95 329H69L98 495H440L435 470L109 92Q124 100 136.5 104Q149 108 163 108Q178 108 193.5 103Q209 98 238 81Q267 64 282.5 59Q298 54 313 54Q341 54 358 75Q375 96 386 147Z" glyph-name="z" horiz-adv-x="457" unicode="z" /><glyph d="M686 123 733 98Q703 45 653 17.5Q603 -10 540 -10Q473 -10 427.5 22Q382 54 364 112Q329 53 277.5 21.5Q226 -10 166 -10Q106 -10 72.5 20Q39 50 39 103Q39 174 91 212.5Q143 251 241 251H358L372 332Q384 402 365 437.5Q346 473 295 473Q239 473 210 436.5Q181 400 178 326L99 338Q104 411 158 458Q212 505 295 505Q349 505 384.5 483.5Q420 462 435 422Q469 463 515 484Q561 505 615 505Q685 505 728.5 470.5Q772 436 772 385Q772 310 696 264.5Q620 219 494 219H442Q428 122 453.5 72Q479 22 543 22Q591 22 630 48.5Q669 75 686 123ZM612 473Q552 473 510 425Q468 377 454 289L448 251H493Q593 251 645 286.5Q697 322 697 389Q697 428 674 450.5Q651 473 612 473ZM124 106Q124 69 140.5 50.5Q157 32 190 32Q237 32 278.5 63.5Q320 95 355 156Q353 170 352.5 185.5Q352 201 354 219H246Q185 219 154.5 191Q124 163 124 106Z" glyph-name="ae" horiz-adv-x="799" unicode="æ" /><glyph d="M731 123 778 98Q748 45 698.5 17.5Q649 -10 585 -10Q529 -10 488.5 16Q448 42 428 91Q397 41 349.5 15.5Q302 -10 241 -10Q140 -10 90.5 64Q41 138 61 252L65 275Q85 385 148.5 445Q212 505 310 505Q367 505 408 477Q449 449 469 397Q502 449 552 477Q602 505 661 505Q731 505 774.5 471Q818 437 818 385Q818 314 744 269.5Q670 225 540 216L487 212Q474 118 500 70Q526 22 588 22Q637 22 675.5 48.5Q714 75 731 123ZM395 207 406 268Q423 367 397.5 420.5Q372 474 308 474Q249 474 211 427.5Q173 381 157 288L147 227Q130 128 155 74Q180 20 244 20Q303 20 341 67Q379 114 395 207ZM657 473Q598 473 556.5 425Q515 377 500 289L493 244L539 247Q639 253 691 290Q743 327 743 389Q743 428 720 450.5Q697 473 657 473Z" glyph-name="oe" horiz-adv-x="845" unicode="œ" /><glyph d="M247 105 283 83Q262 40 233 17.5Q204 -5 169 -5Q120 -5 99.5 33Q79 71 91 142L124 331L16 281L7 312L130 369L181 659Q187 692 185.5 699Q184 706 168 708L114 713L119 740H278L220 410L327 459L337 429L214 372L175 150Q163 83 164.5 55.5Q166 28 184 28Q202 28 218.5 48Q235 68 247 105Z" glyph-name="lslash" horiz-adv-x="330" unicode="ł" /><glyph d="M493 242 489 220Q469 110 405 50Q341 -10 243 -10Q201 -10 166.5 3.5Q132 17 107 44L65 0H17L86 72Q65 107 59 153Q53 199 62 252L66 275Q86 385 149.5 445Q213 505 311 505Q354 505 388.5 491.5Q423 478 448 451L490 495H537L468 423Q490 388 496.5 341Q503 294 493 242ZM158 288 148 227Q144 199 142.5 175Q141 151 142 131L405 406Q394 440 369.5 457Q345 474 309 474Q250 474 212 427.5Q174 381 158 288ZM397 207 407 268Q412 293 413.5 317.5Q415 342 413 365L150 90Q161 56 185.5 38Q210 20 246 20Q305 20 343 67Q381 114 397 207Z" glyph-name="oslash" horiz-adv-x="556" unicode="ø" /><glyph d="M499 284 495 256Q471 124 406.5 57Q342 -10 240 -10Q139 -10 90 53Q41 116 57 223L60 243Q74 340 133.5 395.5Q193 451 281 451Q325 451 361 435Q397 419 422 387Q424 455 409.5 512Q395 569 363 615L233 531L217 559L343 641Q323 664 298.5 684.5Q274 705 243 724L257 750Q292 733 322.5 711Q353 689 378 664L511 750L527 722L401 640Q465 567 490.5 475Q516 383 499 284ZM151 251 142 197Q128 111 152.5 66.5Q177 22 239 22Q305 22 343.5 74Q382 126 402 239L413 307Q413 310 413.5 313Q414 316 415 322Q416 328 416.5 331.5Q417 335 418 338Q397 378 365.5 398.5Q334 419 295 419Q239 419 201.5 376Q164 333 151 251Z" glyph-name="eth" horiz-adv-x="559" unicode="ð" /><glyph d="M272 -10Q232 -10 200.5 4.5Q169 19 147 48L101 -213H19L173 659Q178 689 176.5 697.5Q175 706 160 708L106 714L110 740H269L211 411Q243 458 280 481.5Q317 505 362 505Q447 505 488 428Q529 351 508 235L504 213Q485 112 421 51Q357 -10 272 -10ZM348 470Q306 470 268 433Q230 396 195 322L156 99Q173 61 200 42.5Q227 24 266 24Q324 24 361 69Q398 114 413 203L422 260Q439 357 418.5 413.5Q398 470 348 470Z" glyph-name="thorn" horiz-adv-x="572" unicode="þ" /><glyph d="M374 718Q317 718 287 685.5Q257 653 244 581L104 -213H22L133 414Q139 447 137.5 454Q136 461 120 463L65 468L70 495H147L160 567Q177 660 229.5 705Q282 750 371 750Q447 750 490 717.5Q533 685 533 630Q533 603 520.5 578.5Q508 554 466 513Q425 472 412 447.5Q399 423 399 395Q399 371 412 350Q425 329 459 301L495 270Q527 244 542 213Q557 182 557 142Q557 75 509 32.5Q461 -10 384 -10Q320 -10 282 21.5Q244 53 236 114L294 134Q295 77 317.5 49Q340 21 384 21Q431 21 459 45.5Q487 70 487 113Q487 141 475.5 162Q464 183 437 206L401 236Q361 269 346 295Q331 321 331 353Q331 380 342.5 406.5Q354 433 392 482Q435 536 448.5 568.5Q462 601 462 636Q462 678 440.5 698Q419 718 374 718Z" glyph-name="germandbls" horiz-adv-x="602" unicode="ß" /><glyph d="M120 463 66 468L71 495H230L170 150Q158 83 159.5 55.5Q161 28 179 28Q197 28 213.5 48Q230 68 242 105L278 83Q257 40 228 17.5Q199 -5 164 -5Q115 -5 94.5 33Q74 71 86 142L134 414Q140 445 138 453Q136 461 120 463Z" glyph-name="dotlessi" horiz-adv-x="300" unicode="ı" /><glyph d="M122 463 68 468L72 495H231L135 -52Q120 -135 75 -179Q30 -223 -41 -223Q-96 -223 -126 -192Q-156 -161 -152 -107L-95 -91Q-98 -141 -85.5 -166Q-73 -191 -44 -191Q-4 -191 18 -160.5Q40 -130 52 -60L135 414Q141 447 139.5 454Q138 461 122 463Z" glyph-name="dotlessj" horiz-adv-x="284" unicode="ȷ" /><glyph d="M382 718Q320 718 287.5 678Q255 638 239 549L229 495H535L475 150Q463 82 465 55Q467 28 484 28Q502 28 518.5 48Q535 68 548 105L583 83Q561 39 532.5 17Q504 -5 469 -5Q419 -5 399 33Q379 71 392 142L447 463H224L104 -213H22L133 414Q139 447 137.5 454Q136 461 120 463L65 468L70 495H147L154 535Q174 643 231 696.5Q288 750 383 750Q473 750 520 705.5Q567 661 547 595L465 579Q485 648 464 683Q443 718 382 718Z" glyph-name="fi" horiz-adv-x="605" unicode="ﬁ" /><glyph d="M690 718Q628 718 595 678.5Q562 639 546 549L536 495H842L782 150Q770 81 772 54.5Q774 28 792 28Q809 28 826 48.5Q843 69 855 105L890 83Q868 39 839.5 17Q811 -5 776 -5Q727 -5 707 33Q687 71 699 142L754 463H531L448 -7Q428 -115 371 -169Q314 -223 220 -223Q140 -223 95 -187.5Q50 -152 55 -94L137 -78Q132 -138 151.5 -164.5Q171 -191 220 -191Q281 -191 314.5 -151Q348 -111 364 -21L449 463H224L143 0H60L133 414Q139 447 137.5 454Q136 461 120 463L65 468L70 495H147L154 535Q173 637 229.5 688.5Q286 740 380 740Q428 740 462.5 721.5Q497 703 513 669Q543 709 587 729.5Q631 750 690 750Q780 750 827 705.5Q874 661 854 595L772 579Q792 648 771.5 683Q751 718 690 718ZM380 708Q319 708 286 670Q253 632 239 549L230 495H455L463 538Q479 625 459 666.5Q439 708 380 708Z" glyph-name="ffi" horiz-adv-x="913" unicode="ﬃ" /><glyph d="M369 495 364 463H224L104 -213H22L133 414Q139 447 137.5 454Q136 461 120 463L65 468L70 495H147L154 535Q174 643 231 696.5Q288 750 383 750Q426 750 457 737.5Q488 725 506 701Q521 710 533.5 719.5Q546 729 556 740H578L475 150Q463 83 464.5 55.5Q466 28 484 28Q502 28 518.5 48Q535 68 548 105L583 83Q561 39 532.5 17Q504 -5 469 -5Q419 -5 399 33Q379 71 392 142L471 599Q482 660 460 689Q438 718 382 718Q320 718 287.5 678Q255 638 239 549L229 495Z" glyph-name="fl" horiz-adv-x="606" unicode="ﬂ" /><glyph d="M531 463 448 -7Q428 -115 371 -169Q314 -223 220 -223Q140 -223 95 -187.5Q50 -152 55 -94L137 -78Q132 -138 151.5 -164.5Q171 -191 220 -191Q281 -191 314.5 -151Q348 -111 364 -21L449 463H224L143 0H60L133 414Q139 447 137.5 454Q136 461 120 463L65 468L70 495H147L154 535Q173 637 229.5 688.5Q286 740 380 740Q428 740 462.5 721.5Q497 703 514 668Q543 709 587.5 729.5Q632 750 690 750Q733 750 764 737.5Q795 725 813 701Q827 709 840 719Q853 729 864 740H885L782 150Q770 81 772 54.5Q774 28 792 28Q809 28 826 48.5Q843 69 855 105L890 83Q868 39 839.5 17Q811 -5 776 -5Q727 -5 707 33Q687 71 699 142L778 599Q789 660 767.5 689Q746 718 690 718Q628 718 595 678.5Q562 639 546 549L536 495H677L671 463ZM380 708Q319 708 286 670Q253 632 239 549L230 495H455L462 535Q478 625 458.5 666.5Q439 708 380 708Z" glyph-name="ffl" horiz-adv-x="914" unicode="ﬄ" /><glyph d="M511 -10Q441 -10 411 35.5Q381 81 396 165L447 463H224L104 -213H22L133 414Q139 447 137.5 454Q136 461 120 463L65 468L70 495H147L154 535Q174 642 230.5 696Q287 750 379 750Q446 750 482 717Q518 684 515 627Q521 631 527.5 636.5Q534 642 540 648H562L535 495H698L693 463H530L474 145Q463 82 473 52Q483 22 515 22Q544 22 564 45.5Q584 69 601 121L649 102Q625 45 591 17.5Q557 -10 511 -10ZM239 549 229 495H453L471 600Q481 661 459.5 689.5Q438 718 382 718Q320 718 287.5 678Q255 638 239 549Z" glyph-name="ft" horiz-adv-x="678" unicode="" /><glyph d="M531 463 448 -7Q428 -115 371 -169Q314 -223 220 -223Q140 -223 95 -187.5Q50 -152 55 -94L137 -78Q132 -138 151.5 -164.5Q171 -191 220 -191Q281 -191 314.5 -151Q348 -111 364 -21L449 463H224L143 0H60L133 414Q139 447 137.5 454Q136 461 120 463L65 468L70 495H147L154 535Q173 637 229.5 688.5Q286 740 380 740Q428 740 462.5 721.5Q497 703 513 669Q543 709 586.5 729.5Q630 750 687 750Q754 750 789.5 717Q825 684 822 627Q829 632 836 637.5Q843 643 848 648H869L842 495H1005L1000 463H837L781 145Q770 82 780 52Q790 22 822 22Q851 22 871 45.5Q891 69 908 121L956 102Q932 45 898 17.5Q864 -10 818 -10Q748 -10 718 36Q688 82 703 165L754 463ZM546 549 536 495H760L778 600Q788 661 767 689.5Q746 718 690 718Q628 718 595 678.5Q562 639 546 549ZM380 708Q319 708 286 670Q253 632 239 549L230 495H455L462 535Q478 625 458.5 666.5Q439 708 380 708Z" glyph-name="fft" horiz-adv-x="985" unicode="" /><glyph d="M364 463 224 463L104 -213H22L133 414Q139 447 137.5 454Q136 461 120 463L65 468L70 495H147L154 535Q174 643 232 696.5Q290 750 386 750Q430 750 462 737.5Q494 725 512 701Q525 708 537.5 717.5Q550 727 563 740H584L526 412Q558 459 595 482Q632 505 677 505Q762 505 803 428Q844 351 823 235L819 213Q801 113 736.5 51.5Q672 -10 587 -10Q546 -10 514.5 5Q483 20 462 49Q445 40 430 28Q415 16 395 -5H371L474 579Q487 654 467 686Q447 718 386 718Q322 718 288.5 678Q255 638 239 549L229 495H369ZM663 470Q622 470 584 433Q546 396 511 322L472 99Q489 61 516 42.5Q543 24 581 24Q639 24 676 69Q713 114 728 203L738 260Q754 357 733.5 413.5Q713 470 663 470Z" glyph-name="fb" horiz-adv-x="887" unicode="" /><glyph d="M531 463 448 -7Q428 -115 371 -169Q314 -223 220 -223Q140 -223 95 -187.5Q50 -152 55 -94L137 -78Q132 -138 151.5 -164.5Q171 -191 220 -191Q281 -191 314.5 -151Q348 -111 364 -21L449 463H224L143 0H60L133 414Q139 447 137.5 454Q136 461 120 463L65 468L70 495H147L154 535Q173 637 229.5 688.5Q286 740 380 740Q429 740 463.5 721.5Q498 703 514 668Q544 709 589 729.5Q634 750 693 750Q736 750 768 737.5Q800 725 819 701Q832 708 844.5 717.5Q857 727 870 740H892L834 412Q865 459 902 482Q939 505 984 505Q1070 505 1110.5 428.5Q1151 352 1130 235L1126 213Q1108 112 1044 51Q980 -10 894 -10Q853 -10 822 5Q791 20 769 49Q751 39 735.5 26Q720 13 703 -5H679L781 579Q794 654 773.5 686Q753 718 693 718Q629 718 595.5 678Q562 638 546 549L536 495H677L671 463ZM380 708Q319 708 286 670Q253 632 239 549L230 495H455L462 535Q478 625 458.5 666.5Q439 708 380 708ZM970 470Q930 470 892 433.5Q854 397 818 324L779 98Q796 60 823 42Q850 24 888 24Q946 24 983 69Q1020 114 1035 203L1045 260Q1061 357 1040.5 413.5Q1020 470 970 470Z" glyph-name="ffb" horiz-adv-x="1194" unicode="" /><glyph d="M531 463 448 -7Q428 -115 371 -169Q314 -223 220 -223Q140 -223 95 -187.5Q50 -152 55 -94L137 -78Q132 -138 151.5 -164.5Q171 -191 220 -191Q281 -191 314.5 -151Q348 -111 364 -21L450 463H224L143 0H60L133 414Q139 447 137.5 454Q136 461 120 463L65 468L70 495H147L154 535Q173 637 229.5 688.5Q286 740 380 740Q426 740 459 724Q492 708 510 677Q534 714 571 732Q608 750 657 750Q739 750 775 706Q811 662 788 595L707 579Q729 648 717 683Q705 718 658 718Q613 718 589 686Q565 654 552 581L537 495H696L690 463ZM380 708Q319 708 286 670Q253 632 239 549L230 495H455L466 558Q479 633 457.5 670.5Q436 708 380 708Z" glyph-name="ff" horiz-adv-x="639" unicode="ﬀ" /><glyph d="M528 -213Q480 -213 446.5 -194.5Q413 -176 396 -141Q366 -182 322 -202.5Q278 -223 220 -223Q140 -223 95 -187.5Q50 -152 55 -94L137 -78Q132 -138 151.5 -164.5Q171 -191 220 -191Q281 -191 314.5 -151Q348 -111 364 -21L449 463H224L143 0H60L133 414Q139 447 137.5 454Q136 461 120 463L65 468L70 495H147L154 535Q173 637 229.5 688.5Q286 740 380 740Q430 740 465 720.5Q500 701 516 665Q546 702 589.5 721Q633 740 690 740Q734 740 766.5 724Q799 708 817 678Q842 714 879 732Q916 750 965 750Q1046 750 1082.5 706Q1119 662 1096 595L1014 579Q1037 648 1024.5 683Q1012 718 965 718Q920 718 896 686Q872 654 859 581L844 495H1003L998 463H838L756 -4Q737 -108 680 -160.5Q623 -213 528 -213ZM690 708Q628 708 594.5 670.5Q561 633 546 549L536 495H762L774 559Q788 633 767 670.5Q746 708 690 708ZM380 708Q319 708 286 670Q253 632 239 549L230 495H455L462 535Q478 625 458.5 666.5Q439 708 380 708ZM531 463 449 -3Q432 -96 450.5 -138.5Q469 -181 528 -181Q591 -181 624 -142.5Q657 -104 672 -18L757 463Z" glyph-name="fff" horiz-adv-x="947" unicode="" /><glyph d="M364 463 224 463L104 -213H22L133 414Q139 447 137.5 454Q136 461 120 463L65 468L70 495H147L154 535Q174 643 232 696.5Q290 750 386 750Q430 750 462 737.5Q494 725 512 701Q525 708 537.5 717.5Q550 727 563 740H584L523 391Q563 448 610.5 476.5Q658 505 711 505Q784 505 817 456Q850 407 833 324L792 124Q780 67 783 47.5Q786 28 803 28Q822 28 839 48Q856 68 868 105L904 83Q882 39 853 17Q824 -5 787 -5Q738 -5 718 29Q698 63 711 127L751 323Q765 394 750 430.5Q735 467 693 467Q645 467 598 428Q551 389 509 313L454 0H372L474 579Q487 654 467 686Q447 718 386 718Q322 718 288.5 678Q255 638 239 549L229 495H369Z" glyph-name="fh" horiz-adv-x="927" unicode="" /><glyph d="M531 463 448 -7Q428 -115 371 -169Q314 -223 220 -223Q140 -223 95 -187.5Q50 -152 55 -94L137 -78Q132 -138 151.5 -164.5Q171 -191 220 -191Q281 -191 314.5 -151Q348 -111 364 -21L449 463H224L143 0H60L133 414Q139 447 137.5 454Q136 461 120 463L65 468L70 495H147L154 535Q173 637 229.5 688.5Q286 740 380 740Q429 740 463.5 721.5Q498 703 514 668Q544 709 589 729.5Q634 750 693 750Q736 750 768 737.5Q800 725 819 701Q832 708 844.5 717.5Q857 727 870 740H892L831 393Q871 449 918.5 477Q966 505 1018 505Q1091 505 1124 456Q1157 407 1140 324L1099 124Q1088 68 1090.5 48Q1093 28 1110 28Q1129 28 1146 48Q1163 68 1175 105L1211 83Q1189 39 1160.5 17Q1132 -5 1095 -5Q1045 -5 1025 29Q1005 63 1018 127L1058 323Q1072 394 1057 430.5Q1042 467 1000 467Q953 467 906.5 428.5Q860 390 818 316L762 0H680L781 579Q794 654 773.5 686Q753 718 693 718Q629 718 595.5 678Q562 638 546 549L536 495H677L671 463ZM380 708Q319 708 286 670Q253 632 239 549L230 495H455L462 535Q478 625 458.5 666.5Q439 708 380 708Z" glyph-name="ffh" horiz-adv-x="1234" unicode="" /><glyph d="M386 718Q322 718 288 678Q254 638 239 549L229 495H542L454 -7Q435 -114 377 -168.5Q319 -223 223 -223Q142 -223 96 -187.5Q50 -152 55 -94L137 -78Q131 -138 151 -164.5Q171 -191 223 -191Q286 -191 319.5 -151Q353 -111 369 -21L454 463H224L142 0H60L133 414Q139 447 137.5 454Q136 461 120 463L65 468L70 495H147L154 535Q174 643 232 696.5Q290 750 386 750Q478 750 525.5 705.5Q573 661 553 595L471 579Q491 649 470 683.5Q449 718 386 718Z" glyph-name="fj" horiz-adv-x="581" unicode="" /><glyph d="M693 718Q629 718 595.5 678Q562 638 546 549L536 495H848L760 -4Q741 -108 683 -160.5Q625 -213 529 -213Q480 -213 445.5 -194.5Q411 -176 395 -141Q366 -182 322 -202.5Q278 -223 220 -223Q140 -223 95 -187.5Q50 -152 55 -94L137 -78Q132 -138 151.5 -164.5Q171 -191 220 -191Q281 -191 314.5 -151Q348 -111 364 -21L449 463H224L143 0H60L133 414Q139 447 137.5 454Q136 461 120 463L65 468L70 495H147L154 535Q173 637 229.5 688.5Q286 740 380 740Q429 740 463.5 721.5Q498 703 514 668Q544 709 589 729.5Q634 750 693 750Q785 750 832.5 705.5Q880 661 860 595L779 579Q799 648 777.5 683Q756 718 693 718ZM380 708Q319 708 286 670Q253 632 239 549L230 495H455L462 535Q478 625 458.5 666.5Q439 708 380 708ZM531 463 448 -7Q447 -14 446 -18Q445 -22 444 -25Q432 -106 452 -143.5Q472 -181 529 -181Q593 -181 627 -142.5Q661 -104 676 -18L760 463Z" glyph-name="ffj" horiz-adv-x="887" unicode="" /><glyph d="M364 463 224 463L104 -213H22L133 414Q139 447 137.5 454Q136 461 120 463L65 468L70 495H147L154 535Q174 643 232 696.5Q290 750 386 750Q430 750 462 737.5Q494 725 512 701Q525 708 537.5 717.5Q550 727 563 740H584L496 241L617 353Q706 436 744.5 462.5Q783 489 829 505L845 420Q782 407 728.5 381.5Q675 356 629 316L737 75Q750 46 755.5 40Q761 34 778 32L828 26L824 0H680L568 261L487 188L454 0H372L474 579Q487 654 467 686Q447 718 386 718Q322 718 288.5 678Q255 638 239 549L229 495H369Z" glyph-name="fk" horiz-adv-x="843" unicode="" /><glyph d="M531 463 448 -7Q428 -115 371 -169Q314 -223 220 -223Q140 -223 95 -187.5Q50 -152 55 -94L137 -78Q132 -138 151.5 -164.5Q171 -191 220 -191Q281 -191 314.5 -151Q348 -111 364 -21L449 463H224L143 0H60L133 414Q139 447 137.5 454Q136 461 120 463L65 468L70 495H147L154 535Q173 637 229.5 688.5Q286 740 380 740Q429 740 463.5 721.5Q498 703 514 668Q544 709 589 729.5Q634 750 693 750Q736 750 768 737.5Q800 725 819 701Q832 708 844.5 717.5Q857 727 870 740H892L804 242L924 353Q1011 434 1050.5 461Q1090 488 1137 505L1152 420Q1089 407 1035.5 381.5Q982 356 936 316L1044 75Q1057 46 1062.5 40Q1068 34 1085 32L1135 26L1131 0H987L875 260L795 188L762 0H680L781 579Q794 654 773.5 686Q753 718 693 718Q629 718 595.5 678Q562 638 546 549L536 495H677L671 463ZM380 708Q319 708 286 670Q253 632 239 549L230 495H455L462 535Q478 625 458.5 666.5Q439 708 380 708Z" glyph-name="ffk" horiz-adv-x="1150" unicode="" /><glyph d="M98 32 152 26L147 0H-46L-41 26L14 32Q31 34 37 40.5Q43 47 59 81L358 680H421L510 81Q515 47 518.5 40.5Q522 34 537 32L591 26L587 0H347L352 26L408 32Q425 34 427 41Q429 48 425 81L407 209H163L99 81Q83 48 82.5 41Q82 34 98 32ZM352 589 179 241H402ZM403 764 384 786Q416 821 435.5 852Q455 883 473 925H574Q536 879 495.5 841Q455 803 403 764Z" glyph-name="Aacute" horiz-adv-x="628" unicode="Á" /><glyph d="M98 32 152 26L147 0H-46L-41 26L14 32Q31 34 37 40.5Q43 47 59 81L358 680H421L510 81Q515 47 518.5 40.5Q522 34 537 32L591 26L587 0H347L352 26L408 32Q425 34 427 41Q429 48 425 81L407 209H163L99 81Q83 48 82.5 41Q82 34 98 32ZM352 589 179 241H402ZM538 783 520 764Q492 789 467.5 813.5Q443 838 423 863Q390 836 358.5 811.5Q327 787 294 764L277 785Q323 827 345.5 853.5Q368 880 399 925H465Q480 880 493.5 853Q507 826 538 783Z" glyph-name="Acircumflex" horiz-adv-x="628" unicode="Â" /><glyph d="M98 32 152 26L147 0H-46L-41 26L14 32Q31 34 37 40.5Q43 47 59 81L358 680H421L510 81Q515 47 518.5 40.5Q522 34 537 32L591 26L587 0H347L352 26L408 32Q425 34 427 41Q429 48 425 81L407 209H163L99 81Q83 48 82.5 41Q82 34 98 32ZM352 589 179 241H402ZM364 854Q364 829 348 812.5Q332 796 307 796Q286 796 273.5 808.5Q261 821 261 841Q261 865 277 881.5Q293 898 318 898Q339 898 351.5 886.5Q364 875 364 854ZM567 854Q567 829 550.5 812.5Q534 796 509 796Q489 796 476 808.5Q463 821 463 841Q463 865 479 881.5Q495 898 520 898Q542 898 554.5 886Q567 874 567 854Z" glyph-name="Adieresis" horiz-adv-x="628" unicode="Ä" /><glyph d="M98 32 152 26L147 0H-46L-41 26L14 32Q31 34 37 40.5Q43 47 59 81L358 680H421L510 81Q515 47 518.5 40.5Q522 34 537 32L591 26L587 0H347L352 26L408 32Q425 34 427 41Q429 48 425 81L407 209H163L99 81Q83 48 82.5 41Q82 34 98 32ZM352 589 179 241H402ZM428 781 405 764Q367 803 340 841Q313 879 291 925H382Q386 883 395.5 852Q405 821 428 781Z" glyph-name="Agrave" horiz-adv-x="628" unicode="À" /><glyph d="M98 32 152 26L147 0H-46L-41 26L14 32Q31 34 37 40.5Q43 47 59 81L348 661Q313 672 295 703Q277 734 283 771L285 782Q293 827 328 854.5Q363 882 413 882Q469 882 499.5 848Q530 814 522 766L520 755Q514 719 488 692.5Q462 666 424 658L510 81Q515 47 518.5 40.5Q522 34 537 32L591 26L587 0H347L352 26L408 32Q425 34 427 41Q429 48 425 81L407 209H163L99 81Q83 48 82.5 41Q82 34 98 32ZM389 680Q417 680 435 699.5Q453 719 459 755L464 780Q470 817 457 837Q444 857 415 857Q388 857 370 837.5Q352 818 345 781L341 756Q334 721 347 700.5Q360 680 389 680ZM352 589 179 241H402Z" glyph-name="Aring" horiz-adv-x="628" unicode="Å" /><glyph d="M98 32 152 26L147 0H-46L-41 26L14 32Q31 34 37 40.5Q43 47 59 81L358 680H421L510 81Q515 47 518.5 40.5Q522 34 537 32L591 26L587 0H347L352 26L408 32Q425 34 427 41Q429 48 425 81L407 209H163L99 81Q83 48 82.5 41Q82 34 98 32ZM352 589 179 241H402ZM482 774Q462 774 444.5 784Q427 794 401 825Q380 849 369 856Q358 863 347 863Q328 863 313.5 843Q299 823 290 785H259Q272 854 297 889Q322 924 358 924Q378 924 395.5 914Q413 904 439 873Q459 849 469.5 842Q480 835 491 835Q509 835 523.5 855Q538 875 547 913H579Q566 844 541.5 809Q517 774 482 774Z" glyph-name="Atilde" horiz-adv-x="628" unicode="Ã" /><glyph d="M98 32 152 26L147 0H-46L-41 26L14 32Q31 34 37 40.5Q43 47 59 81L358 680H421L510 81Q515 47 518.5 40.5Q522 34 537 32L591 26L587 0H347L352 26L408 32Q425 34 427 41Q429 48 425 81L407 209H163L99 81Q83 48 82.5 41Q82 34 98 32ZM352 589 179 241H402ZM415 828Q462 828 492.5 851.5Q523 875 544 927L573 918Q547 838 508.5 801Q470 764 412 764Q353 764 322.5 802.5Q292 841 289 918L318 927Q324 875 347 851.5Q370 828 415 828Z" glyph-name="Abreve" horiz-adv-x="628" unicode="Ă" /><glyph d="M98 32 152 26L147 0H-46L-41 26L14 32Q31 34 37 40.5Q43 47 59 81L358 680H421L510 81Q515 47 518.5 40.5Q522 34 537 32L591 26L587 0H347L352 26L408 32Q425 34 427 41Q429 48 425 81L407 209H163L99 81Q83 48 82.5 41Q82 34 98 32ZM352 589 179 241H402ZM275 851 562 851L554 804H267Z" glyph-name="Amacron" horiz-adv-x="628" unicode="Ā" /><glyph d="M498 -112 548 -125Q526 -174 492.5 -198.5Q459 -223 414 -223Q366 -223 338 -200.5Q310 -178 310 -138Q310 -94 344.5 -54Q379 -14 435 9L406 209H163L99 81Q83 48 82.5 41Q82 34 98 32L152 26L147 0H-46L-41 26L14 32Q31 34 37 40.5Q43 47 59 81L358 680H421L510 81Q515 48 518.5 41Q522 34 537 32L591 26L587 0H523Q458 0 416 -41.5Q374 -83 374 -141Q374 -167 384.5 -180Q395 -193 416 -193Q443 -193 463.5 -172.5Q484 -152 498 -112ZM352 589 179 241H402Z" glyph-name="Aogonek" horiz-adv-x="628" unicode="Ą" /><glyph d="M375 -133Q375 -172 341.5 -197.5Q308 -223 256 -223Q210 -223 183 -202.5Q156 -182 155 -145L206 -131Q204 -164 214.5 -179.5Q225 -195 251 -195Q277 -195 293.5 -177Q310 -159 310 -131Q310 -107 298.5 -96.5Q287 -86 261 -86Q260 -86 254 -87Q248 -88 237 -89L232 -63L264 -8Q159 4 111.5 90Q64 176 86 315L97 382Q120 528 198 609Q276 690 393 690Q497 690 549 627.5Q601 565 574 480L484 459Q511 554 487 606Q463 658 392 658Q316 658 268 601.5Q220 545 201 432L173 265Q152 141 183 81.5Q214 22 300 22Q358 22 397.5 56Q437 90 456 156L518 135Q485 63 429.5 26.5Q374 -10 298 -10L270 -58Q318 -58 346.5 -78.5Q375 -99 375 -133Z" glyph-name="Ccedilla" horiz-adv-x="586" unicode="Ç" /><glyph d="M297 -10Q175 -10 118.5 77.5Q62 165 86 315L97 382Q120 528 198 609Q276 690 393 690Q497 690 549 627.5Q601 565 574 480L484 459Q511 554 487 606Q463 658 392 658Q316 658 268 601.5Q220 545 201 432L173 265Q152 141 183 81.5Q214 22 300 22Q358 22 397.5 56Q437 90 456 156L518 135Q485 63 429.5 26.5Q374 -10 297 -10ZM407 764 388 786Q420 821 439.5 852Q459 883 477 925H578Q540 879 499.5 841Q459 803 407 764Z" glyph-name="Cacute" horiz-adv-x="586" unicode="Ć" /><glyph d="M297 -10Q175 -10 118.5 77.5Q62 165 86 315L97 382Q120 528 198 609Q276 690 393 690Q497 690 549 627.5Q601 565 574 480L484 459Q511 554 487 606Q463 658 392 658Q316 658 268 601.5Q220 545 201 432L173 265Q152 141 183 81.5Q214 22 300 22Q358 22 397.5 56Q437 90 456 156L518 135Q485 63 429.5 26.5Q374 -10 297 -10ZM548 929 565 908Q520 866 497 840Q474 814 443 769H377Q362 813 348.5 840Q335 867 304 910L322 929Q353 902 377 877.5Q401 853 419 830Q447 854 478.5 878.5Q510 903 548 929Z" glyph-name="Ccaron" horiz-adv-x="586" unicode="Č" /><glyph d="M297 -10Q175 -10 118.5 77.5Q62 165 86 315L97 382Q120 528 198 609Q276 690 393 690Q497 690 549 627.5Q601 565 574 480L484 459Q511 554 487 606Q463 658 392 658Q316 658 268 601.5Q220 545 201 432L173 265Q152 141 183 81.5Q214 22 300 22Q358 22 397.5 56Q437 90 456 156L518 135Q485 63 429.5 26.5Q374 -10 297 -10ZM542 783 524 764Q496 789 471.5 813.5Q447 838 427 863Q394 836 362.5 811.5Q331 787 298 764L281 785Q327 827 349.5 853.5Q372 880 403 925H469Q484 880 497.5 853Q511 826 542 783Z" glyph-name="Ccircumflex" horiz-adv-x="586" unicode="Ĉ" /><glyph d="M297 -10Q175 -10 118.5 77.5Q62 165 86 315L97 382Q120 528 198 609Q276 690 393 690Q497 690 549 627.5Q601 565 574 480L484 459Q511 554 487 606Q463 658 392 658Q316 658 268 601.5Q220 545 201 432L173 265Q152 141 183 81.5Q214 22 300 22Q358 22 397.5 56Q437 90 456 156L518 135Q485 63 429.5 26.5Q374 -10 297 -10ZM478 854Q478 828 461 810.5Q444 793 417 793Q394 793 381 806Q368 819 368 841Q368 867 385 884Q402 901 428 901Q451 901 464.5 888.5Q478 876 478 854Z" glyph-name="Cdotaccent" horiz-adv-x="586" unicode="Ċ" /><glyph d="M174 648 119 653L124 680H386Q511 680 571 593.5Q631 507 606 366L594 301Q569 159 489.5 79.5Q410 0 292 0H4L9 26L65 32Q82 34 86 40.5Q90 47 96 81L187 599Q193 632 191.5 639Q190 646 174 648ZM387 648 282 648L174 32H291Q371 32 421.5 88Q472 144 491 253L520 418Q539 531 505.5 589.5Q472 648 387 648ZM549 929 566 908Q521 866 498 840Q475 814 444 769H378Q363 813 349.5 840Q336 867 305 910L323 929Q354 902 378 877.5Q402 853 420 830Q448 854 479.5 878.5Q511 903 549 929Z" glyph-name="Dcaron" horiz-adv-x="659" unicode="Ď" /><glyph d="M178 648 123 653L128 680H390Q515 680 574.5 593.5Q634 507 609 366L598 301Q573 159 493.5 79.5Q414 0 296 0H8L12 26L68 32Q85 34 89 40.5Q93 47 99 81L145 338H68L73 370H150L191 599Q197 632 195.5 639Q194 646 178 648ZM390 370 385 338H232L178 32H295Q374 32 425 88.5Q476 145 495 253L523 418Q542 531 508.5 589.5Q475 648 390 648H286L237 370Z" glyph-name="Dcroat" horiz-adv-x="663" unicode="Đ" /><glyph d="M486 163 512 163L483 0H4L9 26L65 32Q82 34 86 40.5Q90 47 96 81L187 599Q193 632 191.5 639Q190 646 174 648L119 653L124 680H591L562 517H536L526 622Q523 642 515 645Q507 648 477 648H283L232 359H366Q399 359 407.5 362.5Q416 366 425 385L457 460H482L441 226H416L410 301Q408 320 400.5 323.5Q393 327 360 327H226L174 32H380Q413 32 421.5 35.5Q430 39 439 58ZM393 764 374 786Q406 821 425.5 852Q445 883 463 925H564Q526 879 485.5 841Q445 803 393 764Z" glyph-name="Eacute" horiz-adv-x="580" unicode="É" /><glyph d="M486 163 512 163L483 0H4L9 26L65 32Q82 34 86 40.5Q90 47 96 81L187 599Q193 632 191.5 639Q190 646 174 648L119 653L124 680H591L562 517H536L526 622Q523 642 515 645Q507 648 477 648H283L232 359H366Q399 359 407.5 362.5Q416 366 425 385L457 460H482L441 226H416L410 301Q408 320 400.5 323.5Q393 327 360 327H226L174 32H380Q413 32 421.5 35.5Q430 39 439 58ZM529 783 511 764Q483 789 458.5 813.5Q434 838 414 863Q381 836 349.5 811.5Q318 787 285 764L268 785Q314 827 336.5 853.5Q359 880 390 925H456Q471 880 484.5 853Q498 826 529 783Z" glyph-name="Ecircumflex" horiz-adv-x="580" unicode="Ê" /><glyph d="M486 163 512 163L483 0H4L9 26L65 32Q82 34 86 40.5Q90 47 96 81L187 599Q193 632 191.5 639Q190 646 174 648L119 653L124 680H591L562 517H536L526 622Q523 642 515 645Q507 648 477 648H283L232 359H366Q399 359 407.5 362.5Q416 366 425 385L457 460H482L441 226H416L410 301Q408 320 400.5 323.5Q393 327 360 327H226L174 32H380Q413 32 421.5 35.5Q430 39 439 58ZM359 854Q359 829 343 812.5Q327 796 302 796Q281 796 268.5 808.5Q256 821 256 841Q256 865 272 881.5Q288 898 313 898Q334 898 346.5 886.5Q359 875 359 854ZM562 854Q562 829 545.5 812.5Q529 796 504 796Q484 796 471 808.5Q458 821 458 841Q458 865 474 881.5Q490 898 515 898Q537 898 549.5 886Q562 874 562 854Z" glyph-name="Edieresis" horiz-adv-x="580" unicode="Ë" /><glyph d="M486 163 512 163L483 0H4L9 26L65 32Q82 34 86 40.5Q90 47 96 81L187 599Q193 632 191.5 639Q190 646 174 648L119 653L124 680H591L562 517H536L526 622Q523 642 515 645Q507 648 477 648H283L232 359H366Q399 359 407.5 362.5Q416 366 425 385L457 460H482L441 226H416L410 301Q408 320 400.5 323.5Q393 327 360 327H226L174 32H380Q413 32 421.5 35.5Q430 39 439 58ZM418 781 395 764Q357 803 330 841Q303 879 281 925H372Q376 883 385.5 852Q395 821 418 781Z" glyph-name="Egrave" horiz-adv-x="580" unicode="È" /><glyph d="M486 163 512 163L483 0H4L9 26L65 32Q82 34 86 40.5Q90 47 96 81L187 599Q193 632 191.5 639Q190 646 174 648L119 653L124 680H591L562 517H536L526 622Q523 642 515 645Q507 648 477 648H283L232 359H366Q399 359 407.5 362.5Q416 366 425 385L457 460H482L441 226H416L410 301Q408 320 400.5 323.5Q393 327 360 327H226L174 32H380Q413 32 421.5 35.5Q430 39 439 58ZM405 828Q452 828 482.5 851.5Q513 875 534 927L563 918Q537 838 498.5 801Q460 764 402 764Q343 764 312.5 802.5Q282 841 279 918L308 927Q314 875 337 851.5Q360 828 405 828Z" glyph-name="Ebreve" horiz-adv-x="580" unicode="Ĕ" /><glyph d="M486 163 512 163L483 0H4L9 26L65 32Q82 34 86 40.5Q90 47 96 81L187 599Q193 632 191.5 639Q190 646 174 648L119 653L124 680H591L562 517H536L526 622Q523 642 515 645Q507 648 477 648H283L232 359H366Q399 359 407.5 362.5Q416 366 425 385L457 460H482L441 226H416L410 301Q408 320 400.5 323.5Q393 327 360 327H226L174 32H380Q413 32 421.5 35.5Q430 39 439 58ZM533 929 550 908Q505 866 482 840Q459 814 428 769H362Q347 813 333.5 840Q320 867 289 910L307 929Q338 902 362 877.5Q386 853 404 830Q432 854 463.5 878.5Q495 903 533 929Z" glyph-name="Ecaron" horiz-adv-x="580" unicode="Ě" /><glyph d="M486 163 512 163L483 0H4L9 26L65 32Q82 34 86 40.5Q90 47 96 81L187 599Q193 632 191.5 639Q190 646 174 648L119 653L124 680H591L562 517H536L526 622Q523 642 515 645Q507 648 477 648H283L232 359H366Q399 359 407.5 362.5Q416 366 425 385L457 460H482L441 226H416L410 301Q408 320 400.5 323.5Q393 327 360 327H226L174 32H380Q413 32 421.5 35.5Q430 39 439 58ZM464 854Q464 828 447 810.5Q430 793 403 793Q380 793 367 806Q354 819 354 841Q354 867 371 884Q388 901 414 901Q437 901 450.5 888.5Q464 876 464 854Z" glyph-name="Edotaccent" horiz-adv-x="580" unicode="Ė" /><glyph d="M486 163 512 163L483 0H4L9 26L65 32Q82 34 86 40.5Q90 47 96 81L187 599Q193 632 191.5 639Q190 646 174 648L119 653L124 680H591L562 517H536L526 622Q523 642 515 645Q507 648 477 648H283L232 359H366Q399 359 407.5 362.5Q416 366 425 385L457 460H482L441 226H416L410 301Q408 320 400.5 323.5Q393 327 360 327H226L174 32H380Q413 32 421.5 35.5Q430 39 439 58ZM266 851 553 851L545 804H258Z" glyph-name="Emacron" horiz-adv-x="580" unicode="Ē" /><glyph d="M411 -112 461 -125Q439 -174 405.5 -198.5Q372 -223 327 -223Q279 -223 251 -200.5Q223 -178 223 -138Q223 -97 256 -59.5Q289 -22 343 0H4L9 26L65 32Q82 34 86 40.5Q90 47 96 81L187 599Q193 632 191.5 639Q190 646 174 648L119 653L124 680H591L562 517H536L526 622Q523 642 515 645Q507 648 477 648H283L232 359H366Q399 359 407.5 362.5Q416 366 425 385L457 460H482L441 226H416L410 301Q408 320 400.5 323.5Q393 327 360 327H226L174 32H380Q413 32 421.5 35.5Q430 39 439 58L486 163H512L483 0H436Q371 0 329 -41.5Q287 -83 287 -141Q287 -167 297 -180Q307 -193 328 -193Q355 -193 375.5 -173Q396 -153 411 -112Z" glyph-name="Eogonek" horiz-adv-x="580" unicode="Ę" /><glyph d="M508 12 484 12Q478 25 469.5 36Q461 47 450 56Q419 23 378.5 6.5Q338 -10 290 -10Q172 -10 117 77.5Q62 165 86 315L97 382Q120 527 200 608.5Q280 690 401 690Q509 690 562.5 628.5Q616 567 590 480L500 459Q527 556 501.5 607Q476 658 399 658Q320 658 270 601Q220 544 201 432L173 265Q153 142 182.5 82Q212 22 294 22Q343 22 381 41.5Q419 61 442 98L465 227Q472 260 470 267Q468 274 452 276L378 281L382 308H637L633 281L577 276Q560 274 556 266.5Q552 259 546 227ZM430 828Q477 828 507.5 851.5Q538 875 559 927L588 918Q562 838 523.5 801Q485 764 427 764Q368 764 337.5 802.5Q307 841 304 918L333 927Q339 875 362 851.5Q385 828 430 828Z" glyph-name="Gbreve" horiz-adv-x="649" unicode="Ğ" /><glyph d="M508 12 484 12Q478 25 469.5 36Q461 47 450 56Q419 23 378.5 6.5Q338 -10 290 -10Q172 -10 117 77.5Q62 165 86 315L97 382Q120 527 200 608.5Q280 690 401 690Q509 690 562.5 628.5Q616 567 590 480L500 459Q527 556 501.5 607Q476 658 399 658Q320 658 270 601Q220 544 201 432L173 265Q153 142 182.5 82Q212 22 294 22Q343 22 381 41.5Q419 61 442 98L465 227Q472 260 470 267Q468 274 452 276L378 281L382 308H637L633 281L577 276Q560 274 556 266.5Q552 259 546 227ZM553 783 535 764Q507 789 482.5 813.5Q458 838 438 863Q405 836 373.5 811.5Q342 787 309 764L292 785Q338 827 360.5 853.5Q383 880 414 925H480Q495 880 508.5 853Q522 826 553 783Z" glyph-name="Gcircumflex" horiz-adv-x="649" unicode="Ĝ" /><glyph d="M508 12 484 12Q478 25 469.5 36Q461 47 450 56Q419 23 378.5 6.5Q338 -10 290 -10Q172 -10 117 77.5Q62 165 86 315L97 382Q120 527 200 608.5Q280 690 401 690Q509 690 562.5 628.5Q616 567 590 480L500 459Q527 556 501.5 607Q476 658 399 658Q320 658 270 601Q220 544 201 432L173 265Q153 142 182.5 82Q212 22 294 22Q343 22 381 41.5Q419 61 442 98L465 227Q472 260 470 267Q468 274 452 276L378 281L382 308H637L633 281L577 276Q560 274 556 266.5Q552 259 546 227ZM193 -242 175 -226Q199 -190 213 -155.5Q227 -121 237 -77H325Q300 -125 269.5 -163Q239 -201 193 -242Z" glyph-name="Gcommaaccent" horiz-adv-x="649" unicode="Ģ" /><glyph d="M508 12 484 12Q478 25 469.5 36Q461 47 450 56Q419 23 378.5 6.5Q338 -10 290 -10Q172 -10 117 77.5Q62 165 86 315L97 382Q120 527 200 608.5Q280 690 401 690Q509 690 562.5 628.5Q616 567 590 480L500 459Q527 556 501.5 607Q476 658 399 658Q320 658 270 601Q220 544 201 432L173 265Q153 142 182.5 82Q212 22 294 22Q343 22 381 41.5Q419 61 442 98L465 227Q472 260 470 267Q468 274 452 276L378 281L382 308H637L633 281L577 276Q560 274 556 266.5Q552 259 546 227ZM489 854Q489 828 472 810.5Q455 793 428 793Q405 793 392 806Q379 819 379 841Q379 867 396 884Q413 901 439 901Q462 901 475.5 888.5Q489 876 489 854Z" glyph-name="Gdotaccent" horiz-adv-x="649" unicode="Ġ" /><glyph d="M199 32 253 26L248 0H7L12 26L68 32Q85 34 88.5 40.5Q92 47 98 81L171 493H95L100 524H177L190 599Q196 632 194 639Q192 646 176 648L122 653L127 680H368L363 653L307 648Q290 646 286.5 639Q283 632 277 599L264 524H566L579 599Q585 632 583 639Q581 646 565 648L511 653L516 680H757L752 653L696 648Q679 646 675.5 639Q672 632 666 599L653 524H730L725 493H647L574 81Q568 47 570 40.5Q572 34 588 32L642 26L637 0H396L401 26L457 32Q474 34 477.5 40.5Q481 47 487 81L531 327H229L185 81Q179 47 181 40.5Q183 34 199 32ZM258 493 234 359H536L560 493Z" glyph-name="Hbar" horiz-adv-x="734" unicode="Ħ" /><glyph d="M196 32 250 26L245 0H4L9 26L65 32Q82 34 85.5 40.5Q89 47 95 81L187 599Q193 632 191 639Q189 646 173 648L119 653L124 680H365L360 653L304 648Q287 646 283.5 639Q280 632 274 599L231 359H533L576 599Q582 632 580 639Q578 646 562 648L508 653L513 680H754L749 653L693 648Q676 646 672.5 639Q669 632 663 599L571 81Q565 47 567 40.5Q569 34 585 32L639 26L634 0H393L398 26L454 32Q471 34 474.5 40.5Q478 47 484 81L528 327H226L182 81Q176 47 178 40.5Q180 34 196 32ZM583 783 565 764Q537 789 512.5 813.5Q488 838 468 863Q435 836 403.5 811.5Q372 787 339 764L322 785Q368 827 390.5 853.5Q413 880 444 925H510Q525 880 538.5 853Q552 826 583 783Z" glyph-name="Hcircumflex" horiz-adv-x="726" unicode="Ĥ" /><glyph d="M173 648 119 653L124 680H365L360 653L304 648Q287 646 283.5 639Q280 632 274 599L182 81Q176 47 178 40.5Q180 34 196 32L250 26L245 0H4L9 26L65 32Q82 34 85.5 40.5Q89 47 95 81L187 599Q193 632 191 639Q189 646 173 648ZM258 764 239 786Q271 821 290.5 852Q310 883 328 925H429Q391 879 350.5 841Q310 803 258 764Z" glyph-name="Iacute" horiz-adv-x="337" unicode="Í" /><glyph d="M173 648 119 653L124 680H365L360 653L304 648Q287 646 283.5 639Q280 632 274 599L182 81Q176 47 178 40.5Q180 34 196 32L250 26L245 0H4L9 26L65 32Q82 34 85.5 40.5Q89 47 95 81L187 599Q193 632 191 639Q189 646 173 648ZM393 783 375 764Q347 789 322.5 813.5Q298 838 278 863Q245 836 213.5 811.5Q182 787 149 764L132 785Q178 827 200.5 853.5Q223 880 254 925H320Q335 880 348.5 853Q362 826 393 783Z" glyph-name="Icircumflex" horiz-adv-x="337" unicode="Î" /><glyph d="M173 648 119 653L124 680H365L360 653L304 648Q287 646 283.5 639Q280 632 274 599L182 81Q176 47 178 40.5Q180 34 196 32L250 26L245 0H4L9 26L65 32Q82 34 85.5 40.5Q89 47 95 81L187 599Q193 632 191 639Q189 646 173 648ZM224 854Q224 829 208 812.5Q192 796 167 796Q146 796 133.5 808.5Q121 821 121 841Q121 865 137 881.5Q153 898 178 898Q199 898 211.5 886.5Q224 875 224 854ZM427 854Q427 829 410.5 812.5Q394 796 369 796Q349 796 336 808.5Q323 821 323 841Q323 865 339 881.5Q355 898 380 898Q402 898 414.5 886Q427 874 427 854Z" glyph-name="Idieresis" horiz-adv-x="337" unicode="Ï" /><glyph d="M173 648 119 653L124 680H365L360 653L304 648Q287 646 283.5 639Q280 632 274 599L182 81Q176 47 178 40.5Q180 34 196 32L250 26L245 0H4L9 26L65 32Q82 34 85.5 40.5Q89 47 95 81L187 599Q193 632 191 639Q189 646 173 648ZM283 781 260 764Q222 803 195 841Q168 879 146 925H237Q241 883 250.5 852Q260 821 283 781Z" glyph-name="Igrave" horiz-adv-x="337" unicode="Ì" /><glyph d="M173 648 119 653L124 680H365L360 653L304 648Q287 646 283.5 639Q280 632 274 599L182 81Q176 47 178 40.5Q180 34 196 32L250 26L245 0H4L9 26L65 32Q82 34 85.5 40.5Q89 47 95 81L187 599Q193 632 191 639Q189 646 173 648ZM270 828Q317 828 347.5 851.5Q378 875 399 927L428 918Q402 838 363.5 801Q325 764 267 764Q208 764 177.5 802.5Q147 841 144 918L173 927Q179 875 202 851.5Q225 828 270 828Z" glyph-name="Ibreve" horiz-adv-x="337" unicode="Ĭ" /><glyph d="M173 648 119 653L124 680H365L360 653L304 648Q287 646 283.5 639Q280 632 274 599L182 81Q176 47 178 40.5Q180 34 196 32L250 26L245 0H4L9 26L65 32Q82 34 85.5 40.5Q89 47 95 81L187 599Q193 632 191 639Q189 646 173 648ZM329 854Q329 828 312 810.5Q295 793 268 793Q245 793 232 806Q219 819 219 841Q219 867 236 884Q253 901 279 901Q302 901 315.5 888.5Q329 876 329 854Z" glyph-name="Idotaccent" horiz-adv-x="337" unicode="İ" /><glyph d="M173 648 119 653L124 680H365L360 653L304 648Q287 646 283.5 639Q280 632 274 599L182 81Q176 47 178 40.5Q180 34 196 32L250 26L245 0H4L9 26L65 32Q82 34 85.5 40.5Q89 47 95 81L187 599Q193 632 191 639Q189 646 173 648ZM131 851 418 851L410 804H123Z" glyph-name="Imacron" horiz-adv-x="337" unicode="Ī" /><glyph d="M154 -112 204 -125Q182 -174 148.5 -198.5Q115 -223 70 -223Q22 -223 -6 -200.5Q-34 -178 -34 -138Q-34 -97 -3 -58.5Q28 -20 78 3L183 599Q189 632 187.5 639Q186 646 170 648L115 653L120 680H361L356 653L301 648Q284 646 280 639Q276 632 270 599L179 81Q173 47 174.5 40.5Q176 34 192 32L246 26L242 0H179Q114 0 72 -41.5Q30 -83 30 -141Q30 -167 40.5 -180Q51 -193 72 -193Q99 -193 119.5 -172.5Q140 -152 154 -112Z" glyph-name="Iogonek" horiz-adv-x="334" unicode="Į" /><glyph d="M173 648 119 653L124 680H365L360 653L304 648Q287 646 283.5 639Q280 632 274 599L182 81Q176 47 178 40.5Q180 34 196 32L250 26L245 0H4L9 26L65 32Q82 34 85.5 40.5Q89 47 95 81L187 599Q193 632 191 639Q189 646 173 648ZM337 774Q317 774 299.5 784Q282 794 256 825Q235 849 224 856Q213 863 202 863Q183 863 168.5 843Q154 823 145 785H114Q127 854 152 889Q177 924 213 924Q233 924 250.5 914Q268 904 294 873Q314 849 324.5 842Q335 835 346 835Q364 835 378.5 855Q393 875 402 913H434Q421 844 396.5 809Q372 774 337 774Z" glyph-name="Itilde" horiz-adv-x="337" unicode="Ĩ" /><glyph d="M310 648 255 653L260 680H501L496 653L441 648Q424 646 420 639Q416 632 410 599L339 194Q322 97 267 43.5Q212 -10 127 -10Q59 -10 24 27Q-11 64 -7 134L58 153Q50 88 66 55Q82 22 123 22Q174 22 205 63.5Q236 105 251 190L323 599Q329 632 327.5 639Q326 646 310 648ZM528 783 510 764Q482 789 457.5 813.5Q433 838 413 863Q380 836 348.5 811.5Q317 787 284 764L267 785Q313 827 335.5 853.5Q358 880 389 925H455Q470 880 483.5 853Q497 826 528 783Z" glyph-name="Jcircumflex" horiz-adv-x="461" unicode="Ĵ" /><glyph d="M173 648 119 653L124 680H365L360 653L304 648Q287 646 283.5 639Q280 632 274 599L182 81Q176 47 178 40.5Q180 34 196 32L250 26L245 0H4L9 26L65 32Q82 34 85.5 40.5Q89 47 95 81L187 599Q193 632 191 639Q189 646 173 648ZM647 648 592 653L597 680H838L833 653L778 648Q761 646 757 639Q753 632 747 599L676 194Q659 97 604 43.5Q549 -10 464 -10Q396 -10 361 27Q326 64 330 134L395 153Q387 88 403 55Q419 22 460 22Q511 22 542 63.5Q573 105 588 190L660 599Q666 632 664.5 639Q663 646 647 648Z" glyph-name="IJ" horiz-adv-x="799" unicode="Ĳ" /><glyph d="M196 32 250 26L245 0H4L9 26L65 32Q82 34 86 40.5Q90 47 96 81L187 599Q193 632 191.5 639Q190 646 174 648L120 654L124 680H365L361 654L305 648Q288 646 284 638.5Q280 631 274 599L225 320L515 605Q541 631 545 638.5Q549 646 532 648L482 654L486 680H682L678 654L625 648Q612 647 605.5 643Q599 639 564 605L373 417L506 81Q518 50 524.5 42Q531 34 548 32L595 26L590 0H440L307 352L215 261L183 81Q177 48 178.5 41Q180 34 196 32ZM197 -242 179 -226Q203 -190 217 -155.5Q231 -121 241 -77H329Q304 -125 273.5 -163Q243 -201 197 -242Z" glyph-name="Kcommaaccent" horiz-adv-x="644" unicode="Ķ" /><glyph d="M789 685 810 668Q790 635 773.5 593Q757 551 747 504H660Q687 557 719 602.5Q751 648 789 685ZM196 32 250 26L245 0H4L9 26L65 32Q82 34 86 40.5Q90 47 96 81L187 599Q193 632 191.5 639Q190 646 174 648L120 654L124 680H365L361 654L305 648Q288 646 284 638.5Q280 631 274 599L225 320L515 605Q541 631 545 638.5Q549 646 532 648L482 654L486 680H682L678 654L625 648Q612 647 605.5 643Q599 639 564 605L373 417L506 81Q518 50 524.5 42Q531 34 548 32L595 26L590 0H440L307 352L215 261L183 81Q177 48 178.5 41Q180 34 196 32Z" glyph-name="kgreenlandic.case" horiz-adv-x="749" unicode="" /><glyph d="M462 165 488 165L459 0H4L9 26L65 32Q82 34 85.5 40.5Q89 47 95 81L187 599Q193 632 191 639Q189 646 173 648L119 653L124 680H365L360 653L304 648Q287 646 283.5 639Q280 632 274 599L174 32H355Q388 32 396.5 35.5Q405 39 414 58ZM266 764 247 786Q279 821 298.5 852Q318 883 336 925H437Q399 879 358.5 841Q318 803 266 764Z" glyph-name="Lacute" horiz-adv-x="515" unicode="Ĺ" /><glyph d="M462 165 488 165L459 0H4L9 26L65 32Q82 34 85.5 40.5Q89 47 95 81L187 599Q193 632 191 639Q189 646 173 648L119 653L124 680H365L360 653L304 648Q287 646 283.5 639Q280 632 274 599L174 32H355Q388 32 396.5 35.5Q405 39 414 58ZM418 466 397 466L434 680H516Q492 621 468.5 569.5Q445 518 418 466Z" glyph-name="Lcaron" horiz-adv-x="515" unicode="Ľ" /><glyph d="M462 165 488 165L459 0H4L9 26L65 32Q82 34 85.5 40.5Q89 47 95 81L187 599Q193 632 191 639Q189 646 173 648L119 653L124 680H365L360 653L304 648Q287 646 283.5 639Q280 632 274 599L174 32H355Q388 32 396.5 35.5Q405 39 414 58ZM157 -242 139 -226Q163 -190 177 -155.5Q191 -121 201 -77H289Q264 -125 233.5 -163Q203 -201 157 -242Z" glyph-name="Lcommaaccent" horiz-adv-x="515" unicode="Ļ" /><glyph d="M462 165 488 165L459 0H4L9 26L65 32Q82 34 85.5 40.5Q89 47 95 81L187 599Q193 632 191 639Q189 646 173 648L119 653L124 680H365L360 653L304 648Q287 646 283.5 639Q280 632 274 599L174 32H355Q388 32 396.5 35.5Q405 39 414 58ZM504 391Q504 365 487 347.5Q470 330 443 330Q420 330 407 343Q394 356 394 378Q394 404 411 421Q428 438 454 438Q477 438 490.5 425.5Q504 413 504 391Z" glyph-name="Ldot" horiz-adv-x="515" unicode="Ŀ" /><glyph d="M174 648 119 653L124 680H291L519 146L600 599Q606 632 604.5 639Q603 646 587 648L532 653L537 680H728L723 653L668 648Q651 646 647 639Q643 632 637 599L531 0H491L227 613L133 81Q127 48 128.5 41Q130 34 146 32L200 26L195 0H4L9 26L65 32Q82 34 86 40.5Q90 47 96 81L187 599Q193 632 191.5 639Q190 646 174 648ZM522 774Q502 774 484.5 784Q467 794 441 825Q420 849 409 856Q398 863 387 863Q368 863 353.5 843Q339 823 330 785H299Q312 854 337 889Q362 924 398 924Q418 924 435.5 914Q453 904 479 873Q499 849 509.5 842Q520 835 531 835Q549 835 563.5 855Q578 875 587 913H619Q606 844 581.5 809Q557 774 522 774Z" glyph-name="Ntilde" horiz-adv-x="691" unicode="Ñ" /><glyph d="M174 648 119 653L124 680H291L519 146L600 599Q606 632 604.5 639Q603 646 587 648L532 653L537 680H728L723 653L668 648Q651 646 647 639Q643 632 637 599L531 0H491L227 613L133 81Q127 48 128.5 41Q130 34 146 32L200 26L195 0H4L9 26L65 32Q82 34 86 40.5Q90 47 96 81L187 599Q193 632 191.5 639Q190 646 174 648ZM443 764 424 786Q456 821 475.5 852Q495 883 513 925H614Q576 879 535.5 841Q495 803 443 764Z" glyph-name="Nacute" horiz-adv-x="691" unicode="Ń" /><glyph d="M174 648 119 653L124 680H291L519 146L600 599Q606 632 604.5 639Q603 646 587 648L532 653L537 680H728L723 653L668 648Q651 646 647 639Q643 632 637 599L531 0H491L227 613L133 81Q127 48 128.5 41Q130 34 146 32L200 26L195 0H4L9 26L65 32Q82 34 86 40.5Q90 47 96 81L187 599Q193 632 191.5 639Q190 646 174 648ZM583 929 600 908Q555 866 532 840Q509 814 478 769H412Q397 813 383.5 840Q370 867 339 910L357 929Q388 902 412 877.5Q436 853 454 830Q482 854 513.5 878.5Q545 903 583 929Z" glyph-name="Ncaron" horiz-adv-x="691" unicode="Ň" /><glyph d="M174 648 119 653L124 680H291L519 146L600 599Q606 632 604.5 639Q603 646 587 648L532 653L537 680H728L723 653L668 648Q651 646 647 639Q643 632 637 599L531 0H491L227 613L133 81Q127 48 128.5 41Q130 34 146 32L200 26L195 0H4L9 26L65 32Q82 34 86 40.5Q90 47 96 81L187 599Q193 632 191.5 639Q190 646 174 648ZM203 -242 185 -226Q209 -190 223 -155.5Q237 -121 247 -77H335Q310 -125 279.5 -163Q249 -201 203 -242Z" glyph-name="Ncommaaccent" horiz-adv-x="691" unicode="Ņ" /><glyph d="M174 648 119 653L124 680H291L519 146L600 599Q606 632 604.5 639Q603 646 587 648L532 653L537 680H728L723 653L668 648Q651 646 647 639Q643 632 637 599L528 -19Q510 -118 457.5 -170.5Q405 -223 322 -223Q260 -223 227 -186.5Q194 -150 200 -84L262 -67Q252 -127 267.5 -159Q283 -191 320 -191Q368 -191 397.5 -149.5Q427 -108 442 -22L459 74L227 613L133 81Q127 48 128.5 41Q130 34 146 32L200 26L195 0H4L9 26L65 32Q82 34 86 40.5Q90 47 96 81L187 599Q193 632 191.5 639Q190 646 174 648Z" glyph-name="Eng" horiz-adv-x="691" unicode="Ŋ" /><glyph d="M307 648 252 653L257 680H424L652 146L733 599Q739 632 737.5 639Q736 646 720 648L665 653L670 680H861L856 653L801 648Q784 646 780 639Q776 632 770 599L664 0H624L360 613L266 81Q260 48 261.5 41Q263 34 279 32L333 26L328 0H137L142 26L198 32Q215 34 219 40.5Q223 47 229 81L320 599Q326 632 324.5 639Q323 646 307 648ZM141 690Q163 690 176.5 675Q190 660 190 635Q190 594 157.5 542Q125 490 63 431L44 451Q80 488 101 521Q122 554 130 585Q109 586 97.5 598Q86 610 86 631Q86 657 101.5 673.5Q117 690 141 690Z" glyph-name="napostrophe.case" horiz-adv-x="825" unicode="" /><glyph d="M397 690Q521 690 580 600Q639 510 614 366L602 301Q577 155 497.5 72.5Q418 -10 301 -10Q176 -10 118 79Q60 168 85 315L96 380Q122 526 201 608Q280 690 397 690ZM499 253 528 418Q548 535 514.5 596.5Q481 658 397 658Q319 658 269.5 600Q220 542 200 428L171 263Q150 146 183.5 84Q217 22 301 22Q379 22 429 80.5Q479 139 499 253ZM421 764 402 786Q434 821 453.5 852Q473 883 491 925H592Q554 879 513.5 841Q473 803 421 764Z" glyph-name="Oacute" horiz-adv-x="666" unicode="Ó" /><glyph d="M397 690Q521 690 580 600Q639 510 614 366L602 301Q577 155 497.5 72.5Q418 -10 301 -10Q176 -10 118 79Q60 168 85 315L96 380Q122 526 201 608Q280 690 397 690ZM499 253 528 418Q548 535 514.5 596.5Q481 658 397 658Q319 658 269.5 600Q220 542 200 428L171 263Q150 146 183.5 84Q217 22 301 22Q379 22 429 80.5Q479 139 499 253ZM556 783 538 764Q510 789 485.5 813.5Q461 838 441 863Q408 836 376.5 811.5Q345 787 312 764L295 785Q341 827 363.5 853.5Q386 880 417 925H483Q498 880 511.5 853Q525 826 556 783Z" glyph-name="Ocircumflex" horiz-adv-x="666" unicode="Ô" /><glyph d="M397 690Q521 690 580 600Q639 510 614 366L602 301Q577 155 497.5 72.5Q418 -10 301 -10Q176 -10 118 79Q60 168 85 315L96 380Q122 526 201 608Q280 690 397 690ZM499 253 528 418Q548 535 514.5 596.5Q481 658 397 658Q319 658 269.5 600Q220 542 200 428L171 263Q150 146 183.5 84Q217 22 301 22Q379 22 429 80.5Q479 139 499 253ZM387 854Q387 829 371 812.5Q355 796 330 796Q309 796 296.5 808.5Q284 821 284 841Q284 865 300 881.5Q316 898 341 898Q362 898 374.5 886.5Q387 875 387 854ZM590 854Q590 829 573.5 812.5Q557 796 532 796Q512 796 499 808.5Q486 821 486 841Q486 865 502 881.5Q518 898 543 898Q565 898 577.5 886Q590 874 590 854Z" glyph-name="Odieresis" horiz-adv-x="666" unicode="Ö" /><glyph d="M397 690Q521 690 580 600Q639 510 614 366L602 301Q577 155 497.5 72.5Q418 -10 301 -10Q176 -10 118 79Q60 168 85 315L96 380Q122 526 201 608Q280 690 397 690ZM499 253 528 418Q548 535 514.5 596.5Q481 658 397 658Q319 658 269.5 600Q220 542 200 428L171 263Q150 146 183.5 84Q217 22 301 22Q379 22 429 80.5Q479 139 499 253ZM446 781 423 764Q385 803 358 841Q331 879 309 925H400Q404 883 413.5 852Q423 821 446 781Z" glyph-name="Ograve" horiz-adv-x="666" unicode="Ò" /><glyph d="M397 690Q521 690 580 600Q639 510 614 366L602 301Q577 155 497.5 72.5Q418 -10 301 -10Q176 -10 118 79Q60 168 85 315L96 380Q122 526 201 608Q280 690 397 690ZM499 253 528 418Q548 535 514.5 596.5Q481 658 397 658Q319 658 269.5 600Q220 542 200 428L171 263Q150 146 183.5 84Q217 22 301 22Q379 22 429 80.5Q479 139 499 253ZM500 774Q480 774 462.5 784Q445 794 419 825Q398 849 387 856Q376 863 365 863Q346 863 331.5 843Q317 823 308 785H277Q290 854 315 889Q340 924 376 924Q396 924 413.5 914Q431 904 457 873Q477 849 487.5 842Q498 835 509 835Q527 835 541.5 855Q556 875 565 913H597Q584 844 559.5 809Q535 774 500 774Z" glyph-name="Otilde" horiz-adv-x="666" unicode="Õ" /><glyph d="M397 690Q521 690 580 600Q639 510 614 366L602 301Q577 155 497.5 72.5Q418 -10 301 -10Q176 -10 118 79Q60 168 85 315L96 380Q122 526 201 608Q280 690 397 690ZM499 253 528 418Q548 535 514.5 596.5Q481 658 397 658Q319 658 269.5 600Q220 542 200 428L171 263Q150 146 183.5 84Q217 22 301 22Q379 22 429 80.5Q479 139 499 253ZM433 828Q480 828 510.5 851.5Q541 875 562 927L591 918Q565 838 526.5 801Q488 764 430 764Q371 764 340.5 802.5Q310 841 307 918L336 927Q342 875 365 851.5Q388 828 433 828Z" glyph-name="Obreve" horiz-adv-x="666" unicode="Ŏ" /><glyph d="M397 690Q521 690 580 600Q639 510 614 366L602 301Q577 155 497.5 72.5Q418 -10 301 -10Q176 -10 118 79Q60 168 85 315L96 380Q122 526 201 608Q280 690 397 690ZM499 253 528 418Q548 535 514.5 596.5Q481 658 397 658Q319 658 269.5 600Q220 542 200 428L171 263Q150 146 183.5 84Q217 22 301 22Q379 22 429 80.5Q479 139 499 253ZM350 764 331 781Q353 811 370.5 844.5Q388 878 405 925H496Q465 882 428 841Q391 800 350 764ZM490 764 471 781Q493 810 510.5 843.5Q528 877 546 925H637Q605 881 568 840.5Q531 800 490 764Z" glyph-name="Ohungarumlaut" horiz-adv-x="666" unicode="Ő" /><glyph d="M397 690Q521 690 580 600Q639 510 614 366L602 301Q577 155 497.5 72.5Q418 -10 301 -10Q176 -10 118 79Q60 168 85 315L96 380Q122 526 201 608Q280 690 397 690ZM499 253 528 418Q548 535 514.5 596.5Q481 658 397 658Q319 658 269.5 600Q220 542 200 428L171 263Q150 146 183.5 84Q217 22 301 22Q379 22 429 80.5Q479 139 499 253ZM294 851 581 851L573 804H286Z" glyph-name="Omacron" horiz-adv-x="666" unicode="Ō" /><glyph d="M174 648 119 653L124 680H395Q490 680 539 630.5Q588 581 574 502L569 472Q558 409 518 369Q478 329 412 315L498 81Q510 48 515 41Q520 34 536 32L580 26L576 0H430L325 308H223L183 81Q177 48 178.5 41Q180 34 196 32L250 26L245 0H4L9 26L65 32Q82 34 86 40.5Q90 47 96 81L187 599Q193 632 191.5 639Q190 646 174 648ZM397 648 282 648L228 340H342Q395 340 431 374Q467 408 477 468L483 506Q495 573 472 610.5Q449 648 397 648ZM394 764 375 786Q407 821 426.5 852Q446 883 464 925H565Q527 879 486.5 841Q446 803 394 764Z" glyph-name="Racute" horiz-adv-x="625" unicode="Ŕ" /><glyph d="M174 648 119 653L124 680H395Q490 680 539 630.5Q588 581 574 502L569 472Q558 409 518 369Q478 329 412 315L498 81Q510 48 515 41Q520 34 536 32L580 26L576 0H430L325 308H223L183 81Q177 48 178.5 41Q180 34 196 32L250 26L245 0H4L9 26L65 32Q82 34 86 40.5Q90 47 96 81L187 599Q193 632 191.5 639Q190 646 174 648ZM397 648 282 648L228 340H342Q395 340 431 374Q467 408 477 468L483 506Q495 573 472 610.5Q449 648 397 648ZM534 929 551 908Q506 866 483 840Q460 814 429 769H363Q348 813 334.5 840Q321 867 290 910L308 929Q339 902 363 877.5Q387 853 405 830Q433 854 464.5 878.5Q496 903 534 929Z" glyph-name="Rcaron" horiz-adv-x="625" unicode="Ř" /><glyph d="M174 648 119 653L124 680H395Q490 680 539 630.5Q588 581 574 502L569 472Q558 409 518 369Q478 329 412 315L498 81Q510 48 515 41Q520 34 536 32L580 26L576 0H430L325 308H223L183 81Q177 48 178.5 41Q180 34 196 32L250 26L245 0H4L9 26L65 32Q82 34 86 40.5Q90 47 96 81L187 599Q193 632 191.5 639Q190 646 174 648ZM397 648 282 648L228 340H342Q395 340 431 374Q467 408 477 468L483 506Q495 573 472 610.5Q449 648 397 648ZM202 -242 184 -226Q208 -190 222 -155.5Q236 -121 246 -77H334Q309 -125 278.5 -163Q248 -201 202 -242Z" glyph-name="Rcommaaccent" horiz-adv-x="625" unicode="Ŗ" /><glyph d="M486 197Q486 105 419 47.5Q352 -10 239 -10Q139 -10 86 36Q33 82 32 172L95 192Q91 107 126.5 64.5Q162 22 240 22Q320 22 363.5 58.5Q407 95 407 161Q407 208 382 237.5Q357 267 299 291L225 320Q162 345 131 388.5Q100 432 100 494Q100 583 160 636.5Q220 690 325 690Q375 690 414.5 676.5Q454 663 480 637Q511 607 520 566Q529 525 514 483L427 465Q455 558 428 608Q401 658 321 658Q253 658 215.5 623Q178 588 178 524Q178 476 202 446Q226 416 281 395L355 365Q422 339 454 297.5Q486 256 486 197ZM491 929 508 908Q463 866 440 840Q417 814 386 769H320Q305 813 291.5 840Q278 867 247 910L265 929Q296 902 320 877.5Q344 853 362 830Q390 854 421.5 878.5Q453 903 491 929Z" glyph-name="Scaron" horiz-adv-x="548" unicode="Š" /><glyph d="M486 197Q486 105 419 47.5Q352 -10 239 -10Q139 -10 86 36Q33 82 32 172L95 192Q91 107 126.5 64.5Q162 22 240 22Q320 22 363.5 58.5Q407 95 407 161Q407 208 382 237.5Q357 267 299 291L225 320Q162 345 131 388.5Q100 432 100 494Q100 583 160 636.5Q220 690 325 690Q375 690 414.5 676.5Q454 663 480 637Q511 607 520 566Q529 525 514 483L427 465Q455 558 428 608Q401 658 321 658Q253 658 215.5 623Q178 588 178 524Q178 476 202 446Q226 416 281 395L355 365Q422 339 454 297.5Q486 256 486 197ZM351 764 332 786Q364 821 383.5 852Q403 883 421 925H522Q484 879 443.5 841Q403 803 351 764Z" glyph-name="Sacute" horiz-adv-x="548" unicode="Ś" /><glyph d="M301 -133Q301 -172 267.5 -197.5Q234 -223 182 -223Q136 -223 109 -202.5Q82 -182 81 -145L132 -131Q130 -164 140.5 -179.5Q151 -195 177 -195Q203 -195 219.5 -177Q236 -159 236 -131Q236 -107 224.5 -96.5Q213 -86 187 -86Q186 -86 180 -87Q174 -88 163 -89L158 -63L191 -7Q114 4 73.5 49Q33 94 32 172L95 192Q91 107 126.5 64.5Q162 22 240 22Q320 22 363.5 58.5Q407 95 407 161Q407 208 382 237.5Q357 267 299 291L225 320Q162 345 131 388.5Q100 432 100 494Q100 583 160 636.5Q220 690 325 690Q375 690 414.5 676.5Q454 663 480 637Q511 607 520 566Q529 525 514 483L427 465Q455 558 428 608Q401 658 321 658Q253 658 215.5 623Q178 588 178 524Q178 476 202 446Q226 416 281 395L355 365Q422 339 454 297.5Q486 256 486 197Q486 105 419 47.5Q352 -10 239 -10H224L196 -58Q244 -58 272.5 -78.5Q301 -99 301 -133Z" glyph-name="Scedilla" horiz-adv-x="548" unicode="Ş" /><glyph d="M486 197Q486 105 419 47.5Q352 -10 239 -10Q139 -10 86 36Q33 82 32 172L95 192Q91 107 126.5 64.5Q162 22 240 22Q320 22 363.5 58.5Q407 95 407 161Q407 208 382 237.5Q357 267 299 291L225 320Q162 345 131 388.5Q100 432 100 494Q100 583 160 636.5Q220 690 325 690Q375 690 414.5 676.5Q454 663 480 637Q511 607 520 566Q529 525 514 483L427 465Q455 558 428 608Q401 658 321 658Q253 658 215.5 623Q178 588 178 524Q178 476 202 446Q226 416 281 395L355 365Q422 339 454 297.5Q486 256 486 197ZM486 783 468 764Q440 789 415.5 813.5Q391 838 371 863Q338 836 306.5 811.5Q275 787 242 764L225 785Q271 827 293.5 853.5Q316 880 347 925H413Q428 880 441.5 853Q455 826 486 783Z" glyph-name="Scircumflex" horiz-adv-x="548" unicode="Ŝ" /><glyph d="M486 197Q486 105 419 47.5Q352 -10 239 -10Q139 -10 86 36Q33 82 32 172L95 192Q91 107 126.5 64.5Q162 22 240 22Q320 22 363.5 58.5Q407 95 407 161Q407 208 382 237.5Q357 267 299 291L225 320Q162 345 131 388.5Q100 432 100 494Q100 583 160 636.5Q220 690 325 690Q375 690 414.5 676.5Q454 663 480 637Q511 607 520 566Q529 525 514 483L427 465Q455 558 428 608Q401 658 321 658Q253 658 215.5 623Q178 588 178 524Q178 476 202 446Q226 416 281 395L355 365Q422 339 454 297.5Q486 256 486 197ZM125 -242 107 -226Q131 -190 145 -155.5Q159 -121 169 -77H257Q232 -125 201.5 -163Q171 -201 125 -242Z" glyph-name="uni0218" horiz-adv-x="548" unicode="Ș" /><glyph d="M306 32 360 26L356 0H115L119 26L175 32Q192 34 196 40.5Q200 47 206 81L249 323H105L110 355H254L306 648H192Q159 648 150.5 644.5Q142 641 134 622L86 517H60L89 680H621L593 517H566L556 622Q554 641 546.5 644.5Q539 648 507 648H393L341 355H485L480 323H336L293 81Q287 47 288.5 40.5Q290 34 306 32Z" glyph-name="Tbar" horiz-adv-x="559" unicode="Ŧ" /><glyph d="M86 517 60 517L89 680H621L593 517H566L556 622Q554 641 546.5 644.5Q539 648 507 648H393L293 81Q287 47 288.5 40.5Q290 34 306 32L360 26L356 0H115L119 26L175 32Q192 34 196 40.5Q200 47 206 81L306 648H192Q159 648 150.5 644.5Q142 641 134 622ZM507 929 524 908Q479 866 456 840Q433 814 402 769H336Q321 813 307.5 840Q294 867 263 910L281 929Q312 902 336 877.5Q360 853 378 830Q406 854 437.5 878.5Q469 903 507 929Z" glyph-name="Tcaron" horiz-adv-x="559" unicode="Ť" /><glyph d="M86 517 60 517L89 680H621L593 517H566L556 622Q554 641 546.5 644.5Q539 648 507 648H393L293 81Q287 47 288.5 40.5Q290 34 306 32L360 26L356 0H115L119 26L175 32Q192 34 196 40.5Q200 47 206 81L306 648H192Q159 648 150.5 644.5Q142 641 134 622ZM133 -242 115 -226Q139 -190 153 -155.5Q167 -121 177 -77H265Q240 -125 209.5 -163Q179 -201 133 -242Z" glyph-name="uni0162" horiz-adv-x="559" unicode="Ţ" /><glyph d="M86 517 60 517L89 680H621L593 517H566L556 622Q554 641 546.5 644.5Q539 648 507 648H393L293 81Q287 47 288.5 40.5Q290 34 306 32L360 26L356 0H115L119 26L175 32Q192 34 196 40.5Q200 47 206 81L306 648H192Q159 648 150.5 644.5Q142 641 134 622ZM133 -242 115 -226Q139 -190 153 -155.5Q167 -121 177 -77H265Q240 -125 209.5 -163Q179 -201 133 -242Z" glyph-name="uni021A" horiz-adv-x="559" unicode="Ț" /><glyph d="M579 648 524 653L529 680H720L715 653L660 648Q643 645 638.5 637Q634 629 629 599L564 230Q543 112 480 51Q417 -10 315 -10Q198 -10 143.5 58Q89 126 110 246L172 599Q178 632 176.5 639Q175 646 159 648L104 653L109 680H350L345 653L290 648Q273 645 268.5 637Q264 629 259 599L194 230Q175 124 206 73Q237 22 320 22Q404 22 456.5 74.5Q509 127 527 230L592 599Q598 632 596.5 639Q595 646 579 648ZM447 764 428 786Q460 821 479.5 852Q499 883 517 925H618Q580 879 539.5 841Q499 803 447 764Z" glyph-name="Uacute" horiz-adv-x="677" unicode="Ú" /><glyph d="M579 648 524 653L529 680H720L715 653L660 648Q643 645 638.5 637Q634 629 629 599L564 230Q543 112 480 51Q417 -10 315 -10Q198 -10 143.5 58Q89 126 110 246L172 599Q178 632 176.5 639Q175 646 159 648L104 653L109 680H350L345 653L290 648Q273 645 268.5 637Q264 629 259 599L194 230Q175 124 206 73Q237 22 320 22Q404 22 456.5 74.5Q509 127 527 230L592 599Q598 632 596.5 639Q595 646 579 648ZM583 783 565 764Q537 789 512.5 813.5Q488 838 468 863Q435 836 403.5 811.5Q372 787 339 764L322 785Q368 827 390.5 853.5Q413 880 444 925H510Q525 880 538.5 853Q552 826 583 783Z" glyph-name="Ucircumflex" horiz-adv-x="677" unicode="Û" /><glyph d="M579 648 524 653L529 680H720L715 653L660 648Q643 645 638.5 637Q634 629 629 599L564 230Q543 112 480 51Q417 -10 315 -10Q198 -10 143.5 58Q89 126 110 246L172 599Q178 632 176.5 639Q175 646 159 648L104 653L109 680H350L345 653L290 648Q273 645 268.5 637Q264 629 259 599L194 230Q175 124 206 73Q237 22 320 22Q404 22 456.5 74.5Q509 127 527 230L592 599Q598 632 596.5 639Q595 646 579 648ZM413 854Q413 829 397 812.5Q381 796 356 796Q335 796 322.5 808.5Q310 821 310 841Q310 865 326 881.5Q342 898 367 898Q388 898 400.5 886.5Q413 875 413 854ZM616 854Q616 829 599.5 812.5Q583 796 558 796Q538 796 525 808.5Q512 821 512 841Q512 865 528 881.5Q544 898 569 898Q591 898 603.5 886Q616 874 616 854Z" glyph-name="Udieresis" horiz-adv-x="677" unicode="Ü" /><glyph d="M579 648 524 653L529 680H720L715 653L660 648Q643 645 638.5 637Q634 629 629 599L564 230Q543 112 480 51Q417 -10 315 -10Q198 -10 143.5 58Q89 126 110 246L172 599Q178 632 176.5 639Q175 646 159 648L104 653L109 680H350L345 653L290 648Q273 645 268.5 637Q264 629 259 599L194 230Q175 124 206 73Q237 22 320 22Q404 22 456.5 74.5Q509 127 527 230L592 599Q598 632 596.5 639Q595 646 579 648ZM472 781 449 764Q411 803 384 841Q357 879 335 925H426Q430 883 439.5 852Q449 821 472 781Z" glyph-name="Ugrave" horiz-adv-x="677" unicode="Ù" /><glyph d="M579 648 524 653L529 680H720L715 653L660 648Q643 645 638.5 637Q634 629 629 599L564 230Q543 112 480 51Q417 -10 315 -10Q198 -10 143.5 58Q89 126 110 246L172 599Q178 632 176.5 639Q175 646 159 648L104 653L109 680H350L345 653L290 648Q273 645 268.5 637Q264 629 259 599L194 230Q175 124 206 73Q237 22 320 22Q404 22 456.5 74.5Q509 127 527 230L592 599Q598 632 596.5 639Q595 646 579 648ZM459 828Q506 828 536.5 851.5Q567 875 588 927L617 918Q591 838 552.5 801Q514 764 456 764Q397 764 366.5 802.5Q336 841 333 918L362 927Q368 875 391 851.5Q414 828 459 828Z" glyph-name="Ubreve" horiz-adv-x="677" unicode="Ŭ" /><glyph d="M579 648 524 653L529 680H720L715 653L660 648Q643 645 638.5 637Q634 629 629 599L564 230Q543 112 480 51Q417 -10 315 -10Q198 -10 143.5 58Q89 126 110 246L172 599Q178 632 176.5 639Q175 646 159 648L104 653L109 680H350L345 653L290 648Q273 645 268.5 637Q264 629 259 599L194 230Q175 124 206 73Q237 22 320 22Q404 22 456.5 74.5Q509 127 527 230L592 599Q598 632 596.5 639Q595 646 579 648ZM376 764 357 781Q379 811 396.5 844.5Q414 878 431 925H522Q491 882 454 841Q417 800 376 764ZM516 764 497 781Q519 810 536.5 843.5Q554 877 572 925H663Q631 881 594 840.5Q557 800 516 764Z" glyph-name="Uhungarumlaut" horiz-adv-x="677" unicode="Ű" /><glyph d="M579 648 524 653L529 680H720L715 653L660 648Q643 645 638.5 637Q634 629 629 599L564 230Q543 112 480 51Q417 -10 315 -10Q198 -10 143.5 58Q89 126 110 246L172 599Q178 632 176.5 639Q175 646 159 648L104 653L109 680H350L345 653L290 648Q273 645 268.5 637Q264 629 259 599L194 230Q175 124 206 73Q237 22 320 22Q404 22 456.5 74.5Q509 127 527 230L592 599Q598 632 596.5 639Q595 646 579 648ZM320 851 607 851L599 804H312Z" glyph-name="Umacron" horiz-adv-x="677" unicode="Ū" /><glyph d="M424 -112 474 -125Q452 -174 418.5 -198.5Q385 -223 340 -223Q292 -223 264 -200.5Q236 -178 236 -138Q236 -103 258.5 -76Q281 -49 359 -7Q349 -8 337.5 -9Q326 -10 315 -10Q198 -10 143.5 58Q89 126 110 246L172 599Q178 632 176.5 639Q175 646 159 648L104 653L109 680H350L345 653L290 648Q273 645 268.5 637Q264 629 259 599L194 230Q175 124 206 73Q237 22 320 22Q404 22 456.5 74.5Q509 127 527 230L592 599Q598 632 596.5 639Q595 646 579 648L524 653L529 680H720L715 653L660 648Q643 645 638.5 637Q634 629 629 599L564 230Q553 168 530 121Q507 74 472 43Q451 25 413.5 0Q376 -25 364 -33Q330 -59 315 -84.5Q300 -110 300 -141Q300 -167 310 -180Q320 -193 341 -193Q368 -193 388.5 -172.5Q409 -152 424 -112Z" glyph-name="Uogonek" horiz-adv-x="677" unicode="Ų" /><glyph d="M579 648 524 653L529 680H720L715 653L660 648Q643 645 638.5 637Q634 629 629 599L564 230Q543 112 480 51Q417 -10 315 -10Q198 -10 143.5 58Q89 126 110 246L172 599Q178 632 176.5 639Q175 646 159 648L104 653L109 680H350L345 653L290 648Q273 645 268.5 637Q264 629 259 599L194 230Q175 124 206 73Q237 22 320 22Q404 22 456.5 74.5Q509 127 527 230L592 599Q598 632 596.5 639Q595 646 579 648ZM476 974Q532 974 562.5 940Q593 906 585 858L583 847Q575 802 539.5 774Q504 746 454 746Q399 746 368.5 780.5Q338 815 346 863L348 874Q356 919 391 946.5Q426 974 476 974ZM452 772Q480 772 498 791.5Q516 811 522 847L527 872Q533 909 520 929Q507 949 478 949Q451 949 433 929.5Q415 910 408 873L404 848Q397 813 410 792.5Q423 772 452 772Z" glyph-name="Uring" horiz-adv-x="677" unicode="Ů" /><glyph d="M579 648 524 653L529 680H720L715 653L660 648Q643 645 638.5 637Q634 629 629 599L564 230Q543 112 480 51Q417 -10 315 -10Q198 -10 143.5 58Q89 126 110 246L172 599Q178 632 176.5 639Q175 646 159 648L104 653L109 680H350L345 653L290 648Q273 645 268.5 637Q264 629 259 599L194 230Q175 124 206 73Q237 22 320 22Q404 22 456.5 74.5Q509 127 527 230L592 599Q598 632 596.5 639Q595 646 579 648ZM526 774Q506 774 488.5 784Q471 794 445 825Q424 849 413 856Q402 863 391 863Q372 863 357.5 843Q343 823 334 785H303Q316 854 341 889Q366 924 402 924Q422 924 439.5 914Q457 904 483 873Q503 849 513.5 842Q524 835 535 835Q553 835 567.5 855Q582 875 591 913H623Q610 844 585.5 809Q561 774 526 774Z" glyph-name="Utilde" horiz-adv-x="677" unicode="Ũ" /><glyph d="M651 0 586 0L517 573L248 0H183L143 605Q142 634 138.5 640Q135 646 120 648L69 653L74 680H304L299 653L247 648Q233 646 230 643.5Q227 641 226 634Q226 631 226 625.5Q226 620 227 605L259 105L527 680H589L659 109L865 605Q877 634 876.5 640Q876 646 860 648L809 653L814 680H1000L995 653L943 648Q926 646 921 639.5Q916 633 904 605ZM561 764 542 786Q574 821 593.5 852Q613 883 631 925H732Q694 879 653.5 841Q613 803 561 764Z" glyph-name="Wacute" horiz-adv-x="921" unicode="Ẃ" /><glyph d="M651 0 586 0L517 573L248 0H183L143 605Q142 634 138.5 640Q135 646 120 648L69 653L74 680H304L299 653L247 648Q233 646 230 643.5Q227 641 226 634Q226 631 226 625.5Q226 620 227 605L259 105L527 680H589L659 109L865 605Q877 634 876.5 640Q876 646 860 648L809 653L814 680H1000L995 653L943 648Q926 646 921 639.5Q916 633 904 605ZM696 783 678 764Q650 789 625.5 813.5Q601 838 581 863Q548 836 516.5 811.5Q485 787 452 764L435 785Q481 827 503.5 853.5Q526 880 557 925H623Q638 880 651.5 853Q665 826 696 783Z" glyph-name="Wcircumflex" horiz-adv-x="921" unicode="Ŵ" /><glyph d="M651 0 586 0L517 573L248 0H183L143 605Q142 634 138.5 640Q135 646 120 648L69 653L74 680H304L299 653L247 648Q233 646 230 643.5Q227 641 226 634Q226 631 226 625.5Q226 620 227 605L259 105L527 680H589L659 109L865 605Q877 634 876.5 640Q876 646 860 648L809 653L814 680H1000L995 653L943 648Q926 646 921 639.5Q916 633 904 605ZM527 854Q527 829 511 812.5Q495 796 470 796Q449 796 436.5 808.5Q424 821 424 841Q424 865 440 881.5Q456 898 481 898Q502 898 514.5 886.5Q527 875 527 854ZM730 854Q730 829 713.5 812.5Q697 796 672 796Q652 796 639 808.5Q626 821 626 841Q626 865 642 881.5Q658 898 683 898Q705 898 717.5 886Q730 874 730 854Z" glyph-name="Wdieresis" horiz-adv-x="921" unicode="Ẅ" /><glyph d="M651 0 586 0L517 573L248 0H183L143 605Q142 634 138.5 640Q135 646 120 648L69 653L74 680H304L299 653L247 648Q233 646 230 643.5Q227 641 226 634Q226 631 226 625.5Q226 620 227 605L259 105L527 680H589L659 109L865 605Q877 634 876.5 640Q876 646 860 648L809 653L814 680H1000L995 653L943 648Q926 646 921 639.5Q916 633 904 605ZM586 781 563 764Q525 803 498 841Q471 879 449 925H540Q544 883 553.5 852Q563 821 586 781Z" glyph-name="Wgrave" horiz-adv-x="921" unicode="Ẁ" /><glyph d="M322 32 376 26L371 0H130L135 26L191 32Q204 33 208.5 36.5Q213 40 216 49L258 292L153 605Q144 632 139 639Q134 646 118 648L67 653L72 680H311L306 653L254 648Q238 646 237 639.5Q236 633 245 605L333 332L520 605Q538 632 540 639Q542 646 526 648L475 653L480 680H668L663 653L611 648Q595 646 588 640Q581 634 561 605L345 291L308 79L309 81Q303 47 304.5 40.5Q306 34 322 32ZM393 764 374 786Q406 821 425.5 852Q445 883 463 925H564Q526 879 485.5 841Q445 803 393 764Z" glyph-name="Yacute" horiz-adv-x="588" unicode="Ý" /><glyph d="M322 32 376 26L371 0H130L135 26L191 32Q204 33 208.5 36.5Q213 40 216 49L258 292L153 605Q144 632 139 639Q134 646 118 648L67 653L72 680H311L306 653L254 648Q238 646 237 639.5Q236 633 245 605L333 332L520 605Q538 632 540 639Q542 646 526 648L475 653L480 680H668L663 653L611 648Q595 646 588 640Q581 634 561 605L345 291L308 79L309 81Q303 47 304.5 40.5Q306 34 322 32ZM359 854Q359 829 343 812.5Q327 796 302 796Q281 796 268.5 808.5Q256 821 256 841Q256 865 272 881.5Q288 898 313 898Q334 898 346.5 886.5Q359 875 359 854ZM562 854Q562 829 545.5 812.5Q529 796 504 796Q484 796 471 808.5Q458 821 458 841Q458 865 474 881.5Q490 898 515 898Q537 898 549.5 886Q562 874 562 854Z" glyph-name="Ydieresis" horiz-adv-x="588" unicode="Ÿ" /><glyph d="M322 32 376 26L371 0H130L135 26L191 32Q204 33 208.5 36.5Q213 40 216 49L258 292L153 605Q144 632 139 639Q134 646 118 648L67 653L72 680H311L306 653L254 648Q238 646 237 639.5Q236 633 245 605L333 332L520 605Q538 632 540 639Q542 646 526 648L475 653L480 680H668L663 653L611 648Q595 646 588 640Q581 634 561 605L345 291L308 79L309 81Q303 47 304.5 40.5Q306 34 322 32ZM528 783 510 764Q482 789 457.5 813.5Q433 838 413 863Q380 836 348.5 811.5Q317 787 284 764L267 785Q313 827 335.5 853.5Q358 880 389 925H455Q470 880 483.5 853Q497 826 528 783Z" glyph-name="Ycircumflex" horiz-adv-x="588" unicode="Ŷ" /><glyph d="M322 32 376 26L371 0H130L135 26L191 32Q204 33 208.5 36.5Q213 40 216 49L258 292L153 605Q144 632 139 639Q134 646 118 648L67 653L72 680H311L306 653L254 648Q238 646 237 639.5Q236 633 245 605L333 332L520 605Q538 632 540 639Q542 646 526 648L475 653L480 680H668L663 653L611 648Q595 646 588 640Q581 634 561 605L345 291L308 79L309 81Q303 47 304.5 40.5Q306 34 322 32ZM418 781 395 764Q357 803 330 841Q303 879 281 925H372Q376 883 385.5 852Q395 821 418 781Z" glyph-name="Ygrave" horiz-adv-x="588" unicode="Ỳ" /><glyph d="M450 163 476 163L448 0H-4L0 22L447 648H232Q200 648 190.5 644.5Q181 641 173 622L125 517H99L128 680H558L553 658L106 32H344Q377 32 385.5 35.5Q394 39 403 58ZM485 929 502 908Q457 866 434 840Q411 814 380 769H314Q299 813 285.5 840Q272 867 241 910L259 929Q290 902 314 877.5Q338 853 356 830Q384 854 415.5 878.5Q447 903 485 929Z" glyph-name="Zcaron" horiz-adv-x="531" unicode="Ž" /><glyph d="M450 163 476 163L448 0H-4L0 22L447 648H232Q200 648 190.5 644.5Q181 641 173 622L125 517H99L128 680H558L553 658L106 32H344Q377 32 385.5 35.5Q394 39 403 58ZM345 764 326 786Q358 821 377.5 852Q397 883 415 925H516Q478 879 437.5 841Q397 803 345 764Z" glyph-name="Zacute" horiz-adv-x="531" unicode="Ź" /><glyph d="M450 163 476 163L448 0H-4L0 22L447 648H232Q200 648 190.5 644.5Q181 641 173 622L125 517H99L128 680H558L553 658L106 32H344Q377 32 385.5 35.5Q394 39 403 58ZM416 854Q416 828 399 810.5Q382 793 355 793Q332 793 319 806Q306 819 306 841Q306 867 323 884Q340 901 366 901Q389 901 402.5 888.5Q416 876 416 854Z" glyph-name="Zdotaccent" horiz-adv-x="531" unicode="Ż" /><glyph d="M444 -5Q405 -5 384 18.5Q363 42 362 86Q332 38 293.5 14Q255 -10 209 -10Q123 -10 82.5 66.5Q42 143 64 260L68 282Q86 383 149.5 444Q213 505 298 505Q339 505 370.5 489Q402 473 423 442Q434 451 447 464Q460 477 476 495H511L450 150Q438 83 439.5 55.5Q441 28 459 28Q477 28 493.5 48Q510 68 523 105L558 83Q536 39 507.5 17Q479 -5 444 -5ZM158 291 149 234Q132 138 152.5 81Q173 24 222 24Q262 24 299 58.5Q336 93 370 160L411 396Q393 434 367 452.5Q341 471 304 471Q247 471 210 425.5Q173 380 158 291ZM321 579 302 601Q334 636 353.5 667Q373 698 391 740H492Q454 694 413.5 656Q373 618 321 579Z" glyph-name="aacute" horiz-adv-x="581" unicode="á" /><glyph d="M444 -5Q405 -5 384 18.5Q363 42 362 86Q332 38 293.5 14Q255 -10 209 -10Q123 -10 82.5 66.5Q42 143 64 260L68 282Q86 383 149.5 444Q213 505 298 505Q339 505 370.5 489Q402 473 423 442Q434 451 447 464Q460 477 476 495H511L450 150Q438 83 439.5 55.5Q441 28 459 28Q477 28 493.5 48Q510 68 523 105L558 83Q536 39 507.5 17Q479 -5 444 -5ZM158 291 149 234Q132 138 152.5 81Q173 24 222 24Q262 24 299 58.5Q336 93 370 160L411 396Q393 434 367 452.5Q341 471 304 471Q247 471 210 425.5Q173 380 158 291ZM456 598 438 579Q410 604 385.5 628.5Q361 653 341 678Q308 651 276.5 626.5Q245 602 212 579L195 600Q241 642 263.5 668.5Q286 695 317 740H383Q398 695 411.5 668Q425 641 456 598Z" glyph-name="acircumflex" horiz-adv-x="581" unicode="â" /><glyph d="M444 -5Q405 -5 384 18.5Q363 42 362 86Q332 38 293.5 14Q255 -10 209 -10Q123 -10 82.5 66.5Q42 143 64 260L68 282Q86 383 149.5 444Q213 505 298 505Q339 505 370.5 489Q402 473 423 442Q434 451 447 464Q460 477 476 495H511L450 150Q438 83 439.5 55.5Q441 28 459 28Q477 28 493.5 48Q510 68 523 105L558 83Q536 39 507.5 17Q479 -5 444 -5ZM158 291 149 234Q132 138 152.5 81Q173 24 222 24Q262 24 299 58.5Q336 93 370 160L411 396Q393 434 367 452.5Q341 471 304 471Q247 471 210 425.5Q173 380 158 291ZM287 669Q287 644 271 627.5Q255 611 230 611Q209 611 196.5 623.5Q184 636 184 656Q184 680 200 696.5Q216 713 241 713Q262 713 274.5 701.5Q287 690 287 669ZM490 669Q490 644 473.5 627.5Q457 611 432 611Q412 611 399 623.5Q386 636 386 656Q386 680 402 696.5Q418 713 443 713Q465 713 477.5 701Q490 689 490 669Z" glyph-name="adieresis" horiz-adv-x="581" unicode="ä" /><glyph d="M444 -5Q405 -5 384 18.5Q363 42 362 86Q332 38 293.5 14Q255 -10 209 -10Q123 -10 82.5 66.5Q42 143 64 260L68 282Q86 383 149.5 444Q213 505 298 505Q339 505 370.5 489Q402 473 423 442Q434 451 447 464Q460 477 476 495H511L450 150Q438 83 439.5 55.5Q441 28 459 28Q477 28 493.5 48Q510 68 523 105L558 83Q536 39 507.5 17Q479 -5 444 -5ZM158 291 149 234Q132 138 152.5 81Q173 24 222 24Q262 24 299 58.5Q336 93 370 160L411 396Q393 434 367 452.5Q341 471 304 471Q247 471 210 425.5Q173 380 158 291ZM346 596 323 579Q285 618 258 656Q231 694 209 740H300Q304 698 313.5 667Q323 636 346 596Z" glyph-name="agrave" horiz-adv-x="581" unicode="à" /><glyph d="M444 -5Q405 -5 384 18.5Q363 42 362 86Q332 38 293.5 14Q255 -10 209 -10Q123 -10 82.5 66.5Q42 143 64 260L68 282Q86 383 149.5 444Q213 505 298 505Q339 505 370.5 489Q402 473 423 442Q434 451 447 464Q460 477 476 495H511L450 150Q438 83 439.5 55.5Q441 28 459 28Q477 28 493.5 48Q510 68 523 105L558 83Q536 39 507.5 17Q479 -5 444 -5ZM158 291 149 234Q132 138 152.5 81Q173 24 222 24Q262 24 299 58.5Q336 93 370 160L411 396Q393 434 367 452.5Q341 471 304 471Q247 471 210 425.5Q173 380 158 291ZM350 789Q406 789 436.5 755Q467 721 459 673L457 662Q449 617 413.5 589Q378 561 328 561Q273 561 242.5 595.5Q212 630 220 678L222 689Q230 734 265 761.5Q300 789 350 789ZM326 587Q354 587 372 606.5Q390 626 396 662L401 687Q407 724 394 744Q381 764 352 764Q325 764 307 744.5Q289 725 282 688L278 663Q271 628 284 607.5Q297 587 326 587Z" glyph-name="aring" horiz-adv-x="581" unicode="å" /><glyph d="M444 -5Q405 -5 384 18.5Q363 42 362 86Q332 38 293.5 14Q255 -10 209 -10Q123 -10 82.5 66.5Q42 143 64 260L68 282Q86 383 149.5 444Q213 505 298 505Q339 505 370.5 489Q402 473 423 442Q434 451 447 464Q460 477 476 495H511L450 150Q438 83 439.5 55.5Q441 28 459 28Q477 28 493.5 48Q510 68 523 105L558 83Q536 39 507.5 17Q479 -5 444 -5ZM158 291 149 234Q132 138 152.5 81Q173 24 222 24Q262 24 299 58.5Q336 93 370 160L411 396Q393 434 367 452.5Q341 471 304 471Q247 471 210 425.5Q173 380 158 291ZM400 589Q380 589 362.5 599Q345 609 319 640Q298 664 287 671Q276 678 265 678Q246 678 231.5 658Q217 638 208 600H177Q190 669 215 704Q240 739 276 739Q296 739 313.5 729Q331 719 357 688Q377 664 387.5 657Q398 650 409 650Q427 650 441.5 670Q456 690 465 728H497Q484 659 459.5 624Q435 589 400 589Z" glyph-name="atilde" horiz-adv-x="581" unicode="ã" /><glyph d="M444 -5Q405 -5 384 18.5Q363 42 362 86Q332 38 293.5 14Q255 -10 209 -10Q123 -10 82.5 66.5Q42 143 64 260L68 282Q86 383 149.5 444Q213 505 298 505Q339 505 370.5 489Q402 473 423 442Q434 451 447 464Q460 477 476 495H511L450 150Q438 83 439.5 55.5Q441 28 459 28Q477 28 493.5 48Q510 68 523 105L558 83Q536 39 507.5 17Q479 -5 444 -5ZM158 291 149 234Q132 138 152.5 81Q173 24 222 24Q262 24 299 58.5Q336 93 370 160L411 396Q393 434 367 452.5Q341 471 304 471Q247 471 210 425.5Q173 380 158 291ZM333 643Q380 643 410.5 666.5Q441 690 462 742L491 733Q465 653 426.5 616Q388 579 330 579Q271 579 240.5 617.5Q210 656 207 733L236 742Q242 690 265 666.5Q288 643 333 643Z" glyph-name="abreve" horiz-adv-x="581" unicode="ă" /><glyph d="M444 -5Q405 -5 384 18.5Q363 42 362 86Q332 38 293.5 14Q255 -10 209 -10Q123 -10 82.5 66.5Q42 143 64 260L68 282Q86 383 149.5 444Q213 505 298 505Q339 505 370.5 489Q402 473 423 442Q434 451 447 464Q460 477 476 495H511L450 150Q438 83 439.5 55.5Q441 28 459 28Q477 28 493.5 48Q510 68 523 105L558 83Q536 39 507.5 17Q479 -5 444 -5ZM158 291 149 234Q132 138 152.5 81Q173 24 222 24Q262 24 299 58.5Q336 93 370 160L411 396Q393 434 367 452.5Q341 471 304 471Q247 471 210 425.5Q173 380 158 291ZM194 666 481 666L473 619H186Z" glyph-name="amacron" horiz-adv-x="581" unicode="ā" /><glyph d="M472 -112 522 -125Q499 -174 465.5 -198.5Q432 -223 386 -223Q340 -223 312 -201Q284 -179 284 -142Q284 -105 312 -74.5Q340 -44 426 -4Q396 2 379.5 24.5Q363 47 362 86Q332 38 293.5 14Q255 -10 209 -10Q123 -10 82.5 66.5Q42 143 64 260L68 282Q86 383 149.5 444Q213 505 298 505Q339 505 370.5 489Q402 473 423 442Q434 451 447 464Q460 477 476 495H511L450 150Q438 83 439.5 55.5Q441 28 459 28Q477 28 493.5 48Q510 68 523 105L558 83Q545 53 521 29Q497 5 441 -29Q383 -64 365.5 -88Q348 -112 348 -143Q348 -168 358 -180.5Q368 -193 389 -193Q416 -193 436.5 -172.5Q457 -152 472 -112ZM158 291 149 234Q132 138 152.5 81Q173 24 222 24Q262 24 299 58.5Q336 93 370 160L411 396Q393 434 367 452.5Q341 471 304 471Q247 471 210 425.5Q173 380 158 291Z" glyph-name="aogonek" horiz-adv-x="582" unicode="ą" /><glyph d="M322 -133Q322 -172 288.5 -197.5Q255 -223 203 -223Q157 -223 130 -202.5Q103 -182 102 -145L153 -131Q151 -164 161.5 -179.5Q172 -195 198 -195Q224 -195 240.5 -177Q257 -159 257 -131Q257 -107 245.5 -96.5Q234 -86 208 -86Q207 -86 201 -87Q195 -88 184 -89L179 -63L211 -9Q123 -1 82 70.5Q41 142 61 254L65 276Q84 380 151 442.5Q218 505 311 505Q398 505 439.5 451Q481 397 455 320L374 304Q399 383 381 428Q363 473 307 473Q251 473 211 425Q171 377 157 289L147 229Q130 128 153.5 75Q177 22 237 22Q283 22 320 48.5Q357 75 374 124L420 98Q391 48 347 21Q303 -6 245 -10L217 -58Q265 -58 293.5 -78.5Q322 -99 322 -133Z" glyph-name="ccedilla" horiz-adv-x="485" unicode="ç" /><glyph d="M307 473Q251 473 211 425Q171 377 157 289L147 229Q130 128 153.5 75Q177 22 237 22Q283 22 320 48.5Q357 75 374 124L420 98Q389 44 341 17Q293 -10 231 -10Q133 -10 86 63Q39 136 61 254L65 276Q84 380 151 442.5Q218 505 311 505Q398 505 439.5 451Q481 397 455 320L374 304Q399 383 381 428Q363 473 307 473ZM319 579 300 601Q332 636 351.5 667Q371 698 389 740H490Q452 694 411.5 656Q371 618 319 579Z" glyph-name="cacute" horiz-adv-x="485" unicode="ć" /><glyph d="M307 473Q251 473 211 425Q171 377 157 289L147 229Q130 128 153.5 75Q177 22 237 22Q283 22 320 48.5Q357 75 374 124L420 98Q389 44 341 17Q293 -10 231 -10Q133 -10 86 63Q39 136 61 254L65 276Q84 380 151 442.5Q218 505 311 505Q398 505 439.5 451Q481 397 455 320L374 304Q399 383 381 428Q363 473 307 473ZM459 744 476 723Q431 681 408 655Q385 629 354 584H288Q273 628 259.5 655Q246 682 215 725L233 744Q264 717 288 692.5Q312 668 330 645Q358 669 389.5 693.5Q421 718 459 744Z" glyph-name="ccaron" horiz-adv-x="485" unicode="č" /><glyph d="M307 473Q251 473 211 425Q171 377 157 289L147 229Q130 128 153.5 75Q177 22 237 22Q283 22 320 48.5Q357 75 374 124L420 98Q389 44 341 17Q293 -10 231 -10Q133 -10 86 63Q39 136 61 254L65 276Q84 380 151 442.5Q218 505 311 505Q398 505 439.5 451Q481 397 455 320L374 304Q399 383 381 428Q363 473 307 473ZM454 598 436 579Q408 604 383.5 628.5Q359 653 339 678Q306 651 274.5 626.5Q243 602 210 579L193 600Q239 642 261.5 668.5Q284 695 315 740H381Q396 695 409.5 668Q423 641 454 598Z" glyph-name="ccircumflex" horiz-adv-x="485" unicode="ĉ" /><glyph d="M307 473Q251 473 211 425Q171 377 157 289L147 229Q130 128 153.5 75Q177 22 237 22Q283 22 320 48.5Q357 75 374 124L420 98Q389 44 341 17Q293 -10 231 -10Q133 -10 86 63Q39 136 61 254L65 276Q84 380 151 442.5Q218 505 311 505Q398 505 439.5 451Q481 397 455 320L374 304Q399 383 381 428Q363 473 307 473ZM390 669Q390 643 373 625.5Q356 608 329 608Q306 608 293 621Q280 634 280 656Q280 682 297 699Q314 716 340 716Q363 716 376.5 703.5Q390 691 390 669Z" glyph-name="cdotaccent" horiz-adv-x="485" unicode="ċ" /><glyph d="M448 -5Q409 -5 388 20Q367 45 366 92Q334 41 295.5 15.5Q257 -10 210 -10Q124 -10 83 66.5Q42 143 64 260L68 282Q86 383 150 444Q214 505 299 505Q339 505 370.5 490Q402 475 424 446L461 659Q467 692 465.5 699Q464 706 448 708L394 713L398 740H558L454 150Q442 83 443.5 55.5Q445 28 463 28Q481 28 497.5 48Q514 68 526 105L562 83Q540 39 511.5 17Q483 -5 448 -5ZM158 291 149 234Q132 137 152.5 80.5Q173 24 223 24Q263 24 301.5 60.5Q340 97 375 168L415 395Q397 434 370 452.5Q343 471 305 471Q247 471 210 425.5Q173 380 158 291ZM621 526 600 526L637 740H719Q695 681 671.5 629.5Q648 578 621 526Z" glyph-name="dcaron" horiz-adv-x="665" unicode="ď" /><glyph d="M448 -5Q409 -5 388 20Q367 45 366 92Q334 41 295.5 15.5Q257 -10 210 -10Q124 -10 83 66.5Q42 143 64 260L68 282Q86 383 150 444Q214 505 299 505Q339 505 370.5 490Q402 475 424 446L449 588H297L302 620H454L461 659Q467 692 465.5 699Q464 706 448 708L394 713L398 740H558L537 620H614L609 588H531L454 150Q442 83 443.5 55.5Q445 28 463 28Q481 28 497.5 48Q514 68 526 105L562 83Q540 39 511.5 17Q483 -5 448 -5ZM158 291 149 234Q132 137 152.5 80.5Q173 24 223 24Q263 24 301.5 60.5Q340 97 375 168L415 395Q397 434 370 452.5Q343 471 305 471Q247 471 210 425.5Q173 380 158 291Z" glyph-name="dcroat" horiz-adv-x="585" unicode="đ" /><glyph d="M388 123 435 98Q405 45 355 17.5Q305 -10 242 -10Q138 -10 88.5 62.5Q39 135 61 254L65 276Q83 380 151.5 442.5Q220 505 317 505Q387 505 430.5 471Q474 437 474 385Q474 314 400.5 269.5Q327 225 196 216L144 212Q131 119 156.5 70.5Q182 22 245 22Q293 22 332 48.5Q371 75 388 123ZM314 473Q254 473 212.5 425Q171 377 156 289L149 244L195 247Q295 253 347 290Q399 327 399 389Q399 428 376.5 450.5Q354 473 314 473ZM323 579 304 601Q336 636 355.5 667Q375 698 393 740H494Q456 694 415.5 656Q375 618 323 579Z" glyph-name="eacute" horiz-adv-x="502" unicode="é" /><glyph d="M388 123 435 98Q405 45 355 17.5Q305 -10 242 -10Q138 -10 88.5 62.5Q39 135 61 254L65 276Q83 380 151.5 442.5Q220 505 317 505Q387 505 430.5 471Q474 437 474 385Q474 314 400.5 269.5Q327 225 196 216L144 212Q131 119 156.5 70.5Q182 22 245 22Q293 22 332 48.5Q371 75 388 123ZM314 473Q254 473 212.5 425Q171 377 156 289L149 244L195 247Q295 253 347 290Q399 327 399 389Q399 428 376.5 450.5Q354 473 314 473ZM459 598 441 579Q413 604 388.5 628.5Q364 653 344 678Q311 651 279.5 626.5Q248 602 215 579L198 600Q244 642 266.5 668.5Q289 695 320 740H386Q401 695 414.5 668Q428 641 459 598Z" glyph-name="ecircumflex" horiz-adv-x="502" unicode="ê" /><glyph d="M388 123 435 98Q405 45 355 17.5Q305 -10 242 -10Q138 -10 88.5 62.5Q39 135 61 254L65 276Q83 380 151.5 442.5Q220 505 317 505Q387 505 430.5 471Q474 437 474 385Q474 314 400.5 269.5Q327 225 196 216L144 212Q131 119 156.5 70.5Q182 22 245 22Q293 22 332 48.5Q371 75 388 123ZM314 473Q254 473 212.5 425Q171 377 156 289L149 244L195 247Q295 253 347 290Q399 327 399 389Q399 428 376.5 450.5Q354 473 314 473ZM289 669Q289 644 273 627.5Q257 611 232 611Q211 611 198.5 623.5Q186 636 186 656Q186 680 202 696.5Q218 713 243 713Q264 713 276.5 701.5Q289 690 289 669ZM492 669Q492 644 475.5 627.5Q459 611 434 611Q414 611 401 623.5Q388 636 388 656Q388 680 404 696.5Q420 713 445 713Q467 713 479.5 701Q492 689 492 669Z" glyph-name="edieresis" horiz-adv-x="502" unicode="ë" /><glyph d="M388 123 435 98Q405 45 355 17.5Q305 -10 242 -10Q138 -10 88.5 62.5Q39 135 61 254L65 276Q83 380 151.5 442.5Q220 505 317 505Q387 505 430.5 471Q474 437 474 385Q474 314 400.5 269.5Q327 225 196 216L144 212Q131 119 156.5 70.5Q182 22 245 22Q293 22 332 48.5Q371 75 388 123ZM314 473Q254 473 212.5 425Q171 377 156 289L149 244L195 247Q295 253 347 290Q399 327 399 389Q399 428 376.5 450.5Q354 473 314 473ZM348 596 325 579Q287 618 260 656Q233 694 211 740H302Q306 698 315.5 667Q325 636 348 596Z" glyph-name="egrave" horiz-adv-x="502" unicode="è" /><glyph d="M388 123 435 98Q405 45 355 17.5Q305 -10 242 -10Q138 -10 88.5 62.5Q39 135 61 254L65 276Q83 380 151.5 442.5Q220 505 317 505Q387 505 430.5 471Q474 437 474 385Q474 314 400.5 269.5Q327 225 196 216L144 212Q131 119 156.5 70.5Q182 22 245 22Q293 22 332 48.5Q371 75 388 123ZM314 473Q254 473 212.5 425Q171 377 156 289L149 244L195 247Q295 253 347 290Q399 327 399 389Q399 428 376.5 450.5Q354 473 314 473ZM335 643Q382 643 412.5 666.5Q443 690 464 742L493 733Q467 653 428.5 616Q390 579 332 579Q273 579 242.5 617.5Q212 656 209 733L238 742Q244 690 267 666.5Q290 643 335 643Z" glyph-name="ebreve" horiz-adv-x="502" unicode="ĕ" /><glyph d="M388 123 435 98Q405 45 355 17.5Q305 -10 242 -10Q138 -10 88.5 62.5Q39 135 61 254L65 276Q83 380 151.5 442.5Q220 505 317 505Q387 505 430.5 471Q474 437 474 385Q474 314 400.5 269.5Q327 225 196 216L144 212Q131 119 156.5 70.5Q182 22 245 22Q293 22 332 48.5Q371 75 388 123ZM314 473Q254 473 212.5 425Q171 377 156 289L149 244L195 247Q295 253 347 290Q399 327 399 389Q399 428 376.5 450.5Q354 473 314 473ZM463 744 480 723Q435 681 412 655Q389 629 358 584H292Q277 628 263.5 655Q250 682 219 725L237 744Q268 717 292 692.5Q316 668 334 645Q362 669 393.5 693.5Q425 718 463 744Z" glyph-name="ecaron" horiz-adv-x="502" unicode="ě" /><glyph d="M388 123 435 98Q405 45 355 17.5Q305 -10 242 -10Q138 -10 88.5 62.5Q39 135 61 254L65 276Q83 380 151.5 442.5Q220 505 317 505Q387 505 430.5 471Q474 437 474 385Q474 314 400.5 269.5Q327 225 196 216L144 212Q131 119 156.5 70.5Q182 22 245 22Q293 22 332 48.5Q371 75 388 123ZM314 473Q254 473 212.5 425Q171 377 156 289L149 244L195 247Q295 253 347 290Q399 327 399 389Q399 428 376.5 450.5Q354 473 314 473ZM394 669Q394 643 377 625.5Q360 608 333 608Q310 608 297 621Q284 634 284 656Q284 682 301 699Q318 716 344 716Q367 716 380.5 703.5Q394 691 394 669Z" glyph-name="edotaccent" horiz-adv-x="502" unicode="ė" /><glyph d="M388 123 435 98Q405 45 355 17.5Q305 -10 242 -10Q138 -10 88.5 62.5Q39 135 61 254L65 276Q83 380 151.5 442.5Q220 505 317 505Q387 505 430.5 471Q474 437 474 385Q474 314 400.5 269.5Q327 225 196 216L144 212Q131 119 156.5 70.5Q182 22 245 22Q293 22 332 48.5Q371 75 388 123ZM314 473Q254 473 212.5 425Q171 377 156 289L149 244L195 247Q295 253 347 290Q399 327 399 389Q399 428 376.5 450.5Q354 473 314 473ZM196 666 483 666L475 619H188Z" glyph-name="emacron" horiz-adv-x="502" unicode="ē" /><glyph d="M343 -112 393 -125Q371 -174 337.5 -198.5Q304 -223 259 -223Q211 -223 183 -200.5Q155 -178 155 -138Q155 -103 177.5 -75Q200 -47 271 -8Q257 -9 252 -9.5Q247 -10 242 -10Q138 -10 88.5 62.5Q39 135 61 254L65 276Q83 380 151.5 442.5Q220 505 317 505Q387 505 430.5 471Q474 437 474 385Q474 314 400.5 269.5Q327 225 196 216L144 212Q131 119 156.5 70.5Q182 22 245 22Q294 22 332.5 48.5Q371 75 388 123L435 98Q421 73 398.5 51Q376 29 323 -7Q258 -51 238.5 -79Q219 -107 219 -141Q219 -167 229 -180Q239 -193 260 -193Q287 -193 307.5 -173Q328 -153 343 -112ZM314 473Q254 473 212.5 425Q171 377 156 289L149 244L195 247Q295 253 347 290Q399 327 399 389Q399 428 376.5 450.5Q354 473 314 473Z" glyph-name="eogonek" horiz-adv-x="502" unicode="ę" /><glyph d="M514 495 428 9Q408 -101 342.5 -162Q277 -223 175 -223Q100 -223 60.5 -182.5Q21 -142 26 -72L83 -60Q76 -126 99 -159.5Q122 -193 175 -193Q244 -193 285.5 -146Q327 -99 345 -1L359 75Q329 32 291.5 11Q254 -10 210 -10Q124 -10 83 66.5Q42 143 64 260L68 282Q86 383 150 444Q214 505 299 505Q340 505 372.5 489Q405 473 427 442Q441 454 454 467.5Q467 481 479 495ZM158 291 149 234Q132 137 152.5 80.5Q173 24 223 24Q264 24 302 58.5Q340 93 374 160L415 394Q398 433 370.5 452Q343 471 305 471Q247 471 210 425.5Q173 380 158 291ZM336 643Q383 643 413.5 666.5Q444 690 465 742L494 733Q468 653 429.5 616Q391 579 333 579Q274 579 243.5 617.5Q213 656 210 733L239 742Q245 690 268 666.5Q291 643 336 643Z" glyph-name="gbreve" horiz-adv-x="564" unicode="ğ" /><glyph d="M514 495 428 9Q408 -101 342.5 -162Q277 -223 175 -223Q100 -223 60.5 -182.5Q21 -142 26 -72L83 -60Q76 -126 99 -159.5Q122 -193 175 -193Q244 -193 285.5 -146Q327 -99 345 -1L359 75Q329 32 291.5 11Q254 -10 210 -10Q124 -10 83 66.5Q42 143 64 260L68 282Q86 383 150 444Q214 505 299 505Q340 505 372.5 489Q405 473 427 442Q441 454 454 467.5Q467 481 479 495ZM158 291 149 234Q132 137 152.5 80.5Q173 24 223 24Q264 24 302 58.5Q340 93 374 160L415 394Q398 433 370.5 452Q343 471 305 471Q247 471 210 425.5Q173 380 158 291ZM459 598 441 579Q413 604 388.5 628.5Q364 653 344 678Q311 651 279.5 626.5Q248 602 215 579L198 600Q244 642 266.5 668.5Q289 695 320 740H386Q401 695 414.5 668Q428 641 459 598Z" glyph-name="gcircumflex" horiz-adv-x="564" unicode="ĝ" /><glyph d="M514 495 428 9Q408 -101 342.5 -162Q277 -223 175 -223Q100 -223 60.5 -182.5Q21 -142 26 -72L83 -60Q76 -126 99 -159.5Q122 -193 175 -193Q244 -193 285.5 -146Q327 -99 345 -1L359 75Q329 32 291.5 11Q254 -10 210 -10Q124 -10 83 66.5Q42 143 64 260L68 282Q86 383 150 444Q214 505 299 505Q340 505 372.5 489Q405 473 427 442Q441 454 454 467.5Q467 481 479 495ZM158 291 149 234Q132 137 152.5 80.5Q173 24 223 24Q264 24 302 58.5Q340 93 374 160L415 394Q398 433 370.5 452Q343 471 305 471Q247 471 210 425.5Q173 380 158 291ZM412 749 431 733Q407 697 393 662.5Q379 628 369 584H280Q305 632 335.5 670Q366 708 412 749Z" glyph-name="gcommaaccent" horiz-adv-x="564" unicode="ģ" /><glyph d="M514 495 428 9Q408 -101 342.5 -162Q277 -223 175 -223Q100 -223 60.5 -182.5Q21 -142 26 -72L83 -60Q76 -126 99 -159.5Q122 -193 175 -193Q244 -193 285.5 -146Q327 -99 345 -1L359 75Q329 32 291.5 11Q254 -10 210 -10Q124 -10 83 66.5Q42 143 64 260L68 282Q86 383 150 444Q214 505 299 505Q340 505 372.5 489Q405 473 427 442Q441 454 454 467.5Q467 481 479 495ZM158 291 149 234Q132 137 152.5 80.5Q173 24 223 24Q264 24 302 58.5Q340 93 374 160L415 394Q398 433 370.5 452Q343 471 305 471Q247 471 210 425.5Q173 380 158 291ZM394 669Q394 643 377 625.5Q360 608 333 608Q310 608 297 621Q284 634 284 656Q284 682 301 699Q318 716 344 716Q367 716 380.5 703.5Q394 691 394 669Z" glyph-name="gdotaccent" horiz-adv-x="564" unicode="ġ" /><glyph d="M553 105 588 83Q566 39 537.5 17Q509 -5 472 -5Q423 -5 403 29Q383 63 396 127L435 323Q450 393 435 430Q420 467 378 467Q331 467 284 428.5Q237 390 195 316L139 0H57L161 588H83L89 620H166L173 659Q179 692 177.5 699Q176 706 160 708L105 713L110 740H269L248 620H401L395 588H242L208 393Q249 449 296.5 477Q344 505 396 505Q469 505 502 455.5Q535 406 518 324L477 124Q465 67 468 47.5Q471 28 488 28Q507 28 524 48Q541 68 553 105Z" glyph-name="hbar" horiz-adv-x="611" unicode="ħ" /><glyph d="M553 105 588 83Q566 39 537.5 17Q509 -5 472 -5Q423 -5 403 29Q383 63 396 127L435 323Q450 393 435 430Q420 467 378 467Q331 467 284 428.5Q237 390 195 316L139 0H57L173 659Q179 692 177.5 699Q176 706 160 708L105 713L110 740H269L208 393Q249 449 296.5 477Q344 505 396 505Q469 505 502 455.5Q535 406 518 324L477 124Q465 67 468 47.5Q471 28 488 28Q507 28 524 48Q541 68 553 105ZM470 820 452 801Q424 826 399.5 850.5Q375 875 355 900Q322 873 290.5 848.5Q259 824 226 801L209 822Q255 864 277.5 890.5Q300 917 331 962H397Q412 917 425.5 890Q439 863 470 820Z" glyph-name="hcircumflex" horiz-adv-x="611" unicode="ĥ" /><glyph d="M120 463 66 468L71 495H230L170 150Q158 83 159.5 55.5Q161 28 179 28Q197 28 213.5 48Q230 68 242 105L278 83Q257 40 228 17.5Q199 -5 164 -5Q115 -5 94.5 33Q74 71 86 142L134 414Q140 445 138 453Q136 461 120 463ZM183 579 164 601Q196 636 215.5 667Q235 698 253 740H354Q316 694 275.5 656Q235 618 183 579Z" glyph-name="iacute" horiz-adv-x="300" unicode="í" /><glyph d="M120 463 66 468L71 495H230L170 150Q158 83 159.5 55.5Q161 28 179 28Q197 28 213.5 48Q230 68 242 105L278 83Q257 40 228 17.5Q199 -5 164 -5Q115 -5 94.5 33Q74 71 86 142L134 414Q140 445 138 453Q136 461 120 463ZM318 598 300 579Q272 604 247.5 628.5Q223 653 203 678Q170 651 138.5 626.5Q107 602 74 579L57 600Q103 642 125.5 668.5Q148 695 179 740H245Q260 695 273.5 668Q287 641 318 598Z" glyph-name="icircumflex" horiz-adv-x="300" unicode="î" /><glyph d="M120 463 66 468L71 495H230L170 150Q158 83 159.5 55.5Q161 28 179 28Q197 28 213.5 48Q230 68 242 105L278 83Q257 40 228 17.5Q199 -5 164 -5Q115 -5 94.5 33Q74 71 86 142L134 414Q140 445 138 453Q136 461 120 463ZM149 669Q149 644 133 627.5Q117 611 92 611Q71 611 58.5 623.5Q46 636 46 656Q46 680 62 696.5Q78 713 103 713Q124 713 136.5 701.5Q149 690 149 669ZM352 669Q352 644 335.5 627.5Q319 611 294 611Q274 611 261 623.5Q248 636 248 656Q248 680 264 696.5Q280 713 305 713Q327 713 339.5 701Q352 689 352 669Z" glyph-name="idieresis" horiz-adv-x="300" unicode="ï" /><glyph d="M120 463 66 468L71 495H230L170 150Q158 83 159.5 55.5Q161 28 179 28Q197 28 213.5 48Q230 68 242 105L278 83Q257 40 228 17.5Q199 -5 164 -5Q115 -5 94.5 33Q74 71 86 142L134 414Q140 445 138 453Q136 461 120 463ZM208 596 185 579Q147 618 120 656Q93 694 71 740H162Q166 698 175.5 667Q185 636 208 596Z" glyph-name="igrave" horiz-adv-x="300" unicode="ì" /><glyph d="M120 463 66 468L71 495H230L170 150Q158 83 159.5 55.5Q161 28 179 28Q197 28 213.5 48Q230 68 242 105L278 83Q257 40 228 17.5Q199 -5 164 -5Q115 -5 94.5 33Q74 71 86 142L134 414Q140 445 138 453Q136 461 120 463ZM195 643Q242 643 272.5 666.5Q303 690 324 742L353 733Q327 653 288.5 616Q250 579 192 579Q133 579 102.5 617.5Q72 656 69 733L98 742Q104 690 127 666.5Q150 643 195 643Z" glyph-name="ibreve" horiz-adv-x="300" unicode="ĭ" /><glyph d="M273 669Q273 643 256 625.5Q239 608 212 608Q189 608 176 620.5Q163 633 163 656Q163 682 180 699Q197 716 223 716Q246 716 259.5 703.5Q273 691 273 669ZM120 463 66 468L71 495H230L170 150Q158 83 159.5 55.5Q161 28 179 28Q197 28 213.5 48Q230 68 242 105L278 83Q257 40 228 17.5Q199 -5 164 -5Q115 -5 94.5 33Q74 71 86 142L133 414Q139 447 137.5 454Q136 461 120 463Z" glyph-name="i.dot" horiz-adv-x="300" unicode="" /><glyph d="M120 463 66 468L71 495H230L170 150Q158 83 159.5 55.5Q161 28 179 28Q197 28 213.5 48Q230 68 242 105L278 83Q257 40 228 17.5Q199 -5 164 -5Q115 -5 94.5 33Q74 71 86 142L134 414Q140 445 138 453Q136 461 120 463ZM56 666 343 666L335 619H48Z" glyph-name="imacron" horiz-adv-x="300" unicode="ī" /><glyph d="M266 669Q266 643 249 625.5Q232 608 205 608Q182 608 168.5 621Q155 634 155 656Q155 681 172.5 698.5Q190 716 216 716Q239 716 252.5 703.5Q266 691 266 669ZM113 463 59 468L64 495H223L162 150Q150 83 152 55.5Q154 28 172 28Q189 28 206 48.5Q223 69 235 105L270 83Q258 56 237 34Q216 12 168 -20Q113 -56 96.5 -82Q80 -108 80 -143Q80 -168 90.5 -180.5Q101 -193 122 -193Q149 -193 169.5 -172.5Q190 -152 205 -112L255 -125Q232 -174 198.5 -198.5Q165 -223 118 -223Q72 -223 44 -201Q16 -179 16 -142Q16 -105 41 -74.5Q66 -44 142 -3Q100 2 84 39.5Q68 77 79 142L126 414Q132 447 130.5 454Q129 461 113 463Z" glyph-name="iogonek" horiz-adv-x="293" unicode="į" /><glyph d="M120 463 66 468L71 495H230L170 150Q158 83 159.5 55.5Q161 28 179 28Q197 28 213.5 48Q230 68 242 105L278 83Q257 40 228 17.5Q199 -5 164 -5Q115 -5 94.5 33Q74 71 86 142L134 414Q140 445 138 453Q136 461 120 463ZM262 589Q242 589 224.5 599Q207 609 181 640Q160 664 149 671Q138 678 127 678Q108 678 93.5 658Q79 638 70 600H39Q52 669 77 704Q102 739 138 739Q158 739 175.5 729Q193 719 219 688Q239 664 249.5 657Q260 650 271 650Q289 650 303.5 670Q318 690 327 728H359Q346 659 321.5 624Q297 589 262 589Z" glyph-name="itilde" horiz-adv-x="300" unicode="ĩ" /><glyph d="M122 463 68 468L72 495H231L135 -52Q120 -135 75 -179Q30 -223 -41 -223Q-96 -223 -126 -192Q-156 -161 -152 -107L-95 -91Q-98 -141 -85.5 -166Q-73 -191 -44 -191Q-4 -191 18 -160.5Q40 -130 52 -60L135 414Q141 447 139.5 454Q138 461 122 463ZM322 598 304 579Q276 604 251.5 628.5Q227 653 207 678Q174 651 142.5 626.5Q111 602 78 579L61 600Q107 642 129.5 668.5Q152 695 183 740H249Q264 695 277.5 668Q291 641 322 598Z" glyph-name="jcircumflex" horiz-adv-x="284" unicode="ĵ" /><glyph d="M273 669Q273 643 256 625.5Q239 608 212 608Q189 608 176 620.5Q163 633 163 656Q163 682 180 699Q197 716 223 716Q246 716 259.5 703.5Q273 691 273 669ZM120 463 66 468L71 495H230L170 150Q158 83 159.5 55.5Q161 28 179 28Q197 28 213.5 48Q230 68 242 105L278 83Q257 40 228 17.5Q199 -5 164 -5Q115 -5 94.5 33Q74 71 86 142L133 414Q139 447 137.5 454Q136 461 120 463ZM574 666Q572 641 554 624.5Q536 608 511 608Q488 608 475 622Q462 636 464 659Q466 684 483.5 700Q501 716 526 716Q550 716 563 702.5Q576 689 574 666ZM421 463 367 468L371 495H530L434 -52Q419 -135 374 -179Q329 -223 258 -223Q203 -223 173 -192Q143 -161 147 -107L204 -91Q201 -141 213.5 -166Q226 -191 255 -191Q295 -191 317 -160.5Q339 -130 351 -60L434 414Q440 447 438.5 454Q437 461 421 463Z" glyph-name="ij" horiz-adv-x="588" unicode="ĳ" /><glyph d="M501 0 357 0L245 260L164 188L131 0H50L166 659Q172 692 170.5 699Q169 706 153 708L99 713L103 740H262L174 241L294 353Q385 436 423.5 462.5Q462 489 507 505L523 420Q460 407 406.5 381.5Q353 356 307 316L415 75Q427 48 433 41Q439 34 455 32L506 26ZM156 -242 138 -226Q162 -190 176 -155.5Q190 -121 200 -77H288Q263 -125 232.5 -163Q202 -201 156 -242Z" glyph-name="kcommaaccent" horiz-adv-x="521" unicode="ķ" /><glyph d="M514 0 370 0L258 260L177 187L143 0H63L136 414Q142 447 140 454Q138 461 122 463L69 468L73 495H232L186 241L307 353Q394 434 433.5 461Q473 488 520 505L535 420Q472 407 418.5 381.5Q365 356 319 316L427 75Q440 46 445.5 40Q451 34 468 32L518 26Z" glyph-name="kgreenlandic" horiz-adv-x="533" unicode="ĸ" /><glyph d="M153 708 99 713L103 740H262L159 150Q147 83 149 55.5Q151 28 169 28Q186 28 203 48.5Q220 69 232 105L267 83Q245 39 217 17Q189 -5 154 -5Q104 -5 84 33Q64 71 76 142L166 659Q172 692 170.5 699Q169 706 153 708ZM225 801 206 823Q238 858 257.5 889Q277 920 295 962H396Q358 916 317.5 878Q277 840 225 801Z" glyph-name="lacute" horiz-adv-x="291" unicode="ĺ" /><glyph d="M153 708 99 713L103 740H262L159 150Q147 83 149 55.5Q151 28 169 28Q186 28 203 48.5Q220 69 232 105L267 83Q245 39 217 17Q189 -5 154 -5Q104 -5 84 33Q64 71 76 142L166 659Q172 692 170.5 699Q169 706 153 708ZM320 526 299 526L336 740H418Q394 681 370.5 629.5Q347 578 320 526Z" glyph-name="lcaron" horiz-adv-x="364" unicode="ľ" /><glyph d="M153 708 99 713L103 740H262L159 150Q147 83 149 55.5Q151 28 169 28Q186 28 203 48.5Q220 69 232 105L267 83Q245 39 217 17Q189 -5 154 -5Q104 -5 84 33Q64 71 76 142L166 659Q172 692 170.5 699Q169 706 153 708ZM30 -242 12 -226Q36 -190 50 -155.5Q64 -121 74 -77H162Q137 -125 106.5 -163Q76 -201 30 -242Z" glyph-name="lcommaaccent" horiz-adv-x="293" unicode="ļ" /><glyph d="M153 708 99 713L103 740H262L159 150Q147 83 149 55.5Q151 28 169 28Q186 28 203 48.5Q220 69 232 105L267 83Q245 39 217 17Q189 -5 154 -5Q104 -5 84 33Q64 71 76 142L166 659Q172 692 170.5 699Q169 706 153 708ZM369 391Q369 365 352 347.5Q335 330 308 330Q285 330 272 343Q259 356 259 378Q259 404 276 421Q293 438 319 438Q342 438 355.5 425.5Q369 413 369 391Z" glyph-name="ldot" horiz-adv-x="309" unicode="ŀ" /><glyph d="M558 105 594 83Q572 39 543.5 17Q515 -5 478 -5Q429 -5 408.5 29Q388 63 401 127L441 323Q455 394 440 430.5Q425 467 383 467Q336 467 289.5 428.5Q243 390 200 316L145 0H63L135 414Q141 447 139.5 454Q138 461 122 463L68 468L73 495H229L211 389Q252 447 300 476Q348 505 401 505Q474 505 507 456Q540 407 523 324L482 124Q471 68 473.5 48Q476 28 493 28Q512 28 529 48Q546 68 558 105ZM451 589Q431 589 413.5 599Q396 609 370 640Q349 664 338 671Q327 678 316 678Q297 678 282.5 658Q268 638 259 600H228Q241 669 266 704Q291 739 327 739Q347 739 364.5 729Q382 719 408 688Q428 664 438.5 657Q449 650 460 650Q478 650 492.5 670Q507 690 516 728H548Q535 659 510.5 624Q486 589 451 589Z" glyph-name="ntilde" horiz-adv-x="617" unicode="ñ" /><glyph d="M558 105 594 83Q572 39 543.5 17Q515 -5 478 -5Q429 -5 408.5 29Q388 63 401 127L441 323Q455 394 440 430.5Q425 467 383 467Q336 467 289.5 428.5Q243 390 200 316L145 0H63L135 414Q141 447 139.5 454Q138 461 122 463L68 468L73 495H229L211 389Q252 447 300 476Q348 505 401 505Q474 505 507 456Q540 407 523 324L482 124Q471 68 473.5 48Q476 28 493 28Q512 28 529 48Q546 68 558 105ZM372 579 353 601Q385 636 404.5 667Q424 698 442 740H543Q505 694 464.5 656Q424 618 372 579Z" glyph-name="nacute" horiz-adv-x="617" unicode="ń" /><glyph d="M558 105 594 83Q572 39 543.5 17Q515 -5 478 -5Q429 -5 408.5 29Q388 63 401 127L441 323Q455 394 440 430.5Q425 467 383 467Q336 467 289.5 428.5Q243 390 200 316L145 0H63L135 414Q141 447 139.5 454Q138 461 122 463L68 468L73 495H229L211 389Q252 447 300 476Q348 505 401 505Q474 505 507 456Q540 407 523 324L482 124Q471 68 473.5 48Q476 28 493 28Q512 28 529 48Q546 68 558 105ZM512 744 529 723Q484 681 461 655Q438 629 407 584H341Q326 628 312.5 655Q299 682 268 725L286 744Q317 717 341 692.5Q365 668 383 645Q411 669 442.5 693.5Q474 718 512 744Z" glyph-name="ncaron" horiz-adv-x="617" unicode="ň" /><glyph d="M558 105 594 83Q572 39 543.5 17Q515 -5 478 -5Q429 -5 408.5 29Q388 63 401 127L441 323Q455 394 440 430.5Q425 467 383 467Q336 467 289.5 428.5Q243 390 200 316L145 0H63L135 414Q141 447 139.5 454Q138 461 122 463L68 468L73 495H229L211 389Q252 447 300 476Q348 505 401 505Q474 505 507 456Q540 407 523 324L482 124Q471 68 473.5 48Q476 28 493 28Q512 28 529 48Q546 68 558 105ZM177 -242 159 -226Q183 -190 197 -155.5Q211 -121 221 -77H309Q284 -125 253.5 -163Q223 -201 177 -242Z" glyph-name="ncommaaccent" horiz-adv-x="617" unicode="ņ" /><glyph d="M520 324 453 -52Q438 -135 393 -179Q348 -223 277 -223Q218 -223 188 -192.5Q158 -162 165 -107L222 -91Q217 -141 229.5 -166Q242 -191 274 -191Q313 -191 335.5 -160.5Q358 -130 370 -60L438 323Q450 395 435.5 431Q421 467 380 467Q333 467 286.5 428.5Q240 390 197 316L141 0H59L132 414Q138 447 136.5 454Q135 461 119 463L65 468L70 495H226L207 387Q248 446 296 475.5Q344 505 398 505Q470 505 502.5 456.5Q535 408 520 324Z" glyph-name="eng" horiz-adv-x="596" unicode="ŋ" /><glyph d="M657 105 693 83Q671 39 642.5 17Q614 -5 577 -5Q528 -5 507.5 29Q487 63 500 127L540 323Q554 394 539 430.5Q524 467 482 467Q435 467 388.5 428.5Q342 390 299 316L244 0H162L234 414Q240 447 238.5 454Q237 461 221 463L167 468L172 495H328L310 389Q351 447 399 476Q447 505 500 505Q573 505 606 456Q639 407 622 324L581 124Q570 68 572.5 48Q575 28 592 28Q611 28 628 48Q645 68 657 105ZM105 690Q127 690 140.5 675Q154 660 154 635Q154 594 121.5 542Q89 490 27 431L8 451Q44 488 65 521Q86 554 94 585Q73 586 61.5 598Q50 610 50 631Q50 657 65.5 673.5Q81 690 105 690Z" glyph-name="napostrophe" horiz-adv-x="717" unicode="ŉ" /><glyph d="M310 505Q411 505 462 430.5Q513 356 492 242L488 220Q468 110 404 50Q340 -10 241 -10Q140 -10 90.5 64Q41 138 61 252L65 275Q85 385 148.5 445Q212 505 310 505ZM395 207 406 268Q423 367 397.5 420.5Q372 474 308 474Q249 474 211 427.5Q173 381 157 288L147 227Q130 128 155 74Q180 20 244 20Q303 20 341 67Q379 114 395 207ZM330 579 311 601Q343 636 362.5 667Q382 698 400 740H501Q463 694 422.5 656Q382 618 330 579Z" glyph-name="oacute" horiz-adv-x="554" unicode="ó" /><glyph d="M310 505Q411 505 462 430.5Q513 356 492 242L488 220Q468 110 404 50Q340 -10 241 -10Q140 -10 90.5 64Q41 138 61 252L65 275Q85 385 148.5 445Q212 505 310 505ZM395 207 406 268Q423 367 397.5 420.5Q372 474 308 474Q249 474 211 427.5Q173 381 157 288L147 227Q130 128 155 74Q180 20 244 20Q303 20 341 67Q379 114 395 207ZM465 598 447 579Q419 604 394.5 628.5Q370 653 350 678Q317 651 285.5 626.5Q254 602 221 579L204 600Q250 642 272.5 668.5Q295 695 326 740H392Q407 695 420.5 668Q434 641 465 598Z" glyph-name="ocircumflex" horiz-adv-x="554" unicode="ô" /><glyph d="M310 505Q411 505 462 430.5Q513 356 492 242L488 220Q468 110 404 50Q340 -10 241 -10Q140 -10 90.5 64Q41 138 61 252L65 275Q85 385 148.5 445Q212 505 310 505ZM395 207 406 268Q423 367 397.5 420.5Q372 474 308 474Q249 474 211 427.5Q173 381 157 288L147 227Q130 128 155 74Q180 20 244 20Q303 20 341 67Q379 114 395 207ZM296 669Q296 644 280 627.5Q264 611 239 611Q218 611 205.5 623.5Q193 636 193 656Q193 680 209 696.5Q225 713 250 713Q271 713 283.5 701.5Q296 690 296 669ZM499 669Q499 644 482.5 627.5Q466 611 441 611Q421 611 408 623.5Q395 636 395 656Q395 680 411 696.5Q427 713 452 713Q474 713 486.5 701Q499 689 499 669Z" glyph-name="odieresis" horiz-adv-x="554" unicode="ö" /><glyph d="M310 505Q411 505 462 430.5Q513 356 492 242L488 220Q468 110 404 50Q340 -10 241 -10Q140 -10 90.5 64Q41 138 61 252L65 275Q85 385 148.5 445Q212 505 310 505ZM395 207 406 268Q423 367 397.5 420.5Q372 474 308 474Q249 474 211 427.5Q173 381 157 288L147 227Q130 128 155 74Q180 20 244 20Q303 20 341 67Q379 114 395 207ZM355 596 332 579Q294 618 267 656Q240 694 218 740H309Q313 698 322.5 667Q332 636 355 596Z" glyph-name="ograve" horiz-adv-x="554" unicode="ò" /><glyph d="M310 505Q411 505 462 430.5Q513 356 492 242L488 220Q468 110 404 50Q340 -10 241 -10Q140 -10 90.5 64Q41 138 61 252L65 275Q85 385 148.5 445Q212 505 310 505ZM395 207 406 268Q423 367 397.5 420.5Q372 474 308 474Q249 474 211 427.5Q173 381 157 288L147 227Q130 128 155 74Q180 20 244 20Q303 20 341 67Q379 114 395 207ZM409 589Q389 589 371.5 599Q354 609 328 640Q307 664 296 671Q285 678 274 678Q255 678 240.5 658Q226 638 217 600H186Q199 669 224 704Q249 739 285 739Q305 739 322.5 729Q340 719 366 688Q386 664 396.5 657Q407 650 418 650Q436 650 450.5 670Q465 690 474 728H506Q493 659 468.5 624Q444 589 409 589Z" glyph-name="otilde" horiz-adv-x="554" unicode="õ" /><glyph d="M310 505Q411 505 462 430.5Q513 356 492 242L488 220Q468 110 404 50Q340 -10 241 -10Q140 -10 90.5 64Q41 138 61 252L65 275Q85 385 148.5 445Q212 505 310 505ZM395 207 406 268Q423 367 397.5 420.5Q372 474 308 474Q249 474 211 427.5Q173 381 157 288L147 227Q130 128 155 74Q180 20 244 20Q303 20 341 67Q379 114 395 207ZM342 643Q389 643 419.5 666.5Q450 690 471 742L500 733Q474 653 435.5 616Q397 579 339 579Q280 579 249.5 617.5Q219 656 216 733L245 742Q251 690 274 666.5Q297 643 342 643Z" glyph-name="obreve" horiz-adv-x="554" unicode="ŏ" /><glyph d="M310 505Q411 505 462 430.5Q513 356 492 242L488 220Q468 110 404 50Q340 -10 241 -10Q140 -10 90.5 64Q41 138 61 252L65 275Q85 385 148.5 445Q212 505 310 505ZM395 207 406 268Q423 367 397.5 420.5Q372 474 308 474Q249 474 211 427.5Q173 381 157 288L147 227Q130 128 155 74Q180 20 244 20Q303 20 341 67Q379 114 395 207ZM259 579 240 596Q262 626 279.5 659.5Q297 693 314 740H405Q374 697 337 656Q300 615 259 579ZM399 579 380 596Q402 625 419.5 658.5Q437 692 455 740H546Q514 696 477 655.5Q440 615 399 579Z" glyph-name="ohungarumlaut" horiz-adv-x="554" unicode="ő" /><glyph d="M310 505Q411 505 462 430.5Q513 356 492 242L488 220Q468 110 404 50Q340 -10 241 -10Q140 -10 90.5 64Q41 138 61 252L65 275Q85 385 148.5 445Q212 505 310 505ZM395 207 406 268Q423 367 397.5 420.5Q372 474 308 474Q249 474 211 427.5Q173 381 157 288L147 227Q130 128 155 74Q180 20 244 20Q303 20 341 67Q379 114 395 207ZM203 666 490 666L482 619H195Z" glyph-name="omacron" horiz-adv-x="554" unicode="ō" /><glyph d="M332 450Q299 450 266.5 417Q234 384 201 316L145 0H63L136 414Q142 447 140.5 454Q139 461 123 463L68 468L73 495H230L212 391Q248 447 288.5 476Q329 505 372 505Q407 505 430.5 485Q454 465 464 428L394 381Q386 417 371 433.5Q356 450 332 450ZM307 579 288 601Q320 636 339.5 667Q359 698 377 740H478Q440 694 399.5 656Q359 618 307 579Z" glyph-name="racute" horiz-adv-x="428" unicode="ŕ" /><glyph d="M332 450Q299 450 266.5 417Q234 384 201 316L145 0H63L136 414Q142 447 140.5 454Q139 461 123 463L68 468L73 495H230L212 391Q248 447 288.5 476Q329 505 372 505Q407 505 430.5 485Q454 465 464 428L394 381Q386 417 371 433.5Q356 450 332 450ZM449 744 466 723Q421 681 398 655Q375 629 344 584H278Q263 628 249.5 655Q236 682 205 725L223 744Q254 717 278 692.5Q302 668 320 645Q348 669 379.5 693.5Q411 718 449 744Z" glyph-name="rcaron" horiz-adv-x="428" unicode="ř" /><glyph d="M332 450Q299 450 266.5 417Q234 384 201 316L145 0H63L136 414Q142 447 140.5 454Q139 461 123 463L68 468L73 495H230L212 391Q248 447 288.5 476Q329 505 372 505Q407 505 430.5 485Q454 465 464 428L394 381Q386 417 371 433.5Q356 450 332 450ZM4 -242 -14 -226Q10 -190 24 -155.5Q38 -121 48 -77H136Q111 -125 80.5 -163Q50 -201 4 -242Z" glyph-name="rcommaaccent" horiz-adv-x="428" unicode="ŗ" /><glyph d="M390 141Q390 73 337.5 31.5Q285 -10 193 -10Q115 -10 71 22Q27 54 23 114L81 134Q80 77 107.5 49Q135 21 192 21Q250 21 284.5 46.5Q319 72 319 115Q319 147 298 169Q277 191 232 205L174 224Q126 239 99.5 272Q73 305 73 351Q73 419 122 462Q171 505 256 505Q346 505 389 458.5Q432 412 409 346L327 330Q351 398 331 435.5Q311 473 251 473Q203 473 174 448.5Q145 424 145 382Q145 349 163 327.5Q181 306 219 295L277 276Q332 258 361 223.5Q390 189 390 141ZM411 744 428 723Q383 681 360 655Q337 629 306 584H240Q225 628 211.5 655Q198 682 167 725L185 744Q216 717 240 692.5Q264 668 282 645Q310 669 341.5 693.5Q373 718 411 744Z" glyph-name="scaron" horiz-adv-x="458" unicode="š" /><glyph d="M390 141Q390 73 337.5 31.5Q285 -10 193 -10Q115 -10 71 22Q27 54 23 114L81 134Q80 77 107.5 49Q135 21 192 21Q250 21 284.5 46.5Q319 72 319 115Q319 147 298 169Q277 191 232 205L174 224Q126 239 99.5 272Q73 305 73 351Q73 419 122 462Q171 505 256 505Q346 505 389 458.5Q432 412 409 346L327 330Q351 398 331 435.5Q311 473 251 473Q203 473 174 448.5Q145 424 145 382Q145 349 163 327.5Q181 306 219 295L277 276Q332 258 361 223.5Q390 189 390 141ZM271 579 252 601Q284 636 303.5 667Q323 698 341 740H442Q404 694 363.5 656Q323 618 271 579Z" glyph-name="sacute" horiz-adv-x="458" unicode="ś" /><glyph d="M274 -133Q274 -172 240.5 -197.5Q207 -223 155 -223Q109 -223 82 -202.5Q55 -182 54 -145L105 -131Q103 -164 113.5 -179.5Q124 -195 150 -195Q176 -195 192.5 -177Q209 -159 209 -131Q209 -107 197.5 -96.5Q186 -86 160 -86Q159 -86 153 -87Q147 -88 136 -89L131 -63L163 -9Q98 -3 62 28.5Q26 60 23 114L81 134Q80 77 107.5 49Q135 21 192 21Q250 21 284.5 46.5Q319 72 319 115Q319 147 298 169Q277 191 232 205L174 224Q126 239 99.5 272Q73 305 73 351Q73 419 122 462Q171 505 256 505Q346 505 389 458.5Q432 412 409 346L327 330Q351 398 331 435.5Q311 473 251 473Q203 473 174 448.5Q145 424 145 382Q145 349 163 327.5Q181 306 219 295L277 276Q332 258 361 223.5Q390 189 390 141Q390 74 338 32Q286 -10 197 -10L169 -58Q217 -58 245.5 -78.5Q274 -99 274 -133Z" glyph-name="scedilla" horiz-adv-x="458" unicode="ş" /><glyph d="M390 141Q390 73 337.5 31.5Q285 -10 193 -10Q115 -10 71 22Q27 54 23 114L81 134Q80 77 107.5 49Q135 21 192 21Q250 21 284.5 46.5Q319 72 319 115Q319 147 298 169Q277 191 232 205L174 224Q126 239 99.5 272Q73 305 73 351Q73 419 122 462Q171 505 256 505Q346 505 389 458.5Q432 412 409 346L327 330Q351 398 331 435.5Q311 473 251 473Q203 473 174 448.5Q145 424 145 382Q145 349 163 327.5Q181 306 219 295L277 276Q332 258 361 223.5Q390 189 390 141ZM406 598 388 579Q360 604 335.5 628.5Q311 653 291 678Q258 651 226.5 626.5Q195 602 162 579L145 600Q191 642 213.5 668.5Q236 695 267 740H333Q348 695 361.5 668Q375 641 406 598Z" glyph-name="scircumflex" horiz-adv-x="458" unicode="ŝ" /><glyph d="M390 141Q390 73 337.5 31.5Q285 -10 193 -10Q115 -10 71 22Q27 54 23 114L81 134Q80 77 107.5 49Q135 21 192 21Q250 21 284.5 46.5Q319 72 319 115Q319 147 298 169Q277 191 232 205L174 224Q126 239 99.5 272Q73 305 73 351Q73 419 122 462Q171 505 256 505Q346 505 389 458.5Q432 412 409 346L327 330Q351 398 331 435.5Q311 473 251 473Q203 473 174 448.5Q145 424 145 382Q145 349 163 327.5Q181 306 219 295L277 276Q332 258 361 223.5Q390 189 390 141ZM90 -242 72 -226Q96 -190 110 -155.5Q124 -121 134 -77H222Q197 -125 166.5 -163Q136 -201 90 -242Z" glyph-name="uni0219" horiz-adv-x="458" unicode="ș" /><glyph d="M292 121 341 102Q317 45 283 17.5Q249 -10 203 -10Q133 -10 103 35.5Q73 81 88 165L107 274H30L35 306H112L131 415Q137 447 135 454Q133 461 117 463L63 468L68 495H145L168 626L253 643L227 495H390L384 463H221L193 306H328L323 274H188L165 145Q154 83 164 52.5Q174 22 206 22Q235 22 255 45.5Q275 69 292 121Z" glyph-name="tbar" horiz-adv-x="370" unicode="ŧ" /><glyph d="M285 121 334 102Q310 45 276 17.5Q242 -10 196 -10Q126 -10 96 35.5Q66 81 81 165L124 415Q130 447 128 454Q126 461 110 463L56 468L61 495H138L161 626L246 643L220 495H383L377 463H214L158 145Q147 83 157 52.5Q167 22 199 22Q228 22 248 45.5Q268 69 285 121ZM321 556 300 556L337 770H419Q395 711 371.5 659.5Q348 608 321 556Z" glyph-name="tcaron" horiz-adv-x="362" unicode="ť" /><glyph d="M285 121 334 102Q310 45 276 17.5Q242 -10 196 -10Q126 -10 96 35.5Q66 81 81 165L124 415Q130 447 128 454Q126 461 110 463L56 468L61 495H138L161 626L246 643L220 495H383L377 463H214L158 145Q147 83 157 52.5Q167 22 199 22Q228 22 248 45.5Q268 69 285 121ZM80 -242 62 -226Q86 -190 100 -155.5Q114 -121 124 -77H212Q187 -125 156.5 -163Q126 -201 80 -242Z" glyph-name="uni0163" horiz-adv-x="362" unicode="ţ" /><glyph d="M285 121 334 102Q310 45 276 17.5Q242 -10 196 -10Q126 -10 96 35.5Q66 81 81 165L124 415Q130 447 128 454Q126 461 110 463L56 468L61 495H138L161 626L246 643L220 495H383L377 463H214L158 145Q147 83 157 52.5Q167 22 199 22Q228 22 248 45.5Q268 69 285 121ZM80 -242 62 -226Q86 -190 100 -155.5Q114 -121 124 -77H212Q187 -125 156.5 -163Q126 -201 80 -242Z" glyph-name="uni021B" horiz-adv-x="362" unicode="ț" /><glyph d="M468 -5Q425 -5 404 23Q383 51 386 105Q345 47 298.5 18.5Q252 -10 200 -10Q131 -10 100 38Q69 86 83 170L126 414Q132 447 130.5 454Q129 461 113 463L58 468L63 495H223L166 171Q153 100 166.5 63.5Q180 27 218 27Q263 27 308 65Q353 103 396 178L452 495H534L474 150Q462 83 463.5 55.5Q465 28 483 28Q501 28 517.5 48Q534 68 546 105L582 83Q561 40 532 17.5Q503 -5 468 -5ZM344 579 325 601Q357 636 376.5 667Q396 698 414 740H515Q477 694 436.5 656Q396 618 344 579Z" glyph-name="uacute" horiz-adv-x="605" unicode="ú" /><glyph d="M468 -5Q425 -5 404 23Q383 51 386 105Q345 47 298.5 18.5Q252 -10 200 -10Q131 -10 100 38Q69 86 83 170L126 414Q132 447 130.5 454Q129 461 113 463L58 468L63 495H223L166 171Q153 100 166.5 63.5Q180 27 218 27Q263 27 308 65Q353 103 396 178L452 495H534L474 150Q462 83 463.5 55.5Q465 28 483 28Q501 28 517.5 48Q534 68 546 105L582 83Q561 40 532 17.5Q503 -5 468 -5ZM479 598 461 579Q433 604 408.5 628.5Q384 653 364 678Q331 651 299.5 626.5Q268 602 235 579L218 600Q264 642 286.5 668.5Q309 695 340 740H406Q421 695 434.5 668Q448 641 479 598Z" glyph-name="ucircumflex" horiz-adv-x="605" unicode="û" /><glyph d="M468 -5Q425 -5 404 23Q383 51 386 105Q345 47 298.5 18.5Q252 -10 200 -10Q131 -10 100 38Q69 86 83 170L126 414Q132 447 130.5 454Q129 461 113 463L58 468L63 495H223L166 171Q153 100 166.5 63.5Q180 27 218 27Q263 27 308 65Q353 103 396 178L452 495H534L474 150Q462 83 463.5 55.5Q465 28 483 28Q501 28 517.5 48Q534 68 546 105L582 83Q561 40 532 17.5Q503 -5 468 -5ZM310 669Q310 644 294 627.5Q278 611 253 611Q232 611 219.5 623.5Q207 636 207 656Q207 680 223 696.5Q239 713 264 713Q285 713 297.5 701.5Q310 690 310 669ZM513 669Q513 644 496.5 627.5Q480 611 455 611Q435 611 422 623.5Q409 636 409 656Q409 680 425 696.5Q441 713 466 713Q488 713 500.5 701Q513 689 513 669Z" glyph-name="udieresis" horiz-adv-x="605" unicode="ü" /><glyph d="M468 -5Q425 -5 404 23Q383 51 386 105Q345 47 298.5 18.5Q252 -10 200 -10Q131 -10 100 38Q69 86 83 170L126 414Q132 447 130.5 454Q129 461 113 463L58 468L63 495H223L166 171Q153 100 166.5 63.5Q180 27 218 27Q263 27 308 65Q353 103 396 178L452 495H534L474 150Q462 83 463.5 55.5Q465 28 483 28Q501 28 517.5 48Q534 68 546 105L582 83Q561 40 532 17.5Q503 -5 468 -5ZM369 596 346 579Q308 618 281 656Q254 694 232 740H323Q327 698 336.5 667Q346 636 369 596Z" glyph-name="ugrave" horiz-adv-x="605" unicode="ù" /><glyph d="M468 -5Q425 -5 404 23Q383 51 386 105Q345 47 298.5 18.5Q252 -10 200 -10Q131 -10 100 38Q69 86 83 170L126 414Q132 447 130.5 454Q129 461 113 463L58 468L63 495H223L166 171Q153 100 166.5 63.5Q180 27 218 27Q263 27 308 65Q353 103 396 178L452 495H534L474 150Q462 83 463.5 55.5Q465 28 483 28Q501 28 517.5 48Q534 68 546 105L582 83Q561 40 532 17.5Q503 -5 468 -5ZM356 643Q403 643 433.5 666.5Q464 690 485 742L514 733Q488 653 449.5 616Q411 579 353 579Q294 579 263.5 617.5Q233 656 230 733L259 742Q265 690 288 666.5Q311 643 356 643Z" glyph-name="ubreve" horiz-adv-x="605" unicode="ŭ" /><glyph d="M468 -5Q425 -5 404 23Q383 51 386 105Q345 47 298.5 18.5Q252 -10 200 -10Q131 -10 100 38Q69 86 83 170L126 414Q132 447 130.5 454Q129 461 113 463L58 468L63 495H223L166 171Q153 100 166.5 63.5Q180 27 218 27Q263 27 308 65Q353 103 396 178L452 495H534L474 150Q462 83 463.5 55.5Q465 28 483 28Q501 28 517.5 48Q534 68 546 105L582 83Q561 40 532 17.5Q503 -5 468 -5ZM273 579 254 596Q276 626 293.5 659.5Q311 693 328 740H419Q388 697 351 656Q314 615 273 579ZM413 579 394 596Q416 625 433.5 658.5Q451 692 469 740H560Q528 696 491 655.5Q454 615 413 579Z" glyph-name="uhungarumlaut" horiz-adv-x="605" unicode="ű" /><glyph d="M468 -5Q425 -5 404 23Q383 51 386 105Q345 47 298.5 18.5Q252 -10 200 -10Q131 -10 100 38Q69 86 83 170L126 414Q132 447 130.5 454Q129 461 113 463L58 468L63 495H223L166 171Q153 100 166.5 63.5Q180 27 218 27Q263 27 308 65Q353 103 396 178L452 495H534L474 150Q462 83 463.5 55.5Q465 28 483 28Q501 28 517.5 48Q534 68 546 105L582 83Q561 40 532 17.5Q503 -5 468 -5ZM217 666 504 666L496 619H209Z" glyph-name="umacron" horiz-adv-x="605" unicode="ū" /><glyph d="M113 463 58 468L63 495H223L166 171Q153 100 166.5 63.5Q180 27 218 27Q263 27 308 65Q353 103 396 178L452 495H534L474 150Q462 83 463.5 55.5Q465 28 483 28Q501 28 517.5 48Q534 68 546 105L582 83Q568 53 543.5 29Q519 5 463 -28Q404 -62 386.5 -86.5Q369 -111 369 -143Q369 -168 379 -180.5Q389 -193 410 -193Q437 -193 457.5 -173Q478 -153 493 -112L543 -125Q520 -174 486.5 -198.5Q453 -223 407 -223Q361 -223 333 -201Q305 -179 305 -142Q305 -106 333 -76Q361 -46 450 -4Q416 2 400 29.5Q384 57 386 105Q345 47 298.5 18.5Q252 -10 200 -10Q131 -10 100 38Q69 86 83 170L126 414Q132 447 130.5 454Q129 461 113 463Z" glyph-name="uogonek" horiz-adv-x="605" unicode="ų" /><glyph d="M468 -5Q425 -5 404 23Q383 51 386 105Q345 47 298.5 18.5Q252 -10 200 -10Q131 -10 100 38Q69 86 83 170L126 414Q132 447 130.5 454Q129 461 113 463L58 468L63 495H223L166 171Q153 100 166.5 63.5Q180 27 218 27Q263 27 308 65Q353 103 396 178L452 495H534L474 150Q462 83 463.5 55.5Q465 28 483 28Q501 28 517.5 48Q534 68 546 105L582 83Q561 40 532 17.5Q503 -5 468 -5ZM373 789Q429 789 459.5 755Q490 721 482 673L480 662Q472 617 436.5 589Q401 561 351 561Q296 561 265.5 595.5Q235 630 243 678L245 689Q253 734 288 761.5Q323 789 373 789ZM349 587Q377 587 395 606.5Q413 626 419 662L424 687Q430 724 417 744Q404 764 375 764Q348 764 330 744.5Q312 725 305 688L301 663Q294 628 307 607.5Q320 587 349 587Z" glyph-name="uring" horiz-adv-x="605" unicode="ů" /><glyph d="M468 -5Q425 -5 404 23Q383 51 386 105Q345 47 298.5 18.5Q252 -10 200 -10Q131 -10 100 38Q69 86 83 170L126 414Q132 447 130.5 454Q129 461 113 463L58 468L63 495H223L166 171Q153 100 166.5 63.5Q180 27 218 27Q263 27 308 65Q353 103 396 178L452 495H534L474 150Q462 83 463.5 55.5Q465 28 483 28Q501 28 517.5 48Q534 68 546 105L582 83Q561 40 532 17.5Q503 -5 468 -5ZM424 589Q404 589 386.5 599Q369 609 343 640Q322 664 311 671Q300 678 289 678Q270 678 255.5 658Q241 638 232 600H201Q214 669 239 704Q264 739 300 739Q320 739 337.5 729Q355 719 381 688Q401 664 411.5 657Q422 650 433 650Q451 650 465.5 670Q480 690 489 728H521Q508 659 483.5 624Q459 589 424 589Z" glyph-name="utilde" horiz-adv-x="605" unicode="ũ" /><glyph d="M677 475 769 505Q754 258 678 124Q602 -10 487 -10Q436 -10 405.5 18.5Q375 47 367 102Q333 47 289 18.5Q245 -10 197 -10Q123 -10 94 45Q65 100 84 202L122 414Q128 447 126 454Q124 461 108 463L53 468L58 495H218L166 203Q149 106 159.5 66.5Q170 27 212 27Q256 27 296.5 64.5Q337 102 366 171Q367 182 368.5 194.5Q370 207 372 221L420 495H502L455 222Q437 116 448.5 71.5Q460 27 505 27Q580 27 631 122Q682 217 682 372Q682 401 681 426Q680 451 677 475ZM470 579 451 601Q483 636 502.5 667Q522 698 540 740H641Q603 694 562.5 656Q522 618 470 579Z" glyph-name="wacute" horiz-adv-x="803" unicode="ẃ" /><glyph d="M677 475 769 505Q754 258 678 124Q602 -10 487 -10Q436 -10 405.5 18.5Q375 47 367 102Q333 47 289 18.5Q245 -10 197 -10Q123 -10 94 45Q65 100 84 202L122 414Q128 447 126 454Q124 461 108 463L53 468L58 495H218L166 203Q149 106 159.5 66.5Q170 27 212 27Q256 27 296.5 64.5Q337 102 366 171Q367 182 368.5 194.5Q370 207 372 221L420 495H502L455 222Q437 116 448.5 71.5Q460 27 505 27Q580 27 631 122Q682 217 682 372Q682 401 681 426Q680 451 677 475ZM605 598 587 579Q559 604 534.5 628.5Q510 653 490 678Q457 651 425.5 626.5Q394 602 361 579L344 600Q390 642 412.5 668.5Q435 695 466 740H532Q547 695 560.5 668Q574 641 605 598Z" glyph-name="wcircumflex" horiz-adv-x="803" unicode="ŵ" /><glyph d="M677 475 769 505Q754 258 678 124Q602 -10 487 -10Q436 -10 405.5 18.5Q375 47 367 102Q333 47 289 18.5Q245 -10 197 -10Q123 -10 94 45Q65 100 84 202L122 414Q128 447 126 454Q124 461 108 463L53 468L58 495H218L166 203Q149 106 159.5 66.5Q170 27 212 27Q256 27 296.5 64.5Q337 102 366 171Q367 182 368.5 194.5Q370 207 372 221L420 495H502L455 222Q437 116 448.5 71.5Q460 27 505 27Q580 27 631 122Q682 217 682 372Q682 401 681 426Q680 451 677 475ZM435 669Q435 644 419 627.5Q403 611 378 611Q357 611 344.5 623.5Q332 636 332 656Q332 680 348 696.5Q364 713 389 713Q410 713 422.5 701.5Q435 690 435 669ZM638 669Q638 644 621.5 627.5Q605 611 580 611Q560 611 547 623.5Q534 636 534 656Q534 680 550 696.5Q566 713 591 713Q613 713 625.5 701Q638 689 638 669Z" glyph-name="wdieresis" horiz-adv-x="803" unicode="ẅ" /><glyph d="M677 475 769 505Q754 258 678 124Q602 -10 487 -10Q436 -10 405.5 18.5Q375 47 367 102Q333 47 289 18.5Q245 -10 197 -10Q123 -10 94 45Q65 100 84 202L122 414Q128 447 126 454Q124 461 108 463L53 468L58 495H218L166 203Q149 106 159.5 66.5Q170 27 212 27Q256 27 296.5 64.5Q337 102 366 171Q367 182 368.5 194.5Q370 207 372 221L420 495H502L455 222Q437 116 448.5 71.5Q460 27 505 27Q580 27 631 122Q682 217 682 372Q682 401 681 426Q680 451 677 475ZM494 596 471 579Q433 618 406 656Q379 694 357 740H448Q452 698 461.5 667Q471 636 494 596Z" glyph-name="wgrave" horiz-adv-x="803" unicode="ẁ" /><glyph d="M534 495 448 9Q429 -101 363.5 -162Q298 -223 195 -223Q120 -223 80.5 -182.5Q41 -142 47 -72L104 -60Q96 -126 119.5 -159.5Q143 -193 195 -193Q265 -193 306.5 -145.5Q348 -98 365 -1L383 101Q342 45 296.5 17.5Q251 -10 200 -10Q131 -10 100 38Q69 86 83 170L126 414Q132 447 130.5 454Q129 461 113 463L58 468L63 495H223L166 171Q153 100 166.5 63.5Q180 27 218 27Q263 27 308 65Q353 103 396 178L452 495ZM346 579 327 601Q359 636 378.5 667Q398 698 416 740H517Q479 694 438.5 656Q398 618 346 579Z" glyph-name="yacute" horiz-adv-x="585" unicode="ý" /><glyph d="M534 495 448 9Q429 -101 363.5 -162Q298 -223 195 -223Q120 -223 80.5 -182.5Q41 -142 47 -72L104 -60Q96 -126 119.5 -159.5Q143 -193 195 -193Q265 -193 306.5 -145.5Q348 -98 365 -1L383 101Q342 45 296.5 17.5Q251 -10 200 -10Q131 -10 100 38Q69 86 83 170L126 414Q132 447 130.5 454Q129 461 113 463L58 468L63 495H223L166 171Q153 100 166.5 63.5Q180 27 218 27Q263 27 308 65Q353 103 396 178L452 495ZM312 669Q312 644 296 627.5Q280 611 255 611Q234 611 221.5 623.5Q209 636 209 656Q209 680 225 696.5Q241 713 266 713Q287 713 299.5 701.5Q312 690 312 669ZM515 669Q515 644 498.5 627.5Q482 611 457 611Q437 611 424 623.5Q411 636 411 656Q411 680 427 696.5Q443 713 468 713Q490 713 502.5 701Q515 689 515 669Z" glyph-name="ydieresis" horiz-adv-x="585" unicode="ÿ" /><glyph d="M534 495 448 9Q429 -101 363.5 -162Q298 -223 195 -223Q120 -223 80.5 -182.5Q41 -142 47 -72L104 -60Q96 -126 119.5 -159.5Q143 -193 195 -193Q265 -193 306.5 -145.5Q348 -98 365 -1L383 101Q342 45 296.5 17.5Q251 -10 200 -10Q131 -10 100 38Q69 86 83 170L126 414Q132 447 130.5 454Q129 461 113 463L58 468L63 495H223L166 171Q153 100 166.5 63.5Q180 27 218 27Q263 27 308 65Q353 103 396 178L452 495ZM481 598 463 579Q435 604 410.5 628.5Q386 653 366 678Q333 651 301.5 626.5Q270 602 237 579L220 600Q266 642 288.5 668.5Q311 695 342 740H408Q423 695 436.5 668Q450 641 481 598Z" glyph-name="ycircumflex" horiz-adv-x="585" unicode="ŷ" /><glyph d="M534 495 448 9Q429 -101 363.5 -162Q298 -223 195 -223Q120 -223 80.5 -182.5Q41 -142 47 -72L104 -60Q96 -126 119.5 -159.5Q143 -193 195 -193Q265 -193 306.5 -145.5Q348 -98 365 -1L383 101Q342 45 296.5 17.5Q251 -10 200 -10Q131 -10 100 38Q69 86 83 170L126 414Q132 447 130.5 454Q129 461 113 463L58 468L63 495H223L166 171Q153 100 166.5 63.5Q180 27 218 27Q263 27 308 65Q353 103 396 178L452 495ZM371 596 348 579Q310 618 283 656Q256 694 234 740H325Q329 698 338.5 667Q348 636 371 596Z" glyph-name="ygrave" horiz-adv-x="585" unicode="ỳ" /><glyph d="M386 147 413 140Q401 67 370.5 28.5Q340 -10 292 -10Q272 -10 251 -3.5Q230 3 191 24Q159 41 143 46.5Q127 52 114 52Q93 52 72 39Q51 26 29 0L4 23L354 429H189Q154 429 145.5 426Q137 423 130 407L95 329H69L98 495H440L435 470L109 92Q124 100 136.5 104Q149 108 163 108Q178 108 193.5 103Q209 98 238 81Q267 64 282.5 59Q298 54 313 54Q341 54 358 75Q375 96 386 147ZM423 744 440 723Q395 681 372 655Q349 629 318 584H252Q237 628 223.5 655Q210 682 179 725L197 744Q228 717 252 692.5Q276 668 294 645Q322 669 353.5 693.5Q385 718 423 744Z" glyph-name="zcaron" horiz-adv-x="457" unicode="ž" /><glyph d="M386 147 413 140Q401 67 370.5 28.5Q340 -10 292 -10Q272 -10 251 -3.5Q230 3 191 24Q159 41 143 46.5Q127 52 114 52Q93 52 72 39Q51 26 29 0L4 23L354 429H189Q154 429 145.5 426Q137 423 130 407L95 329H69L98 495H440L435 470L109 92Q124 100 136.5 104Q149 108 163 108Q178 108 193.5 103Q209 98 238 81Q267 64 282.5 59Q298 54 313 54Q341 54 358 75Q375 96 386 147ZM283 579 264 601Q296 636 315.5 667Q335 698 353 740H454Q416 694 375.5 656Q335 618 283 579Z" glyph-name="zacute" horiz-adv-x="457" unicode="ź" /><glyph d="M386 147 413 140Q401 67 370.5 28.5Q340 -10 292 -10Q272 -10 251 -3.5Q230 3 191 24Q159 41 143 46.5Q127 52 114 52Q93 52 72 39Q51 26 29 0L4 23L354 429H189Q154 429 145.5 426Q137 423 130 407L95 329H69L98 495H440L435 470L109 92Q124 100 136.5 104Q149 108 163 108Q178 108 193.5 103Q209 98 238 81Q267 64 282.5 59Q298 54 313 54Q341 54 358 75Q375 96 386 147ZM354 669Q354 643 337 625.5Q320 608 293 608Q270 608 257 621Q244 634 244 656Q244 682 261 699Q278 716 304 716Q327 716 340.5 703.5Q354 691 354 669Z" glyph-name="zdotaccent" horiz-adv-x="457" unicode="ż" /><glyph d="M283 579 264 601Q296 636 315.5 667Q335 698 353 740H454Q416 694 375.5 656Q335 618 283 579Z" glyph-name="acute" horiz-adv-x="500" unicode="´" /><glyph d="M371 596 348 579Q310 618 283 656Q256 694 234 740H325Q329 698 338.5 667Q348 636 371 596Z" glyph-name="grave" horiz-adv-x="500" unicode="`" /><glyph d="M481 598 463 579Q435 604 410.5 628.5Q386 653 366 678Q333 651 301.5 626.5Q270 602 237 579L220 600Q266 642 288.5 668.5Q311 695 342 740H408Q423 695 436.5 668Q450 641 481 598Z" glyph-name="circumflex" horiz-adv-x="500" unicode="ˆ" /><glyph d="M423 744 440 723Q395 681 372 655Q349 629 318 584H252Q237 628 223.5 655Q210 682 179 725L197 744Q228 717 252 692.5Q276 668 294 645Q322 669 353.5 693.5Q385 718 423 744Z" glyph-name="caron" horiz-adv-x="500" unicode="ˇ" /><glyph d="M424 589Q404 589 386.5 599Q369 609 343 640Q322 664 311 671Q300 678 289 678Q270 678 255.5 658Q241 638 232 600H201Q214 669 239 704Q264 739 300 739Q320 739 337.5 729Q355 719 381 688Q401 664 411.5 657Q422 650 433 650Q451 650 465.5 670Q480 690 489 728H521Q508 659 483.5 624Q459 589 424 589Z" glyph-name="tilde" horiz-adv-x="500" unicode="˜" /><glyph d="M312 669Q312 644 296 627.5Q280 611 255 611Q234 611 221.5 623.5Q209 636 209 656Q209 680 225 696.5Q241 713 266 713Q287 713 299.5 701.5Q312 690 312 669ZM515 669Q515 644 498.5 627.5Q482 611 457 611Q437 611 424 623.5Q411 636 411 656Q411 680 427 696.5Q443 713 468 713Q490 713 502.5 701Q515 689 515 669Z" glyph-name="dieresis" horiz-adv-x="500" unicode="¨" /><glyph d="M373 789Q429 789 459.5 755Q490 721 482 673L480 662Q472 617 436.5 589Q401 561 351 561Q296 561 265.5 595.5Q235 630 243 678L245 689Q253 734 288 761.5Q323 789 373 789ZM349 587Q377 587 395 606.5Q413 626 419 662L424 687Q430 724 417 744Q404 764 375 764Q348 764 330 744.5Q312 725 305 688L301 663Q294 628 307 607.5Q320 587 349 587Z" glyph-name="ring" horiz-adv-x="500" unicode="˚" /><glyph d="M291 -133Q291 -172 257.5 -197.5Q224 -223 172 -223Q126 -223 99 -202.5Q72 -182 71 -145L122 -131Q120 -164 130.5 -179.5Q141 -195 167 -195Q193 -195 209.5 -177Q226 -159 226 -131Q226 -107 214.5 -96.5Q203 -86 177 -86Q176 -86 170 -87Q164 -88 153 -89L148 -63L185 0H220L186 -58Q234 -58 262.5 -78.5Q291 -99 291 -133Z" glyph-name="cedilla" horiz-adv-x="500" unicode="¸" /><glyph d="M273 579 254 596Q276 626 293.5 659.5Q311 693 328 740H419Q388 697 351 656Q314 615 273 579ZM413 579 394 596Q416 625 433.5 658.5Q451 692 469 740H560Q528 696 491 655.5Q454 615 413 579Z" glyph-name="hungarumlaut" horiz-adv-x="500" unicode="˝" /><glyph d="M356 643Q403 643 433.5 666.5Q464 690 485 742L514 733Q488 653 449.5 616Q411 579 353 579Q294 579 263.5 617.5Q233 656 230 733L259 742Q265 690 288 666.5Q311 643 356 643Z" glyph-name="breve" horiz-adv-x="500" unicode="˘" /><glyph d="M217 666 504 666L496 619H209Z" glyph-name="macron" horiz-adv-x="500" unicode="¯" /><glyph d="M354 669Q354 643 337 625.5Q320 608 293 608Q270 608 257 621Q244 634 244 656Q244 682 261 699Q278 716 304 716Q327 716 340.5 703.5Q354 691 354 669Z" glyph-name="dotaccent" horiz-adv-x="500" unicode="˙" /><glyph d="M369 391Q369 365 352 347.5Q335 330 308 330Q285 330 272 343Q259 356 259 378Q259 404 276 421Q293 438 319 438Q342 438 355.5 425.5Q369 413 369 391Z" glyph-name="periodcentered" horiz-adv-x="500" unicode="·" /><glyph d="M168 -223Q120 -223 92 -200.5Q64 -178 64 -138Q64 -75 131 -24Q198 27 277 27V0Q212 0 170 -41.5Q128 -83 128 -141Q128 -167 138.5 -180Q149 -193 170 -193Q197 -193 217.5 -172.5Q238 -152 252 -112L302 -125Q280 -174 246.5 -198.5Q213 -223 168 -223Z" glyph-name="ogonek" horiz-adv-x="500" unicode="˛" /><glyph d="M80 -242 62 -226Q86 -190 100 -155.5Q114 -121 124 -77H212Q187 -125 156.5 -163Q126 -201 80 -242Z" glyph-name="commaaccent" horiz-adv-x="500" unicode="" /><glyph d="M321 556 300 556L337 770H419Q395 711 371.5 659.5Q348 608 321 556Z" glyph-name="caron.alt" horiz-adv-x="500" unicode="" /><glyph d="M412 749 431 733Q407 697 393 662.5Q379 628 369 584H280Q305 632 335.5 670Q366 708 412 749Z" glyph-name="revcommaaccent" horiz-adv-x="500" unicode="" /><glyph d="M89 -10Q64 -10 50 3.5Q36 17 36 40Q36 67 53 84.5Q70 102 98 102Q123 102 137 89Q151 76 151 52Q151 25 134 7.5Q117 -10 89 -10Z" glyph-name="period" horiz-adv-x="258" unicode="." /><glyph d="M97 98Q121 98 134.5 83Q148 68 148 41Q148 -4 109 -63.5Q70 -123 -4 -193L-23 -174Q22 -128 49.5 -86.5Q77 -45 85 -10Q64 -9 51.5 4Q39 17 39 38Q39 64 55 81Q71 98 97 98Z" glyph-name="comma" horiz-adv-x="258" unicode="," /><glyph d="M221 454Q221 427 204 409.5Q187 392 160 392Q135 392 121 405Q107 418 107 442Q107 469 124 487Q141 505 168 505Q193 505 207 491.5Q221 478 221 454ZM151 52Q151 25 134 7.5Q117 -10 89 -10Q64 -10 50 3.5Q36 17 36 40Q36 67 53.5 84.5Q71 102 98 102Q123 102 137 89Q151 76 151 52Z" glyph-name="colon" horiz-adv-x="258" unicode=":" /><glyph d="M221 454Q221 427 204 409.5Q187 392 160 392Q135 392 121 405Q107 418 107 442Q107 469 124 487Q141 505 168 505Q193 505 207 491.5Q221 478 221 454ZM97 98Q121 98 134.5 83Q148 68 148 41Q148 -4 109 -63.5Q70 -123 -4 -193L-23 -174Q22 -128 49.5 -86.5Q77 -45 85 -10Q64 -9 51.5 4Q39 17 39 38Q39 64 55 81Q71 98 97 98Z" glyph-name="semicolon" horiz-adv-x="258" unicode=";" /><glyph d="M489 -10Q464 -10 450 3.5Q436 17 436 40Q436 67 453 84.5Q470 102 498 102Q523 102 537 89Q551 76 551 52Q551 25 534 7.5Q517 -10 489 -10ZM489 -10Q464 -10 450 3.5Q436 17 436 40Q436 67 453 84.5Q470 102 498 102Q523 102 537 89Q551 76 551 52Q551 25 534 7.5Q517 -10 489 -10ZM489 -10Q464 -10 450 3.5Q436 17 436 40Q436 67 453 84.5Q470 102 498 102Q523 102 537 89Q551 76 551 52Q551 25 534 7.5Q517 -10 489 -10Z" glyph-name="ellipsis" horiz-adv-x="658" unicode="…" /><glyph d="M244 207 242 184H196L200 206Q207 249 226.5 282Q246 315 299 360Q357 410 374.5 448.5Q392 487 392 540Q392 598 368 628Q344 658 298 658Q238 658 204.5 610Q171 562 164 467L85 483Q86 578 143.5 634Q201 690 302 690Q387 690 435.5 648.5Q484 607 484 536Q484 488 460.5 450Q437 412 361 360Q292 313 269.5 280Q247 247 244 207ZM254 52Q254 25 236.5 7.5Q219 -10 192 -10Q167 -10 153 3Q139 16 139 40Q139 67 156 84.5Q173 102 201 102Q226 102 240 88.5Q254 75 254 52Z" glyph-name="question" horiz-adv-x="479" unicode="?" /><glyph d="M193 447Q169 359 156.5 303Q144 247 133 184H102Q114 249 121.5 305.5Q129 362 136 452Q143 532 149 580Q155 628 164 680H246Q237 627 226 578Q215 529 193 447ZM151 52Q151 25 134 7.5Q117 -10 89 -10Q64 -10 50 3.5Q36 17 36 40Q36 67 53.5 84.5Q71 102 98 102Q123 102 137 89Q151 76 151 52Z" glyph-name="exclam" horiz-adv-x="258" unicode="!" /><glyph d="M227 442Q227 469 244 487Q261 505 288 505Q313 505 327 491.5Q341 478 341 454Q341 427 324 409.5Q307 392 280 392Q255 392 241 405Q227 418 227 442ZM236 288 238 311H284L280 289Q273 246 253.5 213Q234 180 181 134Q124 84 106.5 45.5Q89 7 89 -45Q89 -103 113 -133Q137 -163 182 -163Q242 -163 276 -114.5Q310 -66 317 28L396 12Q395 -83 337.5 -139Q280 -195 179 -195Q93 -195 45 -153.5Q-3 -112 -3 -41Q-3 7 20.5 44.5Q44 82 119 134Q188 181 210.5 214Q233 247 236 288Z" glyph-name="questiondown" horiz-adv-x="479" unicode="¿" /><glyph d="M107 442Q107 469 124 487Q141 505 168 505Q193 505 207 491.5Q221 478 221 454Q221 427 204 409.5Q187 392 160 392Q135 392 121 405Q107 418 107 442ZM64 43Q88 132 100.5 189Q113 246 125 311H155Q144 248 137 192Q130 136 122 48Q115 -34 109 -83Q103 -132 93 -185H11Q20 -133 31 -85.5Q42 -38 64 43Z" glyph-name="exclamdown" horiz-adv-x="258" unicode="¡" /><glyph d="M80 286 86 326Q105 451 176 554Q247 657 381 750L402 722Q308 647 251 548Q194 449 172 318L165 280Q144 154 165 47Q186 -60 247 -131L222 -153Q137 -67 99.5 49.5Q62 166 80 286Z" glyph-name="parenleft" horiz-adv-x="336" unicode="(" /><glyph d="M274 310 268 270Q250 146 178.5 43.5Q107 -59 -27 -153L-47 -125Q47 -50 103.5 49Q160 148 182 279L189 316Q210 442 189 549.5Q168 657 107 728L132 750Q217 663 254.5 546.5Q292 430 274 310Z" glyph-name="parenright" horiz-adv-x="336" unicode=")" /><glyph d="M232 -112 317 -112L312 -144H235Q145 -144 107.5 -92.5Q70 -41 104 41L147 147Q171 206 161.5 244Q152 282 114 282H37L42 314H119Q158 314 180 351.5Q202 389 200 449L195 555Q190 649 233.5 694.5Q277 740 373 740H467L461 708H376Q325 708 301 674.5Q277 641 279 574L285 468Q289 396 262 352.5Q235 309 177 295Q225 278 237.5 234.5Q250 191 225 128L182 22Q156 -45 168.5 -78.5Q181 -112 232 -112Z" glyph-name="braceleft" horiz-adv-x="401" unicode="{" /><glyph d="M218 147 223 41Q228 -53 184.5 -98.5Q141 -144 45 -144H-48L-43 -112H41Q92 -112 116 -78.5Q140 -45 138 22L132 128Q128 200 155 243.5Q182 287 240 301Q192 318 179.5 361.5Q167 405 192 468L235 574Q262 640 249.5 674Q237 708 186 708H101L106 740H182Q272 740 310 688.5Q348 637 314 555L271 449Q247 389 256 351Q265 313 304 313H381L376 281H299Q260 281 237.5 243.5Q215 206 218 147Z" glyph-name="braceright" horiz-adv-x="401" unicode="}" /><glyph d="M121 -111 272 -111L266 -143H33L189 740H422L416 708H266Z" glyph-name="bracketleft" horiz-adv-x="356" unicode="[" /><glyph d="M106 740 339 740L184 -143H-48L-43 -111H107L252 708H101Z" glyph-name="bracketright" horiz-adv-x="356" unicode="]" /><glyph d="M-83 -126 412 740L447 723L-48 -143Z" glyph-name="slash" horiz-adv-x="379" unicode="/" /><glyph d="M99 727 135 740L330 -128L293 -141Z" glyph-name="backslash" horiz-adv-x="379" unicode="\" /><glyph d="M321 -143 -50 -143L-44 -109H327Z" glyph-name="underscore" horiz-adv-x="409" unicode="_" /><glyph d="M346 317 82 317L88 352H352Z" glyph-name="hyphen" horiz-adv-x="404" unicode="-" /><glyph d="" glyph-name="uni00AD" horiz-adv-x="0" unicode="­" /><glyph d="M546 317 82 317L88 352H552Z" glyph-name="endash" horiz-adv-x="604" unicode="–" /><glyph d="M746 317 82 317L88 352H752Z" glyph-name="emdash" horiz-adv-x="804" unicode="—" /><glyph d="M112 357 180 740H217L149 357ZM12 -213 79 170H116L49 -213Z" glyph-name="brokenbar" horiz-adv-x="224" unicode="¦" /><glyph d="M18 -213 186 740H223L55 -213Z" glyph-name="bar" horiz-adv-x="237" unicode="|" /><glyph d="M150 238 297 25L279 10L50 232L54 256L361 478L376 456ZM400 238 547 25L529 10L300 232L304 256L611 478L626 456Z" glyph-name="guillemotleft" horiz-adv-x="645" unicode="«" /><glyph d="M593 256 589 232L283 10L267 31L493 250L346 463L365 478ZM343 256 339 232L33 10L17 31L243 250L96 463L115 478Z" glyph-name="guillemotright" horiz-adv-x="645" unicode="»" /><glyph d="M150 238 297 25L278 10L50 232L54 256L361 478L376 456Z" glyph-name="guilsinglleft" horiz-adv-x="395" unicode="‹" /><glyph d="M343 257 339 233L33 11L17 32L243 250L96 463L115 479Z" glyph-name="guilsinglright" horiz-adv-x="395" unicode="›" /><glyph d="M97 94Q119 94 132.5 79Q146 64 146 39Q146 -1 113 -53.5Q80 -106 18 -163L0 -144Q36 -108 57 -74.5Q78 -41 85 -10Q64 -9 52.5 3Q41 15 41 36Q41 61 56.5 77.5Q72 94 97 94Z" glyph-name="quotesinglbase" horiz-adv-x="258" unicode="‚" /><glyph d="M97 94Q119 94 132.5 79Q146 64 146 39Q146 -1 113 -53.5Q80 -106 18 -163L0 -144Q36 -108 57 -74.5Q78 -41 85 -10Q64 -9 52.5 3Q41 15 41 36Q41 61 56.5 77.5Q72 94 97 94ZM264 94Q286 94 299.5 79Q313 64 313 39Q313 -1 280 -53.5Q247 -106 185 -163L167 -144Q203 -108 224 -74.5Q245 -41 252 -10Q231 -9 219.5 3Q208 15 208 36Q208 61 223.5 77.5Q239 94 264 94Z" glyph-name="quotedblbase" horiz-adv-x="425" unicode="„" /><glyph d="M177 536Q198 535 209.5 523Q221 511 221 490Q221 464 205.5 447.5Q190 431 166 431Q144 431 130.5 446Q117 461 117 486Q117 527 149.5 579Q182 631 244 690L263 670Q227 633 206 600Q185 567 177 536Z" glyph-name="quoteleft" horiz-adv-x="258" unicode="‘" /><glyph d="M345 536Q366 535 377.5 523Q389 511 389 490Q389 464 373.5 447.5Q358 431 333 431Q311 431 297.5 446Q284 461 284 486Q284 527 317 579.5Q350 632 412 690L430 670Q394 633 373 600Q352 567 345 536ZM177 536Q198 535 209.5 523Q221 511 221 490Q221 464 205.5 447.5Q190 431 166 431Q144 431 130.5 446Q117 461 117 486Q117 527 149.5 579Q182 631 244 690L263 670Q227 633 206 600Q185 567 177 536Z" glyph-name="quotedblleft" horiz-adv-x="425" unicode="“" /><glyph d="M105 690Q127 690 140.5 675Q154 660 154 635Q154 594 121.5 542Q89 490 27 431L8 451Q44 488 65 521Q86 554 94 585Q73 586 61.5 598Q50 610 50 631Q50 657 65.5 673.5Q81 690 105 690Z" glyph-name="quoteright" horiz-adv-x="258" unicode="’" /><glyph d="M202 690Q224 690 237.5 675Q251 660 251 635Q251 594 218.5 542Q186 490 124 431L105 451Q141 488 162 521Q183 554 191 585Q170 586 158.5 598Q147 610 147 631Q147 657 162.5 673.5Q178 690 202 690ZM369 690Q392 690 405.5 675Q419 660 419 635Q419 595 386 542.5Q353 490 291 431L272 451Q309 488 330 521Q351 554 358 585Q337 586 325.5 598Q314 610 314 631Q314 656 329.5 673Q345 690 369 690Z" glyph-name="quotedblright" horiz-adv-x="425" unicode="”" /><glyph d="M227 588Q206 549 195 515Q184 481 176 438H149Q154 461 156 482.5Q158 504 158 528Q158 541 157 553.5Q156 566 152 585Q149 601 148 608.5Q147 616 147 623Q147 654 162 672Q177 690 202 690Q222 690 234 678Q246 666 246 645Q246 633 242.5 622Q239 611 227 588Z" glyph-name="quotesingle" horiz-adv-x="258" unicode="'" /><glyph d="M227 588Q206 549 195 515Q184 481 176 438H149Q154 461 156 482.5Q158 504 158 528Q158 541 157 553.5Q156 566 152 585Q149 601 148 608.5Q147 616 147 623Q147 654 162 672Q177 690 202 690Q222 690 234 678Q246 666 246 645Q246 633 242.5 622Q239 611 227 588ZM395 588Q374 549 363 515Q352 481 344 438H317Q322 461 324 482.5Q326 504 326 528Q326 541 325 553.5Q324 566 320 585Q317 601 316 608.5Q315 616 315 623Q315 654 330 672Q345 690 370 690Q390 690 402 678Q414 666 414 645Q414 633 410.5 622Q407 611 395 588Z" glyph-name="quotedbl" horiz-adv-x="426" unicode="&quot;" /><glyph d="M225 341Q225 304 201 280Q177 256 140 256Q107 256 87.5 274.5Q68 293 68 325Q68 361 92 385.5Q116 410 152 410Q186 410 205.5 392Q225 374 225 341Z" glyph-name="bullet" horiz-adv-x="263" unicode="•" /><glyph d="M495 184Q495 97 427.5 43.5Q360 -10 252 -10Q148 -10 93 31Q38 72 38 149Q38 221 91.5 271.5Q145 322 250 351Q187 394 157.5 436.5Q128 479 128 528Q128 598 185 644Q242 690 328 690Q427 690 476.5 632.5Q526 575 500 497L414 478Q437 560 413 609Q389 658 327 658Q278 658 247 624Q216 590 216 533Q216 486 234.5 441Q253 396 288 361L418 388Q478 402 521.5 421.5Q565 441 603 471L622 387Q592 379 558.5 372Q525 365 473 357L403 346Q448 313 471.5 271.5Q495 230 495 184ZM126 151Q126 88 159.5 55Q193 22 257 22Q331 22 375 68Q419 114 419 193Q419 236 404.5 273Q390 310 362 340L302 331Q215 318 170.5 272Q126 226 126 151Z" glyph-name="ampersand" horiz-adv-x="619" unicode="&amp;" /><glyph d="M78 476 84 506Q99 592 157 636Q215 680 313 680H601L597 653L541 648Q524 646 520 639Q516 632 510 599L393 -62Q387 -95 389 -102Q391 -109 407 -111L461 -116L456 -143H195L200 -116L276 -111Q292 -109 296 -102.5Q300 -96 306 -62L431 648H364L300 288H254Q160 288 112 340Q64 392 78 476Z" glyph-name="paragraph" horiz-adv-x="572" unicode="¶" /><glyph d="M281 270 281 267Q276 240 269 212.5Q262 185 246 131Q221 49 206.5 -11.5Q192 -72 180 -143H149Q161 -73 168 -13Q175 47 179 129Q182 183 185 211Q188 239 193 267V270Q197 291 202.5 309.5Q208 328 223 360Q235 388 241 405Q247 422 251 440L255 460Q232 460 211 457Q190 454 156 445Q124 437 105 434.5Q86 432 65 432L80 517Q101 517 119 514.5Q137 512 166 503Q197 495 217 492Q237 489 260 489Q264 513 265 534.5Q266 556 263 590Q260 622 260.5 640.5Q261 659 265 680H353Q349 659 343.5 640Q338 621 324 590Q309 556 302 534.5Q295 513 291 489Q315 489 336 492Q357 495 391 504Q423 512 442 514.5Q461 517 482 517L467 432Q446 432 428 434.5Q410 437 381 446Q350 454 329.5 457Q309 460 286 460L283 444Q280 425 280 407Q280 389 283 359Q286 328 285.5 309.5Q285 291 281 270Z" glyph-name="dagger" horiz-adv-x="468" unicode="†" /><glyph d="M421 104 406 19Q385 19 367 21.5Q349 24 320 33Q289 41 268.5 44Q248 47 225 47Q221 23 220 1.5Q219 -20 222 -54Q225 -85 224.5 -104Q224 -123 220 -143H132Q136 -122 142 -103Q148 -84 162 -52Q177 -19 183.5 2Q190 23 194 47Q171 47 149.5 44Q128 41 94 32Q62 24 43 21.5Q24 19 4 19L19 104Q40 104 58 101.5Q76 99 105 90Q136 82 156 79Q176 76 199 76L201 89Q204 109 204.5 128Q205 147 202 177Q199 208 199.5 227Q200 246 204 267L205 270Q209 291 215 310Q221 329 235 361Q250 394 256.5 415Q263 436 267 460Q244 460 222.5 457Q201 454 167 445Q135 437 116 434.5Q97 432 77 432L92 517Q112 517 130.5 514.5Q149 512 178 503Q209 495 229 492Q249 489 272 489Q276 513 277 534.5Q278 556 275 590Q272 622 272.5 640.5Q273 659 277 680H365Q361 659 355.5 640Q350 621 336 590Q321 556 314 534.5Q307 513 303 489Q326 489 347 492Q368 495 403 504Q435 512 454 514.5Q473 517 494 517L479 432Q458 432 440 434.5Q422 437 392 446Q361 454 341 457Q321 460 298 460L295 444Q292 425 292 407Q292 389 295 359Q298 328 297.5 309.5Q297 291 293 270L292 267Q288 246 282.5 227Q277 208 263 177Q248 143 241 121.5Q234 100 230 76Q254 76 275 79Q296 82 330 91Q362 99 381 101.5Q400 104 421 104Z" glyph-name="daggerdbl" horiz-adv-x="491" unicode="‡" /><glyph d="M347 88Q380 66 396 35.5Q412 5 412 -35Q412 -117 351.5 -170Q291 -223 190 -223Q102 -223 51 -176.5Q0 -130 -1 -46L61 -26Q56 -106 90 -148.5Q124 -191 192 -191Q258 -191 295.5 -159Q333 -127 333 -71Q333 -30 312 -5.5Q291 19 241 39L172 67Q108 92 75 131.5Q42 171 42 223Q42 280 81 323Q120 366 187 383Q154 405 137 438Q120 471 120 514Q120 594 175 642Q230 690 325 690Q422 690 470 634Q518 578 496 502L409 484Q432 566 409 612Q386 658 321 658Q262 658 230 628.5Q198 599 198 544Q198 503 219 477.5Q240 452 288 434L360 408Q423 385 456.5 344.5Q490 304 490 252Q490 196 452 152Q414 108 347 88ZM120 257Q120 217 144 190.5Q168 164 227 141L306 109Q358 119 385 146Q412 173 412 215Q412 258 387.5 285Q363 312 304 333L230 361Q176 355 148 328.5Q120 302 120 257Z" glyph-name="section" horiz-adv-x="539" unicode="§" /><glyph d="M336 397Q354 375 363.5 360.5Q373 346 381 329L316 297Q307 314 301.5 330.5Q296 347 290 375Q283 406 276.5 425Q270 444 260 465Q243 449 230 433Q217 417 200 390Q185 366 174.5 353Q164 340 150 327L99 378Q113 392 127 402.5Q141 413 166 427Q193 443 209.5 455.5Q226 468 243 484Q221 495 201.5 502.5Q182 510 151 518Q124 525 108.5 530.5Q93 536 76 545L111 610Q127 601 141 591.5Q155 582 176 563Q199 542 216 530Q233 518 254 507Q258 530 259.5 550.5Q261 571 259 602Q257 630 258 647Q259 664 262 683L333 670Q330 651 325 635Q320 619 309 593Q296 564 290 544.5Q284 525 280 501Q303 504 322 509.5Q341 515 370 526Q397 537 414 541.5Q431 546 451 549L461 477Q442 474 425 474Q408 474 379 477Q348 480 327.5 479.5Q307 479 283 476Q293 455 304 438Q315 421 336 397Z" glyph-name="asterisk" horiz-adv-x="444" unicode="*" /><glyph d="M415 680 516 680L570 445L705 680H812L808 658L780 655Q771 654 769 650.5Q767 647 764 631L722 389Q718 373 719 369Q720 365 728 364L756 362L752 340H620L624 362L652 364Q660 365 662 368.5Q664 372 668 389L711 639L561 380H532L473 637L430 389Q426 373 427 369Q428 365 436 364L464 362L460 340H355L359 362L387 364Q395 365 397 368.5Q399 372 403 389L445 631Q448 647 447 650.5Q446 654 439 655L411 658ZM104 598 84 598L99 680H377L362 598H342L340 642Q340 652 336.5 653.5Q333 655 316 655H261L214 389Q211 373 211.5 369Q212 365 220 364L248 362L244 340H112L116 362L144 364Q152 365 154.5 369Q157 373 160 389L207 655H152Q135 655 130.5 653Q126 651 122 642Z" glyph-name="trademark" horiz-adv-x="771" unicode="™" /><glyph d="M552 479Q552 379 484 310Q416 241 318 241Q219 241 151.5 310Q84 379 84 479Q84 580 151.5 648.5Q219 717 318 717Q416 717 484 648Q552 579 552 479ZM117 479Q117 391 175 331Q233 271 318 271Q404 271 462 331Q520 391 520 479Q520 567 461.5 627Q403 687 318 687Q233 687 175 627Q117 567 117 479ZM232 586 211 588V609H322Q361 609 383 591.5Q405 574 405 543V527Q405 505 393.5 489Q382 473 361 465L404 396Q405 395 410 386Q415 377 422 377L440 376V354H371L312 459H287V396Q287 383 288 380Q289 377 295 377L316 376V354H211V376L232 377Q238 377 239.5 380Q241 383 241 396V568Q241 579 240 582Q239 585 232 586ZM322 586 287 586V483H322Q339 483 348 494.5Q357 506 357 527V543Q357 564 348 575Q339 586 322 586Z" glyph-name="registered" horiz-adv-x="556" unicode="®" /><glyph d="M814 340Q814 181 706.5 72Q599 -37 442 -37Q285 -37 177.5 72Q70 181 70 340Q70 500 177 608.5Q284 717 442 717Q599 717 706.5 608Q814 499 814 340ZM104 340Q104 194 201.5 94.5Q299 -5 442 -5Q585 -5 682.5 94.5Q780 194 780 340Q780 486 682.5 585.5Q585 685 442 685Q299 685 201.5 585.5Q104 486 104 340ZM446 542Q386 542 357 499.5Q328 457 328 371V310Q328 218 357.5 178Q387 138 455 138Q505 138 532 163Q559 188 570 243L620 230Q604 170 560.5 139Q517 108 450 108Q355 108 303.5 166Q252 224 252 330V351Q252 455 303 513.5Q354 572 446 572Q532 572 578.5 523Q625 474 613 398L548 389Q558 462 531.5 502Q505 542 446 542Z" glyph-name="copyright" horiz-adv-x="852" unicode="©" /><glyph d="M721 -119 741 -167Q690 -193 621.5 -208Q553 -223 487 -223Q297 -223 179.5 -101.5Q62 20 62 214Q62 418 186 554Q310 690 500 690Q674 690 790 572Q906 454 906 278Q906 159 845.5 78.5Q785 -2 695 -2Q645 -2 612 23.5Q579 49 572 93Q540 43 503 18Q466 -7 422 -7Q343 -7 303.5 65Q264 137 284 246L288 268Q305 361 363.5 417.5Q422 474 499 474Q539 474 570.5 457Q602 440 625 406Q639 420 651.5 434.5Q664 449 674 464H709L653 153Q642 90 653 59.5Q664 29 700 29Q772 29 822 100.5Q872 172 872 278Q872 440 766 549Q660 658 500 658Q326 658 211 531Q96 404 96 214Q96 33 203.5 -79Q311 -191 487 -191Q556 -191 615.5 -173Q675 -155 721 -119ZM373 276 363 216Q348 128 366.5 76.5Q385 25 430 25Q470 25 504.5 58Q539 91 575 161L611 366Q592 404 565.5 423Q539 442 504 442Q452 442 419.5 400.5Q387 359 373 276Z" glyph-name="at" horiz-adv-x="965" unicode="@" /><glyph d="M356 338Q330 338 315 352.5Q300 367 297 395Q277 365 252 350Q227 335 197 335Q139 335 111.5 386.5Q84 438 98 517L101 533Q113 601 156.5 643Q200 685 257 685Q284 685 306 674Q328 663 343 642Q357 656 363.5 663.5Q370 671 375 678H401L359 443Q352 399 353 380.5Q354 362 366 362Q377 362 388.5 375.5Q400 389 407 412L433 397Q418 368 398.5 353Q379 338 356 338ZM165 539 159 501Q148 437 161 398.5Q174 360 205 360Q231 360 255 380.5Q279 401 301 441L331 615Q319 638 302 648.5Q285 659 260 659Q223 659 199 629Q175 599 165 539Z" glyph-name="ordfeminine" horiz-adv-x="410" unicode="ª" /><glyph d="M264 685Q334 685 368.5 635Q403 585 390 507L387 492Q375 417 331.5 376Q288 335 222 335Q153 335 118.5 384.5Q84 434 97 513L100 527Q112 602 155 643.5Q198 685 264 685ZM321 482 328 524Q339 588 322 624.5Q305 661 263 661Q226 661 201.5 629.5Q177 598 166 537L159 496Q148 432 165 395.5Q182 359 223 359Q261 359 285.5 390Q310 421 321 482Z" glyph-name="ordmasculine" horiz-adv-x="395" unicode="º" /><glyph d="M550 243 544 211H426L320 -10L288 2L389 211H164L58 -10L26 2L127 211H18L24 243H142L235 436H127L133 468H250L357 690L389 677L288 468H512L619 690L651 677L550 468H659L653 436H535L442 243ZM273 436 180 243H404L497 436Z" glyph-name="numbersign" horiz-adv-x="645" unicode="#" /><glyph d="M949 685Q1028 685 1066.5 631Q1105 577 1090 493L1088 478Q1075 402 1027.5 360Q980 318 906 318Q828 318 789.5 371Q751 424 765 508L768 523Q782 600 829.5 642.5Q877 685 949 685ZM174 648 119 653L124 680H291L519 146L600 599Q606 632 604.5 639Q603 646 587 648L532 653L537 680H728L723 653L668 648Q651 646 647 639Q643 632 637 599L531 0H491L227 613L133 81Q127 48 128.5 41Q130 34 146 32L200 26L195 0H4L9 26L65 32Q82 34 86 40.5Q90 47 96 81L187 599Q193 632 191.5 639Q190 646 174 648ZM1013 473 1020 514Q1031 583 1012.5 620.5Q994 658 948 658Q907 658 880 625Q853 592 842 528L835 486Q824 418 843 381Q862 344 908 344Q949 344 976 377Q1003 410 1013 473ZM1012 186 734 186L739 218H1017Z" glyph-name="uni2116" horiz-adv-x="1091" unicode="№" /><glyph d="M481 156 543 135Q510 63 454.5 26.5Q399 -10 322 -10Q217 -10 159.5 56.5Q102 123 104 242H21L26 274H106Q107 281 108 289.5Q109 298 111 315L122 382H46L51 414H128Q156 545 231.5 617.5Q307 690 418 690Q522 690 574 627.5Q626 565 599 480L509 459Q536 554 512 606Q488 658 417 658Q341 658 293 601.5Q245 545 226 432L223 414H449L437 382H218L200 274H397L386 242H195Q180 130 211.5 76Q243 22 325 22Q383 22 422.5 56Q462 90 481 156Z" glyph-name="Euro" horiz-adv-x="611" unicode="€" /><glyph d="M486 197Q486 106 420 48Q354 -10 242 -10L222 -125H186L207 -9Q122 -1 77.5 45Q33 91 32 172L95 192Q91 114 120 72Q149 30 212 23L262 306L225 320Q162 345 131 388.5Q100 432 100 494Q100 583 160 636.5Q220 690 325 690H330L350 805H386L365 688Q456 676 497.5 616Q539 556 514 483L427 465Q452 546 434.5 594.5Q417 643 359 654L312 383L355 365Q422 339 454 297.5Q486 256 486 197ZM178 524Q178 477 201.5 447Q225 417 278 396L324 658H321Q253 658 215.5 623Q178 588 178 524ZM407 161Q407 208 382 237.5Q357 267 299 291L296 292L248 22Q324 24 365.5 60.5Q407 97 407 161Z" glyph-name="dollar" horiz-adv-x="548" unicode="$" /><glyph d="M332 32 386 26L381 0H140L145 26L201 32Q214 33 218.5 36.5Q223 40 226 49L255 214H73L78 246H260L268 292L248 354H97L103 386H237L163 605Q154 632 149 639Q144 646 128 648L77 653L82 680H321L316 653L264 648Q248 646 247 639.5Q246 633 255 605L343 332L530 605Q548 632 550 639Q552 646 536 648L485 653L490 680H678L673 653L621 648Q605 646 598 640Q591 634 571 605L421 386H554L549 354H399L355 291L347 246H530L524 214H342L318 79L319 81Q313 47 314.5 40.5Q316 34 332 32Z" glyph-name="yen" horiz-adv-x="608" unicode="¥" /><glyph d="M423 184 449 184L417 0H18L28 55Q98 110 131.5 158Q165 206 165 255Q165 261 164.5 267.5Q164 274 163 284H60L66 316H155Q155 317 132 376Q109 435 109 484Q109 576 169 633Q229 690 335 690Q441 690 488.5 629.5Q536 569 505 483L415 467Q442 560 422 609Q402 658 337 658Q276 658 240.5 607Q205 556 205 470Q205 453 207 433Q209 413 215 373Q219 350 220.5 338Q222 326 223 316H396L390 284H225V279Q225 223 196 174Q167 125 104 73H332Q366 73 375 76.5Q384 80 391 99Z" glyph-name="sterling" horiz-adv-x="525" unicode="£" /><glyph d="M374 124 420 98Q390 47 345 20Q300 -7 242 -10L222 -125H186L206 -9Q120 1 80.5 72.5Q41 144 61 254L65 276Q83 376 146 438Q209 500 297 505L317 620H353L333 504Q410 496 444.5 444Q479 392 455 320L374 304Q397 376 384.5 419.5Q372 463 327 471L248 22Q292 26 325 52Q358 78 374 124ZM157 289 147 229Q132 139 149 87Q166 35 212 25L291 472Q240 465 205 417.5Q170 370 157 289Z" glyph-name="cent" horiz-adv-x="485" unicode="¢" /><glyph d="M258 342 152 -52Q125 -150 86 -186.5Q47 -223 -17 -223Q-76 -223 -103.5 -191Q-131 -159 -116 -114L-41 -103Q-55 -149 -48.5 -170.5Q-42 -192 -14 -192Q14 -192 31 -164.5Q48 -137 67 -66L177 342H54L60 374H186L241 579Q268 677 307 713.5Q346 750 411 750Q470 750 497.5 718Q525 686 510 641L434 630Q449 676 442.5 697.5Q436 719 408 719Q380 719 362.5 691.5Q345 664 326 593L267 374H391L385 342Z" glyph-name="florin" horiz-adv-x="435" unicode="ƒ" /><glyph d="M280 648 119 648L125 680H566L560 648H402Q435 626 450 590Q465 554 459 510H536L530 478H454L453 472Q439 393 380.5 350.5Q322 308 227 308H167L357 81Q386 46 394.5 39.5Q403 33 416 32L460 26L455 0H311L59 308L65 340H226Q278 340 314 374Q350 408 360 468L362 478H89L95 510H368Q378 576 354.5 612Q331 648 280 648Z" glyph-name="uni20B9" horiz-adv-x="531" unicode="₹" /><glyph d="M431 161 505 67L481 43L404 139Q379 121 348.5 112Q318 103 284 103Q246 103 214 114.5Q182 126 157 148L36 43L14 67L135 174Q120 196 112 223.5Q104 251 104 282Q104 328 121 369Q138 410 169 440L95 533L120 557L196 462Q222 479 252 488Q282 497 315 497Q353 497 385.5 485Q418 473 443 451L565 557L586 532L464 425Q479 404 487 376.5Q495 349 495 318Q495 273 478.5 232Q462 191 431 161ZM457 317Q457 385 419.5 424Q382 463 315 463Q240 463 191.5 412Q143 361 143 283Q143 214 180.5 175Q218 136 284 136Q360 136 408.5 187Q457 238 457 317Z" glyph-name="currency" horiz-adv-x="580" unicode="¤" /><glyph d="M369 690Q482 690 533.5 602Q585 514 559 366L548 301Q521 148 452.5 69Q384 -10 277 -10Q163 -10 111.5 78Q60 166 87 315L98 380Q125 533 193.5 611.5Q262 690 369 690ZM445 254 473 419Q493 537 466.5 597.5Q440 658 369 658Q302 658 262.5 603Q223 548 201 426L173 261Q153 144 179 83Q205 22 276 22Q343 22 383 77Q423 132 445 254Z" glyph-name="zero" horiz-adv-x="614" unicode="0" /><glyph d="M105 569 91 597L238 680H309L204 81Q198 48 199.5 41Q201 34 217 32L271 26L266 0H5L10 26L86 32Q103 33 107 40.5Q111 48 117 81L213 630Z" glyph-name="one" horiz-adv-x="353" unicode="1" /><glyph d="M429 206 455 206L419 0H17L27 53Q41 131 85.5 188.5Q130 246 242 313Q301 349 325.5 367Q350 385 367 404Q393 433 406 468Q419 503 419 546Q419 604 396 631Q373 658 323 658Q260 658 224.5 610Q189 562 182 467L98 483Q98 574 159.5 632Q221 690 323 690Q413 690 463 646.5Q513 603 513 526Q513 475 491.5 435.5Q470 396 424 363Q391 340 325.5 309Q260 278 252 274Q173 234 129.5 186Q86 138 69 75H323Q354 75 363.5 78.5Q373 82 382 101Z" glyph-name="two" horiz-adv-x="539" unicode="2" /><glyph d="M326 349Q391 334 424.5 295Q458 256 458 195Q458 106 392 48Q326 -10 215 -10Q129 -10 81 29Q33 68 23 147L80 165Q80 95 112 58.5Q144 22 205 22Q276 22 319 72.5Q362 123 362 205Q362 271 328 302.5Q294 334 224 334H197L204 366H231Q316 366 363.5 416Q411 466 411 551Q411 605 388 631.5Q365 658 318 658Q253 658 217.5 610.5Q182 563 175 467L91 483Q91 573 154 631.5Q217 690 320 690Q409 690 458 649Q507 608 507 536Q507 463 460 414.5Q413 366 326 349Z" glyph-name="three" horiz-adv-x="527" unicode="3" /><glyph d="M272 81 289 176H0L5 208Q127 318 198.5 423Q270 528 326 680H432Q378 557 288 445Q198 333 51 208H294L322 365L411 379L381 208H458L452 176H376L359 81Q353 48 354.5 41Q356 34 372 32L426 26L421 0H160L165 26L241 32Q258 33 262 39.5Q266 46 272 81Z" glyph-name="four" horiz-adv-x="495" unicode="4" /><glyph d="M110 339 92 348L169 680H416Q452 680 459 683Q466 686 474 706L495 762H521L494 603H185L137 394Q166 411 200 420Q234 429 269 429Q358 429 408 380Q458 331 458 243Q458 134 388.5 62Q319 -10 201 -10Q126 -10 82.5 29.5Q39 69 30 147L87 165Q86 94 114 58Q142 22 197 22Q271 22 317.5 90Q364 158 364 263Q364 331 338.5 363Q313 395 260 395Q222 395 185 381Q148 367 110 339Z" glyph-name="five" horiz-adv-x="511" unicode="5" /><glyph d="M508 193 505 176Q493 93 428.5 41.5Q364 -10 273 -10Q158 -10 110 75.5Q62 161 87 316L98 379Q124 535 192.5 612.5Q261 690 373 690Q469 690 518 633.5Q567 577 547 496L459 481Q482 567 459 612.5Q436 658 370 658Q304 658 263 603.5Q222 549 203 437L185 333Q219 366 259 383Q299 400 343 400Q429 400 475 342Q521 284 508 193ZM175 277 171 256Q151 138 175.5 80Q200 22 270 22Q329 22 365 61.5Q401 101 413 178L415 191Q428 274 404.5 318.5Q381 363 324 363Q282 363 244 341Q206 319 175 277Z" glyph-name="six" horiz-adv-x="575" unicode="6" /><glyph d="M515 680 503 611Q382 483 319.5 351Q257 219 209 0H103Q160 197 238 330Q316 463 456 603H193Q162 603 152.5 599.5Q143 596 135 577L93 480H66L102 680Z" glyph-name="seven" horiz-adv-x="456" unicode="7" /><glyph d="M355 365Q415 332 445.5 286.5Q476 241 476 185Q476 100 413.5 45Q351 -10 248 -10Q153 -10 95.5 34Q38 78 38 147Q38 207 84.5 257.5Q131 308 215 338Q162 371 137 411Q112 451 112 501Q112 585 170.5 637.5Q229 690 326 690Q413 690 466 648.5Q519 607 519 539Q519 481 476.5 435Q434 389 355 365ZM192 534Q192 493 212.5 463.5Q233 434 288 403L327 381Q381 401 409 442Q437 483 437 539Q437 595 406 626.5Q375 658 322 658Q264 658 228 624.5Q192 591 192 534ZM120 149Q120 89 154.5 55.5Q189 22 251 22Q317 22 357 58.5Q397 95 397 156Q397 200 374 231.5Q351 263 299 291L243 321Q184 299 152 254Q120 209 120 149Z" glyph-name="eight" horiz-adv-x="544" unicode="8" /><glyph d="M519 363 509 300Q484 147 411 68.5Q338 -10 222 -10Q145 -10 100 30Q55 70 47 146L109 164Q107 93 135 57.5Q163 22 220 22Q291 22 338.5 78Q386 134 404 243L418 325Q385 294 345.5 278Q306 262 264 262Q177 262 130.5 323Q84 384 99 479L102 497Q115 583 179.5 636.5Q244 690 334 690Q449 690 497 604Q545 518 519 363ZM194 495 191 478Q178 392 201.5 345.5Q225 299 283 299Q322 299 359.5 319.5Q397 340 427 379L435 424Q456 542 431.5 600Q407 658 337 658Q279 658 243 617Q207 576 194 495Z" glyph-name="nine" horiz-adv-x="575" unicode="9" /><glyph d="M325 690Q438 690 489.5 602Q541 514 515 366L504 301Q477 148 408.5 69Q340 -10 233 -10Q119 -10 67.5 78Q16 166 43 315L54 380Q81 533 149.5 611.5Q218 690 325 690ZM401 254 429 419Q449 537 422.5 597.5Q396 658 325 658Q258 658 218.5 603Q179 548 157 426L129 261Q109 144 135 83Q161 22 232 22Q299 22 339 77Q379 132 401 254Z" glyph-name="zero.tlf" horiz-adv-x="525" unicode="" /><glyph d="M151 541 137 569L329 680H401L296 82Q290 49 292 42Q294 35 309 33L404 26L400 0H61L65 26L178 33Q195 35 199 42.5Q203 50 209 82L305 630Z" glyph-name="one.tlf" horiz-adv-x="525" unicode="" /><glyph d="M425 206 451 206L415 0H13L23 53Q37 131 81.5 188.5Q126 246 238 313Q297 349 321.5 367Q346 385 363 404Q389 433 402 468Q415 503 415 546Q415 604 392 631Q369 658 319 658Q256 658 220.5 610Q185 562 178 467L94 483Q94 574 155.5 632Q217 690 319 690Q409 690 459 646.5Q509 603 509 526Q509 475 487.5 435.5Q466 396 420 363Q387 340 321.5 309Q256 278 248 274Q169 234 125.5 186Q82 138 65 75H319Q350 75 359.5 78.5Q369 82 378 101Z" glyph-name="two.tlf" horiz-adv-x="525" unicode="" /><glyph d="M327 349Q392 334 425.5 295Q459 256 459 195Q459 106 393 48Q327 -10 216 -10Q130 -10 82 29Q34 68 24 147L81 165Q81 95 113 58.5Q145 22 206 22Q277 22 320 72.5Q363 123 363 205Q363 271 329 302.5Q295 334 225 334H198L205 366H232Q317 366 364.5 416Q412 466 412 551Q412 605 389 631.5Q366 658 319 658Q254 658 218.5 610.5Q183 563 176 467L92 483Q92 573 155 631.5Q218 690 321 690Q410 690 459 649Q508 608 508 536Q508 463 461 414.5Q414 366 327 349Z" glyph-name="three.tlf" horiz-adv-x="525" unicode="" /><glyph d="M288 81 305 176H16L21 208Q143 318 214.5 423Q286 528 342 680H448Q394 557 304 445Q214 333 67 208H310L338 365L427 379L397 208H474L468 176H392L375 81Q369 48 370.5 41Q372 34 388 32L442 26L437 0H176L181 26L257 32Q274 33 278 39.5Q282 46 288 81Z" glyph-name="four.tlf" horiz-adv-x="525" unicode="" /><glyph d="M114 339 96 348L173 680H420Q456 680 463 683Q470 686 478 706L499 762H525L498 603H189L141 394Q170 411 204 420Q238 429 273 429Q362 429 412 380Q462 331 462 243Q462 134 392.5 62Q323 -10 205 -10Q130 -10 86.5 29.5Q43 69 34 147L91 165Q90 94 118 58Q146 22 201 22Q275 22 321.5 90Q368 158 368 263Q368 331 342.5 363Q317 395 264 395Q226 395 189 381Q152 367 114 339Z" glyph-name="five.tlf" horiz-adv-x="525" unicode="" /><glyph d="M480 193 477 176Q465 93 400.5 41.5Q336 -10 245 -10Q130 -10 82 75.5Q34 161 59 316L70 379Q96 535 164.5 612.5Q233 690 345 690Q441 690 490 633.5Q539 577 519 496L431 481Q454 567 431 612.5Q408 658 342 658Q276 658 235 603.5Q194 549 175 437L157 333Q191 366 231 383Q271 400 315 400Q401 400 447 342Q493 284 480 193ZM147 277 143 256Q123 138 147.5 80Q172 22 242 22Q301 22 337 61.5Q373 101 385 178L387 191Q400 274 376.5 318.5Q353 363 296 363Q254 363 216 341Q178 319 147 277Z" glyph-name="six.tlf" horiz-adv-x="525" unicode="" /><glyph d="M544 680 532 611Q411 483 348.5 351Q286 219 238 0H132Q189 197 267 330Q345 463 485 603H222Q191 603 181.5 599.5Q172 596 164 577L122 480H95L131 680Z" glyph-name="seven.tlf" horiz-adv-x="525" unicode="" /><glyph d="M346 365Q406 332 436.5 286.5Q467 241 467 185Q467 100 404.5 45Q342 -10 239 -10Q144 -10 86.5 34Q29 78 29 147Q29 207 75.5 257.5Q122 308 206 338Q153 371 128 411Q103 451 103 501Q103 585 161.5 637.5Q220 690 317 690Q404 690 457 648.5Q510 607 510 539Q510 481 467.5 435Q425 389 346 365ZM183 534Q183 493 203.5 463.5Q224 434 279 403L318 381Q372 401 400 442Q428 483 428 539Q428 595 397 626.5Q366 658 313 658Q255 658 219 624.5Q183 591 183 534ZM111 149Q111 89 145.5 55.5Q180 22 242 22Q308 22 348 58.5Q388 95 388 156Q388 200 365 231.5Q342 263 290 291L234 321Q175 299 143 254Q111 209 111 149Z" glyph-name="eight.tlf" horiz-adv-x="525" unicode="" /><glyph d="M498 363 488 300Q463 147 390 68.5Q317 -10 201 -10Q124 -10 79 30Q34 70 26 146L88 164Q86 93 114 57.5Q142 22 199 22Q270 22 317.5 78Q365 134 383 243L397 325Q364 294 324.5 278Q285 262 243 262Q156 262 109.5 323Q63 384 78 479L81 497Q94 583 158.5 636.5Q223 690 313 690Q428 690 476 604Q524 518 498 363ZM173 495 170 478Q157 392 180.5 345.5Q204 299 262 299Q301 299 338.5 319.5Q376 340 406 379L414 424Q435 542 410.5 600Q386 658 316 658Q258 658 222 617Q186 576 173 495Z" glyph-name="nine.tlf" horiz-adv-x="525" unicode="" /><glyph d="M316 505Q420 505 472 431Q524 357 503 242L499 220Q479 110 413.5 50Q348 -10 247 -10Q144 -10 93 64Q42 138 62 252L66 275Q86 385 151 445Q216 505 316 505ZM406 207 417 268Q434 368 407 421Q380 474 313 474Q252 474 213 427Q174 380 158 288L147 227Q130 127 157 73.5Q184 20 250 20Q312 20 351.5 67Q391 114 406 207Z" glyph-name="zero.posf" horiz-adv-x="565" unicode="" /><glyph d="M67 384 53 412L200 495H271L198 81Q192 48 193.5 41Q195 34 211 32L265 26L261 0H0L4 26L80 32Q96 33 100.5 39.5Q105 46 111 81L175 445Z" glyph-name="one.posf" horiz-adv-x="337" unicode="" /><glyph d="M398 165 425 165L395 0H32L41 55Q51 111 85 148.5Q119 186 190 218Q301 267 335 304Q369 341 369 395Q369 435 350 454Q331 473 292 473Q238 473 208.5 433Q179 393 173 312L88 328Q88 406 144.5 455.5Q201 505 296 505Q375 505 419.5 471.5Q464 438 464 379Q464 339 441 309.5Q418 280 366 254Q340 241 285 220Q230 199 209 190Q151 166 122.5 139Q94 112 82 74H311Q344 74 352.5 77.5Q361 81 370 100Z" glyph-name="two.posf" horiz-adv-x="522" unicode="" /><glyph d="M315 52Q315 111 290.5 139Q266 167 215 167H188L194 199L408 418H190Q159 418 149.5 414.5Q140 411 131 392L89 295H63L98 495H476L464 426L240 198Q318 193 364.5 151Q411 109 411 40Q411 -60 343 -127.5Q275 -195 163 -195Q83 -195 39 -156Q-5 -117 -13 -38L52 -20Q51 -92 78.5 -127.5Q106 -163 162 -163Q231 -163 273 -103.5Q315 -44 315 52Z" glyph-name="three.posf" horiz-adv-x="505" unicode="" /><glyph d="M317 -178 227 -195L262 0H-26L-21 32Q103 145 173.5 247.5Q244 350 297 495H403Q351 376 262 267Q173 158 24 32H267L293 178L382 192L354 32H431L426 0H348Z" glyph-name="four.posf" horiz-adv-x="491" unicode="" /><glyph d="M76 154 58 163L135 495H382Q418 495 425 498Q432 501 440 521L461 577H487L460 418H151L103 209Q132 226 166 235Q200 244 235 244Q324 244 374 195Q424 146 424 58Q424 -51 354.5 -123Q285 -195 167 -195Q92 -195 48.5 -155.5Q5 -116 -4 -38L53 -20Q52 -91 80 -127Q108 -163 163 -163Q237 -163 283.5 -95Q330 -27 330 78Q330 146 304.5 178Q279 210 226 210Q188 210 151 196Q114 182 76 154Z" glyph-name="five.posf" horiz-adv-x="514" unicode="" /><glyph d="M503 193 500 176Q488 93 423.5 41.5Q359 -10 268 -10Q153 -10 105 75.5Q57 161 82 316L93 379Q119 535 187.5 612.5Q256 690 368 690Q464 690 513 633.5Q562 577 542 496L454 481Q477 567 454 612.5Q431 658 365 658Q299 658 258 603.5Q217 549 198 437L180 333Q214 366 254 383Q294 400 338 400Q424 400 470 342Q516 284 503 193ZM170 277 166 256Q146 138 170.5 80Q195 22 265 22Q324 22 360 61.5Q396 101 408 178L410 191Q423 274 399.5 318.5Q376 363 319 363Q277 363 239 341Q201 319 170 277Z" glyph-name="six.posf" horiz-adv-x="577" unicode="" /><glyph d="M489 495 477 426Q356 298 293.5 166Q231 34 183 -185H77Q134 12 212 145Q290 278 430 418H167Q136 418 126.5 414.5Q117 411 109 392L67 295H40L76 495Z" glyph-name="seven.posf" horiz-adv-x="479" unicode="" /><glyph d="M349 365Q409 332 439.5 286.5Q470 241 470 185Q470 100 407.5 45Q345 -10 242 -10Q147 -10 89.5 34Q32 78 32 147Q32 207 78.5 257.5Q125 308 209 338Q156 371 131 411Q106 451 106 501Q106 585 164.5 637.5Q223 690 320 690Q407 690 460 648.5Q513 607 513 539Q513 481 470.5 435Q428 389 349 365ZM186 534Q186 493 206.5 463.5Q227 434 282 403L321 381Q375 401 403 442Q431 483 431 539Q431 595 400 626.5Q369 658 316 658Q258 658 222 624.5Q186 591 186 534ZM114 149Q114 89 148.5 55.5Q183 22 245 22Q311 22 351 58.5Q391 95 391 156Q391 200 368 231.5Q345 263 293 291L237 321Q178 299 146 254Q114 209 114 149Z" glyph-name="eight.posf" horiz-adv-x="539" unicode="" /><glyph d="M484 178 474 115Q449 -38 376 -116.5Q303 -195 187 -195Q110 -195 65 -155Q20 -115 12 -39L74 -21Q72 -92 100 -127.5Q128 -163 185 -163Q256 -163 303.5 -107Q351 -51 369 58L383 140Q350 109 310.5 93Q271 77 229 77Q142 77 95.5 138Q49 199 64 294L67 312Q80 398 144.5 451.5Q209 505 299 505Q414 505 462 419Q510 333 484 178ZM159 310 156 293Q143 207 166.5 160.5Q190 114 248 114Q287 114 324.5 134.5Q362 155 392 194L400 239Q421 357 396.5 415Q372 473 302 473Q244 473 208 432Q172 391 159 310Z" glyph-name="nine.posf" horiz-adv-x="576" unicode="" /><glyph d="M404 546Q404 470 353.5 418Q303 366 228 366Q163 366 123 405.5Q83 445 83 510Q83 586 133.5 638Q184 690 259 690Q324 690 364 650.5Q404 611 404 546ZM365 545Q365 597 336.5 626.5Q308 656 259 656Q198 656 159.5 615Q121 574 121 511Q121 458 149.5 428.5Q178 399 228 399Q288 399 326.5 440Q365 481 365 545Z" glyph-name="degree" horiz-adv-x="387" unicode="°" /><glyph d="M242 685Q308 685 342.5 640.5Q377 596 366 527L363 511Q353 447 312.5 411Q272 375 212 375Q146 375 112 419Q78 463 89 531L91 547Q101 611 141.5 648Q182 685 242 685ZM118 17 607 680L632 662L143 0ZM297 502 304 544Q313 598 297 628.5Q281 659 244 659Q211 659 188.5 633Q166 607 158 557L151 516Q141 462 157 431Q173 400 211 400Q244 400 266.5 426Q289 452 297 502ZM539 305Q605 305 639.5 260.5Q674 216 663 147L660 131Q650 67 609.5 31Q569 -5 509 -5Q443 -5 409 39Q375 83 386 151L389 167Q399 231 439.5 268Q480 305 539 305ZM594 122 601 164Q610 217 594 248Q578 279 541 279Q508 279 485.5 253Q463 227 455 177L448 136Q439 82 455 51Q471 20 508 20Q542 20 564 46Q586 72 594 122Z" glyph-name="percent" horiz-adv-x="719" unicode="%" /><glyph d="M242 685Q308 685 342.5 640.5Q377 596 366 527L363 511Q353 447 312.5 411Q272 375 212 375Q146 375 112 419Q78 463 89 531L91 547Q101 611 141.5 648Q182 685 242 685ZM118 17 607 680L632 662L143 0ZM297 502 304 544Q313 598 297 628.5Q281 659 244 659Q211 659 188.5 633Q166 607 158 557L151 516Q141 462 157 431Q173 400 211 400Q244 400 266.5 426Q289 452 297 502ZM539 305Q605 305 639.5 260.5Q674 216 663 147L660 131Q650 67 609.5 31Q569 -5 509 -5Q443 -5 409 39Q375 83 386 151L389 167Q399 231 439.5 268Q480 305 539 305ZM889 305Q955 305 989.5 260.5Q1024 216 1013 147L1010 131Q1000 67 959.5 31Q919 -5 859 -5Q793 -5 759 39Q725 83 736 151L739 167Q749 231 789.5 268Q830 305 889 305ZM594 122 601 164Q610 217 594 248Q578 279 541 279Q508 279 485.5 253Q463 227 455 177L448 136Q439 82 455 51Q471 20 508 20Q542 20 564 46Q586 72 594 122ZM944 122 951 164Q960 217 944 248Q928 279 891 279Q858 279 835.5 253Q813 227 805 177L798 136Q789 82 805 51Q821 20 858 20Q892 20 914 46Q936 72 944 122Z" glyph-name="perthousand" horiz-adv-x="1069" unicode="‰" /><glyph d="M-215 17 274 680L299 662L-190 0Z" glyph-name="fraction" horiz-adv-x="51" unicode="⁄" /><glyph d="M-215 17 274 680L299 662L-190 0Z" glyph-name="uni2215" horiz-adv-x="51" unicode="∕" /><glyph d="M251 790Q314 790 343.5 746.5Q373 703 361 629L355 594Q343 519 306 479.5Q269 440 210 440Q147 440 117 483.5Q87 527 100 601L107 636Q120 713 156.5 751.5Q193 790 251 790ZM288 572 301 654Q310 710 298 738.5Q286 767 253 767Q222 767 203 740.5Q184 714 174 658L160 576Q150 521 162.5 492Q175 463 208 463Q240 463 259 489Q278 515 288 572Z" glyph-name="zerosuperior" horiz-adv-x="334" unicode="⁰" /><glyph d="M127 721 115 744L189 785H239L187 492Q184 476 185 472.5Q186 469 194 468L222 465L218 445H72L76 465L114 468Q121 469 123 470.5Q125 472 126 476Q126 477 127 480Q128 483 129 492L175 748Z" glyph-name="onesuperior" horiz-adv-x="216" unicode="¹" /><glyph d="M278 544 298 544L281 445H64L69 472Q78 520 98 546Q118 572 177 601Q225 625 245.5 651.5Q266 678 266 717Q266 742 257 754.5Q248 767 229 767Q199 767 183 745Q167 723 163 677L106 685Q106 731 139 760.5Q172 790 227 790Q276 790 302.5 768.5Q329 747 329 708Q329 672 302.5 644.5Q276 617 181 572Q145 556 127 537Q109 518 102 489H232Q249 489 253.5 491Q258 493 261 502Z" glyph-name="twosuperior" horiz-adv-x="290" unicode="²" /><glyph d="M244 619Q274 610 289.5 592Q305 574 305 546Q305 500 269 470Q233 440 172 440Q126 440 101 458.5Q76 477 72 513L107 523Q106 493 122 477Q138 461 168 461Q202 461 222 485.5Q242 510 242 551Q242 580 226 594.5Q210 609 179 609H161L165 630H183Q222 630 244.5 655Q267 680 267 721Q267 744 256.5 756.5Q246 769 226 769Q197 769 180.5 747Q164 725 160 679L104 687Q103 733 135 761.5Q167 790 224 790Q274 790 301.5 768.5Q329 747 329 709Q329 675 307 651.5Q285 628 244 619Z" glyph-name="threesuperior" horiz-adv-x="291" unicode="³" /><glyph d="M197 491 204 530H56L59 551Q126 612 160.5 663.5Q195 715 219 785H286Q267 735 228.5 686.5Q190 638 91 551H208L221 628L280 634L265 551H304L300 530H262L255 491Q254 483 253.5 480Q253 477 253 475Q252 471 253.5 469Q255 467 262 466L288 463L285 445H145L149 463L182 466Q190 467 192 470.5Q194 474 197 491Z" glyph-name="foursuperior" horiz-adv-x="266" unicode="⁴" /><glyph d="M117 612 105 617L144 785H282Q292 785 295.5 785Q299 785 301 786Q305 786 307 788Q309 790 311 798L321 826H335L319 741H155L133 646Q148 654 164.5 658.5Q181 663 199 663Q248 663 276.5 637Q305 611 305 565Q305 510 268 475Q231 440 168 440Q127 440 103 458Q79 476 74 510L108 520Q109 491 122.5 476Q136 461 161 461Q197 461 219 493.5Q241 526 241 576Q241 609 228.5 625Q216 641 191 641Q173 641 155 634Q137 627 117 612Z" glyph-name="fivesuperior" horiz-adv-x="277" unicode="⁵" /><glyph d="M333 543 332 536Q326 492 292 466Q258 440 206 440Q145 440 118 481.5Q91 523 103 598L108 629Q121 709 158 749.5Q195 790 254 790Q309 790 337 761Q365 732 353 691L292 683Q304 725 295 747Q286 769 256 769Q223 769 204 742.5Q185 716 175 659L169 626Q184 638 201.5 643.5Q219 649 239 649Q287 649 313 619.5Q339 590 333 543ZM163 591 159 568Q150 515 161.5 488Q173 461 204 461Q230 461 247 481Q264 501 271 540L272 545Q278 585 267.5 605.5Q257 626 230 626Q211 626 194 617Q177 608 163 591Z" glyph-name="sixsuperior" horiz-adv-x="318" unicode="⁶" /><glyph d="M341 785 334 746Q272 679 242.5 616Q213 553 189 445H121Q148 535 188 601Q228 667 301 741H174Q157 741 152.5 739Q148 737 145 728L130 686H109L127 785Z" glyph-name="sevensuperior" horiz-adv-x="272" unicode="⁷" /><glyph d="M260 631Q291 613 306 591.5Q321 570 321 542Q321 497 288 468.5Q255 440 198 440Q147 440 117.5 461.5Q88 483 88 519Q88 548 111 570.5Q134 593 181 611Q151 629 137.5 648.5Q124 668 124 693Q124 736 155 763Q186 790 240 790Q287 790 315 769Q343 748 343 714Q343 688 322.5 668Q302 648 260 631ZM179 711Q179 693 188 680.5Q197 668 223 654L241 643Q265 657 276.5 675Q288 693 288 716Q288 740 275 753.5Q262 767 239 767Q213 767 196 751.5Q179 736 179 711ZM143 519Q143 492 157.5 477Q172 462 199 462Q229 462 247.5 479Q266 496 266 523Q266 543 257 557Q248 571 224 584L199 600Q171 584 157 564Q143 544 143 519Z" glyph-name="eightsuperior" horiz-adv-x="311" unicode="⁸" /><glyph d="M334 630 329 598Q317 520 278 480Q239 440 175 440Q134 440 110 458Q86 476 80 510L114 521Q115 492 130.5 476.5Q146 461 174 461Q210 461 231 487.5Q252 514 262 571L268 604Q253 592 235.5 586Q218 580 198 580Q150 580 124.5 609Q99 638 105 685L106 697Q112 740 144.5 765Q177 790 226 790Q289 790 317.5 748Q346 706 334 630ZM166 690 165 683Q159 643 169.5 623.5Q180 604 207 604Q226 604 243 613Q260 622 274 639L278 662Q287 715 275.5 742Q264 769 231 769Q204 769 187.5 749Q171 729 166 690Z" glyph-name="ninesuperior" horiz-adv-x="307" unicode="⁹" /><glyph d="M155 240Q218 240 247.5 196.5Q277 153 265 79L259 44Q247 -31 210 -70.5Q173 -110 114 -110Q51 -110 21 -66.5Q-9 -23 4 51L11 86Q24 163 60.5 201.5Q97 240 155 240ZM192 22 205 104Q214 160 202 188.5Q190 217 157 217Q126 217 107 190.5Q88 164 78 108L64 26Q54 -29 66.5 -58Q79 -87 112 -87Q144 -87 163 -61Q182 -35 192 22Z" glyph-name="zeroinferior" horiz-adv-x="334" unicode="₀" /><glyph d="M31 171 19 194L93 235H143L91 -58Q88 -74 89 -77.5Q90 -81 98 -82L126 -85L122 -105H-24L-20 -85L18 -82Q25 -81 27 -79.5Q29 -78 30 -74Q30 -73 31 -70Q32 -67 33 -58L79 198Z" glyph-name="oneinferior" horiz-adv-x="216" unicode="₁" /><glyph d="M182 -6 202 -6L185 -105H-32L-27 -78Q-18 -30 2 -4Q22 22 81 51Q129 75 149.5 101.5Q170 128 170 167Q170 192 161 204.5Q152 217 133 217Q103 217 87 195Q71 173 67 127L10 135Q10 181 43 210.5Q76 240 131 240Q180 240 206.5 218.5Q233 197 233 158Q233 122 206.5 94.5Q180 67 85 22Q49 6 31 -13Q13 -32 6 -61H136Q153 -61 157.5 -59Q162 -57 165 -48Z" glyph-name="twoinferior" horiz-adv-x="290" unicode="₂" /><glyph d="M148 69Q178 60 193.5 42Q209 24 209 -4Q209 -50 173 -80Q137 -110 76 -110Q30 -110 5 -91.5Q-20 -73 -24 -37L11 -27Q10 -57 26 -73Q42 -89 72 -89Q106 -89 126 -64.5Q146 -40 146 1Q146 30 130 44.5Q114 59 83 59H65L69 80H87Q126 80 148.5 105Q171 130 171 171Q171 194 160.5 206.5Q150 219 130 219Q101 219 84.5 197Q68 175 64 129L8 137Q7 183 39 211.5Q71 240 128 240Q178 240 205.5 218.5Q233 197 233 159Q233 125 211 101.5Q189 78 148 69Z" glyph-name="threeinferior" horiz-adv-x="291" unicode="₃" /><glyph d="M100 -59 107 -20H-41L-38 1Q29 62 63.5 113.5Q98 165 122 235H189Q170 185 131.5 136.5Q93 88 -6 1H111L124 78L183 84L168 1H207L203 -20H165L158 -59Q157 -67 156.5 -70Q156 -73 156 -75Q155 -79 156.5 -81Q158 -83 165 -84L191 -87L188 -105H48L52 -87L85 -84Q93 -83 95 -79.5Q97 -76 100 -59Z" glyph-name="fourinferior" horiz-adv-x="266" unicode="₄" /><glyph d="M21 62 9 67L48 235H186Q196 235 199.5 235Q203 235 205 236Q209 236 211 238Q213 240 215 248L225 276H239L223 191H59L37 96Q52 104 68.5 108.5Q85 113 103 113Q152 113 180.5 87Q209 61 209 15Q209 -40 172 -75Q135 -110 72 -110Q31 -110 7 -92Q-17 -74 -22 -40L12 -30Q13 -59 26.5 -74Q40 -89 65 -89Q101 -89 123 -56.5Q145 -24 145 26Q145 59 132.5 75Q120 91 95 91Q77 91 59 84Q41 77 21 62Z" glyph-name="fiveinferior" horiz-adv-x="277" unicode="₅" /><glyph d="M237 -7 236 -14Q230 -58 196 -84Q162 -110 110 -110Q49 -110 22 -68.5Q-5 -27 7 48L12 79Q25 159 62 199.5Q99 240 158 240Q213 240 241 211Q269 182 257 141L196 133Q208 175 199 197Q190 219 160 219Q127 219 108 192.5Q89 166 79 109L73 76Q88 88 105.5 93.5Q123 99 143 99Q191 99 217 69.5Q243 40 237 -7ZM67 41 63 18Q54 -35 65.5 -62Q77 -89 108 -89Q134 -89 151 -69Q168 -49 175 -10L176 -5Q182 35 171.5 55.5Q161 76 134 76Q115 76 98 67Q81 58 67 41Z" glyph-name="sixinferior" horiz-adv-x="318" unicode="₆" /><glyph d="M245 235 238 196Q176 129 146.5 66Q117 3 93 -105H25Q52 -15 92 51Q132 117 205 191H78Q61 191 56.5 189Q52 187 49 178L34 136H13L31 235Z" glyph-name="seveninferior" horiz-adv-x="272" unicode="₇" /><glyph d="M164 81Q195 63 210 41.5Q225 20 225 -8Q225 -53 192 -81.5Q159 -110 102 -110Q51 -110 21.5 -88.5Q-8 -67 -8 -31Q-8 -2 15 20.5Q38 43 85 61Q55 79 41.5 98.5Q28 118 28 143Q28 186 59 213Q90 240 144 240Q191 240 219 219Q247 198 247 164Q247 138 226.5 118Q206 98 164 81ZM83 161Q83 143 92 130.5Q101 118 127 104L145 93Q169 107 180.5 125Q192 143 192 166Q192 190 179 203.5Q166 217 143 217Q117 217 100 201.5Q83 186 83 161ZM47 -31Q47 -58 61.5 -73Q76 -88 103 -88Q133 -88 151.5 -71Q170 -54 170 -27Q170 -7 161 7Q152 21 128 34L103 50Q75 34 61 14Q47 -6 47 -31Z" glyph-name="eightinferior" horiz-adv-x="311" unicode="₈" /><glyph d="M238 80 233 48Q221 -30 182 -70Q143 -110 79 -110Q38 -110 14 -92Q-10 -74 -16 -40L18 -29Q19 -58 34.5 -73.5Q50 -89 78 -89Q114 -89 135 -62.5Q156 -36 166 21L172 54Q157 42 139.5 36Q122 30 102 30Q54 30 28.5 59Q3 88 9 135L10 147Q16 190 48.5 215Q81 240 130 240Q193 240 221.5 198Q250 156 238 80ZM70 140 69 133Q63 93 73.5 73.5Q84 54 111 54Q130 54 147 63Q164 72 178 89L182 112Q191 165 179.5 192Q168 219 135 219Q108 219 91.5 199Q75 179 70 140Z" glyph-name="nineinferior" horiz-adv-x="307" unicode="₉" /><glyph d="M155 240Q218 240 247.5 196.5Q277 153 265 79L259 44Q247 -31 210 -70.5Q173 -110 114 -110Q51 -110 21 -66.5Q-9 -23 4 51L11 86Q24 163 60.5 201.5Q97 240 155 240ZM192 22 205 104Q214 160 202 188.5Q190 217 157 217Q126 217 107 190.5Q88 164 78 108L64 26Q54 -29 66.5 -58Q79 -87 112 -87Q144 -87 163 -61Q182 -35 192 22Z" glyph-name="zero.numerator" horiz-adv-x="334" unicode="" /><glyph d="M31 171 19 194L93 235H143L91 -58Q88 -74 89 -77.5Q90 -81 98 -82L126 -85L122 -105H-24L-20 -85L18 -82Q25 -81 27 -79.5Q29 -78 30 -74Q30 -73 31 -70Q32 -67 33 -58L79 198Z" glyph-name="one.numerator" horiz-adv-x="216" unicode="" /><glyph d="M182 -6 202 -6L185 -105H-32L-27 -78Q-18 -30 2 -4Q22 22 81 51Q129 75 149.5 101.5Q170 128 170 167Q170 192 161 204.5Q152 217 133 217Q103 217 87 195Q71 173 67 127L10 135Q10 181 43 210.5Q76 240 131 240Q180 240 206.5 218.5Q233 197 233 158Q233 122 206.5 94.5Q180 67 85 22Q49 6 31 -13Q13 -32 6 -61H136Q153 -61 157.5 -59Q162 -57 165 -48Z" glyph-name="two.numerator" horiz-adv-x="290" unicode="" /><glyph d="M148 69Q178 60 193.5 42Q209 24 209 -4Q209 -50 173 -80Q137 -110 76 -110Q30 -110 5 -91.5Q-20 -73 -24 -37L11 -27Q10 -57 26 -73Q42 -89 72 -89Q106 -89 126 -64.5Q146 -40 146 1Q146 30 130 44.5Q114 59 83 59H65L69 80H87Q126 80 148.5 105Q171 130 171 171Q171 194 160.5 206.5Q150 219 130 219Q101 219 84.5 197Q68 175 64 129L8 137Q7 183 39 211.5Q71 240 128 240Q178 240 205.5 218.5Q233 197 233 159Q233 125 211 101.5Q189 78 148 69Z" glyph-name="three.numerator" horiz-adv-x="291" unicode="" /><glyph d="M100 -59 107 -20H-41L-38 1Q29 62 63.5 113.5Q98 165 122 235H189Q170 185 131.5 136.5Q93 88 -6 1H111L124 78L183 84L168 1H207L203 -20H165L158 -59Q157 -67 156.5 -70Q156 -73 156 -75Q155 -79 156.5 -81Q158 -83 165 -84L191 -87L188 -105H48L52 -87L85 -84Q93 -83 95 -79.5Q97 -76 100 -59Z" glyph-name="four.numerator" horiz-adv-x="265" unicode="" /><glyph d="M21 62 9 67L48 235H186Q196 235 199.5 235Q203 235 205 236Q209 236 211 238Q213 240 215 248L225 276H239L223 191H59L37 96Q52 104 68.5 108.5Q85 113 103 113Q152 113 180.5 87Q209 61 209 15Q209 -40 172 -75Q135 -110 72 -110Q31 -110 7 -92Q-17 -74 -22 -40L12 -30Q13 -59 26.5 -74Q40 -89 65 -89Q101 -89 123 -56.5Q145 -24 145 26Q145 59 132.5 75Q120 91 95 91Q77 91 59 84Q41 77 21 62Z" glyph-name="five.numerator" horiz-adv-x="277" unicode="" /><glyph d="M237 -7 236 -14Q230 -58 196 -84Q162 -110 110 -110Q49 -110 22 -68.5Q-5 -27 7 48L12 79Q25 159 62 199.5Q99 240 158 240Q213 240 241 211Q269 182 257 141L196 133Q208 175 199 197Q190 219 160 219Q127 219 108 192.5Q89 166 79 109L73 76Q88 88 105.5 93.5Q123 99 143 99Q191 99 217 69.5Q243 40 237 -7ZM67 41 63 18Q54 -35 65.5 -62Q77 -89 108 -89Q134 -89 151 -69Q168 -49 175 -10L176 -5Q182 35 171.5 55.5Q161 76 134 76Q115 76 98 67Q81 58 67 41Z" glyph-name="six.numerator" horiz-adv-x="318" unicode="" /><glyph d="M245 235 238 196Q176 129 146.5 66Q117 3 93 -105H25Q52 -15 92 51Q132 117 205 191H78Q61 191 56.5 189Q52 187 49 178L34 136H13L31 235Z" glyph-name="seven.numerator" horiz-adv-x="272" unicode="" /><glyph d="M164 81Q195 63 210 41.5Q225 20 225 -8Q225 -53 192 -81.5Q159 -110 102 -110Q51 -110 21.5 -88.5Q-8 -67 -8 -31Q-8 -2 15 20.5Q38 43 85 61Q55 79 41.5 98.5Q28 118 28 143Q28 186 59 213Q90 240 144 240Q191 240 219 219Q247 198 247 164Q247 138 226.5 118Q206 98 164 81ZM83 161Q83 143 92 130.5Q101 118 127 104L145 93Q169 107 180.5 125Q192 143 192 166Q192 190 179 203.5Q166 217 143 217Q117 217 100 201.5Q83 186 83 161ZM47 -31Q47 -58 61.5 -73Q76 -88 103 -88Q133 -88 151.5 -71Q170 -54 170 -27Q170 -7 161 7Q152 21 128 34L103 50Q75 34 61 14Q47 -6 47 -31Z" glyph-name="eight.numerator" horiz-adv-x="311" unicode="" /><glyph d="M238 80 233 48Q221 -30 182 -70Q143 -110 79 -110Q38 -110 14 -92Q-10 -74 -16 -40L18 -29Q19 -58 34.5 -73.5Q50 -89 78 -89Q114 -89 135 -62.5Q156 -36 166 21L172 54Q157 42 139.5 36Q122 30 102 30Q54 30 28.5 59Q3 88 9 135L10 147Q16 190 48.5 215Q81 240 130 240Q193 240 221.5 198Q250 156 238 80ZM70 140 69 133Q63 93 73.5 73.5Q84 54 111 54Q130 54 147 63Q164 72 178 89L182 112Q191 165 179.5 192Q168 219 135 219Q108 219 91.5 199Q75 179 70 140Z" glyph-name="nine.numerator" horiz-adv-x="307" unicode="" /></font>
</defs>
</svg>
