<?xml version="1.0" standalone="no"?>
<!DOCTYPE svg
  PUBLIC '-//W3C//DTD SVG 1.1//EN'
  'http://www.w3.org/Graphics/SVG/1.1/DTD/svg11.dtd'><svg version="1.1" xmlns="http://www.w3.org/2000/svg"><defs><font horiz-adv-x="0" id="font"><font-face ascent="650" bbox="-176 -248 1283 976" cap-height="680" descent="-200" font-family="Inria Serif" font-stretch="normal" font-style="normal" font-weight="680" units-per-em="1000" x-height="507" /><missing-glyph d="M557 0 99 0V680H557ZM219 645 219 35H437V645Z" horiz-adv-x="656" /><glyph d="" glyph-name=".null" horiz-adv-x="0" unicode="" /><glyph d="" glyph-name="CR" horiz-adv-x="0" unicode="" /><glyph d="" glyph-name="space" horiz-adv-x="224" unicode=" " /><glyph d="" glyph-name="uni00A0" horiz-adv-x="224" unicode=" " /><glyph d="M132 35 187 28V0H-6V28L49 35Q65 37 69.5 43Q74 49 85 84L276 680H362L554 84Q564 52 569 44.5Q574 37 590 35L645 28V0H369V28L424 35Q440 37 441 44.5Q442 52 432 84L394 208H163L124 84Q114 52 115 44.5Q116 37 132 35ZM280 575 175 243H383Z" glyph-name="A" horiz-adv-x="639" unicode="A" /><glyph d="M98 645 43 652V680H319Q424 680 479 638.5Q534 597 534 520V493Q534 440 501 403Q468 366 407 350Q482 337 523 296Q564 255 564 193V165Q564 86 507.5 43Q451 0 344 0H43V28L98 35Q114 37 117 44Q120 51 120 84V596Q120 629 117 636Q114 643 98 645ZM319 645 240 645V365H319Q363 365 384.5 395.5Q406 426 406 488V520Q406 583 384.5 614Q363 645 319 645ZM344 330 240 330V35H344Q391 35 413.5 67Q436 99 436 165V198Q436 264 413 297Q390 330 344 330Z" glyph-name="B" horiz-adv-x="616" unicode="B" /><glyph d="M352 -10Q217 -10 141.5 75Q66 160 66 309V372Q66 523 135.5 606.5Q205 690 332 690Q438 690 500 630Q562 570 555 477L438 448Q448 545 418 600Q388 655 327 655Q259 655 226.5 598Q194 541 194 422V259Q194 137 232 81Q270 25 352 25Q413 25 446 59Q479 93 486 162L558 143Q539 68 486 29Q433 -10 352 -10Z" glyph-name="C" horiz-adv-x="597" unicode="C" /><glyph d="M98 645 43 652V680H338Q470 680 536.5 602.5Q603 525 603 372V309Q603 155 536.5 77.5Q470 0 338 0H43V28L98 35Q114 37 117 44Q120 51 120 84V596Q120 629 117 636Q114 643 98 645ZM333 645 240 645V35H333Q416 35 445.5 84Q475 133 475 259V422Q475 548 445.5 596.5Q416 645 333 645Z" glyph-name="D" horiz-adv-x="669" unicode="D" /><glyph d="M478 61 510 172H538V0H43V28L98 35Q114 37 117 44Q120 51 120 84V596Q120 629 117 636Q114 643 98 645L43 652V680H528V508H500L468 619Q462 639 454 642Q446 645 414 645H240V361H354Q387 361 395 364.5Q403 368 408 387L430 468H458V219H430L408 300Q403 319 395 322.5Q387 326 354 326H240V35H424Q456 35 464 38Q472 41 478 61Z" glyph-name="E" horiz-adv-x="603" unicode="E" /><glyph d="M397 381 419 462H447V213H419L397 294Q392 313 384 316.5Q376 320 343 320H240V84Q240 50 243 43.5Q246 37 262 35L337 28V0H43V28L98 35Q114 37 117 44Q120 51 120 84V596Q120 629 117 636Q114 643 98 645L43 652V680H517V508H489L457 619Q451 639 443 642Q435 645 403 645H240V355H343Q376 355 384 358.5Q392 362 397 381Z" glyph-name="F" horiz-adv-x="554" unicode="F" /><glyph d="M436 273 361 280V308H645V280L590 273Q574 271 571 264Q568 257 568 224V0H541Q528 14 513 26Q498 38 481 47Q448 18 410 4Q372 -10 327 -10Q207 -10 136.5 78.5Q66 167 66 314V377Q66 521 138 605.5Q210 690 335 690Q449 690 513.5 629.5Q578 569 568 477L451 448Q462 545 430 600Q398 655 331 655Q262 655 228 595Q194 535 194 412V269Q194 148 230.5 86.5Q267 25 339 25Q374 25 406 38.5Q438 52 458 76V224Q458 258 455 264.5Q452 271 436 273Z" glyph-name="G" horiz-adv-x="663" unicode="G" /><glyph d="M645 35 700 28V0H426V28L481 35Q497 37 500 44Q503 51 503 84V326H240V84Q240 51 243 44Q246 37 262 35L317 28V0H43V28L98 35Q114 37 117 44Q120 51 120 84V596Q120 629 117 636Q114 643 98 645L43 652V680H317V652L262 645Q246 643 243 636Q240 629 240 596V361H503V596Q503 629 500 636Q497 643 481 645L426 652V680H700V652L645 645Q629 643 626 636Q623 629 623 596V84Q623 51 626 44Q629 37 645 35Z" glyph-name="H" horiz-adv-x="743" unicode="H" /><glyph d="M98 645 43 652V680H317V652L262 645Q246 643 243 636Q240 629 240 596V84Q240 51 243 44Q246 37 262 35L317 28V0H43V28L98 35Q114 37 117 44Q120 51 120 84V596Q120 629 117 636Q114 643 98 645Z" glyph-name="I" horiz-adv-x="360" unicode="I" /><glyph d="M227 645 172 652V680H446V652L391 645Q375 643 372 636Q369 629 369 596V194Q369 95 319 42.5Q269 -10 173 -10Q100 -10 58 28Q16 66 6 142L75 162Q78 93 100.5 59Q123 25 167 25Q210 25 229.5 61.5Q249 98 249 174V596Q249 629 246 636Q243 643 227 645Z" glyph-name="J" horiz-adv-x="476" unicode="J" /><glyph d="M98 645 43 652V680H317V652L262 645Q246 643 243 636Q240 629 240 596V327L477 596Q503 626 506.5 634.5Q510 643 493 645L438 652V680H641V652L586 645Q572 643 565 637.5Q558 632 526 596L386 438L559 84Q574 53 582 45.5Q590 38 612 35L657 28V0H467L305 346L240 272V84Q240 51 243 44Q246 37 262 35L317 28V0H43V28L98 35Q114 37 117 44Q120 51 120 84V596Q120 629 117 636Q114 643 98 645Z" glyph-name="K" horiz-adv-x="656" unicode="K" /><glyph d="M458 61 490 172H518V0H43V28L98 35Q114 37 117 44Q120 51 120 84V596Q120 629 117 636Q114 643 98 645L43 652V680H317V652L262 645Q246 643 243 636Q240 629 240 596V35H404Q436 35 444 38Q452 41 458 61Z" glyph-name="L" horiz-adv-x="532" unicode="L" /><glyph d="M773 35 828 28V0H554V28L609 35Q625 37 628 44Q631 51 631 84V598L448 80H341L160 595V84Q160 51 163 44Q166 37 182 35L237 28V0H43V28L98 35Q114 37 117 44Q120 51 120 84V596Q120 629 117 636Q114 643 98 645L43 652V680H254L437 160L623 680H828V652L773 645Q757 643 754 636Q751 629 751 596V84Q751 51 754 44Q757 37 773 35Z" glyph-name="M" horiz-adv-x="871" unicode="M" /><glyph d="M520 645 465 652V680H659V652L604 645Q588 643 585 636Q582 629 582 596V0H527L160 593V84Q160 51 163 44Q166 37 182 35L237 28V0H43V28L98 35Q114 37 117 44Q120 51 120 84V596Q120 629 117 636Q114 643 98 645L43 652V680H244L542 201V596Q542 629 539 636Q536 643 520 645Z" glyph-name="N" horiz-adv-x="687" unicode="N" /><glyph d="M337 690Q469 690 538.5 608.5Q608 527 608 372V309Q608 154 538.5 72Q469 -10 337 -10Q205 -10 135.5 71.5Q66 153 66 309V372Q66 528 135 609Q204 690 337 690ZM480 259 480 422Q480 547 447.5 601Q415 655 337 655Q259 655 226.5 601Q194 547 194 422V259Q194 134 227 79.5Q260 25 337 25Q414 25 447 79.5Q480 134 480 259Z" glyph-name="O" horiz-adv-x="674" unicode="O" /><glyph d="M98 645 43 652V680H344Q449 680 506 631.5Q563 583 563 495V472Q563 384 506 335Q449 286 344 286H240V84Q240 50 243 43.5Q246 37 262 35L337 28V0H43V28L98 35Q114 37 117 44Q120 51 120 84V596Q120 629 117 636Q114 643 98 645ZM344 645 240 645V321H344Q388 321 411.5 355Q435 389 435 452V515Q435 577 411 611Q387 645 344 645Z" glyph-name="P" horiz-adv-x="598" unicode="P" /><glyph d="M387 -7Q407 -48 451 -65.5Q495 -83 575 -83L592 -208Q502 -208 443.5 -160Q385 -112 348 -10H339Q206 -10 136 71.5Q66 153 66 309V372Q66 527 135.5 608.5Q205 690 339 690Q472 690 542 608.5Q612 527 612 372V309Q612 168 554.5 87.5Q497 7 387 -7ZM484 259 484 422Q484 547 451 601Q418 655 339 655Q260 655 227 601Q194 547 194 422V259Q194 134 227.5 79.5Q261 25 339 25Q417 25 450.5 79.5Q484 134 484 259Z" glyph-name="Q" horiz-adv-x="678" unicode="Q" /><glyph d="M98 645 43 652V680H345Q448 680 506 634Q564 588 564 507V484Q564 424 531 382Q498 340 436 322L561 84Q580 49 585.5 43Q591 37 606 35L651 28V0H464L313 310H240V84Q240 51 243 44Q246 37 262 35L317 28V0H43V28L98 35Q114 37 117 44Q120 51 120 84V596Q120 629 117 636Q114 643 98 645ZM345 645 240 645V345H345Q394 345 415 375.5Q436 406 436 474V517Q436 584 415 614.5Q394 645 345 645Z" glyph-name="R" horiz-adv-x="651" unicode="R" /><glyph d="M275 25Q340 25 377 56Q414 87 414 143Q414 191 385.5 220Q357 249 293 268L200 296Q130 317 92.5 369Q55 421 55 497Q55 584 113.5 637Q172 690 273 690Q384 690 442 631.5Q500 573 484 483L369 462Q385 554 356 604.5Q327 655 260 655Q208 655 178 624Q148 593 148 539Q148 489 176.5 455Q205 421 262 404L355 376Q434 352 470.5 306.5Q507 261 507 186Q507 96 445.5 43Q384 -10 276 -10Q175 -10 115 34.5Q55 79 44 164L111 188Q117 106 158 65.5Q199 25 275 25Z" glyph-name="S" horiz-adv-x="562" unicode="S" /><glyph d="M12 508 12 680H562V508H534L502 619Q498 635 494.5 639Q491 643 483 644Q479 644 472.5 644.5Q466 645 448 645H347V84Q347 51 350 44Q353 37 369 35L424 28V0H150V28L205 35Q221 37 224 44Q227 51 227 84V645H126Q108 645 101.5 644.5Q95 644 91 644Q83 643 79.5 639Q76 635 72 619L40 508Z" glyph-name="T" horiz-adv-x="574" unicode="T" /><glyph d="M516 645 461 652V680H655V652L600 645Q584 643 581 636Q578 629 578 596V231Q578 110 527 50Q476 -10 373 -10Q247 -10 175.5 58Q104 126 104 246V596Q104 629 101 636Q98 643 82 645L27 652V680H301V652L246 645Q230 643 227 636Q224 629 224 596V239Q224 132 263 79.5Q302 27 382 27Q460 27 499 77.5Q538 128 538 229V596Q538 629 535 636Q532 643 516 645Z" glyph-name="U" horiz-adv-x="684" unicode="U" /><glyph d="M549 596 360 0H274L84 596Q74 629 69 636Q64 643 48 645L-7 652V680H271V652L216 645Q200 643 199 635.5Q198 628 208 596L360 119L510 596Q520 628 519 635.5Q518 643 502 645L447 652V680H639V652L584 645Q569 643 564.5 637Q560 631 549 596Z" glyph-name="V" horiz-adv-x="632" unicode="V" /><glyph d="M716 0 628 0L464 546L309 0H222L83 596Q76 629 71.5 636Q67 643 50 645L-5 652V680H272V652L217 645Q203 643 201 639.5Q199 636 200 627Q200 623 201.5 617.5Q203 612 206 596L310 130L463 680H546L709 140L815 596Q822 627 821 635Q820 643 804 645L749 652V680H943V652L888 645Q871 643 866.5 636Q862 629 855 596Z" glyph-name="W" horiz-adv-x="938" unicode="W" /><glyph d="M143 35 198 28V0H1V28L56 35Q72 37 78.5 44Q85 51 106 84L257 324L109 596Q91 630 85 636.5Q79 643 63 645L8 652V680H294V652L239 645Q223 643 224 635.5Q225 628 242 596L342 412L457 596Q477 628 478.5 635.5Q480 643 463 645L408 652V680H605V652L550 645Q534 643 527.5 636Q521 629 500 596L362 375L519 84Q537 50 543 43.5Q549 37 565 35L620 28V0H335V28L390 35Q406 37 405.5 44Q405 51 387 84L276 288L149 84Q129 52 127.5 44.5Q126 37 143 35Z" glyph-name="X" horiz-adv-x="621" unicode="X" /><glyph d="M391 35 446 28V0H172V28L227 35Q243 37 246 44Q249 51 249 84V291L90 596Q73 629 67 636Q61 643 45 645L-10 652V680H275V652L220 645Q204 643 204.5 635.5Q205 628 221 596L350 338L484 596Q500 626 500.5 634.5Q501 643 485 645L430 652V680H625V652L570 645Q555 643 549 636.5Q543 630 526 596L369 293V84Q369 51 372 44Q375 37 391 35Z" glyph-name="Y" horiz-adv-x="615" unicode="Y" /><glyph d="M448 61 480 172H508V0H38V25L362 645H168Q136 645 128 642Q120 639 114 619L82 508H54V680H498V655L174 35H394Q426 35 434 38Q442 41 448 61Z" glyph-name="Z" horiz-adv-x="546" unicode="Z" /><glyph d="M815 172 843 172V0H348V28L403 35Q419 37 422 44Q425 51 425 84V208H206L139 84Q120 49 120 43Q120 37 135 35L190 28V0H-6V28L49 35Q66 37 73 44.5Q80 52 97 84L373 596Q390 628 390.5 635.5Q391 643 375 645L320 652V680H833V508H805L773 619Q767 639 759 642Q751 645 719 645H545V361H659Q692 361 700 364.5Q708 368 713 387L735 468H763V219H735L713 300Q708 319 700 322.5Q692 326 659 326H545V35H729Q761 35 769 38Q777 41 783 61ZM425 617 224 243H425Z" glyph-name="AE" horiz-adv-x="908" unicode="Æ" /><glyph d="M787 61 819 172H847V0H331Q199 0 132.5 77.5Q66 155 66 309V372Q66 525 132.5 602.5Q199 680 331 680H837V508H809L777 619Q771 639 763 642Q755 645 723 645H549V361H663Q697 361 705 364.5Q713 368 717 387L734 468H767V219H739L717 300Q712 319 704 322.5Q696 326 663 326H549V35H733Q765 35 773 38Q781 41 787 61ZM336 35 429 35V645H336Q253 645 223.5 596.5Q194 548 194 422V259Q194 133 223.5 84Q253 35 336 35Z" glyph-name="OE" horiz-adv-x="912" unicode="Œ" /><glyph d="M461 61 493 172H521V0H46V28L101 35Q117 37 120 44Q123 51 123 84V291L45 254L31 288L123 331V596Q123 629 120 636Q117 643 101 645L46 652V680H320V652L265 645Q249 643 246 636Q243 629 243 596V387L368 446L382 412L243 347V35H407Q439 35 447 38Q455 41 461 61Z" glyph-name="Lslash" horiz-adv-x="535" unicode="Ł" /><glyph d="M608 372 608 309Q608 154 538.5 72Q469 -10 337 -10Q280 -10 234 5.5Q188 21 155 51L118 0H66L126 83Q96 123 81 180Q66 237 66 309V372Q66 528 135 609Q204 690 337 690Q394 690 440 674.5Q486 659 519 629L556 680H608L548 597Q578 557 593 500.5Q608 444 608 372ZM194 422 194 259Q194 235 195 216.5Q196 198 198 183L466 555Q452 607 421 631Q390 655 337 655Q259 655 226.5 601Q194 547 194 422ZM480 259 480 422Q480 443 479.5 462Q479 481 477 498L208 125Q222 73 253 49Q284 25 337 25Q414 25 447 79.5Q480 134 480 259Z" glyph-name="Oslash" horiz-adv-x="674" unicode="Ø" /><glyph d="M103 645 48 652V680H343Q475 680 541.5 602.5Q608 525 608 372V309Q608 155 541.5 77.5Q475 0 343 0H48V28L103 35Q119 37 122 44Q125 51 125 84V337H48V372H125V596Q125 629 122 636Q119 643 103 645ZM385 372 385 337H245V35H338Q421 35 450.5 84Q480 133 480 259V422Q480 548 450.5 596.5Q421 645 338 645H245V372Z" glyph-name="Eth" horiz-adv-x="674" unicode="Ð" /><glyph d="M98 645 43 652V680H337V652L262 645Q246 643 243 636.5Q240 630 240 596V541H344Q449 541 506 492.5Q563 444 563 356V333Q563 245 506 196Q449 147 344 147H240V84Q240 50 243 43.5Q246 37 262 35L337 28V0H43V28L98 35Q114 37 117 44Q120 51 120 84V596Q120 629 117 636Q114 643 98 645ZM344 506 240 506V182H344Q388 182 411.5 216Q435 250 435 313V376Q435 438 411 472Q387 506 344 506Z" glyph-name="Thorn" horiz-adv-x="598" unicode="Þ" /><glyph d="M348 655Q286 655 255 614Q224 573 224 491V0H27V28L82 35Q98 37 101 44Q104 51 104 84V481Q104 580 167 635Q230 690 346 690Q414 690 471 669.5Q528 649 572 608V586L452 380Q532 359 577 307.5Q622 256 622 185V169Q622 88 569 39Q516 -10 429 -10Q365 -10 322.5 19Q280 48 272 100L344 119Q351 73 371 49Q391 25 421 25Q456 25 475 59.5Q494 94 494 159V195Q494 282 457 321Q420 360 340 360H332V389L460 608Q437 632 409 643.5Q381 655 348 655Z" glyph-name="uni1E9E" horiz-adv-x="660" unicode="ẞ" /><glyph d="M515 51 533 25Q513 7 490.5 -1.5Q468 -10 440 -10Q399 -10 371.5 8Q344 26 335 59Q304 25 265 7.5Q226 -10 182 -10Q118 -10 81.5 26.5Q45 63 45 125Q45 192 93.5 224.5Q142 257 240 257H331V338Q331 412 311.5 447Q292 482 250 482Q200 482 181.5 443.5Q163 405 177 327L67 343Q54 418 105.5 467.5Q157 517 252 517Q349 517 397.5 472.5Q446 428 446 338V107Q446 67 452.5 48.5Q459 30 475 30Q484 30 493.5 35Q503 40 515 51ZM163 127Q163 86 179 64.5Q195 43 226 43Q256 43 281 58.5Q306 74 331 107V222H256Q207 222 185 199.5Q163 177 163 127Z" glyph-name="a" horiz-adv-x="538" unicode="a" /><glyph d="M63 705 8 712V740H200V433Q228 476 261.5 496.5Q295 517 338 517Q423 517 472 449.5Q521 382 521 264V244Q521 127 463.5 58.5Q406 -10 306 -10Q268 -10 236 2Q204 14 180 36Q165 30 149 20.5Q133 11 112 -5H85V656Q85 689 82 696Q79 703 63 705ZM312 473Q281 473 254 447.5Q227 422 200 369V67Q219 48 242.5 38.5Q266 29 293 29Q345 29 371.5 75.5Q398 122 398 214V294Q398 382 376 427.5Q354 473 312 473Z" glyph-name="b" horiz-adv-x="577" unicode="b" /><glyph d="M271 482Q221 482 198.5 434.5Q176 387 176 284V224Q176 118 202.5 71.5Q229 25 291 25Q341 25 367 52.5Q393 80 397 137L461 119Q445 55 400 22.5Q355 -10 284 -10Q173 -10 113 56.5Q53 123 53 244V264Q53 382 110.5 449.5Q168 517 271 517Q368 517 420.5 460.5Q473 404 458 322L348 306Q359 391 339 436.5Q319 482 271 482Z" glyph-name="c" horiz-adv-x="503" unicode="c" /><glyph d="M514 35 569 28V0H383V83Q353 34 318.5 12Q284 -10 239 -10Q154 -10 105 57.5Q56 125 56 243V263Q56 380 113.5 448.5Q171 517 271 517Q300 517 327.5 509.5Q355 502 377 487V656Q377 689 374 696Q371 703 355 705L300 712V740H492V84Q492 51 495 44Q498 37 514 35ZM179 293 179 213Q179 125 201 79.5Q223 34 265 34Q296 34 323 59.5Q350 85 377 138V440Q358 459 334.5 468.5Q311 478 284 478Q232 478 205.5 431.5Q179 385 179 293Z" glyph-name="d" horiz-adv-x="585" unicode="d" /><glyph d="M410 137 474 119Q458 55 412 22.5Q366 -10 293 -10Q178 -10 115.5 56.5Q53 123 53 244V264Q53 383 111 450Q169 517 273 517Q366 517 422.5 463.5Q479 410 479 319Q479 302 477 285.5Q475 269 472 253H176V224Q176 118 205.5 71.5Q235 25 303 25Q352 25 379 53.5Q406 82 410 137ZM364 358Q364 418 340.5 450Q317 482 273 482Q223 482 199.5 435Q176 388 176 288H357Q360 306 362 324Q364 342 364 358Z" glyph-name="e" horiz-adv-x="529" unicode="e" /><glyph d="M237 35 312 28V0H23V28L78 35Q94 37 97 44Q100 51 100 84V423Q100 456 97 463Q94 470 78 472L23 479V507H100V561Q100 650 146.5 700Q193 750 279 750Q364 750 410.5 706.5Q457 663 447 597L337 581Q346 651 332.5 683Q319 715 279 715Q244 715 229.5 683.5Q215 652 215 581V507H365V472H215V84Q215 50 218 43.5Q221 37 237 35Z" glyph-name="f" horiz-adv-x="363" unicode="f" /><glyph d="M511 -52Q511 -133 450.5 -178Q390 -223 281 -223Q173 -223 110.5 -187.5Q48 -152 42 -89L149 -72Q144 -130 177 -159Q210 -188 281 -188Q356 -188 399 -160Q442 -132 442 -83Q442 -45 414 -27.5Q386 -10 328 -10H214Q147 -10 111.5 16Q76 42 76 89Q76 121 93.5 149Q111 177 147 203Q100 223 75 261.5Q50 300 50 351Q50 428 103 472.5Q156 517 244 517H261Q290 517 315 512Q340 507 361 498L505 569L517 471H403Q428 449 441 419Q454 389 454 351Q454 275 400.5 230Q347 185 261 185H244Q229 185 214 186.5Q199 188 185 191Q163 176 152 160.5Q141 145 141 129Q141 113 156 105Q171 97 203 97H333Q419 97 465 58.5Q511 20 511 -52ZM244 220 261 220Q299 220 319 253Q339 286 339 351Q339 416 319 449Q299 482 261 482H244Q205 482 185 449Q165 416 165 351Q165 286 185 253Q205 220 244 220Z" glyph-name="g" horiz-adv-x="532" unicode="g" /><glyph d="M550 35 605 28V0H336V28L391 35Q407 37 410 44Q413 51 413 84V336Q413 403 393 435.5Q373 468 332 468Q293 468 260 441Q227 414 208 364V84Q208 51 211 44Q214 37 230 35L285 28V0H16V28L71 35Q87 37 90 44Q93 51 93 84V656Q93 689 90 696Q87 703 71 705L16 712V740H208V429Q234 471 276.5 494Q319 517 368 517Q443 517 485.5 469Q528 421 528 337V84Q528 51 531 44Q534 37 550 35Z" glyph-name="h" horiz-adv-x="616" unicode="h" /><glyph d="M227 663Q227 632 207.5 612.5Q188 593 157 593Q126 593 107 612.5Q88 632 88 663Q88 694 107 713Q126 732 157 732Q188 732 207.5 712.5Q227 693 227 663ZM78 472 23 479V507H215V84Q215 51 218 44Q221 37 237 35L292 28V0H23V28L78 35Q94 37 97 44Q100 51 100 84V423Q100 456 97 463Q94 470 78 472Z" glyph-name="i" horiz-adv-x="308" unicode="i" /><glyph d="M220 663Q220 632 200.5 612.5Q181 593 150 593Q119 593 100 612.5Q81 632 81 663Q81 694 100 713Q119 732 150 732Q181 732 200.5 712.5Q220 693 220 663ZM71 472 16 479V507H208V-34Q208 -123 163 -173Q118 -223 35 -223Q-27 -223 -63 -192Q-99 -161 -107 -100L-45 -81Q-41 -136 -25 -162Q-9 -188 23 -188Q60 -188 76.5 -155.5Q93 -123 93 -54V423Q93 456 90 463Q87 470 71 472Z" glyph-name="j" horiz-adv-x="293" unicode="j" /><glyph d="M71 705 16 712V740H208V255L384 423Q417 455 421 462.5Q425 470 407 472L352 479V507H557V479L502 472Q488 470 478.5 462.5Q469 455 435 423L339 331L481 84Q499 54 506.5 46Q514 38 532 35L587 28V0H396L257 253L208 206V84Q208 51 211 44Q214 37 230 35L285 28V0H16V28L71 35Q87 37 90 44Q93 51 93 84V656Q93 689 90 696Q87 703 71 705Z" glyph-name="k" horiz-adv-x="588" unicode="k" /><glyph d="M71 705 16 712V740H208V84Q208 51 211 44Q214 37 230 35L285 28V0H16V28L71 35Q87 37 90 44Q93 51 93 84V656Q93 689 90 696Q87 703 71 705Z" glyph-name="l" horiz-adv-x="301" unicode="l" /><glyph d="M547 35 602 28V0H333V28L388 35Q404 37 407 44Q410 51 410 84V336Q410 403 391.5 435.5Q373 468 334 468Q297 468 265.5 441Q234 414 215 364V84Q215 51 218 44Q221 37 237 35L292 28V0H23V28L78 35Q94 37 97 44Q100 51 100 84V423Q100 456 97 463Q94 470 78 472L23 479V507H209V419Q234 466 277 491.5Q320 517 370 517Q424 517 461.5 489.5Q499 462 515 411Q539 461 583 489Q627 517 680 517Q752 517 793.5 469Q835 421 835 337V84Q835 51 838 44Q841 37 857 35L912 28V0H643V28L698 35Q714 37 717 44Q720 51 720 84V336Q720 403 701.5 435.5Q683 468 644 468Q607 468 575 440Q543 412 524 361Q525 357 525 352Q525 347 525 337V84Q525 51 528 44Q531 37 547 35Z" glyph-name="m" horiz-adv-x="923" unicode="m" /><glyph d="M557 35 612 28V0H343V28L398 35Q414 37 417 44Q420 51 420 84V336Q420 403 400 435.5Q380 468 339 468Q300 468 267 441Q234 414 215 364V84Q215 51 218 44Q221 37 237 35L292 28V0H23V28L78 35Q94 37 97 44Q100 51 100 84V423Q100 456 97 463Q94 470 78 472L23 479V507H209V419Q235 466 279 491.5Q323 517 375 517Q450 517 492.5 469Q535 421 535 337V84Q535 51 538 44Q541 37 557 35Z" glyph-name="n" horiz-adv-x="623" unicode="n" /><glyph d="M281 517Q388 517 449 449.5Q510 382 510 264V244Q510 126 449 58Q388 -10 281 -10Q174 -10 113 57.5Q52 125 52 244V264Q52 382 113 449.5Q174 517 281 517ZM387 224 387 284Q387 385 361.5 433.5Q336 482 281 482Q227 482 201 433.5Q175 385 175 284V224Q175 123 201 74Q227 25 281 25Q335 25 361 73.5Q387 122 387 224Z" glyph-name="o" horiz-adv-x="562" unicode="o" /><glyph d="M71 472 16 479V507H202V424Q232 473 266.5 495Q301 517 346 517Q431 517 480 449.5Q529 382 529 264V244Q529 127 471.5 58.5Q414 -10 314 -10Q285 -10 257.5 -2.5Q230 5 208 20V-129Q208 -163 211 -169.5Q214 -176 230 -178L305 -185V-213H16V-185L71 -178Q87 -176 90 -169Q93 -162 93 -129V423Q93 456 90 463Q87 470 71 472ZM320 473Q289 473 262 447.5Q235 422 208 369V67Q227 48 250.5 38.5Q274 29 301 29Q353 29 379.5 75.5Q406 122 406 214V294Q406 382 384 427.5Q362 473 320 473Z" glyph-name="p" horiz-adv-x="585" unicode="p" /><glyph d="M514 -178 569 -185V-213H280V-185L355 -178Q371 -176 374 -169.5Q377 -163 377 -129V74Q349 31 315.5 10.5Q282 -10 239 -10Q154 -10 105 57.5Q56 125 56 243V263Q56 380 113.5 448.5Q171 517 271 517Q309 517 341 505Q373 493 397 471Q412 477 428 486.5Q444 496 465 512H492V-129Q492 -162 495 -169Q498 -176 514 -178ZM179 293 179 213Q179 125 201 79.5Q223 34 265 34Q296 34 323 59.5Q350 85 377 138V440Q358 459 334.5 468.5Q311 478 284 478Q232 478 205.5 431.5Q179 385 179 293Z" glyph-name="q" horiz-adv-x="577" unicode="q" /><glyph d="M78 472 23 479V507H209V425Q240 471 276 494Q312 517 354 517Q391 517 418.5 493.5Q446 470 462 425L373 377Q360 413 342.5 430Q325 447 301 447Q276 447 255 431Q234 415 215 381V84Q215 50 218 43.5Q221 37 237 35L312 28V0H23V28L78 35Q94 37 97 44Q100 51 100 84V423Q100 456 97 463Q94 470 78 472Z" glyph-name="r" horiz-adv-x="462" unicode="r" /><glyph d="M338 105Q338 137 316.5 158Q295 179 251 189L182 205Q118 220 84 260.5Q50 301 50 361Q50 433 97.5 475Q145 517 231 517Q325 517 376 472.5Q427 428 415 360L305 340Q319 406 298 444Q277 482 226 482Q189 482 167 461Q145 440 145 403Q145 366 166 340.5Q187 315 224 306L293 290Q364 273 398.5 237.5Q433 202 433 146Q433 74 380.5 32Q328 -10 236 -10Q161 -10 109 23Q57 56 39 119L104 145Q110 87 144.5 56Q179 25 236 25Q283 25 310.5 46.5Q338 68 338 105Z" glyph-name="s" horiz-adv-x="480" unicode="s" /><glyph d="M319 119 379 104Q367 47 332 18.5Q297 -10 241 -10Q169 -10 128.5 36Q88 82 88 159V423Q88 456 85 463Q82 470 66 472L11 479V507H88V623L203 646V507H363V472H203V139Q203 82 217 54Q231 26 260 26Q288 26 301.5 48Q315 70 319 119Z" glyph-name="t" horiz-adv-x="395" unicode="t" /><glyph d="M535 35 590 28V0H404V88Q379 41 336 15.5Q293 -10 243 -10Q171 -10 129.5 38Q88 86 88 170V423Q88 456 85 463Q82 470 66 472L11 479V507H203V171Q203 104 221.5 71.5Q240 39 279 39Q316 39 347.5 66Q379 93 398 143V423Q398 457 395 463.5Q392 470 376 472L301 479V507H513V84Q513 51 516 44Q519 37 535 35Z" glyph-name="u" horiz-adv-x="606" unicode="u" /><glyph d="M463 423 321 0H230L88 423Q77 455 72 462.5Q67 470 50 472L-5 479V507H265V479L210 472Q194 470 193.5 463Q193 456 204 423L314 91L425 423Q430 438 431.5 444Q433 450 434 453Q437 463 435 466.5Q433 470 419 472L364 479V507H555V479L500 472Q483 470 478.5 463Q474 456 463 423Z" glyph-name="v" horiz-adv-x="550" unicode="v" /><glyph d="M715 423 606 0H515L395 402L274 0H191L83 423Q74 456 69.5 463Q65 470 50 472L-5 479V507H261V479L206 472Q189 470 188 462Q187 454 195 423L273 122L388 507H476L595 105L676 423Q684 454 683 462Q682 470 665 472L610 479V507H803V479L748 472Q733 470 728.5 463Q724 456 715 423Z" glyph-name="w" horiz-adv-x="798" unicode="w" /><glyph d="M150 35 205 28V0H5V28L60 35Q75 37 82 43.5Q89 50 112 84L219 240L112 423Q94 454 87 462Q80 470 63 472L8 479V507H285V479L230 472Q216 470 215 466.5Q214 463 219 452Q221 448 224.5 442.5Q228 437 236 423L303 309L380 423Q401 454 403 462Q405 470 388 472L333 479V507H533V479L478 472Q463 470 456 463.5Q449 457 426 423L324 273L434 84Q452 53 459 45Q466 37 483 35L538 28V0H261V28L316 35Q330 37 331 40.5Q332 44 327 55Q325 59 321.5 64.5Q318 70 310 84L240 205L158 84Q137 53 135 45Q133 37 150 35Z" glyph-name="x" horiz-adv-x="543" unicode="x" /><glyph d="M464 427 303 -50Q267 -148 219.5 -185.5Q172 -223 85 -223V-113Q171 -113 213 -94.5Q255 -76 272 -30L282 0H230L88 423Q77 455 72 462.5Q67 470 50 472L-5 479V507H265V479L210 472Q195 470 195 460.5Q195 451 204 423L313 93L426 427Q436 457 435.5 463.5Q435 470 419 472L364 479V507H555V479L500 472Q484 470 479 463Q474 456 464 427Z" glyph-name="y" horiz-adv-x="550" unicode="y" /><glyph d="M370 61 397 152H425V0H38V25L289 472H159Q127 472 119 469Q111 466 105 446L78 355H50V507H415V482L164 35H316Q348 35 356 38Q364 41 370 61Z" glyph-name="z" horiz-adv-x="465" unicode="z" /><glyph d="M688 137 752 119Q736 55 690 22.5Q644 -10 571 -10Q499 -10 447 16.5Q395 43 365 95Q331 44 284 17Q237 -10 182 -10Q118 -10 81.5 26.5Q45 63 45 125Q45 192 93.5 224.5Q142 257 240 257H331V338Q331 412 311.5 447Q292 482 250 482Q200 482 181.5 443.5Q163 405 177 327L67 343Q54 418 105.5 467.5Q157 517 252 517Q306 517 343.5 499.5Q381 482 401 446Q427 481 465 499Q503 517 551 517Q644 517 700.5 463.5Q757 410 757 319Q757 302 755 285.5Q753 269 750 253H454V224Q454 118 483.5 71.5Q513 25 581 25Q630 25 657 53.5Q684 82 688 137ZM642 358Q642 418 618.5 450Q595 482 551 482Q501 482 477.5 435Q454 388 454 288H635Q639 307 640.5 324.5Q642 342 642 358ZM163 127Q163 86 179 64.5Q195 43 226 43Q260 43 289 64.5Q318 86 348 132Q341 154 337 176.5Q333 199 332 222H256Q207 222 185 199.5Q163 177 163 127Z" glyph-name="ae" horiz-adv-x="807" unicode="æ" /><glyph d="M744 137 808 119Q792 55 746 22.5Q700 -10 627 -10Q568 -10 523 10.5Q478 31 449 72Q420 32 377.5 11Q335 -10 281 -10Q174 -10 113 57.5Q52 125 52 244V264Q52 382 113 449.5Q174 517 281 517Q335 517 377 496.5Q419 476 447 437Q474 477 514.5 497Q555 517 607 517Q700 517 756.5 463.5Q813 410 813 319Q813 302 811 285.5Q809 269 806 253H510V224Q510 118 539.5 71.5Q569 25 637 25Q686 25 713 53.5Q740 82 744 137ZM387 224 387 284Q387 385 361.5 433.5Q336 482 281 482Q227 482 201 433.5Q175 385 175 284V224Q175 123 201 74Q227 25 281 25Q335 25 361 73.5Q387 122 387 224ZM698 358Q698 418 674.5 450Q651 482 607 482Q557 482 533.5 435Q510 388 510 288H691Q695 307 696.5 324.5Q698 342 698 358Z" glyph-name="oe" horiz-adv-x="863" unicode="œ" /><glyph d="M104 705 49 712V740H241V415L338 460L352 426L241 375V84Q241 51 244 44Q247 37 263 35L318 28V0H49V28L104 35Q120 37 123 44Q126 51 126 84V322L29 277L15 311L126 362V656Q126 689 123 696Q120 703 104 705Z" glyph-name="lslash" horiz-adv-x="362" unicode="ł" /><glyph d="M510 264 510 244Q510 126 449 58Q388 -10 281 -10Q237 -10 200.5 2Q164 14 135 37L106 0H52L105 67Q79 99 65.5 144Q52 189 52 244V264Q52 382 113 449.5Q174 517 281 517Q325 517 361.5 505Q398 493 427 470L456 507H510L457 440Q483 408 496.5 363Q510 318 510 264ZM175 284 175 224Q175 206 176 189.5Q177 173 178 159L373 403Q362 443 339 462.5Q316 482 281 482Q227 482 201 433.5Q175 385 175 284ZM387 224 387 284Q387 302 386 318.5Q385 335 384 349L189 104Q201 64 224 44.5Q247 25 281 25Q335 25 361 73.5Q387 122 387 224Z" glyph-name="oslash" horiz-adv-x="562" unicode="ø" /><glyph d="M507 292 507 252Q507 126 447 58Q387 -10 277 -10Q170 -10 109.5 49.5Q49 109 49 214V234Q49 335 109 396Q169 457 266 457Q295 457 322 449.5Q349 442 373 427Q363 480 341.5 525Q320 570 287 609L178 529L156 559L261 636Q238 659 210 680Q182 701 150 719L163 750Q200 733 234.5 712Q269 691 301 666L416 750L438 720L331 641Q415 567 461 476Q507 385 507 292ZM172 254 172 194Q172 108 198 66.5Q224 25 277 25Q334 25 359 74Q384 123 384 232V312Q384 329 383.5 345.5Q383 362 381 379Q358 400 331 411Q304 422 275 422Q223 422 197.5 380.5Q172 339 172 254Z" glyph-name="eth" horiz-adv-x="561" unicode="ð" /><glyph d="M68 705 13 712V740H205V433Q233 476 266.5 496.5Q300 517 343 517Q428 517 477 449.5Q526 382 526 264V244Q526 127 468.5 58.5Q411 -10 311 -10Q282 -10 254.5 -2.5Q227 5 205 20V-129Q205 -163 208 -169.5Q211 -176 227 -178L302 -185V-213H13V-185L68 -178Q84 -176 87 -169Q90 -162 90 -129V656Q90 689 87 696Q84 703 68 705ZM317 473Q286 473 259 447.5Q232 422 205 369V67Q224 48 247.5 38.5Q271 29 298 29Q350 29 376.5 75.5Q403 122 403 214V294Q403 382 381 427.5Q359 473 317 473Z" glyph-name="thorn" horiz-adv-x="582" unicode="þ" /><glyph d="M314 715Q262 715 238.5 683Q215 651 215 581V0H23V28L78 35Q94 37 97 44Q100 51 100 84V423Q100 456 97 463Q94 470 78 472L23 479V507H100V561Q100 650 155 700Q210 750 314 750Q397 750 446.5 716.5Q496 683 496 631Q496 611 487 590.5Q478 570 448 534Q417 497 407.5 475.5Q398 454 398 432Q398 403 413.5 380.5Q429 358 482 320L521 292Q563 262 585 222.5Q607 183 607 137Q607 72 562.5 31Q518 -10 446 -10Q381 -10 338.5 22.5Q296 55 278 119L343 145Q349 85 374.5 55Q400 25 445 25Q479 25 497.5 44.5Q516 64 516 99Q516 125 502.5 144.5Q489 164 453 190L414 218Q352 263 335 292Q318 321 318 360Q318 386 326 410Q334 434 360 476Q389 523 398 552Q407 581 407 613Q407 664 384 689.5Q361 715 314 715Z" glyph-name="germandbls" horiz-adv-x="631" unicode="ß" /><glyph d="M78 472 23 479V507H215V84Q215 51 218 44Q221 37 237 35L292 28V0H23V28L78 35Q94 37 97 44Q100 51 100 84V423Q100 456 97 463Q94 470 78 472Z" glyph-name="dotlessi" horiz-adv-x="308" unicode="ı" /><glyph d="M73 472 18 479V507H210V-34Q210 -125 165.5 -174Q121 -223 37 -223Q-26 -223 -62.5 -192Q-99 -161 -107 -101L-43 -81Q-38 -135 -22 -161.5Q-6 -188 23 -188Q62 -188 78.5 -156.5Q95 -125 95 -54V423Q95 456 92 463Q89 470 73 472Z" glyph-name="dotlessj" horiz-adv-x="295" unicode="ȷ" /><glyph d="M560 35 615 28V0H346V28L401 35Q417 37 420 44Q423 51 423 84V472H215V84Q215 51 218 44Q221 37 237 35L292 28V0H23V28L78 35Q94 37 97 44Q100 51 100 84V423Q100 456 97 463Q94 470 78 472L23 479V507H100V541Q100 639 157.5 694.5Q215 750 322 750Q421 750 479.5 705.5Q538 661 527 597L417 581Q427 648 403 681.5Q379 715 322 715Q266 715 240.5 678Q215 641 215 561V507H538V84Q538 51 541 44Q544 37 560 35Z" glyph-name="fi" horiz-adv-x="631" unicode="ﬁ" /><glyph d="M560 35 615 28V0H346V28L401 35Q417 37 420 44Q423 51 423 84V472H215V84Q215 51 218 44Q221 37 237 35L292 28V0H23V28L78 35Q94 37 97 44Q100 51 100 84V423Q100 456 97 463Q94 470 78 472L23 479V507H100V531Q100 628 158 684Q216 740 322 740Q368 740 405.5 725Q443 710 469 682Q498 716 542 733Q586 750 645 750Q744 750 802.5 705.5Q861 661 850 597L740 581Q750 648 726 681.5Q702 715 645 715Q589 715 563.5 678Q538 641 538 561V507H861V84Q861 51 864 44Q867 37 883 35L938 28V0H669V28L724 35Q740 37 743 44Q746 51 746 84V472H538V84Q538 51 541 44Q544 37 560 35ZM215 551 215 507H423V551Q423 634 400.5 669.5Q378 705 322 705Q265 705 240 668Q215 631 215 551Z" glyph-name="ffi" horiz-adv-x="954" unicode="ﬃ" /><glyph d="M560 35 615 28V0H346V28L401 35Q417 37 420 44Q423 51 423 84V590Q423 655 399 685Q375 715 322 715Q265 715 240 678Q215 641 215 561V507H365V472H215V84Q215 51 218 44Q221 37 237 35L292 28V0H23V28L78 35Q94 37 97 44Q100 51 100 84V423Q100 456 97 463Q94 470 78 472L23 479V507H100V541Q100 638 158 694Q216 750 322 750Q362 750 396 740Q430 730 457 710Q472 717 485.5 724.5Q499 732 511 740H538V84Q538 51 541 44Q544 37 560 35Z" glyph-name="fl" horiz-adv-x="631" unicode="ﬂ" /><glyph d="M560 35 615 28V0H346V28L401 35Q417 37 420 44Q423 51 423 84V472H215V84Q215 51 218 44Q221 37 237 35L292 28V0H23V28L78 35Q94 37 97 44Q100 51 100 84V423Q100 456 97 463Q94 470 78 472L23 479V507H100V531Q100 628 158 684Q216 740 322 740Q368 740 405.5 725.5Q443 711 470 682Q499 716 543 733Q587 750 645 750Q685 750 719 740Q753 730 780 710Q795 717 808.5 724.5Q822 732 834 740H861V84Q861 51 864 44Q867 37 883 35L938 28V0H669V28L724 35Q740 37 743 44Q746 51 746 84V590Q746 655 722 685Q698 715 645 715Q588 715 563 678Q538 641 538 561V507H667V472H538V84Q538 51 541 44Q544 37 560 35ZM215 551 215 507H423V551Q423 634 400.5 669.5Q378 705 322 705Q265 705 240 668Q215 631 215 551Z" glyph-name="ffl" horiz-adv-x="954" unicode="ﬄ" /><glyph d="M237 35 312 28V0H23V28L78 35Q94 37 97 44Q100 51 100 84V423Q100 456 97 463Q94 470 78 472L23 479V507H100V541Q100 636 154 693Q208 750 304 750Q373 750 415 719.5Q457 689 470 629Q485 638 492 642Q499 646 505 650H532V507H692V472H532V139Q532 82 546 54Q560 26 589 26Q617 26 630.5 48Q644 70 648 119L708 104Q696 47 661 18.5Q626 -10 570 -10Q498 -10 457.5 36Q417 82 417 159V472H215V84Q215 50 218 43.5Q221 37 237 35ZM319 713Q264 713 239.5 676.5Q215 640 215 561V507H417V561Q417 642 394.5 677.5Q372 713 319 713Z" glyph-name="ft" horiz-adv-x="724" unicode="" /><glyph d="M237 35 292 28V0H23V28L78 35Q94 37 97 44Q100 51 100 84V423Q100 456 97 463Q94 470 78 472L23 479V507H100V531Q100 628 158 684Q216 740 322 740Q368 740 405 725.5Q442 711 468 683Q495 716 535.5 733Q576 750 627 750Q695 750 736.5 720.5Q778 691 792 634Q802 639 811 644Q820 649 828 655H855V507H1015V472H855V139Q855 82 869 54Q883 26 912 26Q940 26 953.5 48Q967 70 971 119L1031 104Q1019 47 984 18.5Q949 -10 893 -10Q821 -10 780.5 36Q740 82 740 159V472H538V84Q538 50 541 43.5Q544 37 560 35L635 28V0H346V28L401 35Q417 37 420 44Q423 51 423 84V472H215V84Q215 51 218 44Q221 37 237 35ZM642 713Q587 713 562.5 676.5Q538 640 538 561V507H740V561Q740 642 717.5 677.5Q695 713 642 713ZM215 551 215 507H423V551Q423 634 400.5 669.5Q378 705 322 705Q265 705 240 668Q215 631 215 551Z" glyph-name="fft" horiz-adv-x="1047" unicode="" /><glyph d="M237 35 312 28V0H23V28L78 35Q94 37 97 44Q100 51 100 84V423Q100 456 97 463Q94 470 78 472L23 479V507H100V541Q100 638 158 694Q216 750 322 750Q362 750 396 740Q430 730 457 710Q472 717 485.5 724.5Q499 732 511 740H538V433Q566 476 599.5 496.5Q633 517 676 517Q761 517 810 449.5Q859 382 859 264V244Q859 127 801.5 58.5Q744 -10 644 -10Q606 -10 574 2Q542 14 518 36Q503 30 487 20.5Q471 11 450 -5H423V590Q423 655 399 685Q375 715 322 715Q265 715 240 678Q215 641 215 561V507H365V472H215V84Q215 50 218 43.5Q221 37 237 35ZM650 473Q619 473 592 447.5Q565 422 538 369V67Q557 48 580.5 38.5Q604 29 631 29Q683 29 709.5 75.5Q736 122 736 214V294Q736 382 714 427.5Q692 473 650 473Z" glyph-name="fb" horiz-adv-x="915" unicode="" /><glyph d="M237 35 292 28V0H23V28L78 35Q94 37 97 44Q100 51 100 84V423Q100 456 97 463Q94 470 78 472L23 479V507H100V531Q100 628 158 684Q216 740 322 740Q368 740 405.5 725Q443 710 469 682Q498 716 542 733Q586 750 644 750Q684 750 718.5 740Q753 730 779 710Q794 717 807.5 724.5Q821 732 833 740H860V433Q888 476 921.5 496.5Q955 517 998 517Q1083 517 1132 449.5Q1181 382 1181 264V244Q1181 127 1123.5 58.5Q1066 -10 966 -10Q928 -10 896 2Q864 14 840 36Q825 30 809 20.5Q793 11 772 -5H745V590Q745 655 721 685Q697 715 644 715Q587 715 562 678Q537 641 537 561V507H687V472H537V84Q537 50 540 43.5Q543 37 559 35L634 28V0H345V28L400 35Q416 37 419 44Q422 51 422 84V472H215V84Q215 51 218 44Q221 37 237 35ZM322 705Q265 705 240 668Q215 631 215 551V507H422V562Q422 638 399 671.5Q376 705 322 705ZM972 473Q941 473 914 447.5Q887 422 860 369V67Q879 48 902.5 38.5Q926 29 953 29Q1005 29 1031.5 75.5Q1058 122 1058 214V294Q1058 382 1036 427.5Q1014 473 972 473Z" glyph-name="ffb" horiz-adv-x="1237" unicode="" /><glyph d="M560 35 635 28V0H346V28L401 35Q417 37 420 44Q423 51 423 84V472H215V84Q215 51 218 44Q221 37 237 35L292 28V0H23V28L78 35Q94 37 97 44Q100 51 100 84V423Q100 456 97 463Q94 470 78 472L23 479V507H100V531Q100 628 158 684Q216 740 322 740Q365 740 400.5 727Q436 714 461 690Q484 720 519.5 735Q555 750 602 750Q687 750 733.5 706.5Q780 663 770 597L660 581Q669 651 655.5 683Q642 715 602 715Q567 715 552.5 683.5Q538 652 538 581V507H688V472H538V84Q538 50 541 43.5Q544 37 560 35ZM322 705Q265 705 240 668Q215 631 215 551V507H423V551Q423 634 400.5 669.5Q378 705 322 705Z" glyph-name="ff" horiz-adv-x="686" unicode="ﬀ" /><glyph d="M560 35 615 28V0H346V28L401 35Q417 37 420 44Q423 51 423 84V472H215V84Q215 51 218 44Q221 37 237 35L292 28V0H23V28L78 35Q94 37 97 44Q100 51 100 84V423Q100 456 97 463Q94 470 78 472L23 479V507H100V531Q100 628 158 684Q216 740 322 740Q371 740 409.5 723.5Q448 707 474 676Q503 708 546 724Q589 740 645 740Q688 740 723.5 727Q759 714 784 690Q807 720 842.5 735Q878 750 925 750Q1010 750 1056.5 706.5Q1103 663 1093 597L983 581Q992 651 978.5 683Q965 715 925 715Q890 715 875.5 683.5Q861 652 861 581V507H1011V472H861V84Q861 50 864 43.5Q867 37 883 35L958 28V0H669V28L724 35Q740 37 743 44Q746 51 746 84V472H538V84Q538 51 541 44Q544 37 560 35ZM322 705Q265 705 240 668Q215 631 215 551V507H423V551Q423 634 400.5 669.5Q378 705 322 705ZM645 705Q588 705 563 668Q538 631 538 551V507H746V551Q746 634 723.5 669.5Q701 705 645 705Z" glyph-name="fff" horiz-adv-x="1009" unicode="" /><glyph d="M560 35 615 28V0H346V28L401 35Q417 37 420 44Q423 51 423 84V561Q423 644 400.5 679.5Q378 715 322 715Q265 715 240 678Q215 641 215 561V507H365V472H215V84Q215 51 218 44Q221 37 237 35L292 28V0H23V28L78 35Q94 37 97 44Q100 51 100 84V423Q100 456 97 463Q94 470 78 472L23 479V507H100V541Q100 638 158 694Q216 750 322 750Q362 750 396 740Q430 730 456 710Q472 717 486 724.5Q500 732 511 740H538V429Q564 471 606.5 494Q649 517 698 517Q773 517 815.5 469Q858 421 858 337V84Q858 51 861 44Q864 37 880 35L935 28V0H666V28L721 35Q737 37 740 44Q743 51 743 84V336Q743 403 723 435.5Q703 468 662 468Q623 468 590 441Q557 414 538 364V84Q538 51 541 44Q544 37 560 35Z" glyph-name="fh" horiz-adv-x="946" unicode="" /><glyph d="M560 35 615 28V0H346V28L401 35Q417 37 420 44Q423 51 423 84V472H215V84Q215 51 218 44Q221 37 237 35L292 28V0H23V28L78 35Q94 37 97 44Q100 51 100 84V423Q100 456 97 463Q94 470 78 472L23 479V507H100V531Q100 628 158 684Q216 740 322 740Q368 740 405.5 725.5Q443 711 470 682Q499 716 543 733Q587 750 645 750Q685 750 719 740Q753 730 779 710Q795 717 809 724.5Q823 732 834 740H861V429Q887 471 929.5 494Q972 517 1021 517Q1096 517 1138.5 469Q1181 421 1181 337V84Q1181 51 1184 44Q1187 37 1203 35L1258 28V0H989V28L1044 35Q1060 37 1063 44Q1066 51 1066 84V336Q1066 403 1046 435.5Q1026 468 985 468Q946 468 913 441Q880 414 861 364V84Q861 51 864 44Q867 37 883 35L938 28V0H669V28L724 35Q740 37 743 44Q746 51 746 84V561Q746 644 723.5 679.5Q701 715 645 715Q588 715 563 678Q538 641 538 561V507H688V472H538V84Q538 51 541 44Q544 37 560 35ZM215 551 215 507H423V551Q423 634 400.5 669.5Q378 705 322 705Q265 705 240 668Q215 631 215 551Z" glyph-name="ffh" horiz-adv-x="1269" unicode="" /><glyph d="M318 715Q264 715 239.5 678Q215 641 215 561V507H531V-34Q531 -123 486 -173Q441 -223 358 -223Q296 -223 260 -192Q224 -161 216 -100L278 -81Q282 -136 298 -162Q314 -188 346 -188Q383 -188 399.5 -155.5Q416 -123 416 -54V472H215V84Q215 50 218 43.5Q221 37 237 35L312 28V0H23V28L78 35Q94 37 97 44Q100 51 100 84V423Q100 456 97 463Q94 470 78 472L23 479V507H100V541Q100 639 156.5 694.5Q213 750 318 750Q416 750 473.5 705.5Q531 661 520 597L410 581Q420 648 397 681.5Q374 715 318 715Z" glyph-name="fj" horiz-adv-x="616" unicode="" /><glyph d="M641 715Q587 715 562.5 678Q538 641 538 561V507H854V-34Q854 -123 809 -173Q764 -223 681 -223Q619 -223 583 -192Q547 -161 539 -100L601 -81Q605 -136 621 -162Q637 -188 669 -188Q706 -188 722.5 -155.5Q739 -123 739 -54V472H538V84Q538 50 541 43.5Q544 37 560 35L635 28V0H346V28L401 35Q417 37 420 44Q423 51 423 84V472H215V84Q215 51 218 44Q221 37 237 35L292 28V0H23V28L78 35Q94 37 97 44Q100 51 100 84V423Q100 456 97 463Q94 470 78 472L23 479V507H100V531Q100 628 158 684Q216 740 322 740Q368 740 406 725.5Q444 711 469 683Q497 716 540.5 733Q584 750 641 750Q739 750 796.5 705.5Q854 661 843 597L733 581Q743 648 720 681.5Q697 715 641 715ZM215 551 215 507H423V551Q423 634 400.5 669.5Q378 705 322 705Q265 705 240 668Q215 631 215 551Z" glyph-name="ffj" horiz-adv-x="939" unicode="" /><glyph d="M560 35 615 28V0H346V28L401 35Q417 37 420 44Q423 51 423 84V590Q423 655 399 685Q375 715 322 715Q265 715 240 678Q215 641 215 561V507H365V472H215V84Q215 51 218 44Q221 37 237 35L292 28V0H23V28L78 35Q94 37 97 44Q100 51 100 84V423Q100 456 97 463Q94 470 78 472L23 479V507H100V541Q100 638 158 694Q216 750 322 750Q362 750 396 740Q430 730 457 710Q472 717 485.5 724.5Q499 732 511 740H538V255L714 423Q747 455 751 462.5Q755 470 737 472L682 479V507H887V479L832 472Q818 470 808.5 462.5Q799 455 765 423L669 331L811 84Q829 54 836.5 46Q844 38 862 35L917 28V0H726L587 253L538 206V84Q538 51 541 44Q544 37 560 35Z" glyph-name="fk" horiz-adv-x="918" unicode="" /><glyph d="M560 35 615 28V0H346V28L401 35Q417 37 420 44Q423 51 423 84V472H215V84Q215 51 218 44Q221 37 237 35L292 28V0H23V28L78 35Q94 37 97 44Q100 51 100 84V423Q100 456 97 463Q94 470 78 472L23 479V507H100V531Q100 628 158 684Q216 740 322 740Q368 740 405.5 725.5Q443 711 470 682Q499 716 543 733Q587 750 645 750Q685 750 719 740Q753 730 780 710Q795 717 808.5 724.5Q822 732 834 740H861V255L1037 423Q1070 455 1074 462.5Q1078 470 1060 472L1005 479V507H1210V479L1155 472Q1141 470 1131.5 462.5Q1122 455 1088 423L992 331L1134 84Q1152 54 1159.5 46Q1167 38 1185 35L1240 28V0H1049L910 253L861 206V84Q861 51 864 44Q867 37 883 35L938 28V0H669V28L724 35Q740 37 743 44Q746 51 746 84V590Q746 655 722 685Q698 715 645 715Q588 715 563 678Q538 641 538 561V507H688V472H538V84Q538 51 541 44Q544 37 560 35ZM215 551 215 507H423V551Q423 634 400.5 669.5Q378 705 322 705Q265 705 240 668Q215 631 215 551Z" glyph-name="ffk" horiz-adv-x="1241" unicode="" /><glyph d="M132 35 187 28V0H-6V28L49 35Q65 37 69.5 43Q74 49 85 84L276 680H362L554 84Q564 52 569 44.5Q574 37 590 35L645 28V0H369V28L424 35Q440 37 441 44.5Q442 52 432 84L394 208H163L124 84Q114 52 115 44.5Q116 37 132 35ZM280 575 175 243H383ZM319 752 295 773Q323 817 336 847.5Q349 878 357 913H483Q449 867 412 830Q375 793 319 752Z" glyph-name="Aacute" horiz-adv-x="639" unicode="Á" /><glyph d="M132 35 187 28V0H-6V28L49 35Q65 37 69.5 43Q74 49 85 84L276 680H362L554 84Q564 52 569 44.5Q574 37 590 35L645 28V0H369V28L424 35Q440 37 441 44.5Q442 52 432 84L394 208H163L124 84Q114 52 115 44.5Q116 37 132 35ZM280 575 175 243H383ZM457 774 443 752Q406 773 373 796.5Q340 820 316 841Q292 819 260.5 795.5Q229 772 197 752L183 774Q217 813 234.5 838.5Q252 864 276 913H364Q388 864 405.5 838.5Q423 813 457 774Z" glyph-name="Acircumflex" horiz-adv-x="639" unicode="Â" /><glyph d="M133 35 188 28V0H-5V28L50 35Q66 37 70.5 43Q75 49 86 84L277 680H363L555 84Q565 52 570 44.5Q575 37 591 35L646 28V0H370V28L425 35Q441 37 442 44.5Q443 52 433 84L395 208H164L125 84Q115 52 116 44.5Q117 37 133 35ZM281 575 176 243H384ZM272 836Q272 808 254.5 790.5Q237 773 209 773Q181 773 164 790.5Q147 808 147 836Q147 864 164 881Q181 898 209 898Q237 898 254.5 880.5Q272 863 272 836ZM482 836Q482 808 464.5 790.5Q447 773 419 773Q391 773 374 790.5Q357 808 357 836Q357 864 374 881Q391 898 419 898Q447 898 464.5 880.5Q482 863 482 836Z" glyph-name="Adieresis" horiz-adv-x="639" unicode="Ä" /><glyph d="M132 35 187 28V0H-6V28L49 35Q65 37 69.5 43Q74 49 85 84L276 680H362L554 84Q564 52 569 44.5Q574 37 590 35L645 28V0H369V28L424 35Q440 37 441 44.5Q442 52 432 84L394 208H163L124 84Q114 52 115 44.5Q116 37 132 35ZM280 575 175 243H383ZM345 773 321 752Q265 793 228 830Q191 867 157 913H283Q291 878 304 847.5Q317 817 345 773Z" glyph-name="Agrave" horiz-adv-x="639" unicode="À" /><glyph d="M132 35 187 28V0H-6V28L49 35Q65 37 69.5 43Q74 49 85 84L270 660Q234 672 212 702Q190 732 190 768V779Q190 827 224.5 860Q259 893 313 893Q366 893 401 859.5Q436 826 436 779V768Q436 735 417.5 706.5Q399 678 367 664L554 84Q564 52 569 44.5Q574 37 590 35L645 28V0H369V28L424 35Q440 37 441 44.5Q442 52 432 84L394 208H163L124 84Q114 52 115 44.5Q116 37 132 35ZM363 761 363 786Q363 826 350.5 846Q338 866 313 866Q288 866 276 846Q264 826 264 786V761Q264 720 276 700Q288 680 313 680Q338 680 350.5 700.5Q363 721 363 761ZM280 575 175 243H383Z" glyph-name="Aring" horiz-adv-x="639" unicode="Å" /><glyph d="M132 35 187 28V0H-6V28L49 35Q65 37 69.5 43Q74 49 85 84L276 680H362L554 84Q564 52 569 44.5Q574 37 590 35L645 28V0H369V28L424 35Q440 37 441 44.5Q442 52 432 84L394 208H163L124 84Q114 52 115 44.5Q116 37 132 35ZM280 575 175 243H383ZM382 756Q365 756 347 765.5Q329 775 299 805Q277 826 267 832.5Q257 839 248 839Q231 839 221.5 821Q212 803 207 761H171Q179 843 200.5 880.5Q222 918 260 918Q277 918 294 908.5Q311 899 340 870Q362 848 373 841.5Q384 835 393 835Q409 835 418 852.5Q427 870 433 913H469Q461 831 440 793.5Q419 756 382 756Z" glyph-name="Atilde" horiz-adv-x="639" unicode="Ã" /><glyph d="M132 35 187 28V0H-6V28L49 35Q65 37 69.5 43Q74 49 85 84L276 680H362L554 84Q564 52 569 44.5Q574 37 590 35L645 28V0H369V28L424 35Q440 37 441 44.5Q442 52 432 84L394 208H163L124 84Q114 52 115 44.5Q116 37 132 35ZM280 575 175 243H383ZM320 834Q368 834 395.5 854.5Q423 875 433 918L466 908Q451 831 414.5 791.5Q378 752 320 752Q262 752 225.5 791.5Q189 831 174 908L207 918Q217 875 244.5 854.5Q272 834 320 834Z" glyph-name="Abreve" horiz-adv-x="639" unicode="Ă" /><glyph d="M132 35 187 28V0H-6V28L49 35Q65 37 69.5 43Q74 49 85 84L276 680H362L554 84Q564 52 569 44.5Q574 37 590 35L645 28V0H369V28L424 35Q440 37 441 44.5Q442 52 432 84L394 208H163L124 84Q114 52 115 44.5Q116 37 132 35ZM280 575 175 243H383ZM176 847 463 847V792H176Z" glyph-name="Amacron" horiz-adv-x="639" unicode="Ā" /><glyph d="M541 -112 605 -125Q592 -173 558.5 -198Q525 -223 476 -223Q424 -223 391 -197.5Q358 -172 358 -130Q358 -93 384.5 -59.5Q411 -26 458 -2L394 208H163L124 84Q114 52 115 44.5Q116 37 132 35L187 28V0H-6V28L49 35Q65 37 69.5 43Q74 49 85 84L276 680H362L554 84Q564 52 569 44.5Q574 37 590 35L645 28V0H582Q518 0 479.5 -36Q441 -72 441 -129Q441 -158 452 -173.5Q463 -189 484 -189Q508 -189 522 -170Q536 -151 541 -112ZM280 575 175 243H383Z" glyph-name="Aogonek" horiz-adv-x="639" unicode="Ą" /><glyph d="M462 -140Q462 -178 429.5 -200.5Q397 -223 343 -223Q295 -223 267 -203.5Q239 -184 232 -145L287 -131Q290 -162 302 -176.5Q314 -191 335 -191Q356 -191 367.5 -178Q379 -165 379 -140Q379 -113 366 -100Q353 -87 327 -87Q324 -87 320 -87.5Q316 -88 307 -89L294 -63L317 -8Q198 3 132 86.5Q66 170 66 309V372Q66 523 135.5 606.5Q205 690 332 690Q438 690 500 630Q562 570 555 477L438 448Q448 545 418 600Q388 655 327 655Q259 655 226.5 598Q194 541 194 422V259Q194 137 232 81Q270 25 352 25Q413 25 446 59Q479 93 486 162L558 143Q539 68 487 29Q435 -10 356 -10L337 -55Q395 -57 428.5 -79.5Q462 -102 462 -140Z" glyph-name="Ccedilla" horiz-adv-x="597" unicode="Ç" /><glyph d="M352 -10Q217 -10 141.5 75Q66 160 66 309V372Q66 523 135.5 606.5Q205 690 332 690Q438 690 500 630Q562 570 555 477L438 448Q448 545 418 600Q388 655 327 655Q259 655 226.5 598Q194 541 194 422V259Q194 137 232 81Q270 25 352 25Q413 25 446 59Q479 93 486 162L558 143Q539 68 486 29Q433 -10 352 -10ZM335 752 311 773Q339 817 352 847.5Q365 878 373 913H499Q465 867 428 830Q391 793 335 752Z" glyph-name="Cacute" horiz-adv-x="597" unicode="Ć" /><glyph d="M352 -10Q217 -10 141.5 75Q66 160 66 309V372Q66 523 135.5 606.5Q205 690 332 690Q438 690 500 630Q562 570 555 477L438 448Q448 545 418 600Q388 655 327 655Q259 655 226.5 598Q194 541 194 422V259Q194 137 232 81Q270 25 352 25Q413 25 446 59Q479 93 486 162L558 143Q539 68 486 29Q433 -10 352 -10ZM459 918 473 896Q439 857 421.5 831.5Q404 806 380 757H292Q268 806 250.5 831.5Q233 857 199 896L213 918Q248 898 280.5 875Q313 852 340 829Q364 851 395.5 874.5Q427 898 459 918Z" glyph-name="Ccaron" horiz-adv-x="597" unicode="Č" /><glyph d="M352 -10Q217 -10 141.5 75Q66 160 66 309V372Q66 523 135.5 606.5Q205 690 332 690Q438 690 500 630Q562 570 555 477L438 448Q448 545 418 600Q388 655 327 655Q259 655 226.5 598Q194 541 194 422V259Q194 137 232 81Q270 25 352 25Q413 25 446 59Q479 93 486 162L558 143Q539 68 486 29Q433 -10 352 -10ZM473 774 459 752Q422 773 389 796.5Q356 820 332 841Q308 819 276.5 795.5Q245 772 213 752L199 774Q233 813 250.5 838.5Q268 864 292 913H380Q404 864 421.5 838.5Q439 813 473 774Z" glyph-name="Ccircumflex" horiz-adv-x="597" unicode="Ĉ" /><glyph d="M352 -10Q217 -10 141.5 75Q66 160 66 309V372Q66 523 135.5 606.5Q205 690 332 690Q438 690 500 630Q562 570 555 477L438 448Q448 545 418 600Q388 655 327 655Q259 655 226.5 598Q194 541 194 422V259Q194 137 232 81Q270 25 352 25Q413 25 446 59Q479 93 486 162L558 143Q539 68 486 29Q433 -10 352 -10ZM405 836Q405 805 385.5 785.5Q366 766 335 766Q304 766 285 785.5Q266 805 266 836Q266 867 285 886Q304 905 335 905Q366 905 385.5 885.5Q405 866 405 836Z" glyph-name="Cdotaccent" horiz-adv-x="597" unicode="Ċ" /><glyph d="M98 645 43 652V680H338Q470 680 536.5 602.5Q603 525 603 372V309Q603 155 536.5 77.5Q470 0 338 0H43V28L98 35Q114 37 117 44Q120 51 120 84V596Q120 629 117 636Q114 643 98 645ZM333 645 240 645V35H333Q416 35 445.5 84Q475 133 475 259V422Q475 548 445.5 596.5Q416 645 333 645ZM456 918 470 896Q436 857 418.5 831.5Q401 806 377 757H289Q265 806 247.5 831.5Q230 857 196 896L210 918Q245 898 277.5 875Q310 852 337 829Q361 851 392.5 874.5Q424 898 456 918Z" glyph-name="Dcaron" horiz-adv-x="669" unicode="Ď" /><glyph d="M103 645 48 652V680H343Q475 680 541.5 602.5Q608 525 608 372V309Q608 155 541.5 77.5Q475 0 343 0H48V28L103 35Q119 37 122 44Q125 51 125 84V337H48V372H125V596Q125 629 122 636Q119 643 103 645ZM385 372 385 337H245V35H338Q421 35 450.5 84Q480 133 480 259V422Q480 548 450.5 596.5Q421 645 338 645H245V372Z" glyph-name="Dcroat" horiz-adv-x="674" unicode="Đ" /><glyph d="M478 61 510 172H538V0H43V28L98 35Q114 37 117 44Q120 51 120 84V596Q120 629 117 636Q114 643 98 645L43 652V680H528V508H500L468 619Q462 639 454 642Q446 645 414 645H240V361H354Q387 361 395 364.5Q403 368 408 387L430 468H458V219H430L408 300Q403 319 395 322.5Q387 326 354 326H240V35H424Q456 35 464 38Q472 41 478 61ZM331 752 307 773Q335 817 348 847.5Q361 878 369 913H495Q461 867 424 830Q387 793 331 752Z" glyph-name="Eacute" horiz-adv-x="603" unicode="É" /><glyph d="M478 61 510 172H538V0H43V28L98 35Q114 37 117 44Q120 51 120 84V596Q120 629 117 636Q114 643 98 645L43 652V680H528V508H500L468 619Q462 639 454 642Q446 645 414 645H240V361H354Q387 361 395 364.5Q403 368 408 387L430 468H458V219H430L408 300Q403 319 395 322.5Q387 326 354 326H240V35H424Q456 35 464 38Q472 41 478 61ZM469 774 455 752Q418 773 385 796.5Q352 820 328 841Q304 819 272.5 795.5Q241 772 209 752L195 774Q229 813 246.5 838.5Q264 864 288 913H376Q400 864 417.5 838.5Q435 813 469 774Z" glyph-name="Ecircumflex" horiz-adv-x="603" unicode="Ê" /><glyph d="M478 61 510 172H538V0H43V28L98 35Q114 37 117 44Q120 51 120 84V596Q120 629 117 636Q114 643 98 645L43 652V680H528V508H500L468 619Q462 639 454 642Q446 645 414 645H240V361H354Q387 361 395 364.5Q403 368 408 387L430 468H458V219H430L408 300Q403 319 395 322.5Q387 326 354 326H240V35H424Q456 35 464 38Q472 41 478 61ZM289 836Q289 808 271.5 790.5Q254 773 226 773Q198 773 181 790.5Q164 808 164 836Q164 864 181 881Q198 898 226 898Q254 898 271.5 880.5Q289 863 289 836ZM499 836Q499 808 481.5 790.5Q464 773 436 773Q408 773 391 790.5Q374 808 374 836Q374 864 391 881Q408 898 436 898Q464 898 481.5 880.5Q499 863 499 836Z" glyph-name="Edieresis" horiz-adv-x="603" unicode="Ë" /><glyph d="M478 61 510 172H538V0H43V28L98 35Q114 37 117 44Q120 51 120 84V596Q120 629 117 636Q114 643 98 645L43 652V680H528V508H500L468 619Q462 639 454 642Q446 645 414 645H240V361H354Q387 361 395 364.5Q403 368 408 387L430 468H458V219H430L408 300Q403 319 395 322.5Q387 326 354 326H240V35H424Q456 35 464 38Q472 41 478 61ZM357 773 333 752Q277 793 240 830Q203 867 169 913H295Q303 878 316 847.5Q329 817 357 773Z" glyph-name="Egrave" horiz-adv-x="603" unicode="È" /><glyph d="M478 61 510 172H538V0H43V28L98 35Q114 37 117 44Q120 51 120 84V596Q120 629 117 636Q114 643 98 645L43 652V680H528V508H500L468 619Q462 639 454 642Q446 645 414 645H240V361H354Q387 361 395 364.5Q403 368 408 387L430 468H458V219H430L408 300Q403 319 395 322.5Q387 326 354 326H240V35H424Q456 35 464 38Q472 41 478 61ZM332 834Q380 834 407.5 854.5Q435 875 445 918L478 908Q463 831 426.5 791.5Q390 752 332 752Q274 752 237.5 791.5Q201 831 186 908L219 918Q229 875 256.5 854.5Q284 834 332 834Z" glyph-name="Ebreve" horiz-adv-x="603" unicode="Ĕ" /><glyph d="M478 61 510 172H538V0H43V28L98 35Q114 37 117 44Q120 51 120 84V596Q120 629 117 636Q114 643 98 645L43 652V680H528V508H500L468 619Q462 639 454 642Q446 645 414 645H240V361H354Q387 361 395 364.5Q403 368 408 387L430 468H458V219H430L408 300Q403 319 395 322.5Q387 326 354 326H240V35H424Q456 35 464 38Q472 41 478 61ZM455 918 469 896Q435 857 417.5 831.5Q400 806 376 757H288Q264 806 246.5 831.5Q229 857 195 896L209 918Q244 898 276.5 875Q309 852 336 829Q360 851 391.5 874.5Q423 898 455 918Z" glyph-name="Ecaron" horiz-adv-x="603" unicode="Ě" /><glyph d="M478 61 510 172H538V0H43V28L98 35Q114 37 117 44Q120 51 120 84V596Q120 629 117 636Q114 643 98 645L43 652V680H528V508H500L468 619Q462 639 454 642Q446 645 414 645H240V361H354Q387 361 395 364.5Q403 368 408 387L430 468H458V219H430L408 300Q403 319 395 322.5Q387 326 354 326H240V35H424Q456 35 464 38Q472 41 478 61ZM401 836Q401 805 381.5 785.5Q362 766 331 766Q300 766 281 785.5Q262 805 262 836Q262 867 281 886Q300 905 331 905Q362 905 381.5 885.5Q401 866 401 836Z" glyph-name="Edotaccent" horiz-adv-x="603" unicode="Ė" /><glyph d="M478 61 510 172H538V0H43V28L98 35Q114 37 117 44Q120 51 120 84V596Q120 629 117 636Q114 643 98 645L43 652V680H528V508H500L468 619Q462 639 454 642Q446 645 414 645H240V361H354Q387 361 395 364.5Q403 368 408 387L430 468H458V219H430L408 300Q403 319 395 322.5Q387 326 354 326H240V35H424Q456 35 464 38Q472 41 478 61ZM188 847 475 847V792H188Z" glyph-name="Emacron" horiz-adv-x="603" unicode="Ē" /><glyph d="M474 -112 538 -125Q525 -173 491.5 -198Q458 -223 409 -223Q357 -223 324 -197.5Q291 -172 291 -130Q291 -91 322.5 -56Q354 -21 408 0H43V28L98 35Q114 37 117 44Q120 51 120 84V596Q120 629 117 636Q114 643 98 645L43 652V680H528V508H500L468 619Q462 639 454 642Q446 645 414 645H240V361H354Q387 361 395 364.5Q403 368 408 387L430 468H458V219H430L408 300Q403 319 395 322.5Q387 326 354 326H240V35H424Q456 35 464 38Q472 41 478 61L510 172H538V0H515Q451 0 412.5 -36Q374 -72 374 -129Q374 -158 385 -173.5Q396 -189 417 -189Q441 -189 455 -170Q469 -151 474 -112Z" glyph-name="Eogonek" horiz-adv-x="603" unicode="Ę" /><glyph d="M436 273 361 280V308H645V280L590 273Q574 271 571 264Q568 257 568 224V0H541Q528 14 513 26Q498 38 481 47Q448 18 410 4Q372 -10 327 -10Q207 -10 136.5 78.5Q66 167 66 314V377Q66 521 138 605.5Q210 690 335 690Q449 690 513.5 629.5Q578 569 568 477L451 448Q462 545 430 600Q398 655 331 655Q262 655 228 595Q194 535 194 412V269Q194 148 230.5 86.5Q267 25 339 25Q374 25 406 38.5Q438 52 458 76V224Q458 258 455 264.5Q452 271 436 273ZM341 834Q389 834 416.5 854.5Q444 875 454 918L487 908Q472 831 435.5 791.5Q399 752 341 752Q283 752 246.5 791.5Q210 831 195 908L228 918Q238 875 265.5 854.5Q293 834 341 834Z" glyph-name="Gbreve" horiz-adv-x="663" unicode="Ğ" /><glyph d="M436 273 361 280V308H645V280L590 273Q574 271 571 264Q568 257 568 224V0H541Q528 14 513 26Q498 38 481 47Q448 18 410 4Q372 -10 327 -10Q207 -10 136.5 78.5Q66 167 66 314V377Q66 521 138 605.5Q210 690 335 690Q449 690 513.5 629.5Q578 569 568 477L451 448Q462 545 430 600Q398 655 331 655Q262 655 228 595Q194 535 194 412V269Q194 148 230.5 86.5Q267 25 339 25Q374 25 406 38.5Q438 52 458 76V224Q458 258 455 264.5Q452 271 436 273ZM477 774 463 752Q426 773 393 796.5Q360 820 336 841Q312 819 280.5 795.5Q249 772 217 752L203 774Q237 813 254.5 838.5Q272 864 296 913H384Q408 864 425.5 838.5Q443 813 477 774Z" glyph-name="Gcircumflex" horiz-adv-x="663" unicode="Ĝ" /><glyph d="M436 273 361 280V308H645V280L590 273Q574 271 571 264Q568 257 568 224V0H541Q528 14 513 26Q498 38 481 47Q448 18 410 4Q372 -10 327 -10Q207 -10 136.5 78.5Q66 167 66 314V377Q66 521 138 605.5Q210 690 335 690Q449 690 513.5 629.5Q578 569 568 477L451 448Q462 545 430 600Q398 655 331 655Q262 655 228 595Q194 535 194 412V269Q194 148 230.5 86.5Q267 25 339 25Q374 25 406 38.5Q438 52 458 76V224Q458 258 455 264.5Q452 271 436 273ZM262 -248 243 -230Q260 -194 270.5 -158Q281 -122 286 -77H399Q375 -125 341 -167.5Q307 -210 262 -248Z" glyph-name="Gcommaaccent" horiz-adv-x="663" unicode="Ģ" /><glyph d="M436 273 361 280V308H645V280L590 273Q574 271 571 264Q568 257 568 224V0H541Q528 14 513 26Q498 38 481 47Q448 18 410 4Q372 -10 327 -10Q207 -10 136.5 78.5Q66 167 66 314V377Q66 521 138 605.5Q210 690 335 690Q449 690 513.5 629.5Q578 569 568 477L451 448Q462 545 430 600Q398 655 331 655Q262 655 228 595Q194 535 194 412V269Q194 148 230.5 86.5Q267 25 339 25Q374 25 406 38.5Q438 52 458 76V224Q458 258 455 264.5Q452 271 436 273ZM410 836Q410 805 390.5 785.5Q371 766 340 766Q309 766 290 785.5Q271 805 271 836Q271 867 290 886Q309 905 340 905Q371 905 390.5 885.5Q410 866 410 836Z" glyph-name="Gdotaccent" horiz-adv-x="663" unicode="Ġ" /><glyph d="M267 35 322 28V0H48V28L103 35Q119 37 122 44Q125 51 125 84V493H48V526H125V596Q125 629 122 636Q119 643 103 645L48 652V680H322V652L267 645Q251 643 248 636Q245 629 245 596V526H508V596Q508 629 505 636Q502 643 486 645L431 652V680H705V652L650 645Q634 643 631 636Q628 629 628 596V526H705V493H628V84Q628 51 631 44Q634 37 650 35L705 28V0H431V28L486 35Q502 37 505 44Q508 51 508 84V326H245V84Q245 51 248 44Q251 37 267 35ZM245 493 245 361H508V493Z" glyph-name="Hbar" horiz-adv-x="753" unicode="Ħ" /><glyph d="M645 35 700 28V0H426V28L481 35Q497 37 500 44Q503 51 503 84V326H240V84Q240 51 243 44Q246 37 262 35L317 28V0H43V28L98 35Q114 37 117 44Q120 51 120 84V596Q120 629 117 636Q114 643 98 645L43 652V680H317V652L262 645Q246 643 243 636Q240 629 240 596V361H503V596Q503 629 500 636Q497 643 481 645L426 652V680H700V652L645 645Q629 643 626 636Q623 629 623 596V84Q623 51 626 44Q629 37 645 35ZM509 774 495 752Q458 773 425 796.5Q392 820 368 841Q344 819 312.5 795.5Q281 772 249 752L235 774Q269 813 286.5 838.5Q304 864 328 913H416Q440 864 457.5 838.5Q475 813 509 774Z" glyph-name="Hcircumflex" horiz-adv-x="743" unicode="Ĥ" /><glyph d="M98 645 43 652V680H317V652L262 645Q246 643 243 636Q240 629 240 596V84Q240 51 243 44Q246 37 262 35L317 28V0H43V28L98 35Q114 37 117 44Q120 51 120 84V596Q120 629 117 636Q114 643 98 645ZM179 752 155 773Q183 817 196 847.5Q209 878 217 913H343Q309 867 272 830Q235 793 179 752Z" glyph-name="Iacute" horiz-adv-x="360" unicode="Í" /><glyph d="M98 645 43 652V680H317V652L262 645Q246 643 243 636Q240 629 240 596V84Q240 51 243 44Q246 37 262 35L317 28V0H43V28L98 35Q114 37 117 44Q120 51 120 84V596Q120 629 117 636Q114 643 98 645ZM317 774 303 752Q266 773 233 796.5Q200 820 176 841Q152 819 120.5 795.5Q89 772 57 752L43 774Q77 813 94.5 838.5Q112 864 136 913H224Q248 864 265.5 838.5Q283 813 317 774Z" glyph-name="Icircumflex" horiz-adv-x="360" unicode="Î" /><glyph d="M98 645 43 652V680H317V652L262 645Q246 643 243 636Q240 629 240 596V84Q240 51 243 44Q246 37 262 35L317 28V0H43V28L98 35Q114 37 117 44Q120 51 120 84V596Q120 629 117 636Q114 643 98 645ZM138 836Q138 808 120.5 790.5Q103 773 75 773Q47 773 30 790.5Q13 808 13 836Q13 864 30 881Q47 898 75 898Q103 898 120.5 880.5Q138 863 138 836ZM348 836Q348 808 330.5 790.5Q313 773 285 773Q257 773 240 790.5Q223 808 223 836Q223 864 240 881Q257 898 285 898Q313 898 330.5 880.5Q348 863 348 836Z" glyph-name="Idieresis" horiz-adv-x="360" unicode="Ï" /><glyph d="M98 645 43 652V680H317V652L262 645Q246 643 243 636Q240 629 240 596V84Q240 51 243 44Q246 37 262 35L317 28V0H43V28L98 35Q114 37 117 44Q120 51 120 84V596Q120 629 117 636Q114 643 98 645ZM205 773 181 752Q125 793 88 830Q51 867 17 913H143Q151 878 164 847.5Q177 817 205 773Z" glyph-name="Igrave" horiz-adv-x="360" unicode="Ì" /><glyph d="M98 645 43 652V680H317V652L262 645Q246 643 243 636Q240 629 240 596V84Q240 51 243 44Q246 37 262 35L317 28V0H43V28L98 35Q114 37 117 44Q120 51 120 84V596Q120 629 117 636Q114 643 98 645ZM180 834Q228 834 255.5 854.5Q283 875 293 918L326 908Q311 831 274.5 791.5Q238 752 180 752Q122 752 85.5 791.5Q49 831 34 908L67 918Q77 875 104.5 854.5Q132 834 180 834Z" glyph-name="Ibreve" horiz-adv-x="360" unicode="Ĭ" /><glyph d="M98 645 43 652V680H317V652L262 645Q246 643 243 636Q240 629 240 596V84Q240 51 243 44Q246 37 262 35L317 28V0H43V28L98 35Q114 37 117 44Q120 51 120 84V596Q120 629 117 636Q114 643 98 645ZM250 836Q250 805 230.5 785.5Q211 766 180 766Q149 766 130 785.5Q111 805 111 836Q111 867 130 886Q149 905 180 905Q211 905 230.5 885.5Q250 866 250 836Z" glyph-name="Idotaccent" horiz-adv-x="360" unicode="İ" /><glyph d="M98 645 43 652V680H317V652L262 645Q246 643 243 636Q240 629 240 596V84Q240 51 243 44Q246 37 262 35L317 28V0H43V28L98 35Q114 37 117 44Q120 51 120 84V596Q120 629 117 636Q114 643 98 645ZM37 847 324 847V792H37Z" glyph-name="Imacron" horiz-adv-x="360" unicode="Ī" /><glyph d="M95 645 40 652V680H314V652L259 645Q243 643 240 636Q237 629 237 596V84Q237 51 240 44Q243 37 259 35L314 28V0H253Q189 0 150.5 -36Q112 -72 112 -129Q112 -158 123 -173.5Q134 -189 155 -189Q179 -189 193 -170Q207 -151 212 -112L276 -125Q263 -173 229.5 -198Q196 -223 147 -223Q95 -223 62 -197.5Q29 -172 29 -130Q29 -96 52 -64Q75 -32 117 -9V596Q117 629 114 636Q111 643 95 645Z" glyph-name="Iogonek" horiz-adv-x="357" unicode="Į" /><glyph d="M98 645 43 652V680H317V652L262 645Q246 643 243 636Q240 629 240 596V84Q240 51 243 44Q246 37 262 35L317 28V0H43V28L98 35Q114 37 117 44Q120 51 120 84V596Q120 629 117 636Q114 643 98 645ZM242 756Q225 756 207 765.5Q189 775 159 805Q137 826 127 832.5Q117 839 108 839Q91 839 81.5 821Q72 803 67 761H31Q39 843 60.5 880.5Q82 918 120 918Q137 918 154 908.5Q171 899 200 870Q222 848 233 841.5Q244 835 253 835Q269 835 278 852.5Q287 870 293 913H329Q321 831 300 793.5Q279 756 242 756Z" glyph-name="Itilde" horiz-adv-x="360" unicode="Ĩ" /><glyph d="M227 645 172 652V680H446V652L391 645Q375 643 372 636Q369 629 369 596V194Q369 95 319 42.5Q269 -10 173 -10Q100 -10 58 28Q16 66 6 142L75 162Q78 93 100.5 59Q123 25 167 25Q210 25 229.5 61.5Q249 98 249 174V596Q249 629 246 636Q243 643 227 645ZM446 774 432 752Q395 773 362 796.5Q329 820 305 841Q281 819 249.5 795.5Q218 772 186 752L172 774Q206 813 223.5 838.5Q241 864 265 913H353Q377 864 394.5 838.5Q412 813 446 774Z" glyph-name="Jcircumflex" horiz-adv-x="476" unicode="Ĵ" /><glyph d="M98 645 43 652V680H317V652L262 645Q246 643 243 636Q240 629 240 596V84Q240 51 243 44Q246 37 262 35L317 28V0H43V28L98 35Q114 37 117 44Q120 51 120 84V596Q120 629 117 636Q114 643 98 645ZM587 645 532 652V680H806V652L751 645Q735 643 732 636Q729 629 729 596V194Q729 95 679 42.5Q629 -10 533 -10Q460 -10 418 28Q376 66 366 142L435 162Q438 93 460.5 59Q483 25 527 25Q570 25 589.5 61.5Q609 98 609 174V596Q609 629 606 636Q603 643 587 645Z" glyph-name="IJ" horiz-adv-x="836" unicode="Ĳ" /><glyph d="M98 645 43 652V680H317V652L262 645Q246 643 243 636Q240 629 240 596V327L477 596Q503 626 506.5 634.5Q510 643 493 645L438 652V680H641V652L586 645Q572 643 565 637.5Q558 632 526 596L386 438L559 84Q574 53 582 45.5Q590 38 612 35L657 28V0H467L305 346L240 272V84Q240 51 243 44Q246 37 262 35L317 28V0H43V28L98 35Q114 37 117 44Q120 51 120 84V596Q120 629 117 636Q114 643 98 645ZM272 -248 253 -230Q270 -194 280.5 -158Q291 -122 296 -77H409Q385 -125 351 -167.5Q317 -210 272 -248Z" glyph-name="Kcommaaccent" horiz-adv-x="656" unicode="Ķ" /><glyph d="M735 685 759 664Q749 631 738 575.5Q727 520 722 474H609Q635 535 670.5 594.5Q706 654 735 685ZM98 645 43 652V680H317V652L262 645Q246 643 243 636Q240 629 240 596V327L477 596Q503 626 506.5 634.5Q510 643 493 645L438 652V680H641V652L586 645Q572 643 565 637.5Q558 632 526 596L386 438L559 84Q574 53 582 45.5Q590 38 612 35L657 28V0H467L305 346L240 272V84Q240 51 243 44Q246 37 262 35L317 28V0H43V28L98 35Q114 37 117 44Q120 51 120 84V596Q120 629 117 636Q114 643 98 645Z" glyph-name="kgreenlandic.case" horiz-adv-x="766" unicode="" /><glyph d="M458 61 490 172H518V0H43V28L98 35Q114 37 117 44Q120 51 120 84V596Q120 629 117 636Q114 643 98 645L43 652V680H317V652L262 645Q246 643 243 636Q240 629 240 596V35H404Q436 35 444 38Q452 41 458 61ZM184 752 160 773Q188 817 201 847.5Q214 878 222 913H348Q314 867 277 830Q240 793 184 752Z" glyph-name="Lacute" horiz-adv-x="532" unicode="Ĺ" /><glyph d="M458 61 490 172H518V0H43V28L98 35Q114 37 117 44Q120 51 120 84V596Q120 629 117 636Q114 643 98 645L43 652V680H317V652L262 645Q246 643 243 636Q240 629 240 596V35H404Q436 35 444 38Q452 41 458 61ZM392 466 368 466V680H477Q458 620 438 570.5Q418 521 392 466Z" glyph-name="Lcaron" horiz-adv-x="532" unicode="Ľ" /><glyph d="M458 61 490 172H518V0H43V28L98 35Q114 37 117 44Q120 51 120 84V596Q120 629 117 636Q114 643 98 645L43 652V680H317V652L262 645Q246 643 243 636Q240 629 240 596V35H404Q436 35 444 38Q452 41 458 61ZM214 -248 195 -230Q212 -194 222.5 -158Q233 -122 238 -77H351Q327 -125 293 -167.5Q259 -210 214 -248Z" glyph-name="Lcommaaccent" horiz-adv-x="532" unicode="Ļ" /><glyph d="M458 61 490 172H518V0H43V28L98 35Q114 37 117 44Q120 51 120 84V596Q120 629 117 636Q114 643 98 645L43 652V680H317V652L262 645Q246 643 243 636Q240 629 240 596V35H404Q436 35 444 38Q452 41 458 61ZM515 385Q515 354 495.5 334.5Q476 315 445 315Q414 315 395 334.5Q376 354 376 385Q376 416 395 435Q414 454 445 454Q476 454 495.5 434.5Q515 415 515 385Z" glyph-name="Ldot" horiz-adv-x="532" unicode="Ŀ" /><glyph d="M520 645 465 652V680H659V652L604 645Q588 643 585 636Q582 629 582 596V0H527L160 593V84Q160 51 163 44Q166 37 182 35L237 28V0H43V28L98 35Q114 37 117 44Q120 51 120 84V596Q120 629 117 636Q114 643 98 645L43 652V680H244L542 201V596Q542 629 539 636Q536 643 520 645ZM422 756Q405 756 387 765.5Q369 775 339 805Q317 826 307 832.5Q297 839 288 839Q271 839 261.5 821Q252 803 247 761H211Q219 843 240.5 880.5Q262 918 300 918Q317 918 334 908.5Q351 899 380 870Q402 848 413 841.5Q424 835 433 835Q449 835 458 852.5Q467 870 473 913H509Q501 831 480 793.5Q459 756 422 756Z" glyph-name="Ntilde" horiz-adv-x="687" unicode="Ñ" /><glyph d="M520 645 465 652V680H659V652L604 645Q588 643 585 636Q582 629 582 596V0H527L160 593V84Q160 51 163 44Q166 37 182 35L237 28V0H43V28L98 35Q114 37 117 44Q120 51 120 84V596Q120 629 117 636Q114 643 98 645L43 652V680H244L542 201V596Q542 629 539 636Q536 643 520 645ZM359 752 335 773Q363 817 376 847.5Q389 878 397 913H523Q489 867 452 830Q415 793 359 752Z" glyph-name="Nacute" horiz-adv-x="687" unicode="Ń" /><glyph d="M520 645 465 652V680H659V652L604 645Q588 643 585 636Q582 629 582 596V0H527L160 593V84Q160 51 163 44Q166 37 182 35L237 28V0H43V28L98 35Q114 37 117 44Q120 51 120 84V596Q120 629 117 636Q114 643 98 645L43 652V680H244L542 201V596Q542 629 539 636Q536 643 520 645ZM483 918 497 896Q463 857 445.5 831.5Q428 806 404 757H316Q292 806 274.5 831.5Q257 857 223 896L237 918Q272 898 304.5 875Q337 852 364 829Q388 851 419.5 874.5Q451 898 483 918Z" glyph-name="Ncaron" horiz-adv-x="687" unicode="Ň" /><glyph d="M520 645 465 652V680H659V652L604 645Q588 643 585 636Q582 629 582 596V0H527L160 593V84Q160 51 163 44Q166 37 182 35L237 28V0H43V28L98 35Q114 37 117 44Q120 51 120 84V596Q120 629 117 636Q114 643 98 645L43 652V680H244L542 201V596Q542 629 539 636Q536 643 520 645ZM272 -248 253 -230Q270 -194 280.5 -158Q291 -122 296 -77H409Q385 -125 351 -167.5Q317 -210 272 -248Z" glyph-name="Ncommaaccent" horiz-adv-x="687" unicode="Ņ" /><glyph d="M659 652 604 645Q588 643 585 636Q582 629 582 596V-19Q582 -113 533.5 -168Q485 -223 397 -223Q330 -223 289.5 -184.5Q249 -146 239 -71L308 -51Q311 -120 332 -154Q353 -188 393 -188Q429 -188 448 -150.5Q467 -113 467 -39V97L160 593V84Q160 51 163 44Q166 37 182 35L237 28V0H43V28L98 35Q114 37 117 44Q120 51 120 84V596Q120 629 117 636Q114 643 98 645L43 652V680H244L542 201V596Q542 629 539 636Q536 643 520 645L465 652V680H659Z" glyph-name="Eng" horiz-adv-x="687" unicode="Ŋ" /><glyph d="M664 645 609 652V680H803V652L748 645Q732 643 729 636Q726 629 726 596V0H671L304 593V84Q304 51 307 44Q310 37 326 35L381 28V0H187V28L242 35Q258 37 261 44Q264 51 264 84V596Q264 629 261 636Q258 643 242 645L187 652V680H388L686 201V596Q686 629 683 636Q680 643 664 645ZM70 690Q100 690 118 668.5Q136 647 136 611Q136 570 109 516Q82 462 34 407L11 427Q41 463 56 495Q71 527 73 559H70Q41 559 23 577Q5 595 5 625Q5 654 23 672Q41 690 70 690Z" glyph-name="napostrophe.case" horiz-adv-x="831" unicode="" /><glyph d="M337 690Q469 690 538.5 608.5Q608 527 608 372V309Q608 154 538.5 72Q469 -10 337 -10Q205 -10 135.5 71.5Q66 153 66 309V372Q66 528 135 609Q204 690 337 690ZM480 259 480 422Q480 547 447.5 601Q415 655 337 655Q259 655 226.5 601Q194 547 194 422V259Q194 134 227 79.5Q260 25 337 25Q414 25 447 79.5Q480 134 480 259ZM341 752 317 773Q345 817 358 847.5Q371 878 379 913H505Q471 867 434 830Q397 793 341 752Z" glyph-name="Oacute" horiz-adv-x="674" unicode="Ó" /><glyph d="M337 690Q469 690 538.5 608.5Q608 527 608 372V309Q608 154 538.5 72Q469 -10 337 -10Q205 -10 135.5 71.5Q66 153 66 309V372Q66 528 135 609Q204 690 337 690ZM480 259 480 422Q480 547 447.5 601Q415 655 337 655Q259 655 226.5 601Q194 547 194 422V259Q194 134 227 79.5Q260 25 337 25Q414 25 447 79.5Q480 134 480 259ZM479 774 465 752Q428 773 395 796.5Q362 820 338 841Q314 819 282.5 795.5Q251 772 219 752L205 774Q239 813 256.5 838.5Q274 864 298 913H386Q410 864 427.5 838.5Q445 813 479 774Z" glyph-name="Ocircumflex" horiz-adv-x="674" unicode="Ô" /><glyph d="M337 690Q469 690 538.5 608.5Q608 527 608 372V309Q608 154 538.5 72Q469 -10 337 -10Q205 -10 135.5 71.5Q66 153 66 309V372Q66 528 135 609Q204 690 337 690ZM480 259 480 422Q480 547 447.5 601Q415 655 337 655Q259 655 226.5 601Q194 547 194 422V259Q194 134 227 79.5Q260 25 337 25Q414 25 447 79.5Q480 134 480 259ZM300 836Q300 808 282.5 790.5Q265 773 237 773Q209 773 192 790.5Q175 808 175 836Q175 864 192 881Q209 898 237 898Q265 898 282.5 880.5Q300 863 300 836ZM510 836Q510 808 492.5 790.5Q475 773 447 773Q419 773 402 790.5Q385 808 385 836Q385 864 402 881Q419 898 447 898Q475 898 492.5 880.5Q510 863 510 836Z" glyph-name="Odieresis" horiz-adv-x="674" unicode="Ö" /><glyph d="M337 690Q469 690 538.5 608.5Q608 527 608 372V309Q608 154 538.5 72Q469 -10 337 -10Q205 -10 135.5 71.5Q66 153 66 309V372Q66 528 135 609Q204 690 337 690ZM480 259 480 422Q480 547 447.5 601Q415 655 337 655Q259 655 226.5 601Q194 547 194 422V259Q194 134 227 79.5Q260 25 337 25Q414 25 447 79.5Q480 134 480 259ZM367 773 343 752Q287 793 250 830Q213 867 179 913H305Q313 878 326 847.5Q339 817 367 773Z" glyph-name="Ograve" horiz-adv-x="674" unicode="Ò" /><glyph d="M337 690Q469 690 538.5 608.5Q608 527 608 372V309Q608 154 538.5 72Q469 -10 337 -10Q205 -10 135.5 71.5Q66 153 66 309V372Q66 528 135 609Q204 690 337 690ZM480 259 480 422Q480 547 447.5 601Q415 655 337 655Q259 655 226.5 601Q194 547 194 422V259Q194 134 227 79.5Q260 25 337 25Q414 25 447 79.5Q480 134 480 259ZM404 756Q387 756 369 765.5Q351 775 321 805Q299 826 289 832.5Q279 839 270 839Q253 839 243.5 821Q234 803 229 761H193Q201 843 222.5 880.5Q244 918 282 918Q299 918 316 908.5Q333 899 362 870Q384 848 395 841.5Q406 835 415 835Q431 835 440 852.5Q449 870 455 913H491Q483 831 462 793.5Q441 756 404 756Z" glyph-name="Otilde" horiz-adv-x="674" unicode="Õ" /><glyph d="M337 690Q469 690 538.5 608.5Q608 527 608 372V309Q608 154 538.5 72Q469 -10 337 -10Q205 -10 135.5 71.5Q66 153 66 309V372Q66 528 135 609Q204 690 337 690ZM480 259 480 422Q480 547 447.5 601Q415 655 337 655Q259 655 226.5 601Q194 547 194 422V259Q194 134 227 79.5Q260 25 337 25Q414 25 447 79.5Q480 134 480 259ZM342 834Q390 834 417.5 854.5Q445 875 455 918L488 908Q473 831 436.5 791.5Q400 752 342 752Q284 752 247.5 791.5Q211 831 196 908L229 918Q239 875 266.5 854.5Q294 834 342 834Z" glyph-name="Obreve" horiz-adv-x="674" unicode="Ŏ" /><glyph d="M337 690Q469 690 538.5 608.5Q608 527 608 372V309Q608 154 538.5 72Q469 -10 337 -10Q205 -10 135.5 71.5Q66 153 66 309V372Q66 528 135 609Q204 690 337 690ZM480 259 480 422Q480 547 447.5 601Q415 655 337 655Q259 655 226.5 601Q194 547 194 422V259Q194 134 227 79.5Q260 25 337 25Q414 25 447 79.5Q480 134 480 259ZM262 752 235 776Q255 806 267 837.5Q279 869 289 913H400Q372 868 339 829.5Q306 791 262 752ZM402 752 375 776Q395 806 407 837.5Q419 869 429 913H540Q512 868 479 829.5Q446 791 402 752Z" glyph-name="Ohungarumlaut" horiz-adv-x="674" unicode="Ő" /><glyph d="M337 690Q469 690 538.5 608.5Q608 527 608 372V309Q608 154 538.5 72Q469 -10 337 -10Q205 -10 135.5 71.5Q66 153 66 309V372Q66 528 135 609Q204 690 337 690ZM480 259 480 422Q480 547 447.5 601Q415 655 337 655Q259 655 226.5 601Q194 547 194 422V259Q194 134 227 79.5Q260 25 337 25Q414 25 447 79.5Q480 134 480 259ZM199 847 486 847V792H199Z" glyph-name="Omacron" horiz-adv-x="674" unicode="Ō" /><glyph d="M98 645 43 652V680H345Q448 680 506 634Q564 588 564 507V484Q564 424 531 382Q498 340 436 322L561 84Q580 49 585.5 43Q591 37 606 35L651 28V0H464L313 310H240V84Q240 51 243 44Q246 37 262 35L317 28V0H43V28L98 35Q114 37 117 44Q120 51 120 84V596Q120 629 117 636Q114 643 98 645ZM345 645 240 645V345H345Q394 345 415 375.5Q436 406 436 474V517Q436 584 415 614.5Q394 645 345 645ZM321 752 297 773Q325 817 338 847.5Q351 878 359 913H485Q451 867 414 830Q377 793 321 752Z" glyph-name="Racute" horiz-adv-x="651" unicode="Ŕ" /><glyph d="M98 645 43 652V680H345Q448 680 506 634Q564 588 564 507V484Q564 424 531 382Q498 340 436 322L561 84Q580 49 585.5 43Q591 37 606 35L651 28V0H464L313 310H240V84Q240 51 243 44Q246 37 262 35L317 28V0H43V28L98 35Q114 37 117 44Q120 51 120 84V596Q120 629 117 636Q114 643 98 645ZM345 645 240 645V345H345Q394 345 415 375.5Q436 406 436 474V517Q436 584 415 614.5Q394 645 345 645ZM445 918 459 896Q425 857 407.5 831.5Q390 806 366 757H278Q254 806 236.5 831.5Q219 857 185 896L199 918Q234 898 266.5 875Q299 852 326 829Q350 851 381.5 874.5Q413 898 445 918Z" glyph-name="Rcaron" horiz-adv-x="651" unicode="Ř" /><glyph d="M98 645 43 652V680H345Q448 680 506 634Q564 588 564 507V484Q564 424 531 382Q498 340 436 322L561 84Q580 49 585.5 43Q591 37 606 35L651 28V0H464L313 310H240V84Q240 51 243 44Q246 37 262 35L317 28V0H43V28L98 35Q114 37 117 44Q120 51 120 84V596Q120 629 117 636Q114 643 98 645ZM345 645 240 645V345H345Q394 345 415 375.5Q436 406 436 474V517Q436 584 415 614.5Q394 645 345 645ZM270 -248 251 -230Q268 -194 278.5 -158Q289 -122 294 -77H407Q383 -125 349 -167.5Q315 -210 270 -248Z" glyph-name="Rcommaaccent" horiz-adv-x="651" unicode="Ŗ" /><glyph d="M275 25Q340 25 377 56Q414 87 414 143Q414 191 385.5 220Q357 249 293 268L200 296Q130 317 92.5 369Q55 421 55 497Q55 584 113.5 637Q172 690 273 690Q384 690 442 631.5Q500 573 484 483L369 462Q385 554 356 604.5Q327 655 260 655Q208 655 178 624Q148 593 148 539Q148 489 176.5 455Q205 421 262 404L355 376Q434 352 470.5 306.5Q507 261 507 186Q507 96 445.5 43Q384 -10 276 -10Q175 -10 115 34.5Q55 79 44 164L111 188Q117 106 158 65.5Q199 25 275 25ZM399 918 413 896Q379 857 361.5 831.5Q344 806 320 757H232Q208 806 190.5 831.5Q173 857 139 896L153 918Q188 898 220.5 875Q253 852 280 829Q304 851 335.5 874.5Q367 898 399 918Z" glyph-name="Scaron" horiz-adv-x="562" unicode="Š" /><glyph d="M275 25Q340 25 377 56Q414 87 414 143Q414 191 385.5 220Q357 249 293 268L200 296Q130 317 92.5 369Q55 421 55 497Q55 584 113.5 637Q172 690 273 690Q384 690 442 631.5Q500 573 484 483L369 462Q385 554 356 604.5Q327 655 260 655Q208 655 178 624Q148 593 148 539Q148 489 176.5 455Q205 421 262 404L355 376Q434 352 470.5 306.5Q507 261 507 186Q507 96 445.5 43Q384 -10 276 -10Q175 -10 115 34.5Q55 79 44 164L111 188Q117 106 158 65.5Q199 25 275 25ZM275 752 251 773Q279 817 292 847.5Q305 878 313 913H439Q405 867 368 830Q331 793 275 752Z" glyph-name="Sacute" horiz-adv-x="562" unicode="Ś" /><glyph d="M372 -140Q372 -178 339.5 -200.5Q307 -223 253 -223Q205 -223 177 -203.5Q149 -184 142 -145L197 -131Q200 -162 212 -176.5Q224 -191 245 -191Q266 -191 277.5 -178Q289 -165 289 -140Q289 -113 276 -100Q263 -87 237 -87Q234 -87 230 -87.5Q226 -88 217 -89L204 -63L227 -7Q147 3 100 46.5Q53 90 44 164L111 188Q117 106 158 65.5Q199 25 275 25Q340 25 377 56Q414 87 414 143Q414 191 385.5 220Q357 249 293 268L200 296Q130 317 92.5 369Q55 421 55 497Q55 584 113.5 637Q172 690 273 690Q384 690 442 631.5Q500 573 484 483L369 462Q385 554 356 604.5Q327 655 260 655Q208 655 178 624Q148 593 148 539Q148 489 176.5 455Q205 421 262 404L355 376Q434 352 470.5 306.5Q507 261 507 186Q507 96 445.5 43Q384 -10 276 -10H266L247 -55Q305 -57 338.5 -79.5Q372 -102 372 -140Z" glyph-name="Scedilla" horiz-adv-x="562" unicode="Ş" /><glyph d="M275 25Q340 25 377 56Q414 87 414 143Q414 191 385.5 220Q357 249 293 268L200 296Q130 317 92.5 369Q55 421 55 497Q55 584 113.5 637Q172 690 273 690Q384 690 442 631.5Q500 573 484 483L369 462Q385 554 356 604.5Q327 655 260 655Q208 655 178 624Q148 593 148 539Q148 489 176.5 455Q205 421 262 404L355 376Q434 352 470.5 306.5Q507 261 507 186Q507 96 445.5 43Q384 -10 276 -10Q175 -10 115 34.5Q55 79 44 164L111 188Q117 106 158 65.5Q199 25 275 25ZM413 774 399 752Q362 773 329 796.5Q296 820 272 841Q248 819 216.5 795.5Q185 772 153 752L139 774Q173 813 190.5 838.5Q208 864 232 913H320Q344 864 361.5 838.5Q379 813 413 774Z" glyph-name="Scircumflex" horiz-adv-x="562" unicode="Ŝ" /><glyph d="M275 25Q340 25 377 56Q414 87 414 143Q414 191 385.5 220Q357 249 293 268L200 296Q130 317 92.5 369Q55 421 55 497Q55 584 113.5 637Q172 690 273 690Q384 690 442 631.5Q500 573 484 483L369 462Q385 554 356 604.5Q327 655 260 655Q208 655 178 624Q148 593 148 539Q148 489 176.5 455Q205 421 262 404L355 376Q434 352 470.5 306.5Q507 261 507 186Q507 96 445.5 43Q384 -10 276 -10Q175 -10 115 34.5Q55 79 44 164L111 188Q117 106 158 65.5Q199 25 275 25ZM196 -248 177 -230Q194 -194 204.5 -158Q215 -122 220 -77H333Q309 -125 275 -167.5Q241 -210 196 -248Z" glyph-name="uni0218" horiz-adv-x="562" unicode="Ș" /><glyph d="M369 35 424 28V0H150V28L205 35Q221 37 224 44Q227 51 227 84V322H86V357H227V645H126Q108 645 101.5 644.5Q95 644 91 644Q83 643 79.5 639Q76 635 72 619L40 508H12V680H562V508H534L502 619Q498 635 494.5 639Q491 643 483 644Q479 644 472.5 644.5Q466 645 448 645H347V357H488V322H347V84Q347 51 350 44Q353 37 369 35Z" glyph-name="Tbar" horiz-adv-x="574" unicode="Ŧ" /><glyph d="M12 508 12 680H562V508H534L502 619Q498 635 494.5 639Q491 643 483 644Q479 644 472.5 644.5Q466 645 448 645H347V84Q347 51 350 44Q353 37 369 35L424 28V0H150V28L205 35Q221 37 224 44Q227 51 227 84V645H126Q108 645 101.5 644.5Q95 644 91 644Q83 643 79.5 639Q76 635 72 619L40 508ZM410 918 424 896Q390 857 372.5 831.5Q355 806 331 757H243Q219 806 201.5 831.5Q184 857 150 896L164 918Q199 898 231.5 875Q264 852 291 829Q315 851 346.5 874.5Q378 898 410 918Z" glyph-name="Tcaron" horiz-adv-x="574" unicode="Ť" /><glyph d="M12 508 12 680H562V508H534L502 619Q498 635 494.5 639Q491 643 483 644Q479 644 472.5 644.5Q466 645 448 645H347V84Q347 51 350 44Q353 37 369 35L424 28V0H150V28L205 35Q221 37 224 44Q227 51 227 84V645H126Q108 645 101.5 644.5Q95 644 91 644Q83 643 79.5 639Q76 635 72 619L40 508ZM207 -248 188 -230Q205 -194 215.5 -158Q226 -122 231 -77H344Q320 -125 286 -167.5Q252 -210 207 -248Z" glyph-name="uni0162" horiz-adv-x="574" unicode="Ţ" /><glyph d="M12 508 12 680H562V508H534L502 619Q498 635 494.5 639Q491 643 483 644Q479 644 472.5 644.5Q466 645 448 645H347V84Q347 51 350 44Q353 37 369 35L424 28V0H150V28L205 35Q221 37 224 44Q227 51 227 84V645H126Q108 645 101.5 644.5Q95 644 91 644Q83 643 79.5 639Q76 635 72 619L40 508ZM207 -248 188 -230Q205 -194 215.5 -158Q226 -122 231 -77H344Q320 -125 286 -167.5Q252 -210 207 -248Z" glyph-name="uni021A" horiz-adv-x="574" unicode="Ț" /><glyph d="M516 645 461 652V680H655V652L600 645Q584 643 581 636Q578 629 578 596V231Q578 110 527 50Q476 -10 373 -10Q247 -10 175.5 58Q104 126 104 246V596Q104 629 101 636Q98 643 82 645L27 652V680H301V652L246 645Q230 643 227 636Q224 629 224 596V239Q224 132 263 79.5Q302 27 382 27Q460 27 499 77.5Q538 128 538 229V596Q538 629 535 636Q532 643 516 645ZM381 752 357 773Q385 817 398 847.5Q411 878 419 913H545Q511 867 474 830Q437 793 381 752Z" glyph-name="Uacute" horiz-adv-x="684" unicode="Ú" /><glyph d="M516 645 461 652V680H655V652L600 645Q584 643 581 636Q578 629 578 596V231Q578 110 527 50Q476 -10 373 -10Q247 -10 175.5 58Q104 126 104 246V596Q104 629 101 636Q98 643 82 645L27 652V680H301V652L246 645Q230 643 227 636Q224 629 224 596V239Q224 132 263 79.5Q302 27 382 27Q460 27 499 77.5Q538 128 538 229V596Q538 629 535 636Q532 643 516 645ZM519 774 505 752Q468 773 435 796.5Q402 820 378 841Q354 819 322.5 795.5Q291 772 259 752L245 774Q279 813 296.5 838.5Q314 864 338 913H426Q450 864 467.5 838.5Q485 813 519 774Z" glyph-name="Ucircumflex" horiz-adv-x="684" unicode="Û" /><glyph d="M516 645 461 652V680H655V652L600 645Q584 643 581 636Q578 629 578 596V231Q578 110 527 50Q476 -10 373 -10Q247 -10 175.5 58Q104 126 104 246V596Q104 629 101 636Q98 643 82 645L27 652V680H301V652L246 645Q230 643 227 636Q224 629 224 596V239Q224 132 263 79.5Q302 27 382 27Q460 27 499 77.5Q538 128 538 229V596Q538 629 535 636Q532 643 516 645ZM340 836Q340 808 322.5 790.5Q305 773 277 773Q249 773 232 790.5Q215 808 215 836Q215 864 232 881Q249 898 277 898Q305 898 322.5 880.5Q340 863 340 836ZM550 836Q550 808 532.5 790.5Q515 773 487 773Q459 773 442 790.5Q425 808 425 836Q425 864 442 881Q459 898 487 898Q515 898 532.5 880.5Q550 863 550 836Z" glyph-name="Udieresis" horiz-adv-x="684" unicode="Ü" /><glyph d="M516 645 461 652V680H655V652L600 645Q584 643 581 636Q578 629 578 596V231Q578 110 527 50Q476 -10 373 -10Q247 -10 175.5 58Q104 126 104 246V596Q104 629 101 636Q98 643 82 645L27 652V680H301V652L246 645Q230 643 227 636Q224 629 224 596V239Q224 132 263 79.5Q302 27 382 27Q460 27 499 77.5Q538 128 538 229V596Q538 629 535 636Q532 643 516 645ZM407 773 383 752Q327 793 290 830Q253 867 219 913H345Q353 878 366 847.5Q379 817 407 773Z" glyph-name="Ugrave" horiz-adv-x="684" unicode="Ù" /><glyph d="M516 645 461 652V680H655V652L600 645Q584 643 581 636Q578 629 578 596V231Q578 110 527 50Q476 -10 373 -10Q247 -10 175.5 58Q104 126 104 246V596Q104 629 101 636Q98 643 82 645L27 652V680H301V652L246 645Q230 643 227 636Q224 629 224 596V239Q224 132 263 79.5Q302 27 382 27Q460 27 499 77.5Q538 128 538 229V596Q538 629 535 636Q532 643 516 645ZM382 834Q430 834 457.5 854.5Q485 875 495 918L528 908Q513 831 476.5 791.5Q440 752 382 752Q324 752 287.5 791.5Q251 831 236 908L269 918Q279 875 306.5 854.5Q334 834 382 834Z" glyph-name="Ubreve" horiz-adv-x="684" unicode="Ŭ" /><glyph d="M516 645 461 652V680H655V652L600 645Q584 643 581 636Q578 629 578 596V231Q578 110 527 50Q476 -10 373 -10Q247 -10 175.5 58Q104 126 104 246V596Q104 629 101 636Q98 643 82 645L27 652V680H301V652L246 645Q230 643 227 636Q224 629 224 596V239Q224 132 263 79.5Q302 27 382 27Q460 27 499 77.5Q538 128 538 229V596Q538 629 535 636Q532 643 516 645ZM302 752 275 776Q295 806 307 837.5Q319 869 329 913H440Q412 868 379 829.5Q346 791 302 752ZM442 752 415 776Q435 806 447 837.5Q459 869 469 913H580Q552 868 519 829.5Q486 791 442 752Z" glyph-name="Uhungarumlaut" horiz-adv-x="684" unicode="Ű" /><glyph d="M516 645 461 652V680H655V652L600 645Q584 643 581 636Q578 629 578 596V231Q578 110 527 50Q476 -10 373 -10Q247 -10 175.5 58Q104 126 104 246V596Q104 629 101 636Q98 643 82 645L27 652V680H301V652L246 645Q230 643 227 636Q224 629 224 596V239Q224 132 263 79.5Q302 27 382 27Q460 27 499 77.5Q538 128 538 229V596Q538 629 535 636Q532 643 516 645ZM239 847 526 847V792H239Z" glyph-name="Umacron" horiz-adv-x="684" unicode="Ū" /><glyph d="M516 645 461 652V680H655V652L600 645Q584 643 581 636Q578 629 578 596V231Q578 164 564 119Q550 74 515 37Q500 21 473 -1.5Q446 -24 437 -33Q414 -54 404.5 -76Q395 -98 395 -125Q395 -157 406 -173Q417 -189 439 -189Q462 -189 476 -170Q490 -151 495 -112L559 -125Q546 -173 512.5 -198Q479 -223 430 -223Q377 -223 344.5 -197Q312 -171 312 -129Q312 -97 332 -71Q352 -45 415 -7Q405 -9 394.5 -9.5Q384 -10 373 -10Q247 -10 175.5 58Q104 126 104 246V596Q104 629 101 636Q98 643 82 645L27 652V680H301V652L246 645Q230 643 227 636Q224 629 224 596V239Q224 132 263 79.5Q302 27 382 27Q460 27 499 77.5Q538 128 538 229V596Q538 629 535 636Q532 643 516 645Z" glyph-name="Uogonek" horiz-adv-x="684" unicode="Ų" /><glyph d="M516 645 461 652V680H655V652L600 645Q584 643 581 636Q578 629 578 596V231Q578 110 527 50Q476 -10 373 -10Q247 -10 175.5 58Q104 126 104 246V596Q104 629 101 636Q98 643 82 645L27 652V680H301V652L246 645Q230 643 227 636Q224 629 224 596V239Q224 132 263 79.5Q302 27 382 27Q460 27 499 77.5Q538 128 538 229V596Q538 629 535 636Q532 643 516 645ZM382 976Q435 976 470 942.5Q505 909 505 862V851Q505 804 470 770Q435 736 382 736Q329 736 294 769.5Q259 803 259 851V862Q259 910 293.5 943Q328 976 382 976ZM432 844 432 869Q432 909 419.5 929Q407 949 382 949Q357 949 345 929Q333 909 333 869V844Q333 803 345 783Q357 763 382 763Q407 763 419.5 783.5Q432 804 432 844Z" glyph-name="Uring" horiz-adv-x="684" unicode="Ů" /><glyph d="M516 645 461 652V680H655V652L600 645Q584 643 581 636Q578 629 578 596V231Q578 110 527 50Q476 -10 373 -10Q247 -10 175.5 58Q104 126 104 246V596Q104 629 101 636Q98 643 82 645L27 652V680H301V652L246 645Q230 643 227 636Q224 629 224 596V239Q224 132 263 79.5Q302 27 382 27Q460 27 499 77.5Q538 128 538 229V596Q538 629 535 636Q532 643 516 645ZM444 756Q427 756 409 765.5Q391 775 361 805Q339 826 329 832.5Q319 839 310 839Q293 839 283.5 821Q274 803 269 761H233Q241 843 262.5 880.5Q284 918 322 918Q339 918 356 908.5Q373 899 402 870Q424 848 435 841.5Q446 835 455 835Q471 835 480 852.5Q489 870 495 913H531Q523 831 502 793.5Q481 756 444 756Z" glyph-name="Utilde" horiz-adv-x="684" unicode="Ũ" /><glyph d="M716 0 628 0L464 546L309 0H222L83 596Q76 629 71.5 636Q67 643 50 645L-5 652V680H272V652L217 645Q203 643 201 639.5Q199 636 200 627Q200 623 201.5 617.5Q203 612 206 596L310 130L463 680H546L709 140L815 596Q822 627 821 635Q820 643 804 645L749 652V680H943V652L888 645Q871 643 866.5 636Q862 629 855 596ZM496 752 472 773Q500 817 513 847.5Q526 878 534 913H660Q626 867 589 830Q552 793 496 752Z" glyph-name="Wacute" horiz-adv-x="938" unicode="Ẃ" /><glyph d="M716 0 628 0L464 546L309 0H222L83 596Q76 629 71.5 636Q67 643 50 645L-5 652V680H272V652L217 645Q203 643 201 639.5Q199 636 200 627Q200 623 201.5 617.5Q203 612 206 596L310 130L463 680H546L709 140L815 596Q822 627 821 635Q820 643 804 645L749 652V680H943V652L888 645Q871 643 866.5 636Q862 629 855 596ZM634 774 620 752Q583 773 550 796.5Q517 820 493 841Q469 819 437.5 795.5Q406 772 374 752L360 774Q394 813 411.5 838.5Q429 864 453 913H541Q565 864 582.5 838.5Q600 813 634 774Z" glyph-name="Wcircumflex" horiz-adv-x="938" unicode="Ŵ" /><glyph d="M716 0 628 0L464 546L309 0H222L83 596Q76 629 71.5 636Q67 643 50 645L-5 652V680H272V652L217 645Q203 643 201 639.5Q199 636 200 627Q200 623 201.5 617.5Q203 612 206 596L310 130L463 680H546L709 140L815 596Q822 627 821 635Q820 643 804 645L749 652V680H943V652L888 645Q871 643 866.5 636Q862 629 855 596ZM454 836Q454 808 436.5 790.5Q419 773 391 773Q363 773 346 790.5Q329 808 329 836Q329 864 346 881Q363 898 391 898Q419 898 436.5 880.5Q454 863 454 836ZM664 836Q664 808 646.5 790.5Q629 773 601 773Q573 773 556 790.5Q539 808 539 836Q539 864 556 881Q573 898 601 898Q629 898 646.5 880.5Q664 863 664 836Z" glyph-name="Wdieresis" horiz-adv-x="938" unicode="Ẅ" /><glyph d="M716 0 628 0L464 546L309 0H222L83 596Q76 629 71.5 636Q67 643 50 645L-5 652V680H272V652L217 645Q203 643 201 639.5Q199 636 200 627Q200 623 201.5 617.5Q203 612 206 596L310 130L463 680H546L709 140L815 596Q822 627 821 635Q820 643 804 645L749 652V680H943V652L888 645Q871 643 866.5 636Q862 629 855 596ZM522 773 498 752Q442 793 405 830Q368 867 334 913H460Q468 878 481 847.5Q494 817 522 773Z" glyph-name="Wgrave" horiz-adv-x="938" unicode="Ẁ" /><glyph d="M391 35 446 28V0H172V28L227 35Q243 37 246 44Q249 51 249 84V291L90 596Q73 629 67 636Q61 643 45 645L-10 652V680H275V652L220 645Q204 643 204.5 635.5Q205 628 221 596L350 338L484 596Q500 626 500.5 634.5Q501 643 485 645L430 652V680H625V652L570 645Q555 643 549 636.5Q543 630 526 596L369 293V84Q369 51 372 44Q375 37 391 35ZM337 752 313 773Q341 817 354 847.5Q367 878 375 913H501Q467 867 430 830Q393 793 337 752Z" glyph-name="Yacute" horiz-adv-x="615" unicode="Ý" /><glyph d="M391 35 446 28V0H172V28L227 35Q243 37 246 44Q249 51 249 84V291L90 596Q73 629 67 636Q61 643 45 645L-10 652V680H275V652L220 645Q204 643 204.5 635.5Q205 628 221 596L350 338L484 596Q500 626 500.5 634.5Q501 643 485 645L430 652V680H625V652L570 645Q555 643 549 636.5Q543 630 526 596L369 293V84Q369 51 372 44Q375 37 391 35ZM295 836Q295 808 277.5 790.5Q260 773 232 773Q204 773 187 790.5Q170 808 170 836Q170 864 187 881Q204 898 232 898Q260 898 277.5 880.5Q295 863 295 836ZM505 836Q505 808 487.5 790.5Q470 773 442 773Q414 773 397 790.5Q380 808 380 836Q380 864 397 881Q414 898 442 898Q470 898 487.5 880.5Q505 863 505 836Z" glyph-name="Ydieresis" horiz-adv-x="615" unicode="Ÿ" /><glyph d="M391 35 446 28V0H172V28L227 35Q243 37 246 44Q249 51 249 84V291L90 596Q73 629 67 636Q61 643 45 645L-10 652V680H275V652L220 645Q204 643 204.5 635.5Q205 628 221 596L350 338L484 596Q500 626 500.5 634.5Q501 643 485 645L430 652V680H625V652L570 645Q555 643 549 636.5Q543 630 526 596L369 293V84Q369 51 372 44Q375 37 391 35ZM475 774 461 752Q424 773 391 796.5Q358 820 334 841Q310 819 278.5 795.5Q247 772 215 752L201 774Q235 813 252.5 838.5Q270 864 294 913H382Q406 864 423.5 838.5Q441 813 475 774Z" glyph-name="Ycircumflex" horiz-adv-x="615" unicode="Ŷ" /><glyph d="M391 35 446 28V0H172V28L227 35Q243 37 246 44Q249 51 249 84V291L90 596Q73 629 67 636Q61 643 45 645L-10 652V680H275V652L220 645Q204 643 204.5 635.5Q205 628 221 596L350 338L484 596Q500 626 500.5 634.5Q501 643 485 645L430 652V680H625V652L570 645Q555 643 549 636.5Q543 630 526 596L369 293V84Q369 51 372 44Q375 37 391 35ZM363 773 339 752Q283 793 246 830Q209 867 175 913H301Q309 878 322 847.5Q335 817 363 773Z" glyph-name="Ygrave" horiz-adv-x="615" unicode="Ỳ" /><glyph d="M448 61 480 172H508V0H38V25L362 645H168Q136 645 128 642Q120 639 114 619L82 508H54V680H498V655L174 35H394Q426 35 434 38Q442 41 448 61ZM397 918 411 896Q377 857 359.5 831.5Q342 806 318 757H230Q206 806 188.5 831.5Q171 857 137 896L151 918Q186 898 218.5 875Q251 852 278 829Q302 851 333.5 874.5Q365 898 397 918Z" glyph-name="Zcaron" horiz-adv-x="546" unicode="Ž" /><glyph d="M448 61 480 172H508V0H38V25L362 645H168Q136 645 128 642Q120 639 114 619L82 508H54V680H498V655L174 35H394Q426 35 434 38Q442 41 448 61ZM273 752 249 773Q277 817 290 847.5Q303 878 311 913H437Q403 867 366 830Q329 793 273 752Z" glyph-name="Zacute" horiz-adv-x="546" unicode="Ź" /><glyph d="M448 61 480 172H508V0H38V25L362 645H168Q136 645 128 642Q120 639 114 619L82 508H54V680H498V655L174 35H394Q426 35 434 38Q442 41 448 61ZM343 836Q343 805 323.5 785.5Q304 766 273 766Q242 766 223 785.5Q204 805 204 836Q204 867 223 886Q242 905 273 905Q304 905 323.5 885.5Q343 866 343 836Z" glyph-name="Zdotaccent" horiz-adv-x="546" unicode="Ż" /><glyph d="M515 51 533 25Q513 7 490.5 -1.5Q468 -10 440 -10Q399 -10 371.5 8Q344 26 335 59Q304 25 265 7.5Q226 -10 182 -10Q118 -10 81.5 26.5Q45 63 45 125Q45 192 93.5 224.5Q142 257 240 257H331V338Q331 412 311.5 447Q292 482 250 482Q200 482 181.5 443.5Q163 405 177 327L67 343Q54 418 105.5 467.5Q157 517 252 517Q349 517 397.5 472.5Q446 428 446 338V107Q446 67 452.5 48.5Q459 30 475 30Q484 30 493.5 35Q503 40 515 51ZM163 127Q163 86 179 64.5Q195 43 226 43Q256 43 281 58.5Q306 74 331 107V222H256Q207 222 185 199.5Q163 177 163 127ZM252 579 228 600Q256 644 269 674.5Q282 705 290 740H416Q382 694 345 657Q308 620 252 579Z" glyph-name="aacute" horiz-adv-x="538" unicode="á" /><glyph d="M515 51 533 25Q513 7 490.5 -1.5Q468 -10 440 -10Q399 -10 371.5 8Q344 26 335 59Q304 25 265 7.5Q226 -10 182 -10Q118 -10 81.5 26.5Q45 63 45 125Q45 192 93.5 224.5Q142 257 240 257H331V338Q331 412 311.5 447Q292 482 250 482Q200 482 181.5 443.5Q163 405 177 327L67 343Q54 418 105.5 467.5Q157 517 252 517Q349 517 397.5 472.5Q446 428 446 338V107Q446 67 452.5 48.5Q459 30 475 30Q484 30 493.5 35Q503 40 515 51ZM163 127Q163 86 179 64.5Q195 43 226 43Q256 43 281 58.5Q306 74 331 107V222H256Q207 222 185 199.5Q163 177 163 127ZM390 601 376 579Q339 600 306 623.5Q273 647 249 668Q225 646 193.5 622.5Q162 599 130 579L116 601Q150 640 167.5 665.5Q185 691 209 740H297Q321 691 338.5 665.5Q356 640 390 601Z" glyph-name="acircumflex" horiz-adv-x="538" unicode="â" /><glyph d="M515 51 533 25Q513 7 490.5 -1.5Q468 -10 440 -10Q399 -10 371.5 8Q344 26 335 59Q304 25 265 7.5Q226 -10 182 -10Q118 -10 81.5 26.5Q45 63 45 125Q45 192 93.5 224.5Q142 257 240 257H331V338Q331 412 311.5 447Q292 482 250 482Q200 482 181.5 443.5Q163 405 177 327L67 343Q54 418 105.5 467.5Q157 517 252 517Q349 517 397.5 472.5Q446 428 446 338V107Q446 67 452.5 48.5Q459 30 475 30Q484 30 493.5 35Q503 40 515 51ZM163 127Q163 86 179 64.5Q195 43 226 43Q256 43 281 58.5Q306 74 331 107V222H256Q207 222 185 199.5Q163 177 163 127ZM210 663Q210 635 192.5 617.5Q175 600 147 600Q119 600 102 617.5Q85 635 85 663Q85 691 102 708Q119 725 147 725Q175 725 192.5 707.5Q210 690 210 663ZM420 663Q420 635 402.5 617.5Q385 600 357 600Q329 600 312 617.5Q295 635 295 663Q295 691 312 708Q329 725 357 725Q385 725 402.5 707.5Q420 690 420 663Z" glyph-name="adieresis" horiz-adv-x="538" unicode="ä" /><glyph d="M515 51 533 25Q513 7 490.5 -1.5Q468 -10 440 -10Q399 -10 371.5 8Q344 26 335 59Q304 25 265 7.5Q226 -10 182 -10Q118 -10 81.5 26.5Q45 63 45 125Q45 192 93.5 224.5Q142 257 240 257H331V338Q331 412 311.5 447Q292 482 250 482Q200 482 181.5 443.5Q163 405 177 327L67 343Q54 418 105.5 467.5Q157 517 252 517Q349 517 397.5 472.5Q446 428 446 338V107Q446 67 452.5 48.5Q459 30 475 30Q484 30 493.5 35Q503 40 515 51ZM163 127Q163 86 179 64.5Q195 43 226 43Q256 43 281 58.5Q306 74 331 107V222H256Q207 222 185 199.5Q163 177 163 127ZM278 600 254 579Q198 620 161 657Q124 694 90 740H216Q224 705 237 674.5Q250 644 278 600Z" glyph-name="agrave" horiz-adv-x="538" unicode="à" /><glyph d="M515 51 533 25Q513 7 490.5 -1.5Q468 -10 440 -10Q399 -10 371.5 8Q344 26 335 59Q304 25 265 7.5Q226 -10 182 -10Q118 -10 81.5 26.5Q45 63 45 125Q45 192 93.5 224.5Q142 257 240 257H331V338Q331 412 311.5 447Q292 482 250 482Q200 482 181.5 443.5Q163 405 177 327L67 343Q54 418 105.5 467.5Q157 517 252 517Q349 517 397.5 472.5Q446 428 446 338V107Q446 67 452.5 48.5Q459 30 475 30Q484 30 493.5 35Q503 40 515 51ZM163 127Q163 86 179 64.5Q195 43 226 43Q256 43 281 58.5Q306 74 331 107V222H256Q207 222 185 199.5Q163 177 163 127ZM253 803Q306 803 341 769.5Q376 736 376 689V678Q376 631 341 597Q306 563 253 563Q200 563 165 596.5Q130 630 130 678V689Q130 737 164.5 770Q199 803 253 803ZM303 671 303 696Q303 736 290.5 756Q278 776 253 776Q228 776 216 756Q204 736 204 696V671Q204 630 216 610Q228 590 253 590Q278 590 290.5 610.5Q303 631 303 671Z" glyph-name="aring" horiz-adv-x="538" unicode="å" /><glyph d="M515 51 533 25Q513 7 490.5 -1.5Q468 -10 440 -10Q399 -10 371.5 8Q344 26 335 59Q304 25 265 7.5Q226 -10 182 -10Q118 -10 81.5 26.5Q45 63 45 125Q45 192 93.5 224.5Q142 257 240 257H331V338Q331 412 311.5 447Q292 482 250 482Q200 482 181.5 443.5Q163 405 177 327L67 343Q54 418 105.5 467.5Q157 517 252 517Q349 517 397.5 472.5Q446 428 446 338V107Q446 67 452.5 48.5Q459 30 475 30Q484 30 493.5 35Q503 40 515 51ZM163 127Q163 86 179 64.5Q195 43 226 43Q256 43 281 58.5Q306 74 331 107V222H256Q207 222 185 199.5Q163 177 163 127ZM315 583Q298 583 280 592.5Q262 602 232 632Q210 653 200 659.5Q190 666 181 666Q164 666 154.5 648Q145 630 140 588H104Q112 670 133.5 707.5Q155 745 193 745Q210 745 227 735.5Q244 726 273 697Q295 675 306 668.5Q317 662 326 662Q342 662 351 679.5Q360 697 366 740H402Q394 658 373 620.5Q352 583 315 583Z" glyph-name="atilde" horiz-adv-x="538" unicode="ã" /><glyph d="M515 51 533 25Q513 7 490.5 -1.5Q468 -10 440 -10Q399 -10 371.5 8Q344 26 335 59Q304 25 265 7.5Q226 -10 182 -10Q118 -10 81.5 26.5Q45 63 45 125Q45 192 93.5 224.5Q142 257 240 257H331V338Q331 412 311.5 447Q292 482 250 482Q200 482 181.5 443.5Q163 405 177 327L67 343Q54 418 105.5 467.5Q157 517 252 517Q349 517 397.5 472.5Q446 428 446 338V107Q446 67 452.5 48.5Q459 30 475 30Q484 30 493.5 35Q503 40 515 51ZM163 127Q163 86 179 64.5Q195 43 226 43Q256 43 281 58.5Q306 74 331 107V222H256Q207 222 185 199.5Q163 177 163 127ZM253 661Q301 661 328.5 681.5Q356 702 366 745L399 735Q384 658 347.5 618.5Q311 579 253 579Q195 579 158.5 618.5Q122 658 107 735L140 745Q150 702 177.5 681.5Q205 661 253 661Z" glyph-name="abreve" horiz-adv-x="538" unicode="ă" /><glyph d="M515 51 533 25Q513 7 490.5 -1.5Q468 -10 440 -10Q399 -10 371.5 8Q344 26 335 59Q304 25 265 7.5Q226 -10 182 -10Q118 -10 81.5 26.5Q45 63 45 125Q45 192 93.5 224.5Q142 257 240 257H331V338Q331 412 311.5 447Q292 482 250 482Q200 482 181.5 443.5Q163 405 177 327L67 343Q54 418 105.5 467.5Q157 517 252 517Q349 517 397.5 472.5Q446 428 446 338V107Q446 67 452.5 48.5Q459 30 475 30Q484 30 493.5 35Q503 40 515 51ZM163 127Q163 86 179 64.5Q195 43 226 43Q256 43 281 58.5Q306 74 331 107V222H256Q207 222 185 199.5Q163 177 163 127ZM109 674 396 674V619H109Z" glyph-name="amacron" horiz-adv-x="538" unicode="ā" /><glyph d="M469 -112 533 -125Q520 -173 486.5 -198Q453 -223 404 -223Q352 -223 319 -198Q286 -173 286 -134Q286 -97 316.5 -67.5Q347 -38 418 -9Q385 -4 363.5 13.5Q342 31 335 59Q304 25 265 7.5Q226 -10 182 -10Q118 -10 81.5 26.5Q45 63 45 125Q45 192 93.5 224.5Q142 257 240 257H331V338Q331 412 311.5 447Q292 482 250 482Q200 482 181.5 443.5Q163 405 177 327L67 343Q54 418 105.5 467.5Q157 517 252 517Q349 517 397.5 472.5Q446 428 446 338V107Q446 67 452.5 48.5Q459 30 475 30Q484 30 493.5 35Q503 40 515 51L533 25Q521 14 506 3.5Q491 -7 468 -20Q427 -42 417.5 -48.5Q408 -55 400 -62Q384 -76 376.5 -93Q369 -110 369 -131Q369 -159 380.5 -174Q392 -189 413 -189Q436 -189 450 -170Q464 -151 469 -112ZM163 127Q163 86 179 64.5Q195 43 226 43Q256 43 281 58.5Q306 74 331 107V222H256Q207 222 185 199.5Q163 177 163 127Z" glyph-name="aogonek" horiz-adv-x="538" unicode="ą" /><glyph d="M398 -140Q398 -178 365.5 -200.5Q333 -223 279 -223Q231 -223 203 -203.5Q175 -184 168 -145L223 -131Q226 -162 238 -176.5Q250 -191 271 -191Q292 -191 303.5 -178Q315 -165 315 -140Q315 -113 302 -100Q289 -87 263 -87Q260 -87 256 -87.5Q252 -88 243 -89L230 -63L252 -9Q156 0 104.5 66Q53 132 53 244V264Q53 382 110.5 449.5Q168 517 271 517Q368 517 420.5 460.5Q473 404 458 322L348 306Q359 391 339 436.5Q319 482 271 482Q221 482 198.5 434.5Q176 387 176 284V224Q176 118 202.5 71.5Q229 25 291 25Q341 25 367 52.5Q393 80 397 137L461 119Q445 57 402.5 24.5Q360 -8 292 -10L273 -55Q331 -57 364.5 -79.5Q398 -102 398 -140Z" glyph-name="ccedilla" horiz-adv-x="503" unicode="ç" /><glyph d="M271 482Q221 482 198.5 434.5Q176 387 176 284V224Q176 118 202.5 71.5Q229 25 291 25Q341 25 367 52.5Q393 80 397 137L461 119Q445 55 400 22.5Q355 -10 284 -10Q173 -10 113 56.5Q53 123 53 244V264Q53 382 110.5 449.5Q168 517 271 517Q368 517 420.5 460.5Q473 404 458 322L348 306Q359 391 339 436.5Q319 482 271 482ZM271 579 247 600Q275 644 288 674.5Q301 705 309 740H435Q401 694 364 657Q327 620 271 579Z" glyph-name="cacute" horiz-adv-x="503" unicode="ć" /><glyph d="M271 482Q221 482 198.5 434.5Q176 387 176 284V224Q176 118 202.5 71.5Q229 25 291 25Q341 25 367 52.5Q393 80 397 137L461 119Q445 55 400 22.5Q355 -10 284 -10Q173 -10 113 56.5Q53 123 53 244V264Q53 382 110.5 449.5Q168 517 271 517Q368 517 420.5 460.5Q473 404 458 322L348 306Q359 391 339 436.5Q319 482 271 482ZM395 745 409 723Q375 684 357.5 658.5Q340 633 316 584H228Q204 633 186.5 658.5Q169 684 135 723L149 745Q184 725 216.5 702Q249 679 276 656Q300 678 331.5 701.5Q363 725 395 745Z" glyph-name="ccaron" horiz-adv-x="503" unicode="č" /><glyph d="M271 482Q221 482 198.5 434.5Q176 387 176 284V224Q176 118 202.5 71.5Q229 25 291 25Q341 25 367 52.5Q393 80 397 137L461 119Q445 55 400 22.5Q355 -10 284 -10Q173 -10 113 56.5Q53 123 53 244V264Q53 382 110.5 449.5Q168 517 271 517Q368 517 420.5 460.5Q473 404 458 322L348 306Q359 391 339 436.5Q319 482 271 482ZM409 601 395 579Q358 600 325 623.5Q292 647 268 668Q244 646 212.5 622.5Q181 599 149 579L135 601Q169 640 186.5 665.5Q204 691 228 740H316Q340 691 357.5 665.5Q375 640 409 601Z" glyph-name="ccircumflex" horiz-adv-x="503" unicode="ĉ" /><glyph d="M271 482Q221 482 198.5 434.5Q176 387 176 284V224Q176 118 202.5 71.5Q229 25 291 25Q341 25 367 52.5Q393 80 397 137L461 119Q445 55 400 22.5Q355 -10 284 -10Q173 -10 113 56.5Q53 123 53 244V264Q53 382 110.5 449.5Q168 517 271 517Q368 517 420.5 460.5Q473 404 458 322L348 306Q359 391 339 436.5Q319 482 271 482ZM341 663Q341 632 321.5 612.5Q302 593 271 593Q240 593 221 612.5Q202 632 202 663Q202 694 221 713Q240 732 271 732Q302 732 321.5 712.5Q341 693 341 663Z" glyph-name="cdotaccent" horiz-adv-x="503" unicode="ċ" /><glyph d="M514 35 569 28V0H383V83Q353 34 318.5 12Q284 -10 239 -10Q154 -10 105 57.5Q56 125 56 243V263Q56 380 113.5 448.5Q171 517 271 517Q300 517 327.5 509.5Q355 502 377 487V656Q377 689 374 696Q371 703 355 705L300 712V740H492V84Q492 51 495 44Q498 37 514 35ZM179 293 179 213Q179 125 201 79.5Q223 34 265 34Q296 34 323 59.5Q350 85 377 138V440Q358 459 334.5 468.5Q311 478 284 478Q232 478 205.5 431.5Q179 385 179 293ZM578 526 554 526V740H663Q644 680 624 630.5Q604 581 578 526Z" glyph-name="dcaron" horiz-adv-x="682" unicode="ď" /><glyph d="M514 35 569 28V0H383V83Q353 34 318.5 12Q284 -10 239 -10Q154 -10 105 57.5Q56 125 56 243V263Q56 380 113.5 448.5Q171 517 271 517Q300 517 327.5 509.5Q355 502 377 487V590H232V625H377V656Q377 689 374 696Q371 703 355 705L300 712V740H492V625H569V590H492V84Q492 51 495 44Q498 37 514 35ZM179 293 179 213Q179 125 201 79.5Q223 34 265 34Q296 34 323 59.5Q350 85 377 138V440Q358 459 334.5 468.5Q311 478 284 478Q232 478 205.5 431.5Q179 385 179 293Z" glyph-name="dcroat" horiz-adv-x="585" unicode="đ" /><glyph d="M410 137 474 119Q458 55 412 22.5Q366 -10 293 -10Q178 -10 115.5 56.5Q53 123 53 244V264Q53 383 111 450Q169 517 273 517Q366 517 422.5 463.5Q479 410 479 319Q479 302 477 285.5Q475 269 472 253H176V224Q176 118 205.5 71.5Q235 25 303 25Q352 25 379 53.5Q406 82 410 137ZM364 358Q364 418 340.5 450Q317 482 273 482Q223 482 199.5 435Q176 388 176 288H357Q360 306 362 324Q364 342 364 358ZM271 579 247 600Q275 644 288 674.5Q301 705 309 740H435Q401 694 364 657Q327 620 271 579Z" glyph-name="eacute" horiz-adv-x="529" unicode="é" /><glyph d="M410 137 474 119Q458 55 412 22.5Q366 -10 293 -10Q178 -10 115.5 56.5Q53 123 53 244V264Q53 383 111 450Q169 517 273 517Q366 517 422.5 463.5Q479 410 479 319Q479 302 477 285.5Q475 269 472 253H176V224Q176 118 205.5 71.5Q235 25 303 25Q352 25 379 53.5Q406 82 410 137ZM364 358Q364 418 340.5 450Q317 482 273 482Q223 482 199.5 435Q176 388 176 288H357Q360 306 362 324Q364 342 364 358ZM410 601 396 579Q359 600 326 623.5Q293 647 269 668Q245 646 213.5 622.5Q182 599 150 579L136 601Q170 640 187.5 665.5Q205 691 229 740H317Q341 691 358.5 665.5Q376 640 410 601Z" glyph-name="ecircumflex" horiz-adv-x="529" unicode="ê" /><glyph d="M410 137 474 119Q458 55 412 22.5Q366 -10 293 -10Q178 -10 115.5 56.5Q53 123 53 244V264Q53 383 111 450Q169 517 273 517Q366 517 422.5 463.5Q479 410 479 319Q479 302 477 285.5Q475 269 472 253H176V224Q176 118 205.5 71.5Q235 25 303 25Q352 25 379 53.5Q406 82 410 137ZM364 358Q364 418 340.5 450Q317 482 273 482Q223 482 199.5 435Q176 388 176 288H357Q360 306 362 324Q364 342 364 358ZM230 663Q230 635 212.5 617.5Q195 600 167 600Q139 600 122 617.5Q105 635 105 663Q105 691 122 708Q139 725 167 725Q195 725 212.5 707.5Q230 690 230 663ZM440 663Q440 635 422.5 617.5Q405 600 377 600Q349 600 332 617.5Q315 635 315 663Q315 691 332 708Q349 725 377 725Q405 725 422.5 707.5Q440 690 440 663Z" glyph-name="edieresis" horiz-adv-x="529" unicode="ë" /><glyph d="M410 137 474 119Q458 55 412 22.5Q366 -10 293 -10Q178 -10 115.5 56.5Q53 123 53 244V264Q53 383 111 450Q169 517 273 517Q366 517 422.5 463.5Q479 410 479 319Q479 302 477 285.5Q475 269 472 253H176V224Q176 118 205.5 71.5Q235 25 303 25Q352 25 379 53.5Q406 82 410 137ZM364 358Q364 418 340.5 450Q317 482 273 482Q223 482 199.5 435Q176 388 176 288H357Q360 306 362 324Q364 342 364 358ZM297 600 273 579Q217 620 180 657Q143 694 109 740H235Q243 705 256 674.5Q269 644 297 600Z" glyph-name="egrave" horiz-adv-x="529" unicode="è" /><glyph d="M410 137 474 119Q458 55 412 22.5Q366 -10 293 -10Q178 -10 115.5 56.5Q53 123 53 244V264Q53 383 111 450Q169 517 273 517Q366 517 422.5 463.5Q479 410 479 319Q479 302 477 285.5Q475 269 472 253H176V224Q176 118 205.5 71.5Q235 25 303 25Q352 25 379 53.5Q406 82 410 137ZM364 358Q364 418 340.5 450Q317 482 273 482Q223 482 199.5 435Q176 388 176 288H357Q360 306 362 324Q364 342 364 358ZM272 661Q320 661 347.5 681.5Q375 702 385 745L418 735Q403 658 366.5 618.5Q330 579 272 579Q214 579 177.5 618.5Q141 658 126 735L159 745Q169 702 196.5 681.5Q224 661 272 661Z" glyph-name="ebreve" horiz-adv-x="529" unicode="ĕ" /><glyph d="M410 137 474 119Q458 55 412 22.5Q366 -10 293 -10Q178 -10 115.5 56.5Q53 123 53 244V264Q53 383 111 450Q169 517 273 517Q366 517 422.5 463.5Q479 410 479 319Q479 302 477 285.5Q475 269 472 253H176V224Q176 118 205.5 71.5Q235 25 303 25Q352 25 379 53.5Q406 82 410 137ZM364 358Q364 418 340.5 450Q317 482 273 482Q223 482 199.5 435Q176 388 176 288H357Q360 306 362 324Q364 342 364 358ZM395 745 409 723Q375 684 357.5 658.5Q340 633 316 584H228Q204 633 186.5 658.5Q169 684 135 723L149 745Q184 725 216.5 702Q249 679 276 656Q300 678 331.5 701.5Q363 725 395 745Z" glyph-name="ecaron" horiz-adv-x="529" unicode="ě" /><glyph d="M410 137 474 119Q458 55 412 22.5Q366 -10 293 -10Q178 -10 115.5 56.5Q53 123 53 244V264Q53 383 111 450Q169 517 273 517Q366 517 422.5 463.5Q479 410 479 319Q479 302 477 285.5Q475 269 472 253H176V224Q176 118 205.5 71.5Q235 25 303 25Q352 25 379 53.5Q406 82 410 137ZM364 358Q364 418 340.5 450Q317 482 273 482Q223 482 199.5 435Q176 388 176 288H357Q360 306 362 324Q364 342 364 358ZM342 663Q342 632 322.5 612.5Q303 593 272 593Q241 593 222 612.5Q203 632 203 663Q203 694 222 713Q241 732 272 732Q303 732 322.5 712.5Q342 693 342 663Z" glyph-name="edotaccent" horiz-adv-x="529" unicode="ė" /><glyph d="M410 137 474 119Q458 55 412 22.5Q366 -10 293 -10Q178 -10 115.5 56.5Q53 123 53 244V264Q53 383 111 450Q169 517 273 517Q366 517 422.5 463.5Q479 410 479 319Q479 302 477 285.5Q475 269 472 253H176V224Q176 118 205.5 71.5Q235 25 303 25Q352 25 379 53.5Q406 82 410 137ZM364 358Q364 418 340.5 450Q317 482 273 482Q223 482 199.5 435Q176 388 176 288H357Q360 306 362 324Q364 342 364 358ZM129 674 416 674V619H129Z" glyph-name="emacron" horiz-adv-x="529" unicode="ē" /><glyph d="M410 -112 474 -125Q461 -173 427.5 -198Q394 -223 345 -223Q292 -223 259.5 -197Q227 -171 227 -129Q227 -97 247.5 -70.5Q268 -44 329 -8Q314 -9 306.5 -9.5Q299 -10 293 -10Q178 -10 115.5 56.5Q53 123 53 244V264Q53 383 111 450Q169 517 273 517Q366 517 422.5 463.5Q479 410 479 319Q479 302 477 285.5Q475 269 472 253H176V224Q176 118 205.5 71.5Q235 25 303 25Q352 25 379 53.5Q406 82 410 137L474 119Q467 94 455 72Q443 50 427 34Q410 18 384 -4Q358 -26 350 -34Q328 -56 319 -76.5Q310 -97 310 -125Q310 -157 321 -173Q332 -189 354 -189Q377 -189 391 -170Q405 -151 410 -112ZM364 358Q364 418 340.5 450Q317 482 273 482Q223 482 199.5 435Q176 388 176 288H357Q361 307 362.5 324.5Q364 342 364 358Z" glyph-name="eogonek" horiz-adv-x="529" unicode="ę" /><glyph d="M511 -52Q511 -133 450.5 -178Q390 -223 281 -223Q173 -223 110.5 -187.5Q48 -152 42 -89L149 -72Q144 -130 177 -159Q210 -188 281 -188Q356 -188 399 -160Q442 -132 442 -83Q442 -45 414 -27.5Q386 -10 328 -10H214Q147 -10 111.5 16Q76 42 76 89Q76 121 93.5 149Q111 177 147 203Q100 223 75 261.5Q50 300 50 351Q50 428 103 472.5Q156 517 244 517H261Q290 517 315 512Q340 507 361 498L505 569L517 471H403Q428 449 441 419Q454 389 454 351Q454 275 400.5 230Q347 185 261 185H244Q229 185 214 186.5Q199 188 185 191Q163 176 152 160.5Q141 145 141 129Q141 113 156 105Q171 97 203 97H333Q419 97 465 58.5Q511 20 511 -52ZM244 220 261 220Q299 220 319 253Q339 286 339 351Q339 416 319 449Q299 482 261 482H244Q205 482 185 449Q165 416 165 351Q165 286 185 253Q205 220 244 220ZM253 661Q301 661 328.5 681.5Q356 702 366 745L399 735Q384 658 347.5 618.5Q311 579 253 579Q195 579 158.5 618.5Q122 658 107 735L140 745Q150 702 177.5 681.5Q205 661 253 661Z" glyph-name="gbreve" horiz-adv-x="532" unicode="ğ" /><glyph d="M511 -52Q511 -133 450.5 -178Q390 -223 281 -223Q173 -223 110.5 -187.5Q48 -152 42 -89L149 -72Q144 -130 177 -159Q210 -188 281 -188Q356 -188 399 -160Q442 -132 442 -83Q442 -45 414 -27.5Q386 -10 328 -10H214Q147 -10 111.5 16Q76 42 76 89Q76 121 93.5 149Q111 177 147 203Q100 223 75 261.5Q50 300 50 351Q50 428 103 472.5Q156 517 244 517H261Q290 517 315 512Q340 507 361 498L505 569L517 471H403Q428 449 441 419Q454 389 454 351Q454 275 400.5 230Q347 185 261 185H244Q229 185 214 186.5Q199 188 185 191Q163 176 152 160.5Q141 145 141 129Q141 113 156 105Q171 97 203 97H333Q419 97 465 58.5Q511 20 511 -52ZM244 220 261 220Q299 220 319 253Q339 286 339 351Q339 416 319 449Q299 482 261 482H244Q205 482 185 449Q165 416 165 351Q165 286 185 253Q205 220 244 220ZM390 601 376 579Q339 600 306 623.5Q273 647 249 668Q225 646 193.5 622.5Q162 599 130 579L116 601Q150 640 167.5 665.5Q185 691 209 740H297Q321 691 338.5 665.5Q356 640 390 601Z" glyph-name="gcircumflex" horiz-adv-x="532" unicode="ĝ" /><glyph d="M511 -52Q511 -133 450.5 -178Q390 -223 281 -223Q173 -223 110.5 -187.5Q48 -152 42 -89L149 -72Q144 -130 177 -159Q210 -188 281 -188Q356 -188 399 -160Q442 -132 442 -83Q442 -45 414 -27.5Q386 -10 328 -10H214Q147 -10 111.5 16Q76 42 76 89Q76 121 93.5 149Q111 177 147 203Q100 223 75 261.5Q50 300 50 351Q50 428 103 472.5Q156 517 244 517H261Q290 517 315 512Q340 507 361 498L505 569L517 471H403Q428 449 441 419Q454 389 454 351Q454 275 400.5 230Q347 185 261 185H244Q229 185 214 186.5Q199 188 185 191Q163 176 152 160.5Q141 145 141 129Q141 113 156 105Q171 97 203 97H333Q419 97 465 58.5Q511 20 511 -52ZM244 220 261 220Q299 220 319 253Q339 286 339 351Q339 416 319 449Q299 482 261 482H244Q205 482 185 449Q165 416 165 351Q165 286 185 253Q205 220 244 220ZM331 755 350 737Q333 701 322.5 665Q312 629 307 584H194Q218 632 252 674.5Q286 717 331 755Z" glyph-name="gcommaaccent" horiz-adv-x="532" unicode="ģ" /><glyph d="M511 -52Q511 -133 450.5 -178Q390 -223 281 -223Q173 -223 110.5 -187.5Q48 -152 42 -89L149 -72Q144 -130 177 -159Q210 -188 281 -188Q356 -188 399 -160Q442 -132 442 -83Q442 -45 414 -27.5Q386 -10 328 -10H214Q147 -10 111.5 16Q76 42 76 89Q76 121 93.5 149Q111 177 147 203Q100 223 75 261.5Q50 300 50 351Q50 428 103 472.5Q156 517 244 517H261Q290 517 315 512Q340 507 361 498L505 569L517 471H403Q428 449 441 419Q454 389 454 351Q454 275 400.5 230Q347 185 261 185H244Q229 185 214 186.5Q199 188 185 191Q163 176 152 160.5Q141 145 141 129Q141 113 156 105Q171 97 203 97H333Q419 97 465 58.5Q511 20 511 -52ZM244 220 261 220Q299 220 319 253Q339 286 339 351Q339 416 319 449Q299 482 261 482H244Q205 482 185 449Q165 416 165 351Q165 286 185 253Q205 220 244 220ZM322 663Q322 632 302.5 612.5Q283 593 252 593Q221 593 202 612.5Q183 632 183 663Q183 694 202 713Q221 732 252 732Q283 732 302.5 712.5Q322 693 322 663Z" glyph-name="gdotaccent" horiz-adv-x="532" unicode="ġ" /><glyph d="M230 35 285 28V0H16V28L71 35Q87 37 90 44Q93 51 93 84V590H16V625H93V656Q93 689 90 696Q87 703 71 705L16 712V740H208V625H353V590H208V429Q234 471 276.5 494Q319 517 368 517Q443 517 485.5 469Q528 421 528 337V84Q528 51 531 44Q534 37 550 35L605 28V0H336V28L391 35Q407 37 410 44Q413 51 413 84V336Q413 403 393 435.5Q373 468 332 468Q293 468 260 441Q227 414 208 364V84Q208 51 211 44Q214 37 230 35Z" glyph-name="hbar" horiz-adv-x="616" unicode="ħ" /><glyph d="M550 35 605 28V0H336V28L391 35Q407 37 410 44Q413 51 413 84V336Q413 403 393 435.5Q373 468 332 468Q293 468 260 441Q227 414 208 364V84Q208 51 211 44Q214 37 230 35L285 28V0H16V28L71 35Q87 37 90 44Q93 51 93 84V656Q93 689 90 696Q87 703 71 705L16 712V740H208V429Q234 471 276.5 494Q319 517 368 517Q443 517 485.5 469Q528 421 528 337V84Q528 51 531 44Q534 37 550 35ZM402 823 388 801Q351 822 318 845.5Q285 869 261 890Q237 868 205.5 844.5Q174 821 142 801L128 823Q162 862 179.5 887.5Q197 913 221 962H309Q333 913 350.5 887.5Q368 862 402 823Z" glyph-name="hcircumflex" horiz-adv-x="616" unicode="ĥ" /><glyph d="M78 472 23 479V507H215V84Q215 51 218 44Q221 37 237 35L292 28V0H23V28L78 35Q94 37 97 44Q100 51 100 84V423Q100 456 97 463Q94 470 78 472ZM150 579 126 600Q154 644 167 674.5Q180 705 188 740H314Q280 694 243 657Q206 620 150 579Z" glyph-name="iacute" horiz-adv-x="308" unicode="í" /><glyph d="M78 472 23 479V507H215V84Q215 51 218 44Q221 37 237 35L292 28V0H23V28L78 35Q94 37 97 44Q100 51 100 84V423Q100 456 97 463Q94 470 78 472ZM288 601 274 579Q237 600 204 623.5Q171 647 147 668Q123 646 91.5 622.5Q60 599 28 579L14 601Q48 640 65.5 665.5Q83 691 107 740H195Q219 691 236.5 665.5Q254 640 288 601Z" glyph-name="icircumflex" horiz-adv-x="308" unicode="î" /><glyph d="M78 472 23 479V507H215V84Q215 51 218 44Q221 37 237 35L292 28V0H23V28L78 35Q94 37 97 44Q100 51 100 84V423Q100 456 97 463Q94 470 78 472ZM108 663Q108 635 90.5 617.5Q73 600 45 600Q17 600 0 617.5Q-17 635 -17 663Q-17 691 0 708Q17 725 45 725Q73 725 90.5 707.5Q108 690 108 663ZM318 663Q318 635 300.5 617.5Q283 600 255 600Q227 600 210 617.5Q193 635 193 663Q193 691 210 708Q227 725 255 725Q283 725 300.5 707.5Q318 690 318 663Z" glyph-name="idieresis" horiz-adv-x="308" unicode="ï" /><glyph d="M78 472 23 479V507H215V84Q215 51 218 44Q221 37 237 35L292 28V0H23V28L78 35Q94 37 97 44Q100 51 100 84V423Q100 456 97 463Q94 470 78 472ZM176 600 152 579Q96 620 59 657Q22 694 -12 740H114Q122 705 135 674.5Q148 644 176 600Z" glyph-name="igrave" horiz-adv-x="308" unicode="ì" /><glyph d="M78 472 23 479V507H215V84Q215 51 218 44Q221 37 237 35L292 28V0H23V28L78 35Q94 37 97 44Q100 51 100 84V423Q100 456 97 463Q94 470 78 472ZM151 661Q199 661 226.5 681.5Q254 702 264 745L297 735Q282 658 245.5 618.5Q209 579 151 579Q93 579 56.5 618.5Q20 658 5 735L38 745Q48 702 75.5 681.5Q103 661 151 661Z" glyph-name="ibreve" horiz-adv-x="308" unicode="ĭ" /><glyph d="M227 663Q227 632 207.5 612.5Q188 593 157 593Q126 593 107 612.5Q88 632 88 663Q88 694 107 713Q126 732 157 732Q188 732 207.5 712.5Q227 693 227 663ZM78 472 23 479V507H215V84Q215 51 218 44Q221 37 237 35L292 28V0H23V28L78 35Q94 37 97 44Q100 51 100 84V423Q100 456 97 463Q94 470 78 472Z" glyph-name="i.dot" horiz-adv-x="308" unicode="" /><glyph d="M78 472 23 479V507H215V84Q215 51 218 44Q221 37 237 35L292 28V0H23V28L78 35Q94 37 97 44Q100 51 100 84V423Q100 456 97 463Q94 470 78 472ZM7 674 294 674V619H7Z" glyph-name="imacron" horiz-adv-x="308" unicode="ī" /><glyph d="M227 663Q227 632 207.5 612.5Q188 593 157 593Q126 593 107 612.5Q88 632 88 663Q88 694 107 713Q126 732 157 732Q188 732 207.5 712.5Q227 693 227 663ZM78 472 23 479V507H215V84Q215 51 218 44Q221 37 237 35L292 28V0H232Q168 0 129.5 -36Q91 -72 91 -129Q91 -158 102 -173.5Q113 -189 134 -189Q158 -189 172 -170Q186 -151 191 -112L255 -125Q242 -173 208.5 -198Q175 -223 126 -223Q74 -223 41 -197.5Q8 -172 8 -130Q8 -95 32 -62.5Q56 -30 100 -6V423Q100 456 97 463Q94 470 78 472Z" glyph-name="iogonek" horiz-adv-x="308" unicode="į" /><glyph d="M78 472 23 479V507H215V84Q215 51 218 44Q221 37 237 35L292 28V0H23V28L78 35Q94 37 97 44Q100 51 100 84V423Q100 456 97 463Q94 470 78 472ZM213 583Q196 583 178 592.5Q160 602 130 632Q108 653 98 659.5Q88 666 79 666Q62 666 52.5 648Q43 630 38 588H2Q10 670 31.5 707.5Q53 745 91 745Q108 745 125 735.5Q142 726 171 697Q193 675 204 668.5Q215 662 224 662Q240 662 249 679.5Q258 697 264 740H300Q292 658 271 620.5Q250 583 213 583Z" glyph-name="itilde" horiz-adv-x="308" unicode="ĩ" /><glyph d="M73 472 18 479V507H210V-34Q210 -125 165.5 -174Q121 -223 37 -223Q-26 -223 -62.5 -192Q-99 -161 -107 -101L-43 -81Q-38 -135 -22 -161.5Q-6 -188 23 -188Q62 -188 78.5 -156.5Q95 -125 95 -54V423Q95 456 92 463Q89 470 73 472ZM276 601 262 579Q225 600 192 623.5Q159 647 135 668Q111 646 79.5 622.5Q48 599 16 579L2 601Q36 640 53.5 665.5Q71 691 95 740H183Q207 691 224.5 665.5Q242 640 276 601Z" glyph-name="jcircumflex" horiz-adv-x="295" unicode="ĵ" /><glyph d="M227 663Q227 632 207.5 612.5Q188 593 157 593Q126 593 107 612.5Q88 632 88 663Q88 694 107 713Q126 732 157 732Q188 732 207.5 712.5Q227 693 227 663ZM78 472 23 479V507H215V84Q215 51 218 44Q221 37 237 35L292 28V0H23V28L78 35Q94 37 97 44Q100 51 100 84V423Q100 456 97 463Q94 470 78 472ZM528 663Q528 632 508.5 612.5Q489 593 458 593Q427 593 408 612.5Q389 632 389 663Q389 694 408 713Q427 732 458 732Q489 732 508.5 712.5Q528 693 528 663ZM379 472 324 479V507H516V-34Q516 -123 471 -173Q426 -223 343 -223Q281 -223 245 -192Q209 -161 201 -100L263 -81Q267 -136 283 -162Q299 -188 331 -188Q368 -188 384.5 -155.5Q401 -123 401 -54V423Q401 456 398 463Q395 470 379 472Z" glyph-name="ij" horiz-adv-x="601" unicode="ĳ" /><glyph d="M71 705 16 712V740H208V255L384 423Q417 455 421 462.5Q425 470 407 472L352 479V507H557V479L502 472Q488 470 478.5 462.5Q469 455 435 423L339 331L481 84Q499 54 506.5 46Q514 38 532 35L587 28V0H396L257 253L208 206V84Q208 51 211 44Q214 37 230 35L285 28V0H16V28L71 35Q87 37 90 44Q93 51 93 84V656Q93 689 90 696Q87 703 71 705ZM219 -248 200 -230Q217 -194 227.5 -158Q238 -122 243 -77H356Q332 -125 298 -167.5Q264 -210 219 -248Z" glyph-name="kcommaaccent" horiz-adv-x="588" unicode="ķ" /><glyph d="M78 472 23 479V507H215V255L391 423Q424 455 428 462.5Q432 470 414 472L359 479V507H564V479L509 472Q495 470 485.5 462.5Q476 455 442 423L346 331L488 84Q506 54 513.5 46Q521 38 539 35L594 28V0H403L264 253L215 206V84Q215 51 218 44Q221 37 237 35L292 28V0H23V28L78 35Q94 37 97 44Q100 51 100 84V423Q100 456 97 463Q94 470 78 472Z" glyph-name="kgreenlandic" horiz-adv-x="595" unicode="ĸ" /><glyph d="M71 705 16 712V740H208V84Q208 51 211 44Q214 37 230 35L285 28V0H16V28L71 35Q87 37 90 44Q93 51 93 84V656Q93 689 90 696Q87 703 71 705ZM149 801 125 822Q153 866 166 896.5Q179 927 187 962H313Q279 916 242 879Q205 842 149 801Z" glyph-name="lacute" horiz-adv-x="301" unicode="ĺ" /><glyph d="M71 705 16 712V740H208V84Q208 51 211 44Q214 37 230 35L285 28V0H16V28L71 35Q87 37 90 44Q93 51 93 84V656Q93 689 90 696Q87 703 71 705ZM294 526 270 526V740H379Q360 680 340 630.5Q320 581 294 526Z" glyph-name="lcaron" horiz-adv-x="398" unicode="ľ" /><glyph d="M71 705 16 712V740H208V84Q208 51 211 44Q214 37 230 35L285 28V0H16V28L71 35Q87 37 90 44Q93 51 93 84V656Q93 689 90 696Q87 703 71 705ZM70 -248 51 -230Q68 -194 78.5 -158Q89 -122 94 -77H207Q183 -125 149 -167.5Q115 -210 70 -248Z" glyph-name="lcommaaccent" horiz-adv-x="301" unicode="ļ" /><glyph d="M71 705 16 712V740H208V84Q208 51 211 44Q214 37 230 35L285 28V0H16V28L71 35Q87 37 90 44Q93 51 93 84V656Q93 689 90 696Q87 703 71 705ZM391 385Q391 354 371.5 334.5Q352 315 321 315Q290 315 271 334.5Q252 354 252 385Q252 416 271 435Q290 454 321 454Q352 454 371.5 434.5Q391 415 391 385Z" glyph-name="ldot" horiz-adv-x="342" unicode="ŀ" /><glyph d="M557 35 612 28V0H343V28L398 35Q414 37 417 44Q420 51 420 84V336Q420 403 400 435.5Q380 468 339 468Q300 468 267 441Q234 414 215 364V84Q215 51 218 44Q221 37 237 35L292 28V0H23V28L78 35Q94 37 97 44Q100 51 100 84V423Q100 456 97 463Q94 470 78 472L23 479V507H209V419Q235 466 279 491.5Q323 517 375 517Q450 517 492.5 469Q535 421 535 337V84Q535 51 538 44Q541 37 557 35ZM384 583Q367 583 349 592.5Q331 602 301 632Q279 653 269 659.5Q259 666 250 666Q233 666 223.5 648Q214 630 209 588H173Q181 670 202.5 707.5Q224 745 262 745Q279 745 296 735.5Q313 726 342 697Q364 675 375 668.5Q386 662 395 662Q411 662 420 679.5Q429 697 435 740H471Q463 658 442 620.5Q421 583 384 583Z" glyph-name="ntilde" horiz-adv-x="623" unicode="ñ" /><glyph d="M557 35 612 28V0H343V28L398 35Q414 37 417 44Q420 51 420 84V336Q420 403 400 435.5Q380 468 339 468Q300 468 267 441Q234 414 215 364V84Q215 51 218 44Q221 37 237 35L292 28V0H23V28L78 35Q94 37 97 44Q100 51 100 84V423Q100 456 97 463Q94 470 78 472L23 479V507H209V419Q235 466 279 491.5Q323 517 375 517Q450 517 492.5 469Q535 421 535 337V84Q535 51 538 44Q541 37 557 35ZM321 579 297 600Q325 644 338 674.5Q351 705 359 740H485Q451 694 414 657Q377 620 321 579Z" glyph-name="nacute" horiz-adv-x="623" unicode="ń" /><glyph d="M557 35 612 28V0H343V28L398 35Q414 37 417 44Q420 51 420 84V336Q420 403 400 435.5Q380 468 339 468Q300 468 267 441Q234 414 215 364V84Q215 51 218 44Q221 37 237 35L292 28V0H23V28L78 35Q94 37 97 44Q100 51 100 84V423Q100 456 97 463Q94 470 78 472L23 479V507H209V419Q235 466 279 491.5Q323 517 375 517Q450 517 492.5 469Q535 421 535 337V84Q535 51 538 44Q541 37 557 35ZM445 745 459 723Q425 684 407.5 658.5Q390 633 366 584H278Q254 633 236.5 658.5Q219 684 185 723L199 745Q234 725 266.5 702Q299 679 326 656Q350 678 381.5 701.5Q413 725 445 745Z" glyph-name="ncaron" horiz-adv-x="623" unicode="ň" /><glyph d="M557 35 612 28V0H343V28L398 35Q414 37 417 44Q420 51 420 84V336Q420 403 400 435.5Q380 468 339 468Q300 468 267 441Q234 414 215 364V84Q215 51 218 44Q221 37 237 35L292 28V0H23V28L78 35Q94 37 97 44Q100 51 100 84V423Q100 456 97 463Q94 470 78 472L23 479V507H209V419Q235 466 279 491.5Q323 517 375 517Q450 517 492.5 469Q535 421 535 337V84Q535 51 538 44Q541 37 557 35ZM241 -248 222 -230Q239 -194 249.5 -158Q260 -122 265 -77H378Q354 -125 320 -167.5Q286 -210 241 -248Z" glyph-name="ncommaaccent" horiz-adv-x="623" unicode="ņ" /><glyph d="M78 472 23 479V507H209V419Q235 466 279 491.5Q323 517 375 517Q450 517 492.5 469Q535 421 535 337V-34Q535 -125 490.5 -174Q446 -223 362 -223Q299 -223 262.5 -192Q226 -161 218 -101L282 -81Q287 -135 303 -161.5Q319 -188 348 -188Q387 -188 403.5 -156.5Q420 -125 420 -54V336Q420 403 400 435.5Q380 468 339 468Q300 468 267 441Q234 414 215 364V84Q215 51 218 44Q221 37 237 35L292 28V0H23V28L78 35Q94 37 97 44Q100 51 100 84V423Q100 456 97 463Q94 470 78 472Z" glyph-name="eng" horiz-adv-x="618" unicode="ŋ" /><glyph d="M670 35 725 28V0H456V28L511 35Q527 37 530 44Q533 51 533 84V336Q533 403 513 435.5Q493 468 452 468Q413 468 380 441Q347 414 328 364V84Q328 51 331 44Q334 37 350 35L405 28V0H136V28L191 35Q207 37 210 44Q213 51 213 84V423Q213 456 210 463Q207 470 191 472L136 479V507H322V419Q348 466 392 491.5Q436 517 488 517Q563 517 605.5 469Q648 421 648 337V84Q648 51 651 44Q654 37 670 35ZM39 690Q69 690 87 668.5Q105 647 105 611Q105 570 78 516Q51 462 3 407L-20 427Q10 463 25 495Q40 527 42 559H39Q10 559 -8 577Q-26 595 -26 625Q-26 654 -8 672Q10 690 39 690Z" glyph-name="napostrophe" horiz-adv-x="736" unicode="ŉ" /><glyph d="M281 517Q388 517 449 449.5Q510 382 510 264V244Q510 126 449 58Q388 -10 281 -10Q174 -10 113 57.5Q52 125 52 244V264Q52 382 113 449.5Q174 517 281 517ZM387 224 387 284Q387 385 361.5 433.5Q336 482 281 482Q227 482 201 433.5Q175 385 175 284V224Q175 123 201 74Q227 25 281 25Q335 25 361 73.5Q387 122 387 224ZM280 579 256 600Q284 644 297 674.5Q310 705 318 740H444Q410 694 373 657Q336 620 280 579Z" glyph-name="oacute" horiz-adv-x="562" unicode="ó" /><glyph d="M281 517Q388 517 449 449.5Q510 382 510 264V244Q510 126 449 58Q388 -10 281 -10Q174 -10 113 57.5Q52 125 52 244V264Q52 382 113 449.5Q174 517 281 517ZM387 224 387 284Q387 385 361.5 433.5Q336 482 281 482Q227 482 201 433.5Q175 385 175 284V224Q175 123 201 74Q227 25 281 25Q335 25 361 73.5Q387 122 387 224ZM418 601 404 579Q367 600 334 623.5Q301 647 277 668Q253 646 221.5 622.5Q190 599 158 579L144 601Q178 640 195.5 665.5Q213 691 237 740H325Q349 691 366.5 665.5Q384 640 418 601Z" glyph-name="ocircumflex" horiz-adv-x="562" unicode="ô" /><glyph d="M281 517Q388 517 449 449.5Q510 382 510 264V244Q510 126 449 58Q388 -10 281 -10Q174 -10 113 57.5Q52 125 52 244V264Q52 382 113 449.5Q174 517 281 517ZM387 224 387 284Q387 385 361.5 433.5Q336 482 281 482Q227 482 201 433.5Q175 385 175 284V224Q175 123 201 74Q227 25 281 25Q335 25 361 73.5Q387 122 387 224ZM238 663Q238 635 220.5 617.5Q203 600 175 600Q147 600 130 617.5Q113 635 113 663Q113 691 130 708Q147 725 175 725Q203 725 220.5 707.5Q238 690 238 663ZM448 663Q448 635 430.5 617.5Q413 600 385 600Q357 600 340 617.5Q323 635 323 663Q323 691 340 708Q357 725 385 725Q413 725 430.5 707.5Q448 690 448 663Z" glyph-name="odieresis" horiz-adv-x="562" unicode="ö" /><glyph d="M281 517Q388 517 449 449.5Q510 382 510 264V244Q510 126 449 58Q388 -10 281 -10Q174 -10 113 57.5Q52 125 52 244V264Q52 382 113 449.5Q174 517 281 517ZM387 224 387 284Q387 385 361.5 433.5Q336 482 281 482Q227 482 201 433.5Q175 385 175 284V224Q175 123 201 74Q227 25 281 25Q335 25 361 73.5Q387 122 387 224ZM306 600 282 579Q226 620 189 657Q152 694 118 740H244Q252 705 265 674.5Q278 644 306 600Z" glyph-name="ograve" horiz-adv-x="562" unicode="ò" /><glyph d="M281 517Q388 517 449 449.5Q510 382 510 264V244Q510 126 449 58Q388 -10 281 -10Q174 -10 113 57.5Q52 125 52 244V264Q52 382 113 449.5Q174 517 281 517ZM387 224 387 284Q387 385 361.5 433.5Q336 482 281 482Q227 482 201 433.5Q175 385 175 284V224Q175 123 201 74Q227 25 281 25Q335 25 361 73.5Q387 122 387 224ZM343 583Q326 583 308 592.5Q290 602 260 632Q238 653 228 659.5Q218 666 209 666Q192 666 182.5 648Q173 630 168 588H132Q140 670 161.5 707.5Q183 745 221 745Q238 745 255 735.5Q272 726 301 697Q323 675 334 668.5Q345 662 354 662Q370 662 379 679.5Q388 697 394 740H430Q422 658 401 620.5Q380 583 343 583Z" glyph-name="otilde" horiz-adv-x="562" unicode="õ" /><glyph d="M281 517Q388 517 449 449.5Q510 382 510 264V244Q510 126 449 58Q388 -10 281 -10Q174 -10 113 57.5Q52 125 52 244V264Q52 382 113 449.5Q174 517 281 517ZM387 224 387 284Q387 385 361.5 433.5Q336 482 281 482Q227 482 201 433.5Q175 385 175 284V224Q175 123 201 74Q227 25 281 25Q335 25 361 73.5Q387 122 387 224ZM281 661Q329 661 356.5 681.5Q384 702 394 745L427 735Q412 658 375.5 618.5Q339 579 281 579Q223 579 186.5 618.5Q150 658 135 735L168 745Q178 702 205.5 681.5Q233 661 281 661Z" glyph-name="obreve" horiz-adv-x="562" unicode="ŏ" /><glyph d="M281 517Q388 517 449 449.5Q510 382 510 264V244Q510 126 449 58Q388 -10 281 -10Q174 -10 113 57.5Q52 125 52 244V264Q52 382 113 449.5Q174 517 281 517ZM387 224 387 284Q387 385 361.5 433.5Q336 482 281 482Q227 482 201 433.5Q175 385 175 284V224Q175 123 201 74Q227 25 281 25Q335 25 361 73.5Q387 122 387 224ZM201 579 174 603Q194 633 206 664.5Q218 696 228 740H339Q311 695 278 656.5Q245 618 201 579ZM341 579 314 603Q334 633 346 664.5Q358 696 368 740H479Q451 695 418 656.5Q385 618 341 579Z" glyph-name="ohungarumlaut" horiz-adv-x="562" unicode="ő" /><glyph d="M281 517Q388 517 449 449.5Q510 382 510 264V244Q510 126 449 58Q388 -10 281 -10Q174 -10 113 57.5Q52 125 52 244V264Q52 382 113 449.5Q174 517 281 517ZM387 224 387 284Q387 385 361.5 433.5Q336 482 281 482Q227 482 201 433.5Q175 385 175 284V224Q175 123 201 74Q227 25 281 25Q335 25 361 73.5Q387 122 387 224ZM137 674 424 674V619H137Z" glyph-name="omacron" horiz-adv-x="562" unicode="ō" /><glyph d="M78 472 23 479V507H209V425Q240 471 276 494Q312 517 354 517Q391 517 418.5 493.5Q446 470 462 425L373 377Q360 413 342.5 430Q325 447 301 447Q276 447 255 431Q234 415 215 381V84Q215 50 218 43.5Q221 37 237 35L312 28V0H23V28L78 35Q94 37 97 44Q100 51 100 84V423Q100 456 97 463Q94 470 78 472ZM262 579 238 600Q266 644 279 674.5Q292 705 300 740H426Q392 694 355 657Q318 620 262 579Z" glyph-name="racute" horiz-adv-x="462" unicode="ŕ" /><glyph d="M78 472 23 479V507H209V425Q240 471 276 494Q312 517 354 517Q391 517 418.5 493.5Q446 470 462 425L373 377Q360 413 342.5 430Q325 447 301 447Q276 447 255 431Q234 415 215 381V84Q215 50 218 43.5Q221 37 237 35L312 28V0H23V28L78 35Q94 37 97 44Q100 51 100 84V423Q100 456 97 463Q94 470 78 472ZM386 745 400 723Q366 684 348.5 658.5Q331 633 307 584H219Q195 633 177.5 658.5Q160 684 126 723L140 745Q175 725 207.5 702Q240 679 267 656Q291 678 322.5 701.5Q354 725 386 745Z" glyph-name="rcaron" horiz-adv-x="462" unicode="ř" /><glyph d="M78 472 23 479V507H209V425Q240 471 276 494Q312 517 354 517Q391 517 418.5 493.5Q446 470 462 425L373 377Q360 413 342.5 430Q325 447 301 447Q276 447 255 431Q234 415 215 381V84Q215 50 218 43.5Q221 37 237 35L312 28V0H23V28L78 35Q94 37 97 44Q100 51 100 84V423Q100 456 97 463Q94 470 78 472ZM78 -248 59 -230Q76 -194 86.5 -158Q97 -122 102 -77H215Q191 -125 157 -167.5Q123 -210 78 -248Z" glyph-name="rcommaaccent" horiz-adv-x="462" unicode="ŗ" /><glyph d="M338 105Q338 137 316.5 158Q295 179 251 189L182 205Q118 220 84 260.5Q50 301 50 361Q50 433 97.5 475Q145 517 231 517Q325 517 376 472.5Q427 428 415 360L305 340Q319 406 298 444Q277 482 226 482Q189 482 167 461Q145 440 145 403Q145 366 166 340.5Q187 315 224 306L293 290Q364 273 398.5 237.5Q433 202 433 146Q433 74 380.5 32Q328 -10 236 -10Q161 -10 109 23Q57 56 39 119L104 145Q110 87 144.5 56Q179 25 236 25Q283 25 310.5 46.5Q338 68 338 105ZM363 745 377 723Q343 684 325.5 658.5Q308 633 284 584H196Q172 633 154.5 658.5Q137 684 103 723L117 745Q152 725 184.5 702Q217 679 244 656Q268 678 299.5 701.5Q331 725 363 745Z" glyph-name="scaron" horiz-adv-x="480" unicode="š" /><glyph d="M338 105Q338 137 316.5 158Q295 179 251 189L182 205Q118 220 84 260.5Q50 301 50 361Q50 433 97.5 475Q145 517 231 517Q325 517 376 472.5Q427 428 415 360L305 340Q319 406 298 444Q277 482 226 482Q189 482 167 461Q145 440 145 403Q145 366 166 340.5Q187 315 224 306L293 290Q364 273 398.5 237.5Q433 202 433 146Q433 74 380.5 32Q328 -10 236 -10Q161 -10 109 23Q57 56 39 119L104 145Q110 87 144.5 56Q179 25 236 25Q283 25 310.5 46.5Q338 68 338 105ZM239 579 215 600Q243 644 256 674.5Q269 705 277 740H403Q369 694 332 657Q295 620 239 579Z" glyph-name="sacute" horiz-adv-x="480" unicode="ś" /><glyph d="M355 -140Q355 -178 322.5 -200.5Q290 -223 236 -223Q188 -223 160 -203.5Q132 -184 125 -145L180 -131Q183 -162 195 -176.5Q207 -191 228 -191Q249 -191 260.5 -178Q272 -165 272 -140Q272 -113 259 -100Q246 -87 220 -87Q217 -87 213 -87.5Q209 -88 200 -89L187 -63L209 -9Q143 -3 99 30Q55 63 39 119L104 145Q110 87 144.5 56Q179 25 236 25Q283 25 310.5 46.5Q338 68 338 105Q338 137 316.5 158Q295 179 251 189L182 205Q118 220 84 260.5Q50 301 50 361Q50 433 97.5 475Q145 517 231 517Q325 517 376 472.5Q427 428 415 360L305 340Q319 406 298 444Q277 482 226 482Q189 482 167 461Q145 440 145 403Q145 366 166 340.5Q187 315 224 306L293 290Q364 273 398.5 237.5Q433 202 433 146Q433 78 384 36Q335 -6 249 -10L230 -55Q288 -57 321.5 -79.5Q355 -102 355 -140Z" glyph-name="scedilla" horiz-adv-x="480" unicode="ş" /><glyph d="M338 105Q338 137 316.5 158Q295 179 251 189L182 205Q118 220 84 260.5Q50 301 50 361Q50 433 97.5 475Q145 517 231 517Q325 517 376 472.5Q427 428 415 360L305 340Q319 406 298 444Q277 482 226 482Q189 482 167 461Q145 440 145 403Q145 366 166 340.5Q187 315 224 306L293 290Q364 273 398.5 237.5Q433 202 433 146Q433 74 380.5 32Q328 -10 236 -10Q161 -10 109 23Q57 56 39 119L104 145Q110 87 144.5 56Q179 25 236 25Q283 25 310.5 46.5Q338 68 338 105ZM377 601 363 579Q326 600 293 623.5Q260 647 236 668Q212 646 180.5 622.5Q149 599 117 579L103 601Q137 640 154.5 665.5Q172 691 196 740H284Q308 691 325.5 665.5Q343 640 377 601Z" glyph-name="scircumflex" horiz-adv-x="480" unicode="ŝ" /><glyph d="M338 105Q338 137 316.5 158Q295 179 251 189L182 205Q118 220 84 260.5Q50 301 50 361Q50 433 97.5 475Q145 517 231 517Q325 517 376 472.5Q427 428 415 360L305 340Q319 406 298 444Q277 482 226 482Q189 482 167 461Q145 440 145 403Q145 366 166 340.5Q187 315 224 306L293 290Q364 273 398.5 237.5Q433 202 433 146Q433 74 380.5 32Q328 -10 236 -10Q161 -10 109 23Q57 56 39 119L104 145Q110 87 144.5 56Q179 25 236 25Q283 25 310.5 46.5Q338 68 338 105ZM160 -248 141 -230Q158 -194 168.5 -158Q179 -122 184 -77H297Q273 -125 239 -167.5Q205 -210 160 -248Z" glyph-name="uni0219" horiz-adv-x="480" unicode="ș" /><glyph d="M334 119 394 104Q382 47 347 18.5Q312 -10 256 -10Q184 -10 143.5 36Q103 82 103 159V280H26V315H103V423Q103 456 100 463Q97 470 81 472L26 479V507H103V623L218 646V507H378V472H218V315H346V280H218V139Q218 82 232 54Q246 26 275 26Q303 26 316.5 48Q330 70 334 119Z" glyph-name="tbar" horiz-adv-x="410" unicode="ŧ" /><glyph d="M319 119 379 104Q367 47 332 18.5Q297 -10 241 -10Q169 -10 128.5 36Q88 82 88 159V423Q88 456 85 463Q82 470 66 472L11 479V507H88V623L203 646V507H363V472H203V139Q203 82 217 54Q231 26 260 26Q288 26 301.5 48Q315 70 319 119ZM284 556 260 556V770H369Q350 710 330 660.5Q310 611 284 556Z" glyph-name="tcaron" horiz-adv-x="395" unicode="ť" /><glyph d="M319 119 379 104Q367 47 332 18.5Q297 -10 241 -10Q169 -10 128.5 36Q88 82 88 159V423Q88 456 85 463Q82 470 66 472L11 479V507H88V623L203 646V507H363V472H203V139Q203 82 217 54Q231 26 260 26Q288 26 301.5 48Q315 70 319 119ZM153 -248 134 -230Q151 -194 161.5 -158Q172 -122 177 -77H290Q266 -125 232 -167.5Q198 -210 153 -248Z" glyph-name="uni0163" horiz-adv-x="395" unicode="ţ" /><glyph d="M319 119 379 104Q367 47 332 18.5Q297 -10 241 -10Q169 -10 128.5 36Q88 82 88 159V423Q88 456 85 463Q82 470 66 472L11 479V507H88V623L203 646V507H363V472H203V139Q203 82 217 54Q231 26 260 26Q288 26 301.5 48Q315 70 319 119ZM153 -248 134 -230Q151 -194 161.5 -158Q172 -122 177 -77H290Q266 -125 232 -167.5Q198 -210 153 -248Z" glyph-name="uni021B" horiz-adv-x="395" unicode="ț" /><glyph d="M535 35 590 28V0H404V88Q379 41 336 15.5Q293 -10 243 -10Q171 -10 129.5 38Q88 86 88 170V423Q88 456 85 463Q82 470 66 472L11 479V507H203V171Q203 104 221.5 71.5Q240 39 279 39Q316 39 347.5 66Q379 93 398 143V423Q398 457 395 463.5Q392 470 376 472L301 479V507H513V84Q513 51 516 44Q519 37 535 35ZM298 579 274 600Q302 644 315 674.5Q328 705 336 740H462Q428 694 391 657Q354 620 298 579Z" glyph-name="uacute" horiz-adv-x="606" unicode="ú" /><glyph d="M535 35 590 28V0H404V88Q379 41 336 15.5Q293 -10 243 -10Q171 -10 129.5 38Q88 86 88 170V423Q88 456 85 463Q82 470 66 472L11 479V507H203V171Q203 104 221.5 71.5Q240 39 279 39Q316 39 347.5 66Q379 93 398 143V423Q398 457 395 463.5Q392 470 376 472L301 479V507H513V84Q513 51 516 44Q519 37 535 35ZM436 601 422 579Q385 600 352 623.5Q319 647 295 668Q271 646 239.5 622.5Q208 599 176 579L162 601Q196 640 213.5 665.5Q231 691 255 740H343Q367 691 384.5 665.5Q402 640 436 601Z" glyph-name="ucircumflex" horiz-adv-x="606" unicode="û" /><glyph d="M535 35 590 28V0H404V88Q379 41 336 15.5Q293 -10 243 -10Q171 -10 129.5 38Q88 86 88 170V423Q88 456 85 463Q82 470 66 472L11 479V507H203V171Q203 104 221.5 71.5Q240 39 279 39Q316 39 347.5 66Q379 93 398 143V423Q398 457 395 463.5Q392 470 376 472L301 479V507H513V84Q513 51 516 44Q519 37 535 35ZM256 663Q256 635 238.5 617.5Q221 600 193 600Q165 600 148 617.5Q131 635 131 663Q131 691 148 708Q165 725 193 725Q221 725 238.5 707.5Q256 690 256 663ZM466 663Q466 635 448.5 617.5Q431 600 403 600Q375 600 358 617.5Q341 635 341 663Q341 691 358 708Q375 725 403 725Q431 725 448.5 707.5Q466 690 466 663Z" glyph-name="udieresis" horiz-adv-x="606" unicode="ü" /><glyph d="M535 35 590 28V0H404V88Q379 41 336 15.5Q293 -10 243 -10Q171 -10 129.5 38Q88 86 88 170V423Q88 456 85 463Q82 470 66 472L11 479V507H203V171Q203 104 221.5 71.5Q240 39 279 39Q316 39 347.5 66Q379 93 398 143V423Q398 457 395 463.5Q392 470 376 472L301 479V507H513V84Q513 51 516 44Q519 37 535 35ZM324 600 300 579Q244 620 207 657Q170 694 136 740H262Q270 705 283 674.5Q296 644 324 600Z" glyph-name="ugrave" horiz-adv-x="606" unicode="ù" /><glyph d="M535 35 590 28V0H404V88Q379 41 336 15.5Q293 -10 243 -10Q171 -10 129.5 38Q88 86 88 170V423Q88 456 85 463Q82 470 66 472L11 479V507H203V171Q203 104 221.5 71.5Q240 39 279 39Q316 39 347.5 66Q379 93 398 143V423Q398 457 395 463.5Q392 470 376 472L301 479V507H513V84Q513 51 516 44Q519 37 535 35ZM299 661Q347 661 374.5 681.5Q402 702 412 745L445 735Q430 658 393.5 618.5Q357 579 299 579Q241 579 204.5 618.5Q168 658 153 735L186 745Q196 702 223.5 681.5Q251 661 299 661Z" glyph-name="ubreve" horiz-adv-x="606" unicode="ŭ" /><glyph d="M535 35 590 28V0H404V88Q379 41 336 15.5Q293 -10 243 -10Q171 -10 129.5 38Q88 86 88 170V423Q88 456 85 463Q82 470 66 472L11 479V507H203V171Q203 104 221.5 71.5Q240 39 279 39Q316 39 347.5 66Q379 93 398 143V423Q398 457 395 463.5Q392 470 376 472L301 479V507H513V84Q513 51 516 44Q519 37 535 35ZM219 579 192 603Q212 633 224 664.5Q236 696 246 740H357Q329 695 296 656.5Q263 618 219 579ZM359 579 332 603Q352 633 364 664.5Q376 696 386 740H497Q469 695 436 656.5Q403 618 359 579Z" glyph-name="uhungarumlaut" horiz-adv-x="606" unicode="ű" /><glyph d="M535 35 590 28V0H404V88Q379 41 336 15.5Q293 -10 243 -10Q171 -10 129.5 38Q88 86 88 170V423Q88 456 85 463Q82 470 66 472L11 479V507H203V171Q203 104 221.5 71.5Q240 39 279 39Q316 39 347.5 66Q379 93 398 143V423Q398 457 395 463.5Q392 470 376 472L301 479V507H513V84Q513 51 516 44Q519 37 535 35ZM155 674 442 674V619H155Z" glyph-name="umacron" horiz-adv-x="606" unicode="ū" /><glyph d="M376 472 301 479V507H513V84Q513 51 516 44Q519 37 535 35L590 28V0H542Q478 0 439.5 -36Q401 -72 401 -129Q401 -158 412 -173.5Q423 -189 444 -189Q468 -189 482 -170Q496 -151 501 -112L565 -125Q552 -173 518.5 -198Q485 -223 436 -223Q384 -223 351 -197.5Q318 -172 318 -130Q318 -96 341 -64.5Q364 -33 404 -10V88Q379 41 336 15.5Q293 -10 243 -10Q171 -10 129.5 38Q88 86 88 170V423Q88 456 85 463Q82 470 66 472L11 479V507H203V171Q203 104 221.5 71.5Q240 39 279 39Q316 39 347.5 66Q379 93 398 143V423Q398 457 395 463.5Q392 470 376 472Z" glyph-name="uogonek" horiz-adv-x="606" unicode="ų" /><glyph d="M535 35 590 28V0H404V88Q379 41 336 15.5Q293 -10 243 -10Q171 -10 129.5 38Q88 86 88 170V423Q88 456 85 463Q82 470 66 472L11 479V507H203V171Q203 104 221.5 71.5Q240 39 279 39Q316 39 347.5 66Q379 93 398 143V423Q398 457 395 463.5Q392 470 376 472L301 479V507H513V84Q513 51 516 44Q519 37 535 35ZM299 803Q352 803 387 769.5Q422 736 422 689V678Q422 631 387 597Q352 563 299 563Q246 563 211 596.5Q176 630 176 678V689Q176 737 210.5 770Q245 803 299 803ZM349 671 349 696Q349 736 336.5 756Q324 776 299 776Q274 776 262 756Q250 736 250 696V671Q250 630 262 610Q274 590 299 590Q324 590 336.5 610.5Q349 631 349 671Z" glyph-name="uring" horiz-adv-x="606" unicode="ů" /><glyph d="M535 35 590 28V0H404V88Q379 41 336 15.5Q293 -10 243 -10Q171 -10 129.5 38Q88 86 88 170V423Q88 456 85 463Q82 470 66 472L11 479V507H203V171Q203 104 221.5 71.5Q240 39 279 39Q316 39 347.5 66Q379 93 398 143V423Q398 457 395 463.5Q392 470 376 472L301 479V507H513V84Q513 51 516 44Q519 37 535 35ZM361 583Q344 583 326 592.5Q308 602 278 632Q256 653 246 659.5Q236 666 227 666Q210 666 200.5 648Q191 630 186 588H150Q158 670 179.5 707.5Q201 745 239 745Q256 745 273 735.5Q290 726 319 697Q341 675 352 668.5Q363 662 372 662Q388 662 397 679.5Q406 697 412 740H448Q440 658 419 620.5Q398 583 361 583Z" glyph-name="utilde" horiz-adv-x="606" unicode="ũ" /><glyph d="M715 423 606 0H515L395 402L274 0H191L83 423Q74 456 69.5 463Q65 470 50 472L-5 479V507H261V479L206 472Q189 470 188 462Q187 454 195 423L273 122L388 507H476L595 105L676 423Q684 454 683 462Q682 470 665 472L610 479V507H803V479L748 472Q733 470 728.5 463Q724 456 715 423ZM430 579 406 600Q434 644 447 674.5Q460 705 468 740H594Q560 694 523 657Q486 620 430 579Z" glyph-name="wacute" horiz-adv-x="798" unicode="ẃ" /><glyph d="M715 423 606 0H515L395 402L274 0H191L83 423Q74 456 69.5 463Q65 470 50 472L-5 479V507H261V479L206 472Q189 470 188 462Q187 454 195 423L273 122L388 507H476L595 105L676 423Q684 454 683 462Q682 470 665 472L610 479V507H803V479L748 472Q733 470 728.5 463Q724 456 715 423ZM568 601 554 579Q517 600 484 623.5Q451 647 427 668Q403 646 371.5 622.5Q340 599 308 579L294 601Q328 640 345.5 665.5Q363 691 387 740H475Q499 691 516.5 665.5Q534 640 568 601Z" glyph-name="wcircumflex" horiz-adv-x="798" unicode="ŵ" /><glyph d="M715 423 606 0H515L395 402L274 0H191L83 423Q74 456 69.5 463Q65 470 50 472L-5 479V507H261V479L206 472Q189 470 188 462Q187 454 195 423L273 122L388 507H476L595 105L676 423Q684 454 683 462Q682 470 665 472L610 479V507H803V479L748 472Q733 470 728.5 463Q724 456 715 423ZM388 663Q388 635 370.5 617.5Q353 600 325 600Q297 600 280 617.5Q263 635 263 663Q263 691 280 708Q297 725 325 725Q353 725 370.5 707.5Q388 690 388 663ZM598 663Q598 635 580.5 617.5Q563 600 535 600Q507 600 490 617.5Q473 635 473 663Q473 691 490 708Q507 725 535 725Q563 725 580.5 707.5Q598 690 598 663Z" glyph-name="wdieresis" horiz-adv-x="798" unicode="ẅ" /><glyph d="M715 423 606 0H515L395 402L274 0H191L83 423Q74 456 69.5 463Q65 470 50 472L-5 479V507H261V479L206 472Q189 470 188 462Q187 454 195 423L273 122L388 507H476L595 105L676 423Q684 454 683 462Q682 470 665 472L610 479V507H803V479L748 472Q733 470 728.5 463Q724 456 715 423ZM456 600 432 579Q376 620 339 657Q302 694 268 740H394Q402 705 415 674.5Q428 644 456 600Z" glyph-name="wgrave" horiz-adv-x="798" unicode="ẁ" /><glyph d="M464 427 303 -50Q267 -148 219.5 -185.5Q172 -223 85 -223V-113Q171 -113 213 -94.5Q255 -76 272 -30L282 0H230L88 423Q77 455 72 462.5Q67 470 50 472L-5 479V507H265V479L210 472Q195 470 195 460.5Q195 451 204 423L313 93L426 427Q436 457 435.5 463.5Q435 470 419 472L364 479V507H555V479L500 472Q484 470 479 463Q474 456 464 427ZM308 579 284 600Q312 644 325 674.5Q338 705 346 740H472Q438 694 401 657Q364 620 308 579Z" glyph-name="yacute" horiz-adv-x="550" unicode="ý" /><glyph d="M464 427 303 -50Q267 -148 219.5 -185.5Q172 -223 85 -223V-113Q171 -113 213 -94.5Q255 -76 272 -30L282 0H230L88 423Q77 455 72 462.5Q67 470 50 472L-5 479V507H265V479L210 472Q195 470 195 460.5Q195 451 204 423L313 93L426 427Q436 457 435.5 463.5Q435 470 419 472L364 479V507H555V479L500 472Q484 470 479 463Q474 456 464 427ZM266 663Q266 635 248.5 617.5Q231 600 203 600Q175 600 158 617.5Q141 635 141 663Q141 691 158 708Q175 725 203 725Q231 725 248.5 707.5Q266 690 266 663ZM476 663Q476 635 458.5 617.5Q441 600 413 600Q385 600 368 617.5Q351 635 351 663Q351 691 368 708Q385 725 413 725Q441 725 458.5 707.5Q476 690 476 663Z" glyph-name="ydieresis" horiz-adv-x="550" unicode="ÿ" /><glyph d="M464 427 303 -50Q267 -148 219.5 -185.5Q172 -223 85 -223V-113Q171 -113 213 -94.5Q255 -76 272 -30L282 0H230L88 423Q77 455 72 462.5Q67 470 50 472L-5 479V507H265V479L210 472Q195 470 195 460.5Q195 451 204 423L313 93L426 427Q436 457 435.5 463.5Q435 470 419 472L364 479V507H555V479L500 472Q484 470 479 463Q474 456 464 427ZM446 601 432 579Q395 600 362 623.5Q329 647 305 668Q281 646 249.5 622.5Q218 599 186 579L172 601Q206 640 223.5 665.5Q241 691 265 740H353Q377 691 394.5 665.5Q412 640 446 601Z" glyph-name="ycircumflex" horiz-adv-x="550" unicode="ŷ" /><glyph d="M464 427 303 -50Q267 -148 219.5 -185.5Q172 -223 85 -223V-113Q171 -113 213 -94.5Q255 -76 272 -30L282 0H230L88 423Q77 455 72 462.5Q67 470 50 472L-5 479V507H265V479L210 472Q195 470 195 460.5Q195 451 204 423L313 93L426 427Q436 457 435.5 463.5Q435 470 419 472L364 479V507H555V479L500 472Q484 470 479 463Q474 456 464 427ZM334 600 310 579Q254 620 217 657Q180 694 146 740H272Q280 705 293 674.5Q306 644 334 600Z" glyph-name="ygrave" horiz-adv-x="550" unicode="ỳ" /><glyph d="M370 61 397 152H425V0H38V25L289 472H159Q127 472 119 469Q111 466 105 446L78 355H50V507H415V482L164 35H316Q348 35 356 38Q364 41 370 61ZM356 745 370 723Q336 684 318.5 658.5Q301 633 277 584H189Q165 633 147.5 658.5Q130 684 96 723L110 745Q145 725 177.5 702Q210 679 237 656Q261 678 292.5 701.5Q324 725 356 745Z" glyph-name="zcaron" horiz-adv-x="465" unicode="ž" /><glyph d="M370 61 397 152H425V0H38V25L289 472H159Q127 472 119 469Q111 466 105 446L78 355H50V507H415V482L164 35H316Q348 35 356 38Q364 41 370 61ZM232 579 208 600Q236 644 249 674.5Q262 705 270 740H396Q362 694 325 657Q288 620 232 579Z" glyph-name="zacute" horiz-adv-x="465" unicode="ź" /><glyph d="M370 61 397 152H425V0H38V25L289 472H159Q127 472 119 469Q111 466 105 446L78 355H50V507H415V482L164 35H316Q348 35 356 38Q364 41 370 61ZM303 663Q303 632 283.5 612.5Q264 593 233 593Q202 593 183 612.5Q164 632 164 663Q164 694 183 713Q202 732 233 732Q264 732 283.5 712.5Q303 693 303 663Z" glyph-name="zdotaccent" horiz-adv-x="465" unicode="ż" /><glyph d="M232 579 208 600Q236 644 249 674.5Q262 705 270 740H396Q362 694 325 657Q288 620 232 579Z" glyph-name="acute" horiz-adv-x="500" unicode="´" /><glyph d="M334 600 310 579Q254 620 217 657Q180 694 146 740H272Q280 705 293 674.5Q306 644 334 600Z" glyph-name="grave" horiz-adv-x="500" unicode="`" /><glyph d="M446 601 432 579Q395 600 362 623.5Q329 647 305 668Q281 646 249.5 622.5Q218 599 186 579L172 601Q206 640 223.5 665.5Q241 691 265 740H353Q377 691 394.5 665.5Q412 640 446 601Z" glyph-name="circumflex" horiz-adv-x="500" unicode="ˆ" /><glyph d="M356 745 370 723Q336 684 318.5 658.5Q301 633 277 584H189Q165 633 147.5 658.5Q130 684 96 723L110 745Q145 725 177.5 702Q210 679 237 656Q261 678 292.5 701.5Q324 725 356 745Z" glyph-name="caron" horiz-adv-x="500" unicode="ˇ" /><glyph d="M361 583Q344 583 326 592.5Q308 602 278 632Q256 653 246 659.5Q236 666 227 666Q210 666 200.5 648Q191 630 186 588H150Q158 670 179.5 707.5Q201 745 239 745Q256 745 273 735.5Q290 726 319 697Q341 675 352 668.5Q363 662 372 662Q388 662 397 679.5Q406 697 412 740H448Q440 658 419 620.5Q398 583 361 583Z" glyph-name="tilde" horiz-adv-x="500" unicode="˜" /><glyph d="M266 663Q266 635 248.5 617.5Q231 600 203 600Q175 600 158 617.5Q141 635 141 663Q141 691 158 708Q175 725 203 725Q231 725 248.5 707.5Q266 690 266 663ZM476 663Q476 635 458.5 617.5Q441 600 413 600Q385 600 368 617.5Q351 635 351 663Q351 691 368 708Q385 725 413 725Q441 725 458.5 707.5Q476 690 476 663Z" glyph-name="dieresis" horiz-adv-x="500" unicode="¨" /><glyph d="M299 803Q352 803 387 769.5Q422 736 422 689V678Q422 631 387 597Q352 563 299 563Q246 563 211 596.5Q176 630 176 678V689Q176 737 210.5 770Q245 803 299 803ZM349 671 349 696Q349 736 336.5 756Q324 776 299 776Q274 776 262 756Q250 736 250 696V671Q250 630 262 610Q274 590 299 590Q324 590 336.5 610.5Q349 631 349 671Z" glyph-name="ring" horiz-adv-x="500" unicode="˚" /><glyph d="M365 -140Q365 -178 332.5 -200.5Q300 -223 246 -223Q198 -223 170 -203.5Q142 -184 135 -145L190 -131Q193 -162 205 -176.5Q217 -191 238 -191Q259 -191 270.5 -178Q282 -165 282 -140Q282 -113 269 -100Q256 -87 230 -87Q227 -87 223 -87.5Q219 -88 210 -89L197 -63L223 0H263L240 -55Q298 -57 331.5 -79.5Q365 -102 365 -140Z" glyph-name="cedilla" horiz-adv-x="500" unicode="¸" /><glyph d="M219 579 192 603Q212 633 224 664.5Q236 696 246 740H357Q329 695 296 656.5Q263 618 219 579ZM359 579 332 603Q352 633 364 664.5Q376 696 386 740H497Q469 695 436 656.5Q403 618 359 579Z" glyph-name="hungarumlaut" horiz-adv-x="500" unicode="˝" /><glyph d="M299 661Q347 661 374.5 681.5Q402 702 412 745L445 735Q430 658 393.5 618.5Q357 579 299 579Q241 579 204.5 618.5Q168 658 153 735L186 745Q196 702 223.5 681.5Q251 661 299 661Z" glyph-name="breve" horiz-adv-x="500" unicode="˘" /><glyph d="M155 674 442 674V619H155Z" glyph-name="macron" horiz-adv-x="500" unicode="¯" /><glyph d="M303 663Q303 632 283.5 612.5Q264 593 233 593Q202 593 183 612.5Q164 632 164 663Q164 694 183 713Q202 732 233 732Q264 732 283.5 712.5Q303 693 303 663Z" glyph-name="dotaccent" horiz-adv-x="500" unicode="˙" /><glyph d="M391 385Q391 354 371.5 334.5Q352 315 321 315Q290 315 271 334.5Q252 354 252 385Q252 416 271 435Q290 454 321 454Q352 454 371.5 434.5Q391 415 391 385Z" glyph-name="periodcentered" horiz-adv-x="500" unicode="·" /><glyph d="M245 -223Q193 -223 160 -197.5Q127 -172 127 -130Q127 -67 199 -18.5Q271 30 351 30V0Q287 0 248.5 -36Q210 -72 210 -129Q210 -158 221 -173.5Q232 -189 253 -189Q277 -189 291 -170Q305 -151 310 -112L374 -125Q361 -173 327.5 -198Q294 -223 245 -223Z" glyph-name="ogonek" horiz-adv-x="500" unicode="˛" /><glyph d="M153 -248 134 -230Q151 -194 161.5 -158Q172 -122 177 -77H290Q266 -125 232 -167.5Q198 -210 153 -248Z" glyph-name="commaaccent" horiz-adv-x="500" unicode="" /><glyph d="M284 556 260 556V770H369Q350 710 330 660.5Q310 611 284 556Z" glyph-name="caron.alt" horiz-adv-x="500" unicode="" /><glyph d="M331 755 350 737Q333 701 322.5 665Q312 629 307 584H194Q218 632 252 674.5Q286 717 331 755Z" glyph-name="revcommaaccent" horiz-adv-x="500" unicode="" /><glyph d="M198 61Q198 29 178 9.5Q158 -10 127 -10Q95 -10 76 9.5Q57 29 57 61Q57 93 76.5 112Q96 131 127 131Q158 131 178 111.5Q198 92 198 61Z" glyph-name="period" horiz-adv-x="255" unicode="." /><glyph d="M128 125Q159 125 177.5 103Q196 81 196 44Q196 1 165.5 -59Q135 -119 78 -186L55 -166Q92 -121 110.5 -83.5Q129 -46 131 -10H128Q98 -10 79.5 8.5Q61 27 61 58Q61 88 79.5 106.5Q98 125 128 125Z" glyph-name="comma" horiz-adv-x="255" unicode="," /><glyph d="M198 447Q198 415 178 395.5Q158 376 127 376Q95 376 76 395.5Q57 415 57 447Q57 479 76.5 498Q96 517 127 517Q158 517 178 497.5Q198 478 198 447ZM198 61Q198 29 178 9.5Q158 -10 127 -10Q95 -10 76 9.5Q57 29 57 61Q57 93 76.5 112Q96 131 127 131Q158 131 178 111.5Q198 92 198 61Z" glyph-name="colon" horiz-adv-x="255" unicode=":" /><glyph d="M198 447Q198 415 178 395.5Q158 376 127 376Q95 376 76 395.5Q57 415 57 447Q57 479 76.5 498Q96 517 127 517Q158 517 178 497.5Q198 478 198 447ZM128 125Q159 125 177.5 103Q196 81 196 44Q196 1 165.5 -59Q135 -119 78 -186L55 -166Q92 -121 110.5 -83.5Q129 -46 131 -10H128Q98 -10 79.5 8.5Q61 27 61 58Q61 88 79.5 106.5Q98 125 128 125Z" glyph-name="semicolon" horiz-adv-x="255" unicode=";" /><glyph d="M598 61Q598 29 578 9.5Q558 -10 527 -10Q495 -10 476 9.5Q457 29 457 61Q457 93 476.5 112Q496 131 527 131Q558 131 578 111.5Q598 92 598 61ZM598 61Q598 29 578 9.5Q558 -10 527 -10Q495 -10 476 9.5Q457 29 457 61Q457 93 476.5 112Q496 131 527 131Q558 131 578 111.5Q598 92 598 61ZM598 61Q598 29 578 9.5Q558 -10 527 -10Q495 -10 476 9.5Q457 29 457 61Q457 93 476.5 112Q496 131 527 131Q558 131 578 111.5Q598 92 598 61Z" glyph-name="ellipsis" horiz-adv-x="655" unicode="…" /><glyph d="M260 219 262 202H211V218Q211 255 221.5 283Q232 311 266 349Q305 391 317 426Q329 461 329 509Q329 580 306.5 617.5Q284 655 241 655Q189 655 167.5 607.5Q146 560 156 467L41 483Q25 573 80 631.5Q135 690 242 690Q341 690 397.5 643Q454 596 454 519Q454 473 433.5 437.5Q413 402 347 357Q288 316 272 286.5Q256 257 260 219ZM306 61Q306 29 286 9.5Q266 -10 235 -10Q203 -10 184 9.5Q165 29 165 61Q165 93 184.5 112Q204 131 235 131Q266 131 286 111.5Q306 92 306 61Z" glyph-name="question" horiz-adv-x="492" unicode="?" /><glyph d="M166 463Q153 375 149 319.5Q145 264 145 202H110Q110 264 106 319.5Q102 375 89 463Q77 541 73.5 586Q70 631 70 680H185Q185 631 181.5 586Q178 541 166 463ZM198 61Q198 29 178 9.5Q158 -10 127 -10Q95 -10 76 9.5Q57 29 57 61Q57 93 76.5 112Q96 131 127 131Q158 131 178 111.5Q198 92 198 61Z" glyph-name="exclam" horiz-adv-x="255" unicode="!" /><glyph d="M189 446Q189 478 209 497.5Q229 517 260 517Q292 517 311 497.5Q330 478 330 446Q330 415 311 395.5Q292 376 260 376Q229 376 209 395.5Q189 415 189 446ZM235 288 233 305H284V289Q284 252 273.5 224Q263 196 229 158Q190 116 178 81Q166 46 166 -2Q166 -73 188.5 -110.5Q211 -148 254 -148Q306 -148 327.5 -100.5Q349 -53 339 40L454 24Q470 -66 415 -124.5Q360 -183 253 -183Q154 -183 97.5 -136Q41 -89 41 -12Q41 34 61.5 69.5Q82 105 148 150Q207 191 223 220.5Q239 250 235 288Z" glyph-name="questiondown" horiz-adv-x="492" unicode="¿" /><glyph d="M57 446Q57 478 77 497.5Q97 517 128 517Q160 517 179 497.5Q198 478 198 446Q198 415 179 395.5Q160 376 128 376Q97 376 77 395.5Q57 415 57 446ZM89 44Q102 132 106 187.5Q110 243 110 305H145Q145 243 149 187.5Q153 132 166 44Q178 -34 181.5 -79Q185 -124 185 -173H70Q70 -124 73.5 -79Q77 -34 89 44Z" glyph-name="exclamdown" horiz-adv-x="255" unicode="¡" /><glyph d="M56 280 56 317Q56 439 115 544Q174 649 300 750L323 726Q251 659 215 557.5Q179 456 179 317V280Q179 141 215 39.5Q251 -62 323 -129L300 -153Q174 -52 115 53Q56 158 56 280Z" glyph-name="parenleft" horiz-adv-x="333" unicode="(" /><glyph d="M277 317 277 280Q277 158 218 53Q159 -52 33 -153L10 -129Q82 -62 118 39.5Q154 141 154 280V317Q154 456 118 557.5Q82 659 10 726L33 750Q159 649 218 544Q277 439 277 317Z" glyph-name="parenright" horiz-adv-x="333" unicode=")" /><glyph d="M297 -109 382 -109V-144H297Q197 -144 150 -94Q103 -44 127 41L157 147Q172 201 159 241Q146 281 115 281H32V316H115Q146 316 159 355.5Q172 395 157 449L127 555Q103 640 150 690Q197 740 297 740H382V705H297Q252 705 237 671Q222 637 240 574L270 468Q288 403 264 358.5Q240 314 180 298Q240 282 264 237.5Q288 193 270 128L240 22Q222 -41 237 -75Q252 -109 297 -109Z" glyph-name="braceleft" horiz-adv-x="392" unicode="{" /><glyph d="M235 147 265 41Q289 -44 242 -94Q195 -144 95 -144H10V-109H95Q140 -109 155 -75Q170 -41 152 22L122 128Q104 193 128 237.5Q152 282 212 298Q152 314 128 358.5Q104 403 122 468L152 574Q170 637 155 671Q140 705 95 705H10V740H95Q195 740 242 690Q289 640 265 555L235 449Q220 395 233 355Q246 315 277 315H360V280H277Q246 280 233 240.5Q220 201 235 147Z" glyph-name="braceright" horiz-adv-x="392" unicode="}" /><glyph d="M340 740 340 705H210V-108H340V-143H95V740Z" glyph-name="bracketleft" horiz-adv-x="350" unicode="[" /><glyph d="M10 705 10 740H255V-143H10V-108H140V705Z" glyph-name="bracketright" horiz-adv-x="350" unicode="]" /><glyph d="M-22 -128 324 740L363 725L17 -143Z" glyph-name="slash" horiz-adv-x="373" unicode="/" /><glyph d="M10 725 49 740L395 -128L356 -143Z" glyph-name="backslash" horiz-adv-x="373" unicode="\" /><glyph d="M401 -145 17 -145V-110H401Z" glyph-name="underscore" horiz-adv-x="418" unicode="_" /><glyph d="M324 317 60 317V352H324Z" glyph-name="hyphen" horiz-adv-x="384" unicode="-" /><glyph d="" glyph-name="uni00AD" horiz-adv-x="0" unicode="­" /><glyph d="M524 317 60 317V352H524Z" glyph-name="endash" horiz-adv-x="584" unicode="–" /><glyph d="M724 317 60 317V352H724Z" glyph-name="emdash" horiz-adv-x="784" unicode="—" /><glyph d="M83 357 83 740H123V357ZM83 -213 83 170H123V-213Z" glyph-name="brokenbar" horiz-adv-x="206" unicode="¦" /><glyph d="M88 -213 88 740H128V-213Z" glyph-name="bar" horiz-adv-x="216" unicode="|" /><glyph d="M430 244 596 30L575 10L300 232V256L575 478L596 458ZM180 244 346 30L325 10L50 232V256L325 478L346 458Z" glyph-name="guillemotleft" horiz-adv-x="651" unicode="«" /><glyph d="M221 244 55 458L76 478L351 256V232L76 10L55 30ZM471 244 305 458L326 478L601 256V232L326 10L305 30Z" glyph-name="guillemotright" horiz-adv-x="651" unicode="»" /><glyph d="M180 244 346 30L325 10L50 232V256L325 478L346 458Z" glyph-name="guilsinglleft" horiz-adv-x="401" unicode="‹" /><glyph d="M221 245 55 459L76 479L351 257V233L76 11L55 31Z" glyph-name="guilsinglright" horiz-adv-x="401" unicode="›" /><glyph d="M128 121Q158 121 176 99.5Q194 78 194 42Q194 1 167 -53Q140 -107 92 -162L69 -142Q99 -106 114 -74Q129 -42 131 -10H128Q99 -10 81 8Q63 26 63 56Q63 85 81 103Q99 121 128 121Z" glyph-name="quotesinglbase" horiz-adv-x="255" unicode="‚" /><glyph d="M128 121Q158 121 176 99.5Q194 78 194 42Q194 1 167 -53Q140 -107 92 -162L69 -142Q99 -106 114 -74Q129 -42 131 -10H128Q99 -10 81 8Q63 26 63 56Q63 85 81 103Q99 121 128 121ZM321 121Q351 121 369 99.5Q387 78 387 42Q387 1 360 -53Q333 -107 285 -162L262 -142Q292 -106 307 -74Q322 -42 324 -10H321Q292 -10 274 8Q256 26 256 56Q256 85 274 103Q292 121 321 121Z" glyph-name="quotedblbase" horiz-adv-x="448" unicode="„" /><glyph d="M193 472Q193 443 175 425Q157 407 128 407Q98 407 80 428.5Q62 450 62 486Q62 527 89 581Q116 635 164 690L187 670Q157 634 142 602Q127 570 125 538H128Q157 538 175 520Q193 502 193 472Z" glyph-name="quoteleft" horiz-adv-x="255" unicode="‘" /><glyph d="M386 472Q386 443 368 425Q350 407 321 407Q291 407 273 428.5Q255 450 255 486Q255 527 282 581Q309 635 357 690L380 670Q350 634 335 602Q320 570 318 538H321Q350 538 368 520Q386 502 386 472ZM193 472Q193 443 175 425Q157 407 128 407Q98 407 80 428.5Q62 450 62 486Q62 527 89 581Q116 635 164 690L187 670Q157 634 142 602Q127 570 125 538H128Q157 538 175 520Q193 502 193 472Z" glyph-name="quotedblleft" horiz-adv-x="448" unicode="“" /><glyph d="M39 690Q69 690 87 668.5Q105 647 105 611Q105 570 78 516Q51 462 3 407L-20 427Q10 463 25 495Q40 527 42 559H39Q10 559 -8 577Q-26 595 -26 625Q-26 654 -8 672Q10 690 39 690Z" glyph-name="quoteright" horiz-adv-x="255" unicode="’" /><glyph d="M127 690Q157 690 175 668.5Q193 647 193 611Q193 570 166 516Q139 462 91 407L68 427Q98 463 113 495Q128 527 130 559H127Q98 559 80 577Q62 595 62 625Q62 654 80 672Q98 690 127 690ZM320 690Q350 690 368 668.5Q386 647 386 611Q386 570 359 516Q332 462 284 407L261 427Q291 463 306 495Q321 527 323 559H320Q291 559 273 577Q255 595 255 625Q255 654 273 672Q291 690 320 690Z" glyph-name="quotedblright" horiz-adv-x="448" unicode="”" /><glyph d="M172 555Q153 511 147 478Q141 445 141 407H116Q116 445 109.5 478Q103 511 85 555Q73 582 70 595Q67 608 67 621Q67 652 84 671Q101 690 128 690Q155 690 172 671Q189 652 189 621Q189 608 186 595Q183 582 172 555Z" glyph-name="quotesingle" horiz-adv-x="256" unicode="'" /><glyph d="M172 555Q153 511 147 478Q141 445 141 407H116Q116 445 109.5 478Q103 511 85 555Q73 582 70 595Q67 608 67 621Q67 652 84 671Q101 690 128 690Q155 690 172 671Q189 652 189 621Q189 608 186 595Q183 582 172 555ZM365 555Q346 511 340 478Q334 445 334 407H309Q309 445 302.5 478Q296 511 278 555Q266 582 263 595Q260 608 260 621Q260 652 277 671Q294 690 321 690Q348 690 365 671Q382 652 382 621Q382 608 379 595Q376 582 365 555Z" glyph-name="quotedbl" horiz-adv-x="449" unicode="&quot;" /><glyph d="M225 334Q225 293 199 266.5Q173 240 132 240Q91 240 65 266.5Q39 293 39 334Q39 374 65.5 400Q92 426 132 426Q172 426 198.5 400Q225 374 225 334Z" glyph-name="bullet" horiz-adv-x="264" unicode="•" /><glyph d="M161 159Q161 95 187 61Q213 27 262 27Q333 27 358 91.5Q383 156 342 237L431 295L553 69Q565 47 572 39.5Q579 32 599 30L648 25V0H469L403 124Q398 62 356.5 26Q315 -10 246 -10Q151 -10 96 32.5Q41 75 41 149Q41 208 84.5 257Q128 306 224 358Q153 388 114.5 432.5Q76 477 76 530Q76 597 129.5 643.5Q183 690 264 690Q348 690 400.5 645.5Q453 601 453 533Q453 482 418 440Q383 398 297 351L262 332Q209 303 185 262Q161 221 161 159ZM265 655Q231 655 213.5 625.5Q196 596 196 537Q196 485 211 445.5Q226 406 257 376L265 380Q300 399 316.5 436Q333 473 333 531Q333 592 315.5 623.5Q298 655 265 655Z" glyph-name="ampersand" horiz-adv-x="624" unicode="&amp;" /><glyph d="M35 472 35 495Q35 583 92 631.5Q149 680 254 680H555V652L500 645Q484 643 481 636Q478 629 478 596V-59Q478 -92 481 -99Q484 -106 500 -108L555 -115V-143H261V-115L336 -108Q352 -106 355 -99.5Q358 -93 358 -59V645H295V286H254Q149 286 92 335Q35 384 35 472Z" glyph-name="paragraph" horiz-adv-x="598" unicode="¶" /><glyph d="M288 270 288 267Q288 239 285 211.5Q282 184 273 130Q258 48 253 -12Q248 -72 248 -143H213Q213 -72 208 -12Q203 48 188 130Q179 184 176 211.5Q173 239 173 267V270Q173 291 176.5 310Q180 329 192 360Q205 393 209 414Q213 435 213 459Q191 458 171.5 454Q152 450 120 438Q89 426 70 422.5Q51 419 30 419V531Q51 531 70 527.5Q89 524 120 512Q152 500 171.5 496Q191 492 213 491Q213 515 209 536Q205 557 192 590Q180 622 176.5 640.5Q173 659 173 680H288Q288 659 284.5 640Q281 621 269 590Q256 557 252 536Q248 515 248 491Q270 492 290 496Q310 500 342 512Q373 524 392 527.5Q411 531 432 531V419Q411 419 392 422.5Q373 426 342 438Q310 450 290 454Q270 458 248 459Q248 435 252 414Q256 393 269 360Q281 328 284.5 309.5Q288 291 288 270Z" glyph-name="dagger" horiz-adv-x="462" unicode="†" /><glyph d="M446 118 446 6Q425 6 406 9.5Q387 13 356 25Q324 37 304 41Q284 45 262 46Q262 22 266 1Q270 -20 283 -53Q295 -85 298.5 -103.5Q302 -122 302 -143H187Q187 -122 190.5 -103Q194 -84 206 -53Q219 -20 223 1Q227 22 227 46Q205 45 185.5 41Q166 37 134 25Q103 13 84 9.5Q65 6 44 6V118Q65 118 84 114.5Q103 111 134 99Q166 87 185.5 83Q205 79 227 78Q227 102 223 123Q219 144 206 177Q194 209 190.5 227.5Q187 246 187 267V270Q187 291 190.5 310Q194 329 206 360Q219 393 223 414Q227 435 227 459Q205 458 185.5 454Q166 450 134 438Q103 426 84 422.5Q65 419 44 419V531Q65 531 84 527.5Q103 524 134 512Q166 500 185.5 496Q205 492 227 491Q227 515 223 536Q219 557 206 590Q194 622 190.5 640.5Q187 659 187 680H302Q302 659 298.5 640Q295 621 283 590Q270 557 266 536Q262 515 262 491Q284 492 304 496Q324 500 356 512Q387 524 406 527.5Q425 531 446 531V419Q425 419 406 422.5Q387 426 356 438Q324 450 304 454Q284 458 262 459Q262 435 266 414Q270 393 283 360Q295 328 298.5 309.5Q302 291 302 270V267Q302 246 298.5 227Q295 208 283 177Q270 144 266 123Q262 102 262 78Q284 79 304 83Q324 87 356 99Q387 111 406 114.5Q425 118 446 118Z" glyph-name="daggerdbl" horiz-adv-x="490" unicode="‡" /><glyph d="M391 95Q431 72 449.5 38.5Q468 5 468 -44Q468 -128 413 -175.5Q358 -223 259 -223Q166 -223 110.5 -178.5Q55 -134 44 -49L111 -25Q117 -107 153.5 -147.5Q190 -188 258 -188Q314 -188 344.5 -163Q375 -138 375 -92Q375 -52 352 -28.5Q329 -5 272 14L187 42Q126 62 89 109.5Q52 157 52 214Q52 262 80 303.5Q108 345 157 370Q120 394 100.5 433Q81 472 81 520Q81 596 132 643Q183 690 271 690Q368 690 417.5 640.5Q467 591 454 515L339 494Q353 574 333 614.5Q313 655 260 655Q219 655 196.5 631.5Q174 608 174 566Q174 522 196.5 494.5Q219 467 268 452L357 424Q428 402 464.5 359.5Q501 317 501 257Q501 204 472 162Q443 120 391 95ZM249 148 334 120Q338 119 340.5 118Q343 117 344 116Q376 128 392 150.5Q408 173 408 206Q408 247 381.5 273Q355 299 295 318L206 346Q202 347 199.5 348Q197 349 196 350Q171 338 158 316Q145 294 145 264Q145 223 170.5 194.5Q196 166 249 148Z" glyph-name="section" horiz-adv-x="550" unicode="§" /><glyph d="M322 400Q345 383 357.5 371.5Q370 360 381 344L304 288Q293 304 285.5 319Q278 334 269 361Q260 393 250 413Q240 433 224 454Q209 433 199 413.5Q189 394 180 363Q171 335 163.5 320Q156 305 145 289L68 345Q79 361 91.5 372.5Q104 384 127 401Q155 420 170.5 435.5Q186 451 202 472Q177 480 155 483.5Q133 487 100 486Q71 486 54 488Q37 490 19 496L49 587Q67 581 82 573Q97 565 120 548Q146 528 166 517.5Q186 507 211 499Q211 525 207.5 547Q204 569 193 600Q184 627 181 644Q178 661 178 680H273Q273 661 270 644Q267 627 258 600Q247 569 243.5 547Q240 525 240 498Q265 506 284 516Q303 526 330 546Q353 564 368 572Q383 580 402 586L431 495Q413 489 396 487Q379 485 351 485Q317 486 295 482.5Q273 479 248 471Q263 450 279 434Q295 418 322 400Z" glyph-name="asterisk" horiz-adv-x="450" unicode="*" /><glyph d="M10 591 10 680H294V591H274L264 641Q262 650 258 652Q254 654 237 654H185V391Q185 375 186.5 371Q188 367 196 366L224 364V340H80V364L108 366Q116 367 117.5 371Q119 375 119 391V654H67Q50 654 46 652Q42 650 40 641L30 591ZM713 366 741 364V340H597V364L625 366Q633 367 634.5 371Q636 375 636 391V640L531 380H502L401 628V391Q401 375 402.5 371Q404 367 412 366L440 364V340H332V364L360 366Q368 367 369.5 371Q371 375 371 391V630Q371 646 369.5 649.5Q368 653 360 654L332 657V680H449L536 466L622 680H741V657L713 654Q705 653 703.5 649.5Q702 646 702 630V391Q702 375 703.5 371Q705 367 713 366Z" glyph-name="trademark" horiz-adv-x="764" unicode="™" /><glyph d="M502 479Q502 379 434 310Q366 241 268 241Q169 241 101.5 310Q34 379 34 479Q34 580 101.5 648.5Q169 717 268 717Q366 717 434 648Q502 579 502 479ZM67 479Q67 392 125 332.5Q183 273 268 273Q353 273 411 332.5Q469 392 469 479Q469 566 411 626Q353 686 268 686Q183 686 125 626Q67 566 67 479ZM175 587 154 589V611H272Q313 611 336.5 593.5Q360 576 360 545V529Q360 508 348 491.5Q336 475 315 468L358 399Q365 387 367.5 384.5Q370 382 376 381L394 379V356H318L259 461H238V399Q238 386 239 384Q240 382 246 381L267 379V356H154V379L175 381Q181 382 182 385Q183 388 183 399V569Q183 580 182 583Q181 586 175 587ZM272 587 238 587V486H272Q287 486 295.5 497Q304 508 304 529V545Q304 565 295.5 576Q287 587 272 587Z" glyph-name="registered" horiz-adv-x="536" unicode="®" /><glyph d="M794 340Q794 181 686.5 72Q579 -37 422 -37Q265 -37 157.5 72Q50 181 50 340Q50 500 157 608.5Q264 717 422 717Q579 717 686.5 608Q794 499 794 340ZM87 340Q87 195 183.5 96.5Q280 -2 422 -2Q564 -2 660.5 96.5Q757 195 757 340Q757 485 660.5 583.5Q564 682 422 682Q280 682 183.5 583.5Q87 485 87 340ZM424 539Q369 539 342 497.5Q315 456 315 371V310Q315 220 342.5 180.5Q370 141 433 141Q480 141 506 164Q532 187 543 237L601 224Q586 167 541 137.5Q496 108 428 108Q332 108 279.5 166Q227 224 227 330V351Q227 455 279 513.5Q331 572 424 572Q512 572 559 523.5Q606 475 594 398L517 389Q527 460 502.5 499.5Q478 539 424 539Z" glyph-name="copyright" horiz-adv-x="844" unicode="©" /><glyph d="M714 -116 734 -167Q683 -193 614.5 -208Q546 -223 480 -223Q290 -223 172.5 -101.5Q55 20 55 214Q55 419 180.5 554.5Q306 690 499 690Q672 690 785.5 572.5Q899 455 899 278Q899 157 838 76Q777 -5 686 -5Q636 -5 601 19.5Q566 44 556 87Q525 38 489 14Q453 -10 409 -10Q328 -10 286.5 62.5Q245 135 265 246L269 268Q286 364 346.5 420.5Q407 477 489 477Q531 477 564 459.5Q597 442 616 410Q639 422 658.5 436.5Q678 451 694 467H721L664 150Q652 86 658.5 57.5Q665 29 693 29Q763 29 812.5 101Q862 173 862 278Q862 440 759 547.5Q656 655 499 655Q322 655 207 530Q92 405 92 214Q92 34 198.5 -77Q305 -188 480 -188Q549 -188 608.5 -170Q668 -152 714 -116ZM379 276 369 216Q354 125 368.5 75Q383 25 423 25Q458 25 490.5 58.5Q523 92 556 161L595 378Q580 409 554 425.5Q528 442 497 442Q451 442 422 402Q393 362 379 276Z" glyph-name="at" horiz-adv-x="950" unicode="@" /><glyph d="M309 339Q283 339 265.5 349.5Q248 360 241 379Q219 357 194 346Q169 335 141 335Q96 335 70.5 360Q45 385 45 426Q45 471 75 492Q105 513 168 513H237V568Q237 615 222.5 636.5Q208 658 175 658Q140 658 127 636Q114 614 120 567L61 574Q56 624 87.5 654.5Q119 685 176 685Q237 685 267.5 655.5Q298 626 298 568V416Q298 390 303 378Q308 366 322 366Q329 366 336.5 369Q344 372 351 378L363 359Q352 349 338.5 344Q325 339 309 339ZM108 430Q108 398 120 382Q132 366 156 366Q177 366 197 376.5Q217 387 237 409V486H173Q138 486 123 473Q108 460 108 430Z" glyph-name="ordfeminine" horiz-adv-x="374" unicode="ª" /><glyph d="M196 685Q266 685 305.5 640Q345 595 345 517V504Q345 426 305 380.5Q265 335 196 335Q126 335 86.5 380Q47 425 47 504V517Q47 595 86.5 640Q126 685 196 685ZM277 490 277 531Q277 598 258 628Q239 658 196 658Q153 658 134 628Q115 598 115 531V490Q115 423 134 392.5Q153 362 196 362Q239 362 258 392.5Q277 423 277 490Z" glyph-name="ordmasculine" horiz-adv-x="392" unicode="º" /><glyph d="M549 245 549 210H430L362 -10L326 1L390 210H168L100 -10L64 1L128 210H20V245H139L198 435H89V470H208L276 690L312 679L248 470H470L538 690L574 679L510 470H618V435H499L440 245ZM237 435 178 245H401L460 435Z" glyph-name="numbersign" horiz-adv-x="638" unicode="#" /><glyph d="M884 685Q962 685 1006.5 639Q1051 593 1051 512V492Q1051 411 1006.5 364.5Q962 318 884 318Q806 318 761.5 364.5Q717 411 717 492V512Q717 593 761 639Q805 685 884 685ZM520 645 465 652V680H659V652L604 645Q588 643 585 636Q582 629 582 596V0H527L160 593V84Q160 51 163 44Q166 37 182 35L237 28V0H43V28L98 35Q114 37 117 44Q120 51 120 84V596Q120 629 117 636Q114 643 98 645L43 652V680H244L542 201V596Q542 629 539 636Q536 643 520 645ZM965 472 965 532Q965 593 945 623Q925 653 884 653Q843 653 823 623Q803 593 803 532V472Q803 411 823 380.5Q843 350 884 350Q925 350 945 380.5Q965 411 965 472ZM1026 190 742 190V225H1026Z" glyph-name="uni2116" horiz-adv-x="1099" unicode="№" /><glyph d="M513 162 585 143Q566 68 513 29Q460 -10 379 -10Q261 -10 188 55Q115 120 98 239H16V274H94Q93 280 93 287Q93 294 93 309V379H16V414H94Q104 547 172.5 618.5Q241 690 359 690Q465 690 527 630Q589 570 582 477L465 448Q475 545 445 600Q415 655 354 655Q286 655 253.5 598Q221 541 221 422V414H423L417 379H221V274H399L393 239H221Q224 128 262 76.5Q300 25 379 25Q440 25 473 59Q506 93 513 162Z" glyph-name="Euro" horiz-adv-x="624" unicode="€" /><glyph d="M507 186Q507 99 450.5 46.5Q394 -6 293 -10V-125H257V-10Q164 -6 109 38.5Q54 83 44 164L111 188Q117 111 153 71Q189 31 257 26V279L200 296Q130 317 92.5 369Q55 421 55 497Q55 580 109 632.5Q163 685 257 690V805H293V689Q395 684 447 626Q499 568 484 483L369 462Q382 541 362.5 590Q343 639 293 651V395L355 376Q434 352 470.5 306.5Q507 261 507 186ZM148 539Q148 489 175.5 455.5Q203 422 257 406V655Q206 654 177 623Q148 592 148 539ZM414 143Q414 191 385.5 220Q357 249 293 268V26Q351 30 382.5 60.5Q414 91 414 143Z" glyph-name="dollar" horiz-adv-x="562" unicode="$" /><glyph d="M398 35 453 28V0H179V28L234 35Q250 37 253 44Q256 51 256 84V214H90V249H256V291L223 354H90V389H205L97 596Q80 629 74 636Q68 643 52 645L-3 652V680H282V652L227 645Q211 643 211.5 635.5Q212 628 228 596L357 338L491 596Q507 626 507.5 634.5Q508 643 492 645L437 652V680H632V652L577 645Q562 643 556 636.5Q550 630 533 596L426 389H542V354H408L376 293V249H542V214H376V84Q376 51 379 44Q382 37 398 35Z" glyph-name="yen" horiz-adv-x="629" unicode="¥" /><glyph d="M430 130 447 221H475V0H56V71Q109 104 134 138.5Q159 173 159 216Q159 234 155 250Q151 266 143 284H48V319H123Q104 350 92.5 370Q81 390 77 400Q67 423 62.5 445.5Q58 468 58 493Q58 584 114.5 637Q171 690 273 690Q382 690 439 631Q496 572 480 483L360 467Q370 558 348 606.5Q326 655 276 655Q232 655 210 616.5Q188 578 188 503Q188 479 192 452.5Q196 426 208 378Q214 353 216.5 341Q219 329 221 319H387V284H226Q227 280 227 276Q227 272 227 264Q227 216 208 177.5Q189 139 150 104H376Q410 104 418 107.5Q426 111 430 130Z" glyph-name="sterling" horiz-adv-x="531" unicode="£" /><glyph d="M397 137 461 119Q445 55 400.5 22.5Q356 -10 287 -10V-125H251V-8Q156 1 104.5 66.5Q53 132 53 244V264Q53 376 105 442.5Q157 509 251 516V632H287V517Q377 512 424.5 456.5Q472 401 458 322L348 306Q358 382 342 427.5Q326 473 287 481V25H291Q341 25 367 52.5Q393 80 397 137ZM176 284 176 224Q176 136 194 90Q212 44 251 31V480Q212 472 194 424Q176 376 176 284Z" glyph-name="cent" horiz-adv-x="503" unicode="¢" /><glyph d="M273 342 236 -34Q227 -131 183.5 -177Q140 -223 60 -223Q-7 -223 -43 -191Q-79 -159 -71 -110L39 -94Q33 -143 40 -165.5Q47 -188 69 -188Q92 -188 102.5 -159Q113 -130 121 -54L160 342H41V377H163L181 561Q190 658 233.5 704Q277 750 357 750Q424 750 460 718Q496 686 488 637L378 621Q384 670 377 692.5Q370 715 348 715Q325 715 314.5 686Q304 657 296 581L276 377H396V342Z" glyph-name="florin" horiz-adv-x="472" unicode="ƒ" /><glyph d="M503 28 503 0H305L39 310V345H207Q256 345 277 375.5Q298 406 298 474V478H39V513H298V517Q298 584 277 614.5Q256 645 207 645H39V680H503V645H352Q387 623 406 589.5Q425 556 426 513H503V478H426Q424 400 365.5 355Q307 310 207 310H193L393 84Q419 54 429.5 46Q440 38 458 35Z" glyph-name="uni20B9" horiz-adv-x="533" unicode="₹" /><glyph d="M429 172 528 69L503 43L403 146Q377 125 346 114Q315 103 282 103Q249 103 218 114Q187 125 161 146L61 43L36 69L135 172Q113 198 101.5 231Q90 264 90 300Q90 336 101.5 368.5Q113 401 135 428L36 531L61 557L161 454Q187 475 218 486Q249 497 282 497Q315 497 346 486Q377 475 403 454L503 557L528 531L429 428Q451 401 462.5 368.5Q474 336 474 300Q474 264 462.5 231Q451 198 429 172ZM127 300Q127 232 172 185Q217 138 282 138Q347 138 392 185Q437 232 437 300Q437 368 392 415Q347 462 282 462Q217 462 172 415Q127 368 127 300Z" glyph-name="currency" horiz-adv-x="564" unicode="¤" /><glyph d="M308 690Q422 690 487.5 605Q553 520 553 372V309Q553 161 487.5 75.5Q422 -10 308 -10Q193 -10 128 75Q63 160 63 309V372Q63 520 128 605Q193 690 308 690ZM420 239 420 442Q420 550 392.5 602.5Q365 655 308 655Q251 655 223.5 602.5Q196 550 196 442V239Q196 130 223.5 77.5Q251 25 308 25Q365 25 392.5 77.5Q420 130 420 239Z" glyph-name="zero" horiz-adv-x="616" unicode="0" /><glyph d="M38 561 19 591L158 680H254V84Q254 51 257 44Q260 37 276 35L331 28V0H37V28L112 35Q128 37 131 43.5Q134 50 134 84V622Z" glyph-name="one" horiz-adv-x="365" unicode="1" /><glyph d="M418 130 440 221H468V0H49V70Q49 144 81.5 198.5Q114 253 192 303Q259 348 275 361.5Q291 375 303 388Q327 416 338.5 448Q350 480 350 518Q350 585 327 620Q304 655 259 655Q204 655 181 607Q158 559 168 467L48 483Q32 573 90 631.5Q148 690 260 690Q364 690 422 641Q480 592 480 508Q480 456 459 417Q438 378 393 349Q360 327 297.5 301Q235 275 222 269Q161 241 129.5 201Q98 161 91 104H364Q397 104 405 107.5Q413 111 418 130Z" glyph-name="two" horiz-adv-x="533" unicode="2" /><glyph d="M346 170Q346 250 311.5 290.5Q277 331 209 331H182V366H209Q274 366 306.5 404Q339 442 339 516Q339 584 316 619.5Q293 655 248 655Q193 655 170 607Q147 559 157 467L37 483Q21 573 79 631.5Q137 690 249 690Q353 690 411 643Q469 596 469 516Q469 446 422 403.5Q375 361 284 349Q379 337 427.5 292Q476 247 476 170Q476 86 413 38Q350 -10 237 -10Q150 -10 98 30Q46 70 32 148L103 167Q112 95 143 60Q174 25 228 25Q288 25 317 60.5Q346 96 346 170Z" glyph-name="three" horiz-adv-x="523" unicode="3" /><glyph d="M292 84 292 176H12V211Q98 304 146 401.5Q194 499 236 680H381Q339 552 264 442Q189 332 61 211H292V364L412 382V211H489V176H412V84Q412 51 415 44Q418 37 434 35L489 28V0H195V28L270 35Q286 37 289 43.5Q292 50 292 84Z" glyph-name="four" horiz-adv-x="512" unicode="4" /><glyph d="M396 706 408 767H436V576H117L106 383Q134 402 169.5 412.5Q205 423 244 423Q346 423 407.5 365.5Q469 308 469 212Q469 108 408 49Q347 -10 236 -10Q153 -10 104 30Q55 70 41 148L112 167Q121 95 149.5 60Q178 25 227 25Q286 25 312.5 69.5Q339 114 339 212Q339 304 311.5 346Q284 388 225 388Q190 388 156.5 374Q123 360 92 332L68 347L87 680H342Q376 680 384 683.5Q392 687 396 706Z" glyph-name="five" horiz-adv-x="514" unicode="5" /><glyph d="M531 205 531 195Q531 101 469.5 45.5Q408 -10 304 -10Q190 -10 128 72Q66 154 66 305V368Q66 526 126 608Q186 690 301 690Q398 690 459.5 640.5Q521 591 519 516L401 502Q406 574 379.5 614.5Q353 655 301 655Q243 655 218.5 600.5Q194 546 194 427V341Q221 372 256.5 387.5Q292 403 335 403Q421 403 476 348Q531 293 531 205ZM194 289 194 246Q194 130 220.5 77.5Q247 25 308 25Q358 25 383 66Q408 107 408 189V199Q408 281 384 320Q360 359 310 359Q277 359 246 340.5Q215 322 194 289Z" glyph-name="six" horiz-adv-x="581" unicode="6" /><glyph d="M79 550 57 459H29V680H445V586Q357 471 318 341.5Q279 212 269 0H124Q146 161 209.5 290.5Q273 420 403 576H133Q100 576 92 572.5Q84 569 79 550Z" glyph-name="seven" horiz-adv-x="462" unicode="7" /><glyph d="M350 387Q434 349 469 301.5Q504 254 504 183Q504 94 444.5 42Q385 -10 281 -10Q174 -10 112 36Q50 82 50 157Q50 212 86.5 255.5Q123 299 194 330Q125 365 94.5 408Q64 451 64 511Q64 589 121.5 639.5Q179 690 273 690Q369 690 427.5 646Q486 602 486 531Q486 486 453 450.5Q420 415 350 387ZM166 548Q166 505 190.5 475Q215 445 269 422L317 401Q348 422 362 452Q376 482 376 530Q376 592 349.5 623.5Q323 655 271 655Q221 655 193.5 627Q166 599 166 548ZM160 160Q160 94 191 59.5Q222 25 281 25Q340 25 371 56Q402 87 402 147Q402 197 377 229.5Q352 262 295 286L228 314Q195 292 177.5 252.5Q160 213 160 160Z" glyph-name="eight" horiz-adv-x="554" unicode="8" /><glyph d="M515 375 515 312Q515 156 448.5 73Q382 -10 258 -10Q176 -10 124.5 30.5Q73 71 59 148L130 167Q139 96 169.5 60.5Q200 25 253 25Q322 25 354.5 81.5Q387 138 387 253V319Q360 288 324.5 272.5Q289 257 246 257Q160 257 105 312Q50 367 50 455V482Q50 577 111.5 633.5Q173 690 277 690Q391 690 453 608Q515 526 515 375ZM173 491 173 461Q173 379 197 340Q221 301 271 301Q304 301 335 319.5Q366 338 387 371V434Q387 550 360.5 602.5Q334 655 273 655Q223 655 198 614Q173 573 173 491Z" glyph-name="nine" horiz-adv-x="581" unicode="9" /><glyph d="M270 690Q384 690 449.5 605Q515 520 515 372V309Q515 161 449.5 75.5Q384 -10 270 -10Q155 -10 90 75Q25 160 25 309V372Q25 520 90 605Q155 690 270 690ZM382 239 382 442Q382 550 354.5 602.5Q327 655 270 655Q213 655 185.5 602.5Q158 550 158 442V239Q158 130 185.5 77.5Q213 25 270 25Q327 25 354.5 77.5Q382 130 382 239Z" glyph-name="zero.tlf" horiz-adv-x="540" unicode="" /><glyph d="M97 534 77 565L256 680H352V88Q352 54 355 47.5Q358 41 374 39L469 28V0H95V28L210 39Q226 41 229 47.5Q232 54 232 88V620Z" glyph-name="one.tlf" horiz-adv-x="540" unicode="" /><glyph d="M420 130 442 221H470V0H51V70Q51 144 83.5 198.5Q116 253 194 303Q261 348 277 361.5Q293 375 305 388Q329 416 340.5 448Q352 480 352 518Q352 585 329 620Q306 655 261 655Q206 655 183 607Q160 559 170 467L50 483Q34 573 92 631.5Q150 690 262 690Q366 690 424 641Q482 592 482 508Q482 456 461 417Q440 378 395 349Q362 327 299.5 301Q237 275 224 269Q163 241 131.5 201Q100 161 93 104H366Q399 104 407 107.5Q415 111 420 130Z" glyph-name="two.tlf" horiz-adv-x="540" unicode="" /><glyph d="M355 170Q355 250 320.5 290.5Q286 331 218 331H191V366H218Q283 366 315.5 404Q348 442 348 516Q348 584 325 619.5Q302 655 257 655Q202 655 179 607Q156 559 166 467L46 483Q30 573 88 631.5Q146 690 258 690Q362 690 420 643Q478 596 478 516Q478 446 431 403.5Q384 361 293 349Q388 337 436.5 292Q485 247 485 170Q485 86 422 38Q359 -10 246 -10Q159 -10 107 30Q55 70 41 148L112 167Q121 95 152 60Q183 25 237 25Q297 25 326 60.5Q355 96 355 170Z" glyph-name="three.tlf" horiz-adv-x="540" unicode="" /><glyph d="M308 84 308 176H28V211Q114 304 162 401.5Q210 499 252 680H397Q355 552 280 442Q205 332 77 211H308V364L428 382V211H505V176H428V84Q428 51 431 44Q434 37 450 35L505 28V0H211V28L286 35Q302 37 305 43.5Q308 50 308 84Z" glyph-name="four.tlf" horiz-adv-x="540" unicode="" /><glyph d="M407 706 419 767H447V576H128L117 383Q145 402 180.5 412.5Q216 423 255 423Q357 423 418.5 365.5Q480 308 480 212Q480 108 419 49Q358 -10 247 -10Q164 -10 115 30Q66 70 52 148L123 167Q132 95 160.5 60Q189 25 238 25Q297 25 323.5 69.5Q350 114 350 212Q350 304 322.5 346Q295 388 236 388Q201 388 167.5 374Q134 360 103 332L79 347L98 680H353Q387 680 395 683.5Q403 687 407 706Z" glyph-name="five.tlf" horiz-adv-x="540" unicode="" /><glyph d="M505 205 505 195Q505 101 443.5 45.5Q382 -10 278 -10Q164 -10 102 72Q40 154 40 305V368Q40 526 100 608Q160 690 275 690Q372 690 433.5 640.5Q495 591 493 516L375 502Q380 574 353.5 614.5Q327 655 275 655Q217 655 192.5 600.5Q168 546 168 427V341Q195 372 230.5 387.5Q266 403 309 403Q395 403 450 348Q505 293 505 205ZM168 289 168 246Q168 130 194.5 77.5Q221 25 282 25Q332 25 357 66Q382 107 382 189V199Q382 281 358 320Q334 359 284 359Q251 359 220 340.5Q189 322 168 289Z" glyph-name="six.tlf" horiz-adv-x="540" unicode="" /><glyph d="M113 550 91 459H63V680H479V586Q391 471 352 341.5Q313 212 303 0H158Q180 161 243.5 290.5Q307 420 437 576H167Q134 576 126 572.5Q118 569 113 550Z" glyph-name="seven.tlf" horiz-adv-x="540" unicode="" /><glyph d="M343 387Q427 349 462 301.5Q497 254 497 183Q497 94 437.5 42Q378 -10 274 -10Q167 -10 105 36Q43 82 43 157Q43 212 79.5 255.5Q116 299 187 330Q118 365 87.5 408Q57 451 57 511Q57 589 114.5 639.5Q172 690 266 690Q362 690 420.5 646Q479 602 479 531Q479 486 446 450.5Q413 415 343 387ZM159 548Q159 505 183.5 475Q208 445 262 422L310 401Q341 422 355 452Q369 482 369 530Q369 592 342.5 623.5Q316 655 264 655Q214 655 186.5 627Q159 599 159 548ZM153 160Q153 94 184 59.5Q215 25 274 25Q333 25 364 56Q395 87 395 147Q395 197 370 229.5Q345 262 288 286L221 314Q188 292 170.5 252.5Q153 213 153 160Z" glyph-name="eight.tlf" horiz-adv-x="540" unicode="" /><glyph d="M500 375 500 312Q500 156 433.5 73Q367 -10 243 -10Q161 -10 109.5 30.5Q58 71 44 148L115 167Q124 96 154.5 60.5Q185 25 238 25Q307 25 339.5 81.5Q372 138 372 253V319Q345 288 309.5 272.5Q274 257 231 257Q145 257 90 312Q35 367 35 455V482Q35 577 96.5 633.5Q158 690 262 690Q376 690 438 608Q500 526 500 375ZM158 491 158 461Q158 379 182 340Q206 301 256 301Q289 301 320 319.5Q351 338 372 371V434Q372 550 345.5 602.5Q319 655 258 655Q208 655 183 614Q158 573 158 491Z" glyph-name="nine.tlf" horiz-adv-x="540" unicode="" /><glyph d="M286 517Q395 517 457.5 449.5Q520 382 520 264V244Q520 126 457.5 58Q395 -10 286 -10Q176 -10 114 57.5Q52 125 52 244V264Q52 382 114 449.5Q176 517 286 517ZM397 224 397 284Q397 385 370 433.5Q343 482 286 482Q229 482 202 433.5Q175 385 175 284V224Q175 123 202.5 74Q230 25 286 25Q343 25 370 73.5Q397 122 397 224Z" glyph-name="zero.posf" horiz-adv-x="572" unicode="" /><glyph d="M32 388 13 418L152 507H248V84Q248 51 251 44Q254 37 270 35L325 28V0H31V28L106 35Q122 37 125 43.5Q128 50 128 84V449Z" glyph-name="one.posf" horiz-adv-x="341" unicode="" /><glyph d="M415 124 432 195H460V0H67V70Q67 123 92 160Q117 197 180 230Q192 236 230.5 254Q269 272 288 285Q316 304 329 329Q342 354 342 387Q342 433 322 457.5Q302 482 264 482Q217 482 197.5 444.5Q178 407 186 332L66 348Q53 423 106.5 470Q160 517 265 517Q363 517 417.5 479Q472 441 472 377Q472 334 448 305Q424 276 371 255Q349 246 292.5 229.5Q236 213 209 200Q160 177 137.5 153.5Q115 130 109 98H361Q394 98 402 101.5Q410 105 415 124Z" glyph-name="two.posf" horiz-adv-x="531" unicode="" /><glyph d="M98 377 76 286H48V507H438V413L244 206Q351 201 405 151.5Q459 102 459 7Q459 -80 397.5 -131.5Q336 -183 230 -183Q145 -183 94.5 -143Q44 -103 30 -25L101 -6Q110 -78 139.5 -113Q169 -148 221 -148Q276 -148 302.5 -110.5Q329 -73 329 7Q329 89 301.5 130.5Q274 172 220 172H193V207L377 403H152Q119 403 111 399.5Q103 396 98 377Z" glyph-name="three.posf" horiz-adv-x="506" unicode="" /><glyph d="M421 -160 301 -183V0H21V35Q107 128 155 226Q203 324 245 507H390Q348 378 272.5 266.5Q197 155 70 35H301V188L421 206V35H498V0H421Z" glyph-name="four.posf" horiz-adv-x="509" unicode="" /><glyph d="M389 533 401 594H429V403H110L99 210Q127 229 162.5 239.5Q198 250 237 250Q339 250 400.5 192.5Q462 135 462 39Q462 -65 401 -124Q340 -183 229 -183Q146 -183 97 -143Q48 -103 34 -25L105 -6Q114 -78 142.5 -113Q171 -148 220 -148Q279 -148 305.5 -103.5Q332 -59 332 39Q332 131 304.5 173Q277 215 218 215Q183 215 149.5 201Q116 187 85 159L61 174L80 507H335Q369 507 377 510.5Q385 514 389 533Z" glyph-name="five.posf" horiz-adv-x="513" unicode="" /><glyph d="M518 205 518 195Q518 101 456.5 45.5Q395 -10 291 -10Q177 -10 115 72Q53 154 53 305V368Q53 526 113 608Q173 690 288 690Q385 690 446.5 640.5Q508 591 506 516L388 502Q393 574 366.5 614.5Q340 655 288 655Q230 655 205.5 600.5Q181 546 181 427V341Q208 372 243.5 387.5Q279 403 322 403Q408 403 463 348Q518 293 518 205ZM181 289 181 246Q181 130 207.5 77.5Q234 25 295 25Q345 25 370 66Q395 107 395 189V199Q395 281 371 320Q347 359 297 359Q264 359 233 340.5Q202 322 181 289Z" glyph-name="six.posf" horiz-adv-x="577" unicode="" /><glyph d="M78 377 56 286H28V507H444V413Q356 298 317 168.5Q278 39 268 -173H123Q145 -12 208.5 117.5Q272 247 402 403H132Q99 403 91 399.5Q83 396 78 377Z" glyph-name="seven.posf" horiz-adv-x="480" unicode="" /><glyph d="M327 387Q411 349 446 301.5Q481 254 481 183Q481 94 421.5 42Q362 -10 258 -10Q151 -10 89 36Q27 82 27 157Q27 212 63.5 255.5Q100 299 171 330Q102 365 71.5 408Q41 451 41 511Q41 589 98.5 639.5Q156 690 250 690Q346 690 404.5 646Q463 602 463 531Q463 486 430 450.5Q397 415 327 387ZM143 548Q143 505 167.5 475Q192 445 246 422L294 401Q325 422 339 452Q353 482 353 530Q353 592 326.5 623.5Q300 655 248 655Q198 655 170.5 627Q143 599 143 548ZM137 160Q137 94 168 59.5Q199 25 258 25Q317 25 348 56Q379 87 379 147Q379 197 354 229.5Q329 262 272 286L205 314Q172 292 154.5 252.5Q137 213 137 160Z" glyph-name="eight.posf" horiz-adv-x="528" unicode="" /><glyph d="M504 202 504 139Q504 -17 437.5 -100Q371 -183 247 -183Q165 -183 113.5 -142.5Q62 -102 48 -25L119 -6Q128 -77 158.5 -112.5Q189 -148 242 -148Q311 -148 343.5 -91.5Q376 -35 376 80V146Q349 115 313.5 99.5Q278 84 235 84Q149 84 94 139Q39 194 39 282V309Q39 404 100.5 460.5Q162 517 266 517Q380 517 442 435Q504 353 504 202ZM162 318 162 288Q162 206 186 167Q210 128 260 128Q293 128 324 146.5Q355 165 376 198V261Q376 377 349.5 429.5Q323 482 262 482Q212 482 187 441Q162 400 162 318Z" glyph-name="nine.posf" horiz-adv-x="569" unicode="" /><glyph d="M340 528Q340 458 295.5 412Q251 366 183 366Q115 366 70.5 412Q26 458 26 528Q26 598 70.5 644Q115 690 183 690Q251 690 295.5 644Q340 598 340 528ZM65 528Q65 472 98 436.5Q131 401 183 401Q235 401 268 436.5Q301 472 301 528Q301 584 268 619.5Q235 655 183 655Q131 655 98 619.5Q65 584 65 528Z" glyph-name="degree" horiz-adv-x="366" unicode="°" /><glyph d="M178 685Q243 685 283.5 645.5Q324 606 324 546V515Q324 454 283.5 414.5Q243 375 178 375Q113 375 73 414.5Q33 454 33 515V546Q33 606 73 645.5Q113 685 178 685ZM156 17 531 680L560 663L185 0ZM242 500 242 561Q242 606 225 632Q208 658 178 658Q148 658 131 632Q114 606 114 561V500Q114 454 131 428.5Q148 403 178 403Q208 403 225 428.5Q242 454 242 500ZM546 305Q611 305 651.5 265.5Q692 226 692 166V135Q692 74 651.5 34.5Q611 -5 546 -5Q481 -5 441 34.5Q401 74 401 135V166Q401 226 441 265.5Q481 305 546 305ZM610 120 610 181Q610 226 593 252Q576 278 546 278Q516 278 499 252Q482 226 482 181V120Q482 74 499 48.5Q516 23 546 23Q576 23 593 48.5Q610 74 610 120Z" glyph-name="percent" horiz-adv-x="725" unicode="%" /><glyph d="M178 685Q243 685 283.5 645.5Q324 606 324 546V515Q324 454 283.5 414.5Q243 375 178 375Q113 375 73 414.5Q33 454 33 515V546Q33 606 73 645.5Q113 685 178 685ZM156 17 531 680L560 663L185 0ZM242 500 242 561Q242 606 225 632Q208 658 178 658Q148 658 131 632Q114 606 114 561V500Q114 454 131 428.5Q148 403 178 403Q208 403 225 428.5Q242 454 242 500ZM546 305Q611 305 651.5 265.5Q692 226 692 166V135Q692 74 651.5 34.5Q611 -5 546 -5Q481 -5 441 34.5Q401 74 401 135V166Q401 226 441 265.5Q481 305 546 305ZM893 305Q958 305 998.5 265.5Q1039 226 1039 166V135Q1039 74 998.5 34.5Q958 -5 893 -5Q828 -5 788 34.5Q748 74 748 135V166Q748 226 788 265.5Q828 305 893 305ZM610 120 610 181Q610 226 593 252Q576 278 546 278Q516 278 499 252Q482 226 482 181V120Q482 74 499 48.5Q516 23 546 23Q576 23 593 48.5Q610 74 610 120ZM957 120 957 181Q957 226 940 252Q923 278 893 278Q863 278 846 252Q829 226 829 181V120Q829 74 846 48.5Q863 23 893 23Q923 23 940 48.5Q957 74 957 120Z" glyph-name="perthousand" horiz-adv-x="1072" unicode="‰" /><glyph d="M-176 17 199 680L228 663L-147 0Z" glyph-name="fraction" horiz-adv-x="51" unicode="⁄" /><glyph d="M-176 17 199 680L228 663L-147 0Z" glyph-name="uni2215" horiz-adv-x="51" unicode="∕" /><glyph d="M168 790Q231 790 267.5 747.5Q304 705 304 631V600Q304 525 268 482.5Q232 440 168 440Q105 440 69 482.5Q33 525 33 600V631Q33 705 69 747.5Q105 790 168 790ZM222 565 222 666Q222 715 209 739Q196 763 168 763Q140 763 127 739Q114 715 114 666V565Q114 515 127 491.5Q140 468 168 468Q196 468 209 491.5Q222 515 222 565Z" glyph-name="zerosuperior" horiz-adv-x="337" unicode="⁰" /><glyph d="M50 718 35 741L104 785H167V497Q167 481 168.5 477.5Q170 474 178 473L206 469V445H44V469L81 473Q89 474 90.5 477Q92 480 92 497V745Z" glyph-name="onesuperior" horiz-adv-x="240" unicode="¹" /><glyph d="M221 520 229 566H253V445H28V480Q28 517 43.5 543Q59 569 100 595Q132 614 140.5 621Q149 628 155 634Q167 647 173 662.5Q179 678 179 697Q179 729 169.5 746Q160 763 141 763Q117 763 107 741Q97 719 102 676L27 684Q19 730 50.5 760Q82 790 141 790Q197 790 228 763.5Q259 737 259 692Q259 665 247 645Q235 625 208 610Q192 601 159 588Q126 575 114 569Q93 558 80.5 542.5Q68 527 63 507H194Q211 507 215 509Q219 511 221 520Z" glyph-name="twosuperior" horiz-adv-x="299" unicode="²" /><glyph d="M177 530Q177 569 161.5 589Q146 609 116 609H92V631H116Q145 631 159.5 649.5Q174 668 174 703Q174 735 164 751.5Q154 768 135 768Q111 768 101.5 745Q92 722 97 679L22 687Q14 732 44.5 761Q75 790 135 790Q191 790 222.5 766.5Q254 743 254 703Q254 672 237.5 651Q221 630 188 620Q223 610 240 587.5Q257 565 257 530Q257 490 223.5 465Q190 440 133 440Q83 440 56 459.5Q29 479 22 519L58 529Q62 496 78.5 479.5Q95 463 123 463Q151 463 164 479Q177 495 177 530Z" glyph-name="threesuperior" horiz-adv-x="293" unicode="³" /><glyph d="M145 493 145 533H4V556Q50 605 74 654Q98 703 116 785H203Q189 741 160.5 699.5Q132 658 33 556H145V627L220 636V556H258V533H220V493Q223 487 225.5 481Q228 475 231 469L258 465V445H96V465L134 469Q142 470 143.5 473.5Q145 477 145 493Z" glyph-name="foursuperior" horiz-adv-x="271" unicode="⁴" /><glyph d="M217 798 223 829H237V723H64L59 636Q73 646 91 651.5Q109 657 128 657Q185 657 219.5 628Q254 599 254 551Q254 499 221.5 469.5Q189 440 130 440Q91 440 64.5 458Q38 476 29 510L64 523Q70 492 83 478Q96 464 117 464Q147 464 160.5 484.5Q174 505 174 551Q174 594 160.5 613.5Q147 633 119 633Q102 633 85 626Q68 619 52 605L40 613L50 785H190Q207 785 211 787Q215 789 217 798Z" glyph-name="fivesuperior" horiz-adv-x="281" unicode="⁵" /><glyph d="M289 549 289 544Q289 496 255.5 468Q222 440 166 440Q105 440 72 481Q39 522 39 598V629Q39 708 71 749Q103 790 165 790Q222 790 255 763Q288 736 282 697L207 689Q211 727 200 747.5Q189 768 166 768Q138 768 127 742Q116 716 116 658V625Q128 637 143.5 643Q159 649 181 649Q228 649 258.5 621Q289 593 289 549ZM116 592 116 567Q116 512 128 487.5Q140 463 168 463Q189 463 199.5 482.5Q210 502 210 541V546Q210 585 199 603.5Q188 622 164 622Q149 622 137.5 614.5Q126 607 116 592Z" glyph-name="sixsuperior" horiz-adv-x="321" unicode="⁶" /><glyph d="M71 710 63 665H39V785H258V728Q214 671 195 609Q176 547 172 445H84Q94 515 125.5 575.5Q157 636 230 723H98Q81 723 77 721Q73 719 71 710Z" glyph-name="sevensuperior" horiz-adv-x="286" unicode="⁷" /><glyph d="M210 639Q247 619 263 594.5Q279 570 279 537Q279 493 248 466.5Q217 440 164 440Q108 440 75.5 463Q43 486 43 524Q43 550 60 571.5Q77 593 111 610Q78 628 63 650Q48 672 48 701Q48 740 78 765Q108 790 157 790Q207 790 238.5 767.5Q270 745 270 710Q270 689 255 671Q240 653 210 639ZM114 720Q114 701 124.5 688Q135 675 158 664L181 653Q191 663 195.5 676.5Q200 690 200 708Q200 735 188.5 749Q177 763 156 763Q136 763 125 751.5Q114 740 114 720ZM113 525Q113 498 126 483Q139 468 164 468Q187 468 200 481Q213 494 213 516Q213 536 201 553Q189 570 167 581L138 595Q126 583 119.5 565Q113 547 113 525Z" glyph-name="eightsuperior" horiz-adv-x="320" unicode="⁸" /><glyph d="M271 633 271 601Q271 523 235.5 481.5Q200 440 135 440Q93 440 66 458Q39 476 29 510L63 525Q70 495 88 479Q106 463 132 463Q164 463 178.5 490Q193 517 193 572V592Q181 580 165.5 574.5Q150 569 130 569Q81 569 51.5 598Q22 627 22 674V686Q22 734 54.5 762Q87 790 141 790Q204 790 237.5 749.5Q271 709 271 633ZM100 691 100 676Q100 634 111.5 615Q123 596 147 596Q161 596 172.5 603Q184 610 193 624V662Q193 718 181 743Q169 768 142 768Q121 768 110.5 748.5Q100 729 100 691Z" glyph-name="ninesuperior" horiz-adv-x="301" unicode="⁹" /><glyph d="M168 240Q231 240 267.5 197.5Q304 155 304 81V50Q304 -25 268 -67.5Q232 -110 168 -110Q105 -110 69 -67.5Q33 -25 33 50V81Q33 155 69 197.5Q105 240 168 240ZM222 15 222 116Q222 165 209 189Q196 213 168 213Q140 213 127 189Q114 165 114 116V15Q114 -35 127 -58.5Q140 -82 168 -82Q196 -82 209 -58.5Q222 -35 222 15Z" glyph-name="zeroinferior" horiz-adv-x="337" unicode="₀" /><glyph d="M50 168 35 191L104 235H167V-53Q167 -69 168.5 -72.5Q170 -76 178 -77L206 -81V-105H44V-81L81 -77Q89 -76 90.5 -73Q92 -70 92 -53V195Z" glyph-name="oneinferior" horiz-adv-x="240" unicode="₁" /><glyph d="M221 -30 229 16H253V-105H28V-70Q28 -33 43.5 -7Q59 19 100 45Q132 64 140.5 71Q149 78 155 84Q167 97 173 112.5Q179 128 179 147Q179 179 169.5 196Q160 213 141 213Q117 213 107 191Q97 169 102 126L27 134Q19 180 50.5 210Q82 240 141 240Q197 240 228 213.5Q259 187 259 142Q259 115 247 95Q235 75 208 60Q192 51 159 38Q126 25 114 19Q93 8 80.5 -7.5Q68 -23 63 -43H194Q211 -43 215 -41Q219 -39 221 -30Z" glyph-name="twoinferior" horiz-adv-x="299" unicode="₂" /><glyph d="M177 -20Q177 19 161.5 39Q146 59 116 59H92V81H116Q145 81 159.5 99.5Q174 118 174 153Q174 185 164 201.5Q154 218 135 218Q111 218 101.5 195Q92 172 97 129L22 137Q14 182 44.5 211Q75 240 135 240Q191 240 222.5 216.5Q254 193 254 153Q254 122 237.5 101Q221 80 188 70Q223 60 240 37.5Q257 15 257 -20Q257 -60 223.5 -85Q190 -110 133 -110Q83 -110 56 -90.5Q29 -71 22 -31L58 -21Q62 -54 78.5 -70.5Q95 -87 123 -87Q151 -87 164 -71Q177 -55 177 -20Z" glyph-name="threeinferior" horiz-adv-x="293" unicode="₃" /><glyph d="M145 -57 145 -17H4V6Q50 55 74 104Q98 153 116 235H203Q189 191 160.5 149.5Q132 108 33 6H145V77L220 86V6H258V-17H220V-57Q223 -63 225.5 -69Q228 -75 231 -81L258 -85V-105H96V-85L134 -81Q142 -80 143.5 -76.5Q145 -73 145 -57Z" glyph-name="fourinferior" horiz-adv-x="271" unicode="₄" /><glyph d="M217 248 223 279H237V173H64L59 86Q73 96 91 101.5Q109 107 128 107Q185 107 219.5 78Q254 49 254 1Q254 -51 221.5 -80.5Q189 -110 130 -110Q91 -110 64.5 -92Q38 -74 29 -40L64 -27Q70 -58 83 -72Q96 -86 117 -86Q147 -86 160.5 -65.5Q174 -45 174 1Q174 44 160.5 63.5Q147 83 119 83Q102 83 85 76Q68 69 52 55L40 63L50 235H190Q207 235 211 237Q215 239 217 248Z" glyph-name="fiveinferior" horiz-adv-x="281" unicode="₅" /><glyph d="M289 -1 289 -6Q289 -54 255.5 -82Q222 -110 166 -110Q105 -110 72 -69Q39 -28 39 48V79Q39 158 71 199Q103 240 165 240Q222 240 255 213Q288 186 282 147L207 139Q211 177 200 197.5Q189 218 166 218Q138 218 127 192Q116 166 116 108V75Q128 87 143.5 93Q159 99 181 99Q228 99 258.5 71Q289 43 289 -1ZM116 42 116 17Q116 -38 128 -62.5Q140 -87 168 -87Q189 -87 199.5 -67.5Q210 -48 210 -9V-4Q210 35 199 53.5Q188 72 164 72Q149 72 137.5 64.5Q126 57 116 42Z" glyph-name="sixinferior" horiz-adv-x="321" unicode="₆" /><glyph d="M71 160 63 115H39V235H258V178Q214 121 195 59Q176 -3 172 -105H84Q94 -35 125.5 25.5Q157 86 230 173H98Q81 173 77 171Q73 169 71 160Z" glyph-name="seveninferior" horiz-adv-x="286" unicode="₇" /><glyph d="M210 89Q247 69 263 44.5Q279 20 279 -13Q279 -57 248 -83.5Q217 -110 164 -110Q108 -110 75.5 -87Q43 -64 43 -26Q43 0 60 21.5Q77 43 111 60Q78 78 63 100Q48 122 48 151Q48 190 78 215Q108 240 157 240Q207 240 238.5 217.5Q270 195 270 160Q270 139 255 121Q240 103 210 89ZM114 170Q114 151 124.5 138Q135 125 158 114L181 103Q191 113 195.5 126.5Q200 140 200 158Q200 185 188.5 199Q177 213 156 213Q136 213 125 201.5Q114 190 114 170ZM113 -25Q113 -52 126 -67Q139 -82 164 -82Q187 -82 200 -69Q213 -56 213 -34Q213 -14 201 3Q189 20 167 31L138 45Q126 33 119.5 15Q113 -3 113 -25Z" glyph-name="eightinferior" horiz-adv-x="320" unicode="₈" /><glyph d="M271 83 271 51Q271 -27 235.5 -68.5Q200 -110 135 -110Q93 -110 66 -92Q39 -74 29 -40L63 -25Q70 -55 88 -71Q106 -87 132 -87Q164 -87 178.5 -60Q193 -33 193 22V42Q181 30 165.5 24.5Q150 19 130 19Q81 19 51.5 48Q22 77 22 124V136Q22 184 54.5 212Q87 240 141 240Q204 240 237.5 199.5Q271 159 271 83ZM100 141 100 126Q100 84 111.5 65Q123 46 147 46Q161 46 172.5 53Q184 60 193 74V112Q193 168 181 193Q169 218 142 218Q121 218 110.5 198.5Q100 179 100 141Z" glyph-name="nineinferior" horiz-adv-x="301" unicode="₉" /><glyph d="M168 240Q231 240 267.5 197.5Q304 155 304 81V50Q304 -25 268 -67.5Q232 -110 168 -110Q105 -110 69 -67.5Q33 -25 33 50V81Q33 155 69 197.5Q105 240 168 240ZM222 15 222 116Q222 165 209 189Q196 213 168 213Q140 213 127 189Q114 165 114 116V15Q114 -35 127 -58.5Q140 -82 168 -82Q196 -82 209 -58.5Q222 -35 222 15Z" glyph-name="zero.numerator" horiz-adv-x="337" unicode="" /><glyph d="M50 168 35 191L104 235H167V-53Q167 -69 168.5 -72.5Q170 -76 178 -77L206 -81V-105H44V-81L81 -77Q89 -76 90.5 -73Q92 -70 92 -53V195Z" glyph-name="one.numerator" horiz-adv-x="240" unicode="" /><glyph d="M221 -30 229 16H253V-105H28V-70Q28 -33 43.5 -7Q59 19 100 45Q132 64 140.5 71Q149 78 155 84Q167 97 173 112.5Q179 128 179 147Q179 179 169.5 196Q160 213 141 213Q117 213 107 191Q97 169 102 126L27 134Q19 180 50.5 210Q82 240 141 240Q197 240 228 213.5Q259 187 259 142Q259 115 247 95Q235 75 208 60Q192 51 159 38Q126 25 114 19Q93 8 80.5 -7.5Q68 -23 63 -43H194Q211 -43 215 -41Q219 -39 221 -30Z" glyph-name="two.numerator" horiz-adv-x="299" unicode="" /><glyph d="M177 -20Q177 19 161.5 39Q146 59 116 59H92V81H116Q145 81 159.5 99.5Q174 118 174 153Q174 185 164 201.5Q154 218 135 218Q111 218 101.5 195Q92 172 97 129L22 137Q14 182 44.5 211Q75 240 135 240Q191 240 222.5 216.5Q254 193 254 153Q254 122 237.5 101Q221 80 188 70Q223 60 240 37.5Q257 15 257 -20Q257 -60 223.5 -85Q190 -110 133 -110Q83 -110 56 -90.5Q29 -71 22 -31L58 -21Q62 -54 78.5 -70.5Q95 -87 123 -87Q151 -87 164 -71Q177 -55 177 -20Z" glyph-name="three.numerator" horiz-adv-x="293" unicode="" /><glyph d="M145 -57 145 -17H4V6Q50 55 74 104Q98 153 116 235H203Q189 191 160.5 149.5Q132 108 33 6H145V77L220 86V6H258V-17H220V-57Q223 -63 225.5 -69Q228 -75 231 -81L258 -85V-105H96V-85L134 -81Q142 -80 143.5 -76.5Q145 -73 145 -57Z" glyph-name="four.numerator" horiz-adv-x="271" unicode="" /><glyph d="M217 248 223 279H237V173H64L59 86Q73 96 91 101.5Q109 107 128 107Q185 107 219.5 78Q254 49 254 1Q254 -51 221.5 -80.5Q189 -110 130 -110Q91 -110 64.5 -92Q38 -74 29 -40L64 -27Q70 -58 83 -72Q96 -86 117 -86Q147 -86 160.5 -65.5Q174 -45 174 1Q174 44 160.5 63.5Q147 83 119 83Q102 83 85 76Q68 69 52 55L40 63L50 235H190Q207 235 211 237Q215 239 217 248Z" glyph-name="five.numerator" horiz-adv-x="281" unicode="" /><glyph d="M289 -1 289 -6Q289 -54 255.5 -82Q222 -110 166 -110Q105 -110 72 -69Q39 -28 39 48V79Q39 158 71 199Q103 240 165 240Q222 240 255 213Q288 186 282 147L207 139Q211 177 200 197.5Q189 218 166 218Q138 218 127 192Q116 166 116 108V75Q128 87 143.5 93Q159 99 181 99Q228 99 258.5 71Q289 43 289 -1ZM116 42 116 17Q116 -38 128 -62.5Q140 -87 168 -87Q189 -87 199.5 -67.5Q210 -48 210 -9V-4Q210 35 199 53.5Q188 72 164 72Q149 72 137.5 64.5Q126 57 116 42Z" glyph-name="six.numerator" horiz-adv-x="321" unicode="" /><glyph d="M71 160 63 115H39V235H258V178Q214 121 195 59Q176 -3 172 -105H84Q94 -35 125.5 25.5Q157 86 230 173H98Q81 173 77 171Q73 169 71 160Z" glyph-name="seven.numerator" horiz-adv-x="286" unicode="" /><glyph d="M210 89Q247 69 263 44.5Q279 20 279 -13Q279 -57 248 -83.5Q217 -110 164 -110Q108 -110 75.5 -87Q43 -64 43 -26Q43 0 60 21.5Q77 43 111 60Q78 78 63 100Q48 122 48 151Q48 190 78 215Q108 240 157 240Q207 240 238.5 217.5Q270 195 270 160Q270 139 255 121Q240 103 210 89ZM114 170Q114 151 124.5 138Q135 125 158 114L181 103Q191 113 195.5 126.5Q200 140 200 158Q200 185 188.5 199Q177 213 156 213Q136 213 125 201.5Q114 190 114 170ZM113 -25Q113 -52 126 -67Q139 -82 164 -82Q187 -82 200 -69Q213 -56 213 -34Q213 -14 201 3Q189 20 167 31L138 45Q126 33 119.5 15Q113 -3 113 -25Z" glyph-name="eight.numerator" horiz-adv-x="320" unicode="" /><glyph d="M271 83 271 51Q271 -27 235.5 -68.5Q200 -110 135 -110Q93 -110 66 -92Q39 -74 29 -40L63 -25Q70 -55 88 -71Q106 -87 132 -87Q164 -87 178.5 -60Q193 -33 193 22V42Q181 30 165.5 24.5Q150 19 130 19Q81 19 51.5 48Q22 77 22 124V136Q22 184 54.5 212Q87 240 141 240Q204 240 237.5 199.5Q271 159 271 83ZM100 141 100 126Q100 84 111.5 65Q123 46 147 46Q161 46 172.5 53Q184 60 193 74V112Q193 168 181 193Q169 218 142 218Q121 218 110.5 198.5Q100 179 100 141Z" glyph-name="nine.numerator" horiz-adv-x="301" unicode="" /><glyph d="M168 345Q231 345 267.5 302.5Q304 260 304 186V155Q304 80 268 37.5Q232 -5 168 -5Q105 -5 69 37.5Q33 80 33 155V186Q33 260 69 302.5Q105 345 168 345ZM222 120 222 221Q222 270 209 294Q196 318 168 318Q140 318 127 294Q114 270 114 221V120Q114 70 127 46.5Q140 23 168 23Q196 23 209 46.5Q222 70 222 120Z" glyph-name="zero.denominator" horiz-adv-x="337" unicode="" /><glyph d="M50 273 35 296L104 340H167V52Q167 36 168.5 32.5Q170 29 178 28L206 24V0H44V24L81 28Q89 29 90.5 32Q92 35 92 52V300Z" glyph-name="one.denominator" horiz-adv-x="240" unicode="" /><glyph d="M221 75 229 121H253V0H28V35Q28 72 43.5 98Q59 124 100 150Q132 169 140.5 176Q149 183 155 189Q167 202 173 217.5Q179 233 179 252Q179 284 169.5 301Q160 318 141 318Q117 318 107 296Q97 274 102 231L27 239Q19 285 50.5 315Q82 345 141 345Q197 345 228 318.5Q259 292 259 247Q259 220 247 200Q235 180 208 165Q192 156 159 143Q126 130 114 124Q93 113 80.5 97.5Q68 82 63 62H194Q211 62 215 64Q219 66 221 75Z" glyph-name="two.denominator" horiz-adv-x="299" unicode="" /><glyph d="M177 85Q177 124 161.5 144Q146 164 116 164H92V186H116Q145 186 159.5 204.5Q174 223 174 258Q174 290 164 306.5Q154 323 135 323Q111 323 101.5 300Q92 277 97 234L22 242Q14 287 44.5 316Q75 345 135 345Q191 345 222.5 321.5Q254 298 254 258Q254 227 237.5 206Q221 185 188 175Q223 165 240 142.5Q257 120 257 85Q257 45 223.5 20Q190 -5 133 -5Q83 -5 56 14.5Q29 34 22 74L58 84Q62 51 78.5 34.5Q95 18 123 18Q151 18 164 34Q177 50 177 85Z" glyph-name="three.denominator" horiz-adv-x="293" unicode="" /><glyph d="M145 48 145 88H4V111Q50 160 74 209Q98 258 116 340H203Q189 296 160.5 254.5Q132 213 33 111H145V182L220 191V111H258V88H220V48Q223 42 225.5 36Q228 30 231 24L258 20V0H96V20L134 24Q142 25 143.5 28.5Q145 32 145 48Z" glyph-name="four.denominator" horiz-adv-x="271" unicode="" /><glyph d="M217 353 223 384H237V278H64L59 191Q73 201 91 206.5Q109 212 128 212Q185 212 219.5 183Q254 154 254 106Q254 54 221.5 24.5Q189 -5 130 -5Q91 -5 64.5 13Q38 31 29 65L64 78Q70 47 83 33Q96 19 117 19Q147 19 160.5 39.5Q174 60 174 106Q174 149 160.5 168.5Q147 188 119 188Q102 188 85 181Q68 174 52 160L40 168L50 340H190Q207 340 211 342Q215 344 217 353Z" glyph-name="five.denominator" horiz-adv-x="281" unicode="" /><glyph d="M289 104 289 99Q289 51 255.5 23Q222 -5 166 -5Q105 -5 72 36Q39 77 39 153V184Q39 263 71 304Q103 345 165 345Q222 345 255 318Q288 291 282 252L207 244Q211 282 200 302.5Q189 323 166 323Q138 323 127 297Q116 271 116 213V180Q128 192 143.5 198Q159 204 181 204Q228 204 258.5 176Q289 148 289 104ZM116 147 116 122Q116 67 128 42.5Q140 18 168 18Q189 18 199.5 37.5Q210 57 210 96V101Q210 140 199 158.5Q188 177 164 177Q149 177 137.5 169.5Q126 162 116 147Z" glyph-name="six.denominator" horiz-adv-x="321" unicode="" /><glyph d="M71 265 63 220H39V340H258V283Q214 226 195 164Q176 102 172 0H84Q94 70 125.5 130.5Q157 191 230 278H98Q81 278 77 276Q73 274 71 265Z" glyph-name="seven.denominator" horiz-adv-x="286" unicode="" /><glyph d="M210 194Q247 174 263 149.5Q279 125 279 92Q279 48 248 21.5Q217 -5 164 -5Q108 -5 75.5 18Q43 41 43 79Q43 105 60 126.5Q77 148 111 165Q78 183 63 205Q48 227 48 256Q48 295 78 320Q108 345 157 345Q207 345 238.5 322.5Q270 300 270 265Q270 244 255 226Q240 208 210 194ZM114 275Q114 256 124.5 243Q135 230 158 219L181 208Q191 218 195.5 231.5Q200 245 200 263Q200 290 188.5 304Q177 318 156 318Q136 318 125 306.5Q114 295 114 275ZM113 80Q113 53 126 38Q139 23 164 23Q187 23 200 36Q213 49 213 71Q213 91 201 108Q189 125 167 136L138 150Q126 138 119.5 120Q113 102 113 80Z" glyph-name="eight.denominator" horiz-adv-x="320" unicode="" /><glyph d="M271 188 271 156Q271 78 235.5 36.5Q200 -5 135 -5Q93 -5 66 13Q39 31 29 65L63 80Q70 50 88 34Q106 18 132 18Q164 18 178.5 45Q193 72 193 127V147Q181 135 165.5 129.5Q150 124 130 124Q81 124 51.5 153Q22 182 22 229V241Q22 289 54.5 317Q87 345 141 345Q204 345 237.5 304.5Q271 264 271 188ZM100 246 100 231Q100 189 111.5 170Q123 151 147 151Q161 151 172.5 158Q184 165 193 179V217Q193 273 181 298Q169 323 142 323Q121 323 110.5 303.5Q100 284 100 246Z" glyph-name="nine.denominator" horiz-adv-x="301" unicode="" /><glyph d="M50 613 35 636L104 680H167V392Q167 376 168.5 372.5Q170 369 178 368L206 364V340H44V364L81 368Q89 369 90.5 372Q92 375 92 392V640ZM84 17 459 680L488 663L113 0ZM532 75 540 121H564V0H339V35Q339 72 354.5 98Q370 124 411 150Q443 169 451.5 176Q460 183 466 189Q478 202 484 217.5Q490 233 490 252Q490 284 480.5 301Q471 318 452 318Q428 318 418 296Q408 274 413 231L338 239Q330 285 361.5 315Q393 345 452 345Q508 345 539 318.5Q570 292 570 247Q570 220 558 200Q546 180 519 165Q503 156 470 143Q437 130 425 124Q404 113 391.5 97.5Q379 82 374 62H505Q522 62 526 64Q530 66 532 75Z" glyph-name="onehalf" horiz-adv-x="610" unicode="½" /><glyph d="M50 613 35 636L104 680H167V392Q167 376 168.5 372.5Q170 369 178 368L206 364V340H44V364L81 368Q89 369 90.5 372Q92 375 92 392V640ZM84 17 459 680L488 663L113 0ZM488 85Q488 124 472.5 144Q457 164 427 164H403V186H427Q456 186 470.5 204.5Q485 223 485 258Q485 290 475 306.5Q465 323 446 323Q422 323 412.5 300Q403 277 408 234L333 242Q325 287 355.5 316Q386 345 446 345Q502 345 533.5 321.5Q565 298 565 258Q565 227 548.5 206Q532 185 499 175Q534 165 551 142.5Q568 120 568 85Q568 45 534.5 20Q501 -5 444 -5Q394 -5 367 14.5Q340 34 333 74L369 84Q373 51 389.5 34.5Q406 18 434 18Q462 18 475 34Q488 50 488 85Z" glyph-name="onethird" horiz-adv-x="604" unicode="⅓" /><glyph d="M50 613 35 636L104 680H167V392Q167 376 168.5 372.5Q170 369 178 368L206 364V340H44V364L81 368Q89 369 90.5 372Q92 375 92 392V640ZM84 17 459 680L488 663L113 0ZM456 48 456 88H315V111Q361 160 385 209Q409 258 427 340H514Q500 296 471.5 254.5Q443 213 344 111H456V182L531 191V111H569V88H531V48Q534 42 536.5 36Q539 30 542 24L569 20V0H407V20L445 24Q453 25 454.5 28.5Q456 32 456 48Z" glyph-name="onequarter" horiz-adv-x="572" unicode="¼" /><glyph d="M50 613 35 636L104 680H167V392Q167 376 168.5 372.5Q170 369 178 368L206 364V340H44V364L81 368Q89 369 90.5 372Q92 375 92 392V640ZM84 17 459 680L488 663L113 0ZM528 353 534 384H548V278H375L370 191Q384 201 402 206.5Q420 212 439 212Q496 212 530.5 183Q565 154 565 106Q565 54 532.5 24.5Q500 -5 441 -5Q402 -5 375.5 13Q349 31 340 65L375 78Q381 47 394 33Q407 19 428 19Q458 19 471.5 39.5Q485 60 485 106Q485 149 471.5 168.5Q458 188 430 188Q413 188 396 181Q379 174 363 160L351 168L361 340H501Q518 340 522 342Q526 344 528 353Z" glyph-name="onefifth" horiz-adv-x="592" unicode="" /><glyph d="M50 613 35 636L104 680H167V392Q167 376 168.5 372.5Q170 369 178 368L206 364V340H44V364L81 368Q89 369 90.5 372Q92 375 92 392V640ZM84 17 459 680L488 663L113 0ZM600 104 600 99Q600 51 566.5 23Q533 -5 477 -5Q416 -5 383 36Q350 77 350 153V184Q350 263 382 304Q414 345 476 345Q533 345 566 318Q599 291 593 252L518 244Q522 282 511 302.5Q500 323 477 323Q449 323 438 297Q427 271 427 213V180Q439 192 454.5 198Q470 204 492 204Q539 204 569.5 176Q600 148 600 104ZM427 147 427 122Q427 67 439 42.5Q451 18 479 18Q500 18 510.5 37.5Q521 57 521 96V101Q521 140 510 158.5Q499 177 475 177Q460 177 448.5 169.5Q437 162 427 147Z" glyph-name="onesixth" horiz-adv-x="632" unicode="" /><glyph d="M50 613 35 636L104 680H167V392Q167 376 168.5 372.5Q170 369 178 368L206 364V340H44V364L81 368Q89 369 90.5 372Q92 375 92 392V640ZM84 17 459 680L488 663L113 0ZM382 265 374 220H350V340H569V283Q525 226 506 164Q487 102 483 0H395Q405 70 436.5 130.5Q468 191 541 278H409Q392 278 388 276Q384 274 382 265Z" glyph-name="oneseventh" horiz-adv-x="597" unicode="" /></font>
</defs>
</svg>
