<?xml version="1.0" standalone="no"?>
<!DOCTYPE svg
  PUBLIC '-//W3C//DTD SVG 1.1//EN'
  'http://www.w3.org/Graphics/SVG/1.1/DTD/svg11.dtd'><svg version="1.1" xmlns="http://www.w3.org/2000/svg"><defs><font horiz-adv-x="0" id="font"><font-face ascent="650" bbox="-239 -248 1397 976" cap-height="680" descent="-200" font-family="Inria Serif" font-stretch="normal" font-style="normal" font-weight="680" units-per-em="1000" x-height="507" /><missing-glyph d="M512 0 54 0L174 680H632ZM288 645 180 35H398L506 645Z" horiz-adv-x="656" /><glyph d="" glyph-name=".null" horiz-adv-x="0" unicode="" /><glyph d="" glyph-name="CR" horiz-adv-x="0" unicode="" /><glyph d="" glyph-name="space" horiz-adv-x="224" unicode=" " /><glyph d="" glyph-name="uni00A0" horiz-adv-x="224" unicode=" " /><glyph d="M97 35 151 28L146 0H-51L-46 28L10 35Q27 37 33 43.5Q39 50 55 84L351 680H437L524 84Q528 53 532 45Q536 37 551 35L605 28L600 0H328L333 28L389 35Q406 37 408 44Q410 51 406 84L389 208H160L98 84Q82 52 81.5 44.5Q81 37 97 35ZM341 571 177 243H385Z" glyph-name="A" horiz-adv-x="639" unicode="A" /><glyph d="M167 645 113 652L118 680H389Q493 680 543.5 636Q594 592 581 517L576 488Q567 434 528.5 398.5Q490 363 427 349Q498 335 531 292.5Q564 250 553 187L548 158Q535 81 473 40.5Q411 0 305 0H-2L3 28L59 35Q76 37 80 44Q84 51 90 84L180 596Q186 629 184.5 636Q183 643 167 645ZM388 645 309 645L259 365H338Q382 365 409 394Q436 423 447 483L453 515Q465 580 449 612.5Q433 645 388 645ZM357 330 253 330L201 35H305Q352 35 380 66Q408 97 420 160L426 193Q438 261 420.5 295.5Q403 330 357 330Z" glyph-name="B" horiz-adv-x="616" unicode="B" /><glyph d="M318 -10Q187 -10 121.5 82.5Q56 175 79 324L88 382Q110 526 191 608Q272 690 393 690Q501 690 558.5 627Q616 564 594 477L472 448Q499 547 477.5 601Q456 655 391 655Q326 655 283.5 598.5Q241 542 224 432L199 274Q179 147 209 86Q239 25 320 25Q374 25 410.5 60.5Q447 96 467 167L538 143Q505 67 449.5 28.5Q394 -10 318 -10Z" glyph-name="C" horiz-adv-x="597" unicode="C" /><glyph d="M167 645 113 652L118 680H395Q526 680 586 592.5Q646 505 621 357L612 304Q588 159 505 79.5Q422 0 295 0H-2L3 28L59 35Q76 37 80 44Q84 51 90 84L180 596Q186 629 184.5 636Q183 643 167 645ZM396 645 309 645L201 35H293Q365 35 412 92Q459 149 477 259L502 412Q522 533 496 589Q470 645 396 645Z" glyph-name="D" horiz-adv-x="669" unicode="D" /><glyph d="M495 172 523 172L493 0H-2L3 28L59 35Q76 37 80 44Q84 51 90 84L180 596Q186 629 184.5 636Q183 643 167 645L113 652L118 680H603L573 508H545L532 619Q530 639 522.5 642Q515 645 483 645H309L259 361H373Q405 361 413.5 364Q422 367 431 387L468 468H496L452 219H424L416 300Q414 319 406.5 322.5Q399 326 366 326H253L201 35H385Q418 35 426.5 38.5Q435 42 444 61Z" glyph-name="E" horiz-adv-x="603" unicode="E" /><glyph d="M223 35 297 28L292 0H-2L3 28L59 35Q76 37 80 44.5Q84 52 90 84L180 596Q186 629 184.5 636Q183 643 167 645L113 652L118 680H592L562 508H534L521 619Q519 639 511.5 642Q504 645 472 645H308L257 355H361Q393 355 401.5 358Q410 361 419 381L455 462H483L440 213H412L404 294Q402 313 394.5 316.5Q387 320 354 320H251L210 84Q204 51 206 44Q208 37 223 35Z" glyph-name="F" horiz-adv-x="554" unicode="F" /><glyph d="M526 12 499 12Q486 28 474.5 39Q463 50 451 57Q424 25 384.5 7.5Q345 -10 301 -10Q179 -10 117.5 83Q56 176 79 324L88 382Q110 526 193 608Q276 690 400 690Q511 690 570.5 627Q630 564 608 477L486 448Q513 549 490.5 602Q468 655 398 655Q330 655 285.5 598.5Q241 542 224 432L199 274Q180 149 206.5 87Q233 25 306 25Q345 25 376.5 41Q408 57 429 89L453 224Q459 259 457 265.5Q455 272 440 273L366 280L371 308H655L650 280L594 273Q577 271 573 264Q569 257 563 224Z" glyph-name="G" horiz-adv-x="663" unicode="G" /><glyph d="M223 35 277 28L272 0H-2L3 28L59 35Q76 37 80 44Q84 51 90 84L180 596Q186 629 184.5 636Q183 643 167 645L113 652L118 680H392L387 652L331 645Q314 643 310 636Q306 629 300 596L259 361H522L563 596Q569 629 567.5 636Q566 643 550 645L496 652L501 680H775L770 652L714 645Q697 643 693 636Q689 629 683 596L593 84Q587 51 588.5 44Q590 37 606 35L660 28L655 0H381L386 28L442 35Q459 37 463 44Q467 51 473 84L515 326H253L210 84Q204 51 205.5 44Q207 37 223 35Z" glyph-name="H" horiz-adv-x="743" unicode="H" /><glyph d="M167 645 113 652L118 680H392L387 652L331 645Q314 643 310 636Q306 629 300 596L210 84Q204 51 205.5 44Q207 37 223 35L277 28L272 0H-2L3 28L59 35Q76 37 80 44Q84 51 90 84L180 596Q186 629 184.5 636Q183 643 167 645Z" glyph-name="I" horiz-adv-x="360" unicode="I" /><glyph d="M296 645 242 652L247 680H521L516 652L460 645Q443 643 439 636Q435 629 429 596L356 182Q340 90 282 40Q224 -10 133 -10Q60 -10 21.5 29.5Q-17 69 -14 142L63 162Q54 94 69 59.5Q84 25 122 25Q164 25 193 62.5Q222 100 235 174L309 596Q315 629 313.5 636Q312 643 296 645Z" glyph-name="J" horiz-adv-x="476" unicode="J" /><glyph d="M223 35 277 28L272 0H-2L3 28L59 35Q76 37 80 44Q84 51 90 84L180 596Q186 629 184.5 636Q183 643 167 645L113 652L118 680H392L387 652L331 645Q315 642 310 633Q305 624 300 596L256 346L522 596Q553 625 558.5 633.5Q564 642 547 645L493 652L498 680H706L701 652L645 645Q631 643 623 638Q615 633 576 596L411 441L527 84Q536 57 543 47.5Q550 38 568 35L612 28L607 0H422L317 353L245 285L210 84Q204 51 205.5 44Q207 37 223 35Z" glyph-name="K" horiz-adv-x="656" unicode="K" /><glyph d="M475 172 503 172L473 0H-2L3 28L59 35Q76 37 80 44Q84 51 90 84L180 596Q186 629 184.5 636Q183 643 167 645L113 652L118 680H392L387 652L331 645Q314 643 310 636Q306 629 300 596L201 35H365Q398 35 406.5 38.5Q415 42 424 61Z" glyph-name="L" horiz-adv-x="532" unicode="L" /><glyph d="M143 35 197 28L192 0H-2L3 28L59 35Q75 38 80 47Q85 56 90 84L180 596Q186 629 184.5 636Q183 643 167 645L113 652L118 680H321L413 158L691 680H903L898 652L842 645Q825 643 821 636Q817 629 811 596L721 84Q715 51 716.5 44Q718 37 734 35L788 28L783 0H509L514 28L570 35Q587 37 591 44Q595 51 601 84L692 598L417 80H310L220 596L130 84Q124 51 125.5 44Q127 37 143 35Z" glyph-name="M" horiz-adv-x="871" unicode="M" /><glyph d="M167 645 113 652L118 680H310L531 202L602 596Q608 629 606.5 636Q605 643 589 645L535 652L540 680H734L729 652L673 645Q656 643 652 635.5Q648 628 642 596L537 0H494L220 594L130 84Q124 51 125.5 44Q127 37 143 35L197 28L192 0H-2L3 28L59 35Q76 37 80 44Q84 51 90 84L180 596Q186 629 184.5 636Q183 643 167 645Z" glyph-name="N" horiz-adv-x="687" unicode="N" /><glyph d="M405 690Q535 690 594.5 599.5Q654 509 628 357L619 304Q594 155 510 72.5Q426 -10 299 -10Q169 -10 110 80.5Q51 171 77 324L86 377Q111 525 195 607.5Q279 690 405 690ZM484 259 509 412Q529 537 503 596Q477 655 403 655Q332 655 286.5 597Q241 539 221 422L196 269Q176 145 201.5 85Q227 25 300 25Q372 25 418.5 84Q465 143 484 259Z" glyph-name="O" horiz-adv-x="674" unicode="O" /><glyph d="M167 645 113 652L118 680H414Q514 680 566 626.5Q618 573 604 487L600 463Q585 374 524 330Q463 286 356 286H246L210 84Q204 51 206 44Q208 37 223 35L297 28L292 0H-2L3 28L59 35Q76 37 80 44Q84 51 90 84L180 596Q186 629 184.5 636Q183 643 167 645ZM413 645 309 645L252 321H356Q399 321 428.5 354Q458 387 469 447L480 510Q491 574 473.5 609.5Q456 645 413 645Z" glyph-name="P" horiz-adv-x="598" unicode="P" /><glyph d="M341 -8Q353 -50 392.5 -66.5Q432 -83 517 -83L512 -208Q428 -208 375 -158Q322 -108 303 -10Q172 -9 112.5 81Q53 171 79 324L88 377Q113 526 196 608Q279 690 404 690Q535 690 595.5 599.5Q656 509 630 357L621 304Q597 166 524.5 85Q452 4 341 -8ZM486 259 511 412Q531 537 505 596Q479 655 405 655Q334 655 288.5 597Q243 539 223 422L198 269Q178 145 203.5 85Q229 25 302 25Q374 25 420.5 84Q467 143 486 259Z" glyph-name="Q" horiz-adv-x="678" unicode="Q" /><glyph d="M167 645 113 652L118 680H415Q515 680 568 629.5Q621 579 607 500L603 477Q592 414 553 374Q514 334 448 319L531 84Q544 49 548.5 43Q553 37 567 35L611 28L606 0H426L330 310H250L210 84Q204 51 205.5 44Q207 37 223 35L277 28L272 0H-2L3 28L59 35Q76 37 80 44Q84 51 90 84L180 596Q186 629 184.5 636Q183 643 167 645ZM414 645 309 645L256 345H361Q407 345 435.5 375.5Q464 406 474 467L481 510Q492 578 475.5 611.5Q459 645 414 645Z" glyph-name="R" horiz-adv-x="651" unicode="R" /><glyph d="M501 200Q501 105 432 47.5Q363 -10 245 -10Q137 -10 81.5 36Q26 82 30 171L101 195Q93 109 128 67Q163 25 245 25Q319 25 359 57.5Q399 90 399 151Q399 194 377 221.5Q355 249 305 270L215 308Q156 333 126 378.5Q96 424 96 488Q96 582 157.5 636Q219 690 328 690Q378 690 417.5 676.5Q457 663 485 637Q516 606 527 564.5Q538 523 526 483L407 462Q437 552 413.5 603.5Q390 655 318 655Q260 655 229 624Q198 593 198 536Q198 488 219 458.5Q240 429 286 409L377 371Q439 345 470 302Q501 259 501 200Z" glyph-name="S" horiz-adv-x="562" unicode="S" /><glyph d="M85 508 57 508L87 680H637L607 508H579L566 619Q565 635 562 639Q559 643 551 644Q547 645 541 645Q535 645 517 645H416L317 84Q311 51 312.5 44Q314 37 330 35L384 28L379 0H105L110 28L166 35Q183 37 187 44Q191 51 197 84L296 645H195Q176 645 169.5 644.5Q163 644 159 644Q151 642 147 638.5Q143 635 136 619Z" glyph-name="T" horiz-adv-x="574" unicode="T" /><glyph d="M589 645 535 652L540 680H734L729 652L673 645Q656 642 651.5 633.5Q647 625 642 596L577 229Q556 110 494 50Q432 -10 330 -10Q205 -10 142.5 57Q80 124 101 239L164 596Q170 629 168.5 636Q167 643 151 645L97 652L102 680H376L371 652L315 645Q298 642 293.5 633.5Q289 625 284 596L219 229Q201 126 230.5 75.5Q260 25 339 25Q420 25 469.5 76Q519 127 537 229L602 596Q608 629 606.5 636Q605 643 589 645Z" glyph-name="U" horiz-adv-x="684" unicode="U" /><glyph d="M608 596 314 0H228L143 596Q139 629 135 636Q131 643 116 645L62 652L67 680H342L337 652L281 645Q264 643 262 636Q260 629 264 596L332 119L566 596Q582 628 582.5 635.5Q583 643 567 645L513 652L518 680H713L708 652L652 645Q636 643 630.5 637Q625 631 608 596Z" glyph-name="V" horiz-adv-x="632" unicode="V" /><glyph d="M671 0 583 0L516 547L264 0H177L143 596Q142 629 138.5 636Q135 643 119 645L65 652L70 680H343L338 652L282 645Q268 643 265 640Q262 637 261 628Q261 624 261 618Q261 612 262 596L285 132L534 680H617L688 140L871 596Q884 629 884 636Q884 643 869 645L815 652L820 680H1018L1013 652L957 645Q940 643 934 636.5Q928 630 915 596Z" glyph-name="W" horiz-adv-x="938" unicode="W" /><glyph d="M108 35 162 28L157 0H-45L-40 28L16 35Q33 37 41 44Q49 51 75 84L268 326L169 596Q157 629 152 636Q147 643 132 645L78 652L83 680H364L359 652L303 645Q287 643 286 635.5Q285 628 297 596L365 411L512 596Q537 628 540 635.5Q543 643 527 645L473 652L478 680H680L675 652L619 645Q602 643 594 636Q586 629 560 596L380 369L484 84Q496 51 501 44Q506 37 521 35L575 28L570 0H290L295 28L351 35Q368 37 368.5 44.5Q369 52 357 84L283 285L123 84Q98 52 95 44.5Q92 37 108 35Z" glyph-name="X" horiz-adv-x="621" unicode="X" /><glyph d="M352 35 406 28L401 0H127L132 28L188 35Q203 37 207.5 42Q212 47 215 64L255 292L150 596Q139 629 134 636Q129 643 114 645L60 652L65 680H347L342 652L286 645Q269 643 268.5 635Q268 627 278 596L361 338L540 596Q561 626 563.5 634.5Q566 643 550 645L496 652L501 680H700L695 652L639 645Q623 643 616 636.5Q609 630 586 596L375 292L339 84Q333 51 334.5 44Q336 37 352 35Z" glyph-name="Y" horiz-adv-x="615" unicode="Y" /><glyph d="M465 172 493 172L463 0H-7L-3 25L424 645H237Q204 645 195.5 641.5Q187 638 178 619L127 508H99L129 680H573L568 655L141 35H355Q388 35 396.5 38.5Q405 42 414 61Z" glyph-name="Z" horiz-adv-x="546" unicode="Z" /><glyph d="M444 645 390 652L395 680H908L878 508H850L837 619Q835 639 827.5 642Q820 645 788 645H614L564 361H678Q711 361 719.5 364.5Q728 368 736 387L773 468H801L757 219H729L721 300Q719 319 711.5 322.5Q704 326 671 326H557L506 35H690Q723 35 731.5 38.5Q740 42 749 61L800 172H828L798 0H303L308 28L364 35Q381 37 385 44Q389 51 395 84L417 208H203L115 84Q90 49 89 43Q88 37 102 35L156 28L151 0H-51L-46 28L10 35Q28 37 36 44.5Q44 52 67 84L433 596Q456 628 458 635.5Q460 643 444 645ZM487 605 228 243H423Z" glyph-name="AE" horiz-adv-x="908" unicode="Æ" /><glyph d="M78 323 87 376Q111 521 194 600.5Q277 680 404 680H912L882 508H854L841 619Q839 639 831.5 642Q824 645 792 645H618L568 361H682Q716 361 724.5 364.5Q733 368 740 387L772 468H805L761 219H733L725 300Q723 319 715.5 322.5Q708 326 675 326H562L510 35H694Q727 35 735.5 38.5Q744 42 753 61L804 172H832L802 0H304Q173 0 113 87.5Q53 175 78 323ZM303 35 390 35L498 645H406Q334 645 287 588Q240 531 222 421L197 268Q177 147 203 91Q229 35 303 35Z" glyph-name="OE" horiz-adv-x="912" unicode="Œ" /><glyph d="M478 172 506 172L476 0H1L6 28L62 35Q79 37 83 44Q87 51 93 84L128 286L47 251L37 288L136 331L183 596Q189 629 187.5 636Q186 643 170 645L116 652L121 680H395L390 652L334 645Q317 643 313 636Q309 629 303 596L266 387L402 446L412 409L258 343L204 35H368Q401 35 409.5 38.5Q418 42 427 61Z" glyph-name="Lslash" horiz-adv-x="535" unicode="Ł" /><glyph d="M628 357 619 304Q594 155 510 72.5Q426 -10 299 -10Q243 -10 200 7.5Q157 25 127 59L74 0H21L103 92Q79 135 72.5 194.5Q66 254 77 324L86 377Q111 525 195 607.5Q279 690 405 690Q461 690 504.5 672.5Q548 655 578 621L630 680H683L601 589Q626 545 633 486Q640 427 628 357ZM221 422 196 269Q192 247 190 226Q188 205 187 186L515 552Q507 604 479.5 629.5Q452 655 403 655Q332 655 286.5 597Q241 539 221 422ZM484 259 509 412Q513 436 515 456.5Q517 477 518 496L190 129Q197 77 224.5 51Q252 25 300 25Q372 25 418.5 84Q465 143 484 259Z" glyph-name="Oslash" horiz-adv-x="674" unicode="Ø" /><glyph d="M172 645 118 652L123 680H400Q531 680 591 592.5Q651 505 626 357L617 304Q593 159 510 79.5Q427 0 300 0H3L8 28L64 35Q81 37 85 44Q89 51 95 84L139 337H62L69 372H146L185 596Q191 629 189.5 636Q188 643 172 645ZM406 372 399 337H259L206 35H298Q370 35 417 92Q464 149 482 259L507 412Q527 533 501 589Q475 645 401 645H314L266 372Z" glyph-name="Eth" horiz-adv-x="674" unicode="Ð" /><glyph d="M223 35 297 28L292 0H-2L3 28L59 35Q76 37 80 44Q84 51 90 84L180 596Q186 629 184.5 636Q183 643 167 645L113 652L118 680H412L407 652L331 645Q315 644 310.5 637Q306 630 300 596L290 541H390Q490 541 542 487.5Q594 434 580 348L576 324Q561 235 500 191Q439 147 332 147H221L210 84Q204 51 206 44Q208 37 223 35ZM389 506 284 506L227 182H332Q375 182 404.5 215Q434 248 445 308L456 371Q467 435 449.5 470.5Q432 506 389 506Z" glyph-name="Thorn" horiz-adv-x="598" unicode="Þ" /><glyph d="M605 176 603 161Q592 81 534 35.5Q476 -10 388 -10Q317 -10 279 25Q241 60 249 122L324 141Q315 83 328.5 54Q342 25 379 25Q415 25 440 59.5Q465 94 477 159L483 195Q499 282 468.5 321Q438 360 358 360H350L356 389L520 610Q502 633 477 644Q452 655 419 655Q356 655 318 614.5Q280 574 266 491L179 0H-18L-13 28L43 35Q60 37 64 44Q68 51 74 84L144 481Q163 587 230.5 638.5Q298 690 419 690Q484 690 542 668Q600 646 634 608L630 586L476 377Q546 353 580 299.5Q614 246 605 176Z" glyph-name="uni1E9E" horiz-adv-x="660" unicode="ẞ" /><glyph d="M447 -5Q405 -5 379.5 18Q354 41 350 82Q322 36 285.5 13Q249 -10 202 -10Q114 -10 73.5 68Q33 146 55 266L59 288Q78 393 142.5 455Q207 517 294 517Q332 517 362 503.5Q392 490 411 465Q439 472 462.5 482.5Q486 493 505 507H532L469 150Q456 80 457 57.5Q458 35 473 35Q490 35 505.5 53Q521 71 532 105L571 83Q549 38 518.5 16.5Q488 -5 447 -5ZM184 300 175 248Q158 145 172 88Q186 31 227 31Q260 31 293.5 65Q327 99 356 163L400 415Q385 445 361.5 461Q338 477 307 477Q259 477 229.5 434.5Q200 392 184 300Z" glyph-name="a" horiz-adv-x="587" unicode="a" /><glyph d="M526 241 522 219Q503 114 438.5 52Q374 -10 286 -10Q248 -10 218 3.5Q188 17 168 42Q147 37 124 25.5Q101 14 74 -5H47L163 656Q169 689 167.5 696Q166 703 150 705L97 712L101 740H293L237 424Q266 471 300.5 494Q335 517 380 517Q467 517 507.5 439Q548 361 526 241ZM353 476Q321 476 286 434.5Q251 393 218 314L179 92Q193 62 217.5 46Q242 30 273 30Q321 30 351 72.5Q381 115 397 207L406 259Q424 362 409.5 419Q395 476 353 476Z" glyph-name="b" horiz-adv-x="582" unicode="b" /><glyph d="M310 482Q263 482 229 433.5Q195 385 180 295L170 235Q153 130 173 77.5Q193 25 249 25Q290 25 324 52.5Q358 80 375 129L428 98Q397 44 350 17Q303 -10 240 -10Q132 -10 80 64Q28 138 51 260L55 282Q74 387 145.5 452Q217 517 316 517Q405 517 450.5 458.5Q496 400 469 322L356 306Q381 385 368 433.5Q355 482 310 482Z" glyph-name="c" horiz-adv-x="489" unicode="c" /><glyph d="M449 -5Q404 -5 378 21Q352 47 351 94Q321 41 284 15.5Q247 -10 201 -10Q114 -10 73.5 68Q33 146 55 266L59 288Q78 393 142.5 455Q207 517 295 517Q332 517 361.5 504.5Q391 492 411 468L444 656Q450 689 448.5 696Q447 703 431 705L378 712L382 740H575L471 150Q458 80 459 57.5Q460 35 475 35Q492 35 507.5 53Q523 71 534 105L573 83Q551 38 520.5 16.5Q490 -5 449 -5ZM184 300 175 248Q157 145 171.5 88Q186 31 228 31Q260 31 295 72.5Q330 114 363 192L402 415Q387 445 363 461Q339 477 308 477Q260 477 230 434.5Q200 392 184 300Z" glyph-name="d" horiz-adv-x="590" unicode="d" /><glyph d="M387 128 440 98Q409 45 359 17.5Q309 -10 244 -10Q134 -10 81.5 64Q29 138 51 260L55 282Q74 388 147 452.5Q220 517 322 517Q393 517 436.5 483Q480 449 480 397Q480 323 407 277Q334 231 206 222L168 219Q154 122 175 73.5Q196 25 253 25Q296 25 333 52.5Q370 80 387 128ZM316 482Q266 482 230.5 433.5Q195 385 180 295L173 254L205 256Q292 261 337.5 299Q383 337 383 401Q383 439 365.5 460.5Q348 482 316 482Z" glyph-name="e" horiz-adv-x="497" unicode="e" /><glyph d="M409 507 403 472H253L132 -213H17L130 423Q136 454 134 462Q132 470 116 472L62 479L67 507H144L154 561Q170 655 222.5 702.5Q275 750 361 750Q446 750 487 704.5Q528 659 507 597L394 581Q416 649 407.5 682Q399 715 360 715Q325 715 305 684Q285 653 272 581L259 507Z" glyph-name="f" horiz-adv-x="337" unicode="f" /><glyph d="M533 507 445 9Q425 -101 354.5 -162Q284 -223 174 -223Q99 -223 61 -185.5Q23 -148 25 -78L82 -64Q78 -127 100.5 -158.5Q123 -190 172 -190Q237 -190 274.5 -144.5Q312 -99 329 -1L341 66Q314 28 279.5 9Q245 -10 203 -10Q115 -10 74 67.5Q33 145 55 266L59 288Q78 393 142.5 455Q207 517 295 517Q333 517 363 503.5Q393 490 413 465Q440 472 463.5 482.5Q487 493 506 507ZM184 300 175 248Q157 145 171.5 88Q186 31 228 31Q261 31 295 65Q329 99 358 163L402 414Q388 445 363.5 461Q339 477 308 477Q260 477 230 434.5Q200 392 184 300Z" glyph-name="g" horiz-adv-x="574" unicode="g" /><glyph d="M564 105 603 83Q581 38 550.5 16.5Q520 -5 479 -5Q422 -5 396 35Q370 75 384 142L423 336Q436 400 424.5 434Q413 468 380 468Q340 468 298.5 432Q257 396 222 328L164 0H49L164 656Q170 689 168.5 696Q167 703 151 705L97 712L102 740H294L238 419Q275 468 319 492.5Q363 517 413 517Q487 517 521 468.5Q555 420 538 337L501 150Q488 81 488.5 58Q489 35 505 35Q522 35 537.5 53Q553 71 564 105Z" glyph-name="h" horiz-adv-x="619" unicode="h" /><glyph d="M290 670Q290 637 269.5 616Q249 595 216 595Q187 595 170.5 611Q154 627 154 655Q154 688 174.5 709Q195 730 228 730Q257 730 273.5 714Q290 698 290 670ZM110 472 56 479L61 507H253L191 150Q179 78 179.5 56.5Q180 35 195 35Q212 35 227.5 53Q243 71 254 105L293 83Q271 38 240.5 16.5Q210 -5 169 -5Q113 -5 87.5 34.5Q62 74 74 142L123 423Q129 456 127.5 463Q126 470 110 472Z" glyph-name="i" horiz-adv-x="308" unicode="i" /><glyph d="M294 663Q289 633 266.5 614Q244 595 214 595Q184 595 169 613.5Q154 632 159 663Q164 693 186 711.5Q208 730 238 730Q268 730 283.5 711.5Q299 693 294 663ZM114 472 60 479L65 507H257L161 -34Q146 -123 92.5 -173Q39 -223 -44 -223Q-107 -223 -139.5 -191Q-172 -159 -167 -101L-102 -79Q-106 -133 -93.5 -160.5Q-81 -188 -52 -188Q-14 -188 8 -156.5Q30 -125 43 -54L127 423Q133 456 131.5 463Q130 470 114 472Z" glyph-name="j" horiz-adv-x="301" unicode="j" /><glyph d="M527 0 344 0L255 246L189 190L156 0H41L156 656Q162 689 160.5 696Q159 703 143 705L90 712L94 740H286L200 251L314 353Q337 374 369.5 404Q402 434 413 444Q446 474 470.5 489.5Q495 505 525 517L541 398Q486 390 438 371Q390 352 344 320L435 84Q446 56 452.5 47Q459 38 478 35L532 28Z" glyph-name="k" horiz-adv-x="539" unicode="k" /><glyph d="M142 705 88 712L93 740H285L182 151Q169 80 170 57.5Q171 35 186 35Q203 35 218.5 53Q234 71 245 105L284 83Q262 38 231.5 16.5Q201 -5 160 -5Q104 -5 78.5 34.5Q53 74 65 142L155 656Q161 689 159.5 696Q158 703 142 705Z" glyph-name="l" horiz-adv-x="300" unicode="l" /><glyph d="M863 105 902 83Q880 38 849.5 16.5Q819 -5 778 -5Q721 -5 695 35Q669 75 683 142L722 336Q734 399 724 433.5Q714 468 684 468Q646 468 606.5 432.5Q567 397 532 331L474 0H359L418 336Q429 400 419 434Q409 468 380 468Q342 468 302.5 432.5Q263 397 228 330L169 0H54L128 423Q134 456 132.5 463Q131 470 115 472L61 479L66 507H252L235 410Q274 463 318.5 490Q363 517 413 517Q466 517 498.5 488Q531 459 536 406Q575 461 620.5 489Q666 517 717 517Q788 517 821 468Q854 419 837 337L800 150Q787 81 787.5 58Q788 35 804 35Q821 35 836.5 53Q852 71 863 105Z" glyph-name="m" horiz-adv-x="927" unicode="m" /><glyph d="M569 105 608 83Q586 38 555.5 16.5Q525 -5 484 -5Q427 -5 401 35Q375 75 389 142L428 336Q441 400 429.5 434Q418 468 385 468Q345 468 303.5 432Q262 396 227 329L169 0H54L128 423Q134 456 132.5 463Q131 470 115 472L61 479L66 507H252L235 409Q274 463 320 490Q366 517 418 517Q492 517 526 468.5Q560 420 543 337L506 150Q493 81 493.5 58Q494 35 510 35Q527 35 542.5 53Q558 71 569 105Z" glyph-name="n" horiz-adv-x="624" unicode="n" /><glyph d="M315 517Q422 517 475 440Q528 363 505 244L501 223Q480 111 412.5 50.5Q345 -10 240 -10Q134 -10 81.5 67Q29 144 51 263L55 284Q76 396 143.5 456.5Q211 517 315 517ZM376 213 387 274Q406 377 388.5 429.5Q371 482 317 482Q264 482 230.5 436Q197 390 179 294L168 233Q150 130 167.5 77.5Q185 25 238 25Q292 25 325.5 71Q359 117 376 213Z" glyph-name="o" horiz-adv-x="557" unicode="o" /><glyph d="M292 -10Q255 -10 225 3Q195 16 176 40L131 -213H16L128 423Q134 456 132.5 463Q131 470 115 472L61 479L66 507H252L234 408Q265 464 302 490.5Q339 517 386 517Q473 517 513.5 439Q554 361 532 241L528 219Q509 114 444.5 52Q380 -10 292 -10ZM359 476Q327 476 292 434.5Q257 393 224 315L185 92Q199 62 223.5 46Q248 30 279 30Q327 30 357 72.5Q387 115 403 207L412 259Q430 362 415.5 419Q401 476 359 476Z" glyph-name="p" horiz-adv-x="588" unicode="p" /><glyph d="M507 512 534 512L406 -213H291L343 82Q315 35 280 12.5Q245 -10 201 -10Q114 -10 73.5 68Q33 146 55 266L59 288Q78 393 142.5 455Q207 517 295 517Q333 517 363 503.5Q393 490 413 465Q435 471 458.5 482.5Q482 494 507 512ZM184 300 175 248Q157 145 171.5 88Q186 31 228 31Q260 31 295 72.5Q330 114 363 192L402 415Q388 445 363.5 461Q339 477 308 477Q260 477 230 434.5Q200 392 184 300Z" glyph-name="q" horiz-adv-x="574" unicode="q" /><glyph d="M342 447Q314 447 285 416Q256 385 226 325L169 0H54L128 424Q134 456 132.5 463Q131 470 115 472L61 479L66 507H252L234 407Q272 463 312.5 490Q353 517 396 517Q435 517 458.5 494Q482 471 491 425L393 377Q387 412 374 429.5Q361 447 342 447Z" glyph-name="r" horiz-adv-x="457" unicode="r" /><glyph d="M411 149Q411 76 354.5 33Q298 -10 199 -10Q116 -10 68.5 23Q21 56 14 119L84 145Q79 86 108 55.5Q137 25 197 25Q249 25 278.5 48Q308 71 308 111Q308 139 290 157.5Q272 176 228 193L171 215Q119 235 91.5 270.5Q64 306 64 354Q64 427 117 472Q170 517 263 517Q357 517 405 470Q453 423 430 356L317 340Q339 408 323 445Q307 482 255 482Q215 482 191 459.5Q167 437 167 400Q167 369 183 348.5Q199 328 239 313L295 291Q356 267 383.5 233Q411 199 411 149Z" glyph-name="s" horiz-adv-x="468" unicode="s" /><glyph d="M294 123 349 104Q327 46 292 18Q257 -10 207 -10Q129 -10 92 37Q55 84 69 160L114 423Q120 456 118.5 463Q117 470 101 472L47 479L52 507H129L149 623L268 646L244 507H404L398 472H237L179 139Q169 81 177 53Q185 25 213 25Q243 25 261.5 47.5Q280 70 294 123Z" glyph-name="t" horiz-adv-x="369" unicode="t" /><glyph d="M470 -5Q425 -5 399 20.5Q373 46 371 93Q333 42 289 16Q245 -10 196 -10Q126 -10 93.5 38Q61 86 76 170L120 423Q126 456 124 463Q122 470 106 472L52 479L57 507H250L191 171Q180 106 189.5 72.5Q199 39 229 39Q267 39 306.5 74.5Q346 110 381 176L440 507H555L492 150Q479 80 480 57.5Q481 35 496 35Q513 35 528.5 53Q544 71 555 105L594 83Q572 38 541.5 16.5Q511 -5 470 -5Z" glyph-name="u" horiz-adv-x="610" unicode="u" /><glyph d="M101 472 47 479L52 507H245L196 218Q180 124 192 81.5Q204 39 248 39Q322 39 366.5 126.5Q411 214 411 376Q411 403 410 428.5Q409 454 407 480L526 517Q524 421 507 338Q490 255 458 189Q414 95 347 42.5Q280 -10 208 -10Q132 -10 97.5 50.5Q63 111 81 217L116 423Q122 456 120 463Q118 470 101 472Z" glyph-name="v" horiz-adv-x="548" unicode="v" /><glyph d="M689 480 808 517Q806 422 789.5 340Q773 258 743 192Q700 97 634.5 43.5Q569 -10 500 -10Q447 -10 414 22Q381 54 373 113Q334 52 287.5 21Q241 -10 190 -10Q120 -10 88 38Q56 86 71 170L115 423Q121 456 119 463Q117 470 101 472L47 479L52 507H245L186 171Q173 97 180.5 68Q188 39 219 39Q257 39 297 76Q337 113 372 183Q372 188 373 193Q374 198 377 217L426 507H541L492 218Q476 123 486.5 81Q497 39 537 39Q606 39 649.5 127.5Q693 216 693 376Q693 403 692 428.5Q691 454 689 480Z" glyph-name="w" horiz-adv-x="830" unicode="w" /><glyph d="M303 0 231 203Q185 131 150.5 81Q116 31 84 -10L-17 55Q62 111 117 154Q172 197 218 237L152 423Q142 451 135.5 460Q129 469 111 472L57 479L62 507H239L310 309Q354 377 388.5 426Q423 475 456 517L554 452Q477 397 421.5 354.5Q366 312 322 273L390 84Q400 55 406.5 46Q413 37 430 35L484 28L479 0Z" glyph-name="x" horiz-adv-x="528" unicode="x" /><glyph d="M554 507 466 9Q447 -100 376.5 -161.5Q306 -223 195 -223Q120 -223 82 -185.5Q44 -148 46 -78L103 -64Q99 -127 121.5 -158.5Q144 -190 193 -190Q258 -190 295.5 -144Q333 -98 350 -1L365 85Q328 38 286 14Q244 -10 196 -10Q126 -10 93.5 38Q61 86 76 170L120 423Q126 456 124 463Q122 470 106 472L52 479L57 507H250L191 171Q180 106 189.5 72.5Q199 39 229 39Q267 39 306.5 74.5Q346 110 381 176L439 507Z" glyph-name="y" horiz-adv-x="595" unicode="y" /><glyph d="M190 24Q158 41 142 46.5Q126 52 113 52Q92 52 72 40.5Q52 29 33 6L28 0L-3 25L334 413H189Q155 413 146.5 410Q138 407 129 390L88 316H60L94 507H451L447 482L131 119Q145 126 157 129.5Q169 133 181 133Q195 133 209.5 128Q224 123 252 107Q280 90 295 85Q310 80 324 80Q351 80 367.5 100.5Q384 121 395 170L422 164Q409 78 376 34Q343 -10 291 -10Q271 -10 250 -3.5Q229 3 190 24Z" glyph-name="z" horiz-adv-x="456" unicode="z" /><glyph d="M677 128 730 98Q699 45 649 17.5Q599 -10 534 -10Q467 -10 420 20Q373 50 352 106Q317 50 266 20Q215 -10 157 -10Q98 -10 63.5 21.5Q29 53 29 109Q29 182 84.5 219.5Q140 257 250 257H341L356 338Q369 412 355.5 447Q342 482 300 482Q250 482 225 443.5Q200 405 200 327L92 343Q93 418 150 467.5Q207 517 298 517Q353 517 389 498.5Q425 480 441 444Q474 480 517.5 498.5Q561 517 612 517Q683 517 726.5 483Q770 449 770 397Q770 319 693.5 270.5Q617 222 496 222H458Q444 123 465 74Q486 25 543 25Q586 25 623 52.5Q660 80 677 128ZM606 482Q556 482 520.5 433.5Q485 385 470 295L464 257H495Q581 257 627 295.5Q673 334 673 401Q673 439 655.5 460.5Q638 482 606 482ZM148 112Q148 77 160.5 60Q173 43 198 43Q237 43 274 71Q311 99 340 152Q338 170 337.5 187Q337 204 338 222H260Q204 222 176 194.5Q148 167 148 112Z" glyph-name="ae" horiz-adv-x="787" unicode="æ" /><glyph d="M721 128 774 98Q743 45 693 17.5Q643 -10 578 -10Q525 -10 485 12Q445 34 423 76Q390 33 343.5 11.5Q297 -10 240 -10Q134 -10 81.5 67Q29 144 51 263L55 284Q76 396 143.5 456.5Q211 517 315 517Q367 517 406.5 493Q446 469 469 425Q504 470 552 493.5Q600 517 656 517Q727 517 770.5 483Q814 449 814 397Q814 323 741 277Q668 231 540 222L502 219Q488 122 509 73.5Q530 25 587 25Q630 25 667 52.5Q704 80 721 128ZM376 213 387 274Q406 377 388.5 429.5Q371 482 317 482Q264 482 230.5 436Q197 390 179 294L168 233Q150 130 167.5 77.5Q185 25 238 25Q292 25 325.5 71Q359 117 376 213ZM650 482Q600 482 564.5 433.5Q529 385 514 295L507 254L539 256Q626 261 671.5 299Q717 337 717 401Q717 439 699.5 460.5Q682 482 650 482Z" glyph-name="oe" horiz-adv-x="831" unicode="œ" /><glyph d="M259 105 298 83Q276 38 245.5 16.5Q215 -5 174 -5Q118 -5 92.5 34.5Q67 74 79 142L110 322L6 277L-2 311L118 362L169 656Q175 689 173.5 696Q172 703 156 705L102 712L107 740H299L242 415L347 460L355 426L235 375L196 151Q183 80 184 57.5Q185 35 200 35Q217 35 232.5 53Q248 71 259 105Z" glyph-name="lslash" horiz-adv-x="340" unicode="ł" /><glyph d="M507 244 503 223Q482 111 414.5 50.5Q347 -10 242 -10Q200 -10 164.5 3.5Q129 17 103 43L61 0H7L79 74Q56 111 49.5 159.5Q43 208 53 263L57 284Q78 396 145.5 456.5Q213 517 317 517Q360 517 396 503.5Q432 490 458 464L500 507H554L482 433Q505 395 511.5 346.5Q518 298 507 244ZM181 294 170 233Q166 212 164 193.5Q162 175 161 158L397 401Q391 441 371.5 461.5Q352 482 319 482Q266 482 232.5 436Q199 390 181 294ZM378 213 389 274Q393 294 395 312.5Q397 331 398 347L163 105Q169 65 188 45Q207 25 240 25Q294 25 327.5 71Q361 117 378 213Z" glyph-name="oslash" horiz-adv-x="562" unicode="ø" /><glyph d="M511 284 504 244Q482 118 416 54Q350 -10 241 -10Q133 -10 81 55Q29 120 46 231L49 251Q63 348 122.5 402.5Q182 457 271 457Q313 457 346 444.5Q379 432 404 407Q406 466 393 516Q380 566 352 609L228 528L210 559L331 638Q312 661 287.5 682Q263 703 234 722L250 750Q284 732 315 711Q346 690 372 665L503 750L522 719L398 638Q468 563 497.5 469.5Q527 376 511 284ZM172 254 161 194Q146 108 164.5 66.5Q183 25 236 25Q293 25 327 74Q361 123 380 232L394 312Q395 319 396.5 327Q398 335 401 359Q379 390 352 406Q325 422 294 422Q246 422 216.5 381.5Q187 341 172 254Z" glyph-name="eth" horiz-adv-x="561" unicode="ð" /><glyph d="M289 -10Q252 -10 222 3Q192 16 172 40L128 -213H13L165 656Q170 683 168.5 693Q167 703 152 705L98 712L103 740H295L239 423Q268 471 303.5 494Q339 517 383 517Q470 517 510.5 439Q551 361 529 241L525 219Q506 114 441.5 52Q377 -10 289 -10ZM356 476Q323 476 287.5 434Q252 392 220 312L182 93Q196 62 220.5 46Q245 30 276 30Q324 30 354 72.5Q384 115 400 207L409 259Q427 362 412.5 419Q398 476 356 476Z" glyph-name="thorn" horiz-adv-x="585" unicode="þ" /><glyph d="M389 715Q340 715 312 682.5Q284 650 272 581L132 -213H17L130 423Q136 456 134 463Q132 470 116 472L62 479L67 507H144L154 561Q170 656 228 703Q286 750 385 750Q466 750 514.5 717.5Q563 685 563 632Q563 605 550 582.5Q537 560 496 525Q453 489 440 465.5Q427 442 427 414Q427 388 441.5 364Q456 340 494 307L528 278Q558 253 573.5 221.5Q589 190 589 153Q589 81 538 35.5Q487 -10 402 -10Q336 -10 298.5 22.5Q261 55 254 119L324 145Q319 85 339 55Q359 25 404 25Q443 25 466.5 47.5Q490 70 490 109Q490 135 479.5 153.5Q469 172 443 194L408 222Q367 256 350.5 283.5Q334 311 334 344Q334 374 346.5 402.5Q359 431 401 482Q445 537 459 569.5Q473 602 473 637Q473 676 451.5 695.5Q430 715 389 715Z" glyph-name="germandbls" horiz-adv-x="623" unicode="ß" /><glyph d="M110 472 56 479L61 507H253L191 150Q179 78 179.5 56.5Q180 35 195 35Q212 35 227.5 53Q243 71 254 105L293 83Q271 38 240.5 16.5Q210 -5 169 -5Q113 -5 87.5 34.5Q62 74 74 142L124 423Q130 454 128 462Q126 470 110 472Z" glyph-name="dotlessi" horiz-adv-x="308" unicode="ı" /><glyph d="M114 472 60 479L65 507H257L161 -34Q146 -123 92.5 -173Q39 -223 -44 -223Q-107 -223 -139.5 -191Q-172 -159 -167 -101L-102 -79Q-106 -133 -93.5 -160.5Q-81 -188 -52 -188Q-14 -188 8 -156.5Q30 -125 43 -54L128 423Q134 454 132 462Q130 470 114 472Z" glyph-name="dotlessj" horiz-adv-x="301" unicode="ȷ" /><glyph d="M393 715Q342 715 312.5 678Q283 641 269 561L259 507H562L500 150Q488 78 488.5 56.5Q489 35 504 35Q521 35 536.5 53Q552 71 563 105L602 83Q580 38 549.5 16.5Q519 -5 478 -5Q422 -5 396.5 34.5Q371 74 383 142L441 472H253L132 -213H17L130 423Q136 454 134 462Q132 470 116 472L62 479L67 507H144L150 541Q169 644 230 697Q291 750 392 750Q487 750 538 704.5Q589 659 567 597L454 581Q475 646 459.5 680.5Q444 715 393 715Z" glyph-name="fi" horiz-adv-x="617" unicode="ﬁ" /><glyph d="M696 715Q645 715 615.5 678Q586 641 572 561L563 507H865L803 150Q791 78 791.5 56.5Q792 35 807 35Q824 35 839.5 53Q855 71 866 105L905 83Q883 38 852.5 16.5Q822 -5 781 -5Q725 -5 699.5 34.5Q674 74 686 142L744 472H556L471 -14Q453 -116 392 -169.5Q331 -223 232 -223Q144 -223 93.5 -184.5Q43 -146 54 -90L167 -74Q157 -131 173 -159.5Q189 -188 231 -188Q280 -188 309 -151Q338 -114 352 -34L441 472H253L170 0H55L130 423Q136 454 134 462Q132 470 116 472L62 479L67 507H144L150 541Q167 638 227.5 689Q288 740 386 740Q432 740 466 726Q500 712 520 685Q551 717 595 733.5Q639 750 695 750Q790 750 841 704.5Q892 659 870 597L757 581Q778 646 762.5 680.5Q747 715 696 715ZM387 705Q339 705 310.5 669.5Q282 634 269 561L259 507H447L453 541Q468 627 452.5 666Q437 705 387 705Z" glyph-name="ffi" horiz-adv-x="920" unicode="ﬃ" /><glyph d="M389 507 383 472H253L132 -213H17L130 423Q136 454 134 462Q132 470 116 472L62 479L67 507H144L150 541Q169 644 230 697Q291 750 392 750Q431 750 462 739.5Q493 729 513 709Q532 716 547.5 724Q563 732 576 740H603L500 151Q487 80 488 57.5Q489 35 504 35Q521 35 536.5 53Q552 71 563 105L602 83Q580 38 549.5 16.5Q519 -5 478 -5Q422 -5 396.5 34.5Q371 74 383 142L464 603Q474 662 457.5 688.5Q441 715 393 715Q342 715 312.5 678Q283 641 269 561L259 507Z" glyph-name="fl" horiz-adv-x="618" unicode="ﬂ" /><glyph d="M556 472 471 -14Q453 -116 392 -169.5Q331 -223 232 -223Q144 -223 93.5 -184.5Q43 -146 54 -90L167 -74Q157 -131 173 -159.5Q189 -188 231 -188Q280 -188 309 -151Q338 -114 352 -34L441 472H253L170 0H55L130 423Q136 454 134 462Q132 470 116 472L62 479L67 507H144L150 541Q167 638 227.5 689Q288 740 386 740Q432 740 466 726Q500 712 520 685Q552 717 595.5 733.5Q639 750 695 750Q735 750 765.5 739.5Q796 729 816 708Q837 717 852 724.5Q867 732 879 740H906L803 151Q790 80 791 57.5Q792 35 807 35Q824 35 839.5 53Q855 71 866 105L905 83Q883 38 852.5 16.5Q822 -5 781 -5Q725 -5 699.5 34.5Q674 74 686 142L763 581Q776 654 760.5 684.5Q745 715 696 715Q645 715 615.5 678Q586 641 572 561L563 507H692L686 472ZM387 705Q339 705 310.5 669.5Q282 634 269 561L259 507H447L453 541Q468 627 452.5 666Q437 705 387 705Z" glyph-name="ffl" horiz-adv-x="921" unicode="ﬄ" /><glyph d="M526 -10Q448 -10 411 37Q374 84 388 160L442 472H253L132 -213H17L130 423Q136 454 134 462Q132 470 116 472L62 479L67 507H144L150 541Q168 643 227.5 696.5Q287 750 384 750Q454 750 489.5 717.5Q525 685 522 626Q529 629 537 633Q545 637 560 646H587L563 507H723L717 472H556L498 139Q488 81 496 53Q504 25 532 25Q562 25 580.5 47.5Q599 70 613 123L668 104Q646 46 611 18Q576 -10 526 -10ZM269 561 259 507H448L461 581Q474 654 458.5 684.5Q443 715 393 715Q342 715 312.5 678Q283 641 269 561Z" glyph-name="ft" horiz-adv-x="688" unicode="" /><glyph d="M556 472 471 -14Q453 -116 392 -169.5Q331 -223 232 -223Q144 -223 93.5 -184.5Q43 -146 54 -90L167 -74Q157 -131 173 -159.5Q189 -188 231 -188Q280 -188 309 -151Q338 -114 352 -34L441 472H253L170 0H55L130 423Q136 454 134 462Q132 470 116 472L62 479L67 507H144L150 541Q167 638 227.5 689Q288 740 386 740Q432 740 466 726Q500 712 520 685Q550 717 592 733.5Q634 750 687 750Q757 750 792.5 717.5Q828 685 825 626Q832 629 840 633Q848 637 863 646H890L866 507H1026L1020 472H859L801 139Q791 81 799 53Q807 25 835 25Q865 25 883.5 47.5Q902 70 916 123L971 104Q949 46 914 18Q879 -10 829 -10Q751 -10 714 37Q677 84 691 160L745 472ZM572 561 563 507H751L764 581Q777 654 761.5 684.5Q746 715 696 715Q645 715 615.5 678Q586 641 572 561ZM387 705Q339 705 310.5 669.5Q282 634 269 561L259 507H447L453 541Q468 627 452.5 666Q437 705 387 705Z" glyph-name="fft" horiz-adv-x="991" unicode="" /><glyph d="M389 507 383 472H253L132 -213H17L130 423Q136 454 134 462Q132 470 116 472L62 479L67 507H144L150 541Q168 643 231.5 696.5Q295 750 400 750Q443 750 475 739.5Q507 729 528 708Q545 715 561.5 723Q578 731 592 740H619L563 424Q592 471 626.5 494Q661 517 706 517Q793 517 833.5 439Q874 361 852 241L848 219Q829 114 764.5 52Q700 -10 612 -10Q574 -10 544 3.5Q514 17 494 42Q472 37 449 25Q426 13 400 -5H373L480 602Q490 662 471.5 688.5Q453 715 401 715Q346 715 314.5 678Q283 641 269 561L259 507ZM679 476Q647 476 612 434.5Q577 393 544 314L505 92Q519 62 543.5 46Q568 30 599 30Q647 30 677 72.5Q707 115 723 207L732 259Q750 362 735.5 419Q721 476 679 476Z" glyph-name="fb" horiz-adv-x="908" unicode="" /><glyph d="M556 472 471 -14Q453 -116 392 -169.5Q331 -223 232 -223Q144 -223 93.5 -184.5Q43 -146 54 -90L167 -74Q157 -131 173 -159.5Q189 -188 231 -188Q280 -188 309 -151Q338 -114 352 -34L441 472H253L170 0H55L130 423Q136 454 134 462Q132 470 116 472L62 479L67 507H144L150 541Q167 638 227.5 689Q288 740 386 740Q434 740 468.5 725.5Q503 711 521 683Q553 716 598.5 733Q644 750 703 750Q746 750 778 739.5Q810 729 831 708Q847 714 862.5 722Q878 730 895 740H922L866 424Q895 471 929.5 494Q964 517 1009 517Q1096 517 1136.5 439Q1177 361 1155 241L1151 219Q1132 114 1067.5 52Q1003 -10 915 -10Q877 -10 847 3.5Q817 17 797 42Q775 37 752 25Q729 13 703 -5H676L779 581Q792 656 775.5 685.5Q759 715 704 715Q649 715 617.5 678Q586 641 572 561L563 507H692L686 472ZM387 705Q339 705 310.5 669.5Q282 634 269 561L259 507H447L453 541Q468 627 452.5 666Q437 705 387 705ZM982 476Q950 476 915 434.5Q880 393 847 314L808 92Q822 62 846.5 46Q871 30 902 30Q950 30 980 72.5Q1010 115 1026 207L1035 259Q1053 362 1038.5 419Q1024 476 982 476Z" glyph-name="ffb" horiz-adv-x="1211" unicode="" /><glyph d="M557 472 471 -14Q453 -116 392 -169.5Q331 -223 232 -223Q144 -223 93.5 -184.5Q43 -146 54 -90L167 -74Q157 -131 173 -159.5Q189 -188 231 -188Q280 -188 309 -151Q338 -114 352 -34L442 472H253L170 0H55L130 423Q136 454 134 462Q132 470 116 472L62 479L67 507H144L150 541Q167 638 227.5 689Q288 740 386 740Q430 740 463 727.5Q496 715 516 691Q542 720 579.5 735Q617 750 665 750Q750 750 791 704.5Q832 659 811 597L698 581Q720 649 711.5 682Q703 715 664 715Q629 715 608.5 683.5Q588 652 576 581L563 507H713L707 472ZM387 705Q339 705 310.5 669.5Q282 634 269 561L259 507H448L458 561Q471 634 453.5 669.5Q436 705 387 705Z" glyph-name="ff" horiz-adv-x="641" unicode="ﬀ" /><glyph d="M535 -213Q490 -213 456.5 -198.5Q423 -184 405 -157Q374 -190 330.5 -206.5Q287 -223 232 -223Q144 -223 93.5 -184.5Q43 -146 54 -90L167 -74Q157 -131 173 -159.5Q189 -188 231 -188Q280 -188 309 -151Q338 -114 352 -34L442 472H253L170 0H55L130 423Q136 454 134 462Q132 470 116 472L62 479L67 507H144L150 541Q167 638 227.5 689Q288 740 386 740Q435 740 470 725Q505 710 523 681Q555 711 598 725.5Q641 740 696 740Q737 740 769 727.5Q801 715 820 692Q847 721 884 735.5Q921 750 969 750Q1054 750 1095 704.5Q1136 659 1115 597L1002 581Q1024 649 1015.5 682Q1007 715 968 715Q933 715 912.5 683.5Q892 652 880 581L867 507H1017L1011 472H861L777 -4Q758 -107 697 -160Q636 -213 535 -213ZM697 705Q645 705 615.5 670.5Q586 636 573 561L563 507H752L762 559Q776 632 760 668.5Q744 705 697 705ZM387 705Q339 705 310.5 669.5Q282 634 269 561L259 507H448L454 541Q469 627 453 666Q437 705 387 705ZM473 -4 474 -3Q457 -95 471 -136.5Q485 -178 534 -178Q585 -178 614.5 -141Q644 -104 658 -24L746 472H557Z" glyph-name="fff" horiz-adv-x="945" unicode="" /><glyph d="M389 507 383 472H253L132 -213H17L130 423Q136 454 134 462Q132 470 116 472L62 479L67 507H144L150 541Q168 643 231.5 696.5Q295 750 400 750Q443 750 475 739.5Q507 729 528 708Q545 715 561.5 723Q578 731 592 740H619L563 419Q600 468 644 492.5Q688 517 738 517Q812 517 846 468.5Q880 420 863 337L826 150Q813 81 813.5 58Q814 35 830 35Q847 35 862.5 53Q878 71 889 105L928 83Q906 38 875.5 16.5Q845 -5 804 -5Q747 -5 721 35Q695 75 709 142L748 336Q761 400 749.5 434Q738 468 705 468Q665 468 623.5 432Q582 396 547 328L489 0H374L480 602Q490 662 471.5 688.5Q453 715 401 715Q346 715 314.5 678Q283 641 269 561L259 507Z" glyph-name="fh" horiz-adv-x="944" unicode="" /><glyph d="M556 472 471 -14Q453 -116 392 -169.5Q331 -223 232 -223Q144 -223 93.5 -184.5Q43 -146 54 -90L167 -74Q157 -131 173 -159.5Q189 -188 231 -188Q280 -188 309 -151Q338 -114 352 -34L441 472H253L170 0H55L130 423Q136 454 134 462Q132 470 116 472L62 479L67 507H144L150 541Q167 638 227.5 689Q288 740 386 740Q434 740 468.5 725.5Q503 711 521 683Q553 716 598.5 733Q644 750 703 750Q746 750 778 739.5Q810 729 831 708Q847 714 862.5 722Q878 730 895 740H922L866 419Q903 468 947 492.5Q991 517 1041 517Q1115 517 1149 468.5Q1183 420 1166 337L1129 150Q1116 81 1116.5 58Q1117 35 1133 35Q1150 35 1165.5 53Q1181 71 1192 105L1231 83Q1209 38 1178.5 16.5Q1148 -5 1107 -5Q1050 -5 1024 35Q998 75 1012 142L1051 336Q1064 400 1052.5 434Q1041 468 1008 468Q968 468 926.5 432Q885 396 850 328L792 0H677L779 581Q792 656 775.5 685.5Q759 715 704 715Q649 715 617.5 678Q586 641 572 561L563 507H692L686 472ZM387 705Q339 705 310.5 669.5Q282 634 269 561L259 507H447L453 541Q468 627 452.5 666Q437 705 387 705Z" glyph-name="ffh" horiz-adv-x="1247" unicode="" /><glyph d="M401 715Q346 715 315 678Q284 641 269 561L259 507H578L487 -14Q470 -115 406.5 -169Q343 -223 240 -223Q149 -223 96 -184.5Q43 -146 54 -90L167 -74Q156 -131 174 -159.5Q192 -188 239 -188Q293 -188 323.5 -151Q354 -114 368 -34L457 472H253L170 0H55L130 423Q136 454 134 462Q132 470 116 472L62 479L67 507H144L150 541Q168 643 231.5 696.5Q295 750 400 750Q500 750 553 705Q606 660 583 597L470 581Q492 648 475 681.5Q458 715 401 715Z" glyph-name="fj" horiz-adv-x="613" unicode="" /><glyph d="M704 715Q649 715 618 678Q587 641 572 561L563 507H881L791 -4Q774 -106 710 -159.5Q646 -213 541 -213Q494 -213 459 -199Q424 -185 404 -158Q374 -190 330.5 -206.5Q287 -223 232 -223Q144 -223 93.5 -184.5Q43 -146 54 -90L167 -74Q157 -131 173 -159.5Q189 -188 231 -188Q280 -188 309 -151Q338 -114 352 -34L441 472H253L170 0H55L130 423Q136 454 134 462Q132 470 116 472L62 479L67 507H144L150 541Q167 638 227.5 689Q288 740 386 740Q434 740 468.5 725.5Q503 711 521 683Q553 716 598.5 733Q644 750 703 750Q803 750 856 705Q909 660 886 597L773 581Q795 648 778 681.5Q761 715 704 715ZM387 705Q339 705 310.5 669.5Q282 634 269 561L259 507H447L453 541Q468 627 452.5 666Q437 705 387 705ZM760 472 556 472L468 -32Q455 -108 472 -143Q489 -178 540 -178Q596 -178 627 -141Q658 -104 672 -24Z" glyph-name="ffj" horiz-adv-x="916" unicode="" /><glyph d="M389 507 383 472H253L132 -213H17L130 423Q136 455 134 462.5Q132 470 116 472L62 479L67 507H144L150 541Q168 643 231.5 696.5Q295 750 400 750Q443 750 475 739.5Q507 729 528 708Q545 715 561.5 723Q578 731 592 740H619L533 251L647 353Q670 374 702.5 404Q735 434 746 444Q779 474 803.5 489.5Q828 505 858 517L874 398Q819 390 771 371Q723 352 677 320L768 84Q779 56 785.5 47Q792 38 811 35L865 28L860 0H677L588 246L522 190L489 0H374L481 607Q491 664 472.5 689.5Q454 715 401 715Q346 715 315 678Q284 641 269 561L259 507Z" glyph-name="fk" horiz-adv-x="872" unicode="" /><glyph d="M556 472 471 -14Q453 -116 392 -169.5Q331 -223 232 -223Q144 -223 93.5 -184.5Q43 -146 54 -90L167 -74Q157 -131 173 -159.5Q189 -188 231 -188Q280 -188 309 -151Q338 -114 352 -34L441 472H253L170 0H55L129 423Q135 456 133.5 463Q132 470 116 472L62 479L67 507H144L150 541Q167 638 227.5 689Q288 740 386 740Q434 740 468.5 725.5Q503 711 521 683Q553 716 598.5 733Q644 750 703 750Q746 750 778 739.5Q810 729 831 708Q847 714 862.5 722Q878 730 895 740H922L836 251L950 353Q973 374 1005.5 404Q1038 434 1049 444Q1082 474 1106.5 489.5Q1131 505 1161 517L1177 398Q1122 390 1074 371Q1026 352 980 320L1071 84Q1082 56 1088.5 47Q1095 38 1114 35L1168 28L1163 0H980L891 246L825 190L792 0H677L779 581Q792 656 775.5 685.5Q759 715 704 715Q649 715 617.5 678Q586 641 572 561L563 507H692L686 472ZM387 705Q339 705 310.5 669.5Q282 634 269 561L259 507H447L453 541Q468 627 452.5 666Q437 705 387 705Z" glyph-name="ffk" horiz-adv-x="1175" unicode="" /><glyph d="M97 35 151 28L146 0H-51L-46 28L10 35Q27 37 33 43.5Q39 50 55 84L351 680H437L524 84Q528 53 532 45Q536 37 551 35L605 28L600 0H328L333 28L389 35Q406 37 408 44Q410 51 406 84L389 208H160L98 84Q82 52 81.5 44.5Q81 37 97 35ZM341 571 177 243H385ZM404 752 383 776Q413 813 431 843.5Q449 874 465 913H596Q555 867 511.5 830.5Q468 794 404 752Z" glyph-name="Aacute" horiz-adv-x="639" unicode="Á" /><glyph d="M97 35 151 28L146 0H-51L-46 28L10 35Q27 37 33 43.5Q39 50 55 84L351 680H437L524 84Q528 53 532 45Q536 37 551 35L605 28L600 0H328L333 28L389 35Q406 37 408 44Q410 51 406 84L389 208H160L98 84Q82 52 81.5 44.5Q81 37 97 35ZM341 571 177 243H385ZM546 774 528 754Q499 773 472.5 795Q446 817 423 841Q396 820 361 797Q326 774 289 753L272 774Q313 814 334.5 839.5Q356 865 389 913H477Q492 867 504.5 841Q517 815 546 774Z" glyph-name="Acircumflex" horiz-adv-x="639" unicode="Â" /><glyph d="M98 35 152 28L147 0H-50L-45 28L11 35Q28 37 34 43.5Q40 50 56 84L352 680H438L525 84Q529 53 533 45Q537 37 552 35L606 28L601 0H329L334 28L390 35Q407 37 409 44Q411 51 407 84L390 208H161L99 84Q83 52 82.5 44.5Q82 37 98 35ZM342 571 178 243H386ZM373 842Q373 812 353.5 792.5Q334 773 304 773Q278 773 262.5 788Q247 803 247 829Q247 859 266.5 878.5Q286 898 316 898Q342 898 357.5 883Q373 868 373 842ZM581 842Q581 812 561.5 792.5Q542 773 512 773Q486 773 470.5 788Q455 803 455 829Q455 859 474.5 878.5Q494 898 524 898Q550 898 565.5 883Q581 868 581 842Z" glyph-name="Adieresis" horiz-adv-x="639" unicode="Ä" /><glyph d="M97 35 151 28L146 0H-51L-46 28L10 35Q27 37 33 43.5Q39 50 55 84L351 680H437L524 84Q528 53 532 45Q536 37 551 35L605 28L600 0H328L333 28L389 35Q406 37 408 44Q410 51 406 84L389 208H160L98 84Q82 52 81.5 44.5Q81 37 97 35ZM341 571 177 243H385ZM433 770 406 752Q358 793 327 829.5Q296 866 270 913H391Q393 875 402 844Q411 813 433 770Z" glyph-name="Agrave" horiz-adv-x="639" unicode="À" /><glyph d="M97 35 151 28L146 0H-51L-46 28L10 35Q27 37 33 43.5Q39 50 55 84L343 663Q310 677 294.5 708Q279 739 285 775L287 786Q296 835 331.5 864Q367 893 419 893Q477 893 508 857Q539 821 530 771L528 760Q522 724 498.5 697Q475 670 440 659L524 84Q528 53 532 45Q536 37 551 35L605 28L600 0H328L333 28L389 35Q406 37 408 44Q410 51 406 84L389 208H160L98 84Q82 52 81.5 44.5Q81 37 97 35ZM391 680Q415 680 430.5 699Q446 718 454 760L459 785Q467 825 457.5 845.5Q448 866 422 866Q398 866 383.5 847Q369 828 361 786L356 761Q348 722 357.5 701Q367 680 391 680ZM341 571 177 243H385Z" glyph-name="Aring" horiz-adv-x="639" unicode="Å" /><glyph d="M97 35 151 28L146 0H-51L-46 28L10 35Q27 37 33 43.5Q39 50 55 84L351 680H437L524 84Q528 53 532 45Q536 37 551 35L605 28L600 0H328L333 28L389 35Q406 37 408 44Q410 51 406 84L389 208H160L98 84Q82 52 81.5 44.5Q81 37 97 35ZM341 571 177 243H385ZM478 756Q460 756 443 765.5Q426 775 400 804Q379 826 368.5 832.5Q358 839 348 839Q331 839 319 821Q307 803 294 761H258Q277 844 301.5 881Q326 918 362 918Q381 918 398.5 908.5Q416 899 442 870Q462 848 472.5 841.5Q483 835 493 835Q509 835 521 852.5Q533 870 546 913H582Q563 830 538.5 793Q514 756 478 756Z" glyph-name="Atilde" horiz-adv-x="639" unicode="Ã" /><glyph d="M97 35 151 28L146 0H-51L-46 28L10 35Q27 37 33 43.5Q39 50 55 84L351 680H437L524 84Q528 53 532 45Q536 37 551 35L605 28L600 0H328L333 28L389 35Q406 37 408 44Q410 51 406 84L389 208H160L98 84Q82 52 81.5 44.5Q81 37 97 35ZM341 571 177 243H385ZM418 834Q466 834 497 854.5Q528 875 545 918L579 908Q555 829 514 790.5Q473 752 412 752Q352 752 319 793Q286 834 287 908L319 918Q322 876 346.5 855Q371 834 418 834Z" glyph-name="Abreve" horiz-adv-x="639" unicode="Ă" /><glyph d="M97 35 151 28L146 0H-51L-46 28L10 35Q27 37 33 43.5Q39 50 55 84L351 680H437L524 84Q528 53 532 45Q536 37 551 35L605 28L600 0H328L333 28L389 35Q406 37 408 44Q410 51 406 84L389 208H160L98 84Q82 52 81.5 44.5Q81 37 97 35ZM341 571 177 243H385ZM278 847 565 847L555 792H268Z" glyph-name="Amacron" horiz-adv-x="639" unicode="Ā" /><glyph d="M476 -112 538 -125Q515 -174 481 -198.5Q447 -223 402 -223Q350 -223 319.5 -200.5Q289 -178 289 -139Q289 -97 323.5 -59Q358 -21 417 3L389 208H160L98 84Q82 52 81.5 44.5Q81 37 97 35L151 28L146 0H-51L-46 28L10 35Q26 37 32 43Q38 49 55 84L351 680H437L524 84Q528 53 532 45Q536 37 551 35L605 28L600 0H537Q465 0 418 -42Q371 -84 371 -143Q371 -166 379.5 -177.5Q388 -189 406 -189Q430 -189 447 -170Q464 -151 476 -112ZM341 571 177 243H385Z" glyph-name="Aogonek" horiz-adv-x="639" unicode="Ą" /><glyph d="M393 -132Q393 -171 358 -197Q323 -223 269 -223Q220 -223 191 -202.5Q162 -182 161 -145L219 -131Q217 -162 226 -176.5Q235 -191 256 -191Q281 -191 296 -173Q311 -155 311 -128Q311 -107 300 -97Q289 -87 267 -87Q263 -87 258 -87.5Q253 -88 246 -89L238 -63L271 -7Q162 10 110 99.5Q58 189 79 324L88 382Q110 526 191 608Q272 690 393 690Q501 690 558.5 627Q616 564 594 477L472 448Q499 547 477.5 601Q456 655 391 655Q326 655 283.5 598.5Q241 542 224 432L199 274Q179 147 209 86Q239 25 320 25Q374 25 410.5 60.5Q447 96 467 167L538 143Q505 67 449.5 28.5Q394 -10 318 -10H309L283 -55Q334 -56 363.5 -77Q393 -98 393 -132Z" glyph-name="Ccedilla" horiz-adv-x="597" unicode="Ç" /><glyph d="M318 -10Q187 -10 121.5 82.5Q56 175 79 324L88 382Q110 526 191 608Q272 690 393 690Q501 690 558.5 627Q616 564 594 477L472 448Q499 547 477.5 601Q456 655 391 655Q326 655 283.5 598.5Q241 542 224 432L199 274Q179 147 209 86Q239 25 320 25Q374 25 410.5 60.5Q447 96 467 167L538 143Q505 67 449.5 28.5Q394 -10 318 -10ZM408 752 387 776Q417 813 435 843.5Q453 874 469 913H600Q559 867 515.5 830.5Q472 794 408 752Z" glyph-name="Cacute" horiz-adv-x="597" unicode="Ć" /><glyph d="M318 -10Q187 -10 121.5 82.5Q56 175 79 324L88 382Q110 526 191 608Q272 690 393 690Q501 690 558.5 627Q616 564 594 477L472 448Q499 547 477.5 601Q456 655 391 655Q326 655 283.5 598.5Q241 542 224 432L199 274Q179 147 209 86Q239 25 320 25Q374 25 410.5 60.5Q447 96 467 167L538 143Q505 67 449.5 28.5Q394 -10 318 -10ZM555 917 572 896Q531 856 509.5 830.5Q488 805 455 757H367Q352 803 339.5 829Q327 855 298 896L316 916Q345 897 371.5 875Q398 853 421 829Q448 850 483 873Q518 896 555 917Z" glyph-name="Ccaron" horiz-adv-x="597" unicode="Č" /><glyph d="M318 -10Q187 -10 121.5 82.5Q56 175 79 324L88 382Q110 526 191 608Q272 690 393 690Q501 690 558.5 627Q616 564 594 477L472 448Q499 547 477.5 601Q456 655 391 655Q326 655 283.5 598.5Q241 542 224 432L199 274Q179 147 209 86Q239 25 320 25Q374 25 410.5 60.5Q447 96 467 167L538 143Q505 67 449.5 28.5Q394 -10 318 -10ZM550 774 532 754Q503 773 476.5 795Q450 817 427 841Q400 820 365 797Q330 774 293 753L276 774Q317 814 338.5 839.5Q360 865 393 913H481Q496 867 508.5 841Q521 815 550 774Z" glyph-name="Ccircumflex" horiz-adv-x="597" unicode="Ĉ" /><glyph d="M318 -10Q187 -10 121.5 82.5Q56 175 79 324L88 382Q110 526 191 608Q272 690 393 690Q501 690 558.5 627Q616 564 594 477L472 448Q499 547 477.5 601Q456 655 391 655Q326 655 283.5 598.5Q241 542 224 432L199 274Q179 147 209 86Q239 25 320 25Q374 25 410.5 60.5Q447 96 467 167L538 143Q505 67 449.5 28.5Q394 -10 318 -10ZM491 843Q491 810 470.5 789Q450 768 417 768Q388 768 371.5 784Q355 800 355 828Q355 861 375.5 882Q396 903 429 903Q458 903 474.5 887Q491 871 491 843Z" glyph-name="Cdotaccent" horiz-adv-x="597" unicode="Ċ" /><glyph d="M167 645 113 652L118 680H395Q526 680 586 592.5Q646 505 621 357L612 304Q588 159 505 79.5Q422 0 295 0H-2L3 28L59 35Q76 37 80 44Q84 51 90 84L180 596Q186 629 184.5 636Q183 643 167 645ZM396 645 309 645L201 35H293Q365 35 412 92Q459 149 477 259L502 412Q522 533 496 589Q470 645 396 645ZM564 917 581 896Q540 856 518.5 830.5Q497 805 464 757H376Q361 803 348.5 829Q336 855 307 896L325 916Q354 897 380.5 875Q407 853 430 829Q457 850 492 873Q527 896 564 917Z" glyph-name="Dcaron" horiz-adv-x="669" unicode="Ď" /><glyph d="M172 645 118 652L123 680H400Q531 680 591 592.5Q651 505 626 357L617 304Q593 159 510 79.5Q427 0 300 0H3L8 28L64 35Q81 37 85 44Q89 51 95 84L139 337H62L69 372H146L185 596Q191 629 189.5 636Q188 643 172 645ZM406 372 399 337H259L206 35H298Q370 35 417 92Q464 149 482 259L507 412Q527 533 501 589Q475 645 401 645H314L266 372Z" glyph-name="Dcroat" horiz-adv-x="674" unicode="Đ" /><glyph d="M495 172 523 172L493 0H-2L3 28L59 35Q76 37 80 44Q84 51 90 84L180 596Q186 629 184.5 636Q183 643 167 645L113 652L118 680H603L573 508H545L532 619Q530 639 522.5 642Q515 645 483 645H309L259 361H373Q405 361 413.5 364Q422 367 431 387L468 468H496L452 219H424L416 300Q414 319 406.5 322.5Q399 326 366 326H253L201 35H385Q418 35 426.5 38.5Q435 42 444 61ZM394 752 373 776Q403 813 421 843.5Q439 874 455 913H586Q545 867 501.5 830.5Q458 794 394 752Z" glyph-name="Eacute" horiz-adv-x="603" unicode="É" /><glyph d="M495 172 523 172L493 0H-2L3 28L59 35Q76 37 80 44Q84 51 90 84L180 596Q186 629 184.5 636Q183 643 167 645L113 652L118 680H603L573 508H545L532 619Q530 639 522.5 642Q515 645 483 645H309L259 361H373Q405 361 413.5 364Q422 367 431 387L468 468H496L452 219H424L416 300Q414 319 406.5 322.5Q399 326 366 326H253L201 35H385Q418 35 426.5 38.5Q435 42 444 61ZM536 774 518 754Q489 773 462.5 795Q436 817 413 841Q386 820 351 797Q316 774 279 753L262 774Q303 814 324.5 839.5Q346 865 379 913H467Q482 867 494.5 841Q507 815 536 774Z" glyph-name="Ecircumflex" horiz-adv-x="603" unicode="Ê" /><glyph d="M495 172 523 172L493 0H-2L3 28L59 35Q76 37 80 44Q84 51 90 84L180 596Q186 629 184.5 636Q183 643 167 645L113 652L118 680H603L573 508H545L532 619Q530 639 522.5 642Q515 645 483 645H309L259 361H373Q405 361 413.5 364Q422 367 431 387L468 468H496L452 219H424L416 300Q414 319 406.5 322.5Q399 326 366 326H253L201 35H385Q418 35 426.5 38.5Q435 42 444 61ZM368 842Q368 812 348.5 792.5Q329 773 299 773Q273 773 257.5 788Q242 803 242 829Q242 859 261.5 878.5Q281 898 311 898Q337 898 352.5 883Q368 868 368 842ZM576 842Q576 812 556.5 792.5Q537 773 507 773Q481 773 465.5 788Q450 803 450 829Q450 859 469.5 878.5Q489 898 519 898Q545 898 560.5 883Q576 868 576 842Z" glyph-name="Edieresis" horiz-adv-x="603" unicode="Ë" /><glyph d="M495 172 523 172L493 0H-2L3 28L59 35Q76 37 80 44Q84 51 90 84L180 596Q186 629 184.5 636Q183 643 167 645L113 652L118 680H603L573 508H545L532 619Q530 639 522.5 642Q515 645 483 645H309L259 361H373Q405 361 413.5 364Q422 367 431 387L468 468H496L452 219H424L416 300Q414 319 406.5 322.5Q399 326 366 326H253L201 35H385Q418 35 426.5 38.5Q435 42 444 61ZM423 770 396 752Q348 793 317 829.5Q286 866 260 913H381Q383 875 392 844Q401 813 423 770Z" glyph-name="Egrave" horiz-adv-x="603" unicode="È" /><glyph d="M495 172 523 172L493 0H-2L3 28L59 35Q76 37 80 44Q84 51 90 84L180 596Q186 629 184.5 636Q183 643 167 645L113 652L118 680H603L573 508H545L532 619Q530 639 522.5 642Q515 645 483 645H309L259 361H373Q405 361 413.5 364Q422 367 431 387L468 468H496L452 219H424L416 300Q414 319 406.5 322.5Q399 326 366 326H253L201 35H385Q418 35 426.5 38.5Q435 42 444 61ZM408 834Q456 834 487 854.5Q518 875 535 918L569 908Q545 829 504 790.5Q463 752 402 752Q342 752 309 793Q276 834 277 908L309 918Q312 876 336.5 855Q361 834 408 834Z" glyph-name="Ebreve" horiz-adv-x="603" unicode="Ĕ" /><glyph d="M495 172 523 172L493 0H-2L3 28L59 35Q76 37 80 44Q84 51 90 84L180 596Q186 629 184.5 636Q183 643 167 645L113 652L118 680H603L573 508H545L532 619Q530 639 522.5 642Q515 645 483 645H309L259 361H373Q405 361 413.5 364Q422 367 431 387L468 468H496L452 219H424L416 300Q414 319 406.5 322.5Q399 326 366 326H253L201 35H385Q418 35 426.5 38.5Q435 42 444 61ZM541 917 558 896Q517 856 495.5 830.5Q474 805 441 757H353Q338 803 325.5 829Q313 855 284 896L302 916Q331 897 357.5 875Q384 853 407 829Q434 850 469 873Q504 896 541 917Z" glyph-name="Ecaron" horiz-adv-x="603" unicode="Ě" /><glyph d="M495 172 523 172L493 0H-2L3 28L59 35Q76 37 80 44Q84 51 90 84L180 596Q186 629 184.5 636Q183 643 167 645L113 652L118 680H603L573 508H545L532 619Q530 639 522.5 642Q515 645 483 645H309L259 361H373Q405 361 413.5 364Q422 367 431 387L468 468H496L452 219H424L416 300Q414 319 406.5 322.5Q399 326 366 326H253L201 35H385Q418 35 426.5 38.5Q435 42 444 61ZM477 843Q477 810 456.5 789Q436 768 403 768Q374 768 357.5 784Q341 800 341 828Q341 861 361.5 882Q382 903 415 903Q444 903 460.5 887Q477 871 477 843Z" glyph-name="Edotaccent" horiz-adv-x="603" unicode="Ė" /><glyph d="M495 172 523 172L493 0H-2L3 28L59 35Q76 37 80 44Q84 51 90 84L180 596Q186 629 184.5 636Q183 643 167 645L113 652L118 680H603L573 508H545L532 619Q530 639 522.5 642Q515 645 483 645H309L259 361H373Q405 361 413.5 364Q422 367 431 387L468 468H496L452 219H424L416 300Q414 319 406.5 322.5Q399 326 366 326H253L201 35H385Q418 35 426.5 38.5Q435 42 444 61ZM268 847 555 847L545 792H258Z" glyph-name="Emacron" horiz-adv-x="603" unicode="Ē" /><glyph d="M409 -112 471 -125Q448 -174 414 -198.5Q380 -223 335 -223Q283 -223 252.5 -200.5Q222 -178 222 -139Q222 -98 260 -60.5Q298 -23 362 0H-2L3 28L59 35Q76 37 80 44Q84 51 90 84L180 596Q186 629 184.5 636Q183 643 167 645L113 652L118 680H603L573 508H545L532 619Q530 639 522.5 642Q515 645 483 645H309L259 361H373Q405 361 413.5 364Q422 367 431 387L468 468H496L452 219H424L416 300Q414 319 406.5 322.5Q399 326 366 326H253L201 35H385Q418 35 426.5 38.5Q435 42 444 61L495 172H523L493 0H470Q398 0 351 -42Q304 -84 304 -143Q304 -166 312.5 -177.5Q321 -189 339 -189Q363 -189 380 -170Q397 -151 409 -112Z" glyph-name="Eogonek" horiz-adv-x="603" unicode="Ę" /><glyph d="M526 12 499 12Q486 28 474.5 39Q463 50 451 57Q424 25 384.5 7.5Q345 -10 301 -10Q179 -10 117.5 83Q56 176 79 324L88 382Q110 526 193 608Q276 690 400 690Q511 690 570.5 627Q630 564 608 477L486 448Q513 549 490.5 602Q468 655 398 655Q330 655 285.5 598.5Q241 542 224 432L199 274Q180 149 206.5 87Q233 25 306 25Q345 25 376.5 41Q408 57 429 89L453 224Q459 259 457 265.5Q455 272 440 273L366 280L371 308H655L650 280L594 273Q577 271 573 264Q569 257 563 224ZM439 834Q487 834 518 854.5Q549 875 566 918L600 908Q576 829 535 790.5Q494 752 433 752Q373 752 340 793Q307 834 308 908L340 918Q343 876 367.5 855Q392 834 439 834Z" glyph-name="Gbreve" horiz-adv-x="663" unicode="Ğ" /><glyph d="M526 12 499 12Q486 28 474.5 39Q463 50 451 57Q424 25 384.5 7.5Q345 -10 301 -10Q179 -10 117.5 83Q56 176 79 324L88 382Q110 526 193 608Q276 690 400 690Q511 690 570.5 627Q630 564 608 477L486 448Q513 549 490.5 602Q468 655 398 655Q330 655 285.5 598.5Q241 542 224 432L199 274Q180 149 206.5 87Q233 25 306 25Q345 25 376.5 41Q408 57 429 89L453 224Q459 259 457 265.5Q455 272 440 273L366 280L371 308H655L650 280L594 273Q577 271 573 264Q569 257 563 224ZM566 774 548 754Q519 773 492.5 795Q466 817 443 841Q416 820 381 797Q346 774 309 753L292 774Q333 814 354.5 839.5Q376 865 409 913H497Q512 867 524.5 841Q537 815 566 774Z" glyph-name="Gcircumflex" horiz-adv-x="663" unicode="Ĝ" /><glyph d="M526 12 499 12Q486 28 474.5 39Q463 50 451 57Q424 25 384.5 7.5Q345 -10 301 -10Q179 -10 117.5 83Q56 176 79 324L88 382Q110 526 193 608Q276 690 400 690Q511 690 570.5 627Q630 564 608 477L486 448Q513 549 490.5 602Q468 655 398 655Q330 655 285.5 598.5Q241 542 224 432L199 274Q180 149 206.5 87Q233 25 306 25Q345 25 376.5 41Q408 57 429 89L453 224Q459 259 457 265.5Q455 272 440 273L366 280L371 308H655L650 280L594 273Q577 271 573 264Q569 257 563 224ZM175 -248 155 -230Q179 -193 195.5 -157Q212 -121 225 -77H342Q309 -125 267.5 -167.5Q226 -210 175 -248Z" glyph-name="Gcommaaccent" horiz-adv-x="663" unicode="Ģ" /><glyph d="M526 12 499 12Q486 28 474.5 39Q463 50 451 57Q424 25 384.5 7.5Q345 -10 301 -10Q179 -10 117.5 83Q56 176 79 324L88 382Q110 526 193 608Q276 690 400 690Q511 690 570.5 627Q630 564 608 477L486 448Q513 549 490.5 602Q468 655 398 655Q330 655 285.5 598.5Q241 542 224 432L199 274Q180 149 206.5 87Q233 25 306 25Q345 25 376.5 41Q408 57 429 89L453 224Q459 259 457 265.5Q455 272 440 273L366 280L371 308H655L650 280L594 273Q577 271 573 264Q569 257 563 224ZM508 843Q508 810 487.5 789Q467 768 434 768Q405 768 388.5 784Q372 800 372 828Q372 861 392.5 882Q413 903 446 903Q475 903 491.5 887Q508 871 508 843Z" glyph-name="Gdotaccent" horiz-adv-x="663" unicode="Ġ" /><glyph d="M228 35 282 28L277 0H3L8 28L64 35Q81 37 85 44Q89 51 95 84L167 493H90L96 526H173L185 596Q191 629 189.5 636Q188 643 172 645L118 652L123 680H397L392 652L336 645Q319 643 315 636Q311 629 305 596L293 526H556L568 596Q574 629 572.5 636Q571 643 555 645L501 652L506 680H780L775 652L719 645Q702 643 698 636Q694 629 688 596L676 526H753L747 493H670L598 84Q592 51 593.5 44Q595 37 611 35L665 28L660 0H386L391 28L447 35Q464 37 468 44Q472 51 478 84L520 326H258L215 84Q209 51 210.5 44Q212 37 228 35ZM287 493 264 361H527L550 493Z" glyph-name="Hbar" horiz-adv-x="753" unicode="Ħ" /><glyph d="M223 35 277 28L272 0H-2L3 28L59 35Q76 37 80 44Q84 51 90 84L180 596Q186 629 184.5 636Q183 643 167 645L113 652L118 680H392L387 652L331 645Q314 643 310 636Q306 629 300 596L259 361H522L563 596Q569 629 567.5 636Q566 643 550 645L496 652L501 680H775L770 652L714 645Q697 643 693 636Q689 629 683 596L593 84Q587 51 588.5 44Q590 37 606 35L660 28L655 0H381L386 28L442 35Q459 37 463 44Q467 51 473 84L515 326H253L210 84Q204 51 205.5 44Q207 37 223 35ZM590 774 572 754Q543 773 516.5 795Q490 817 467 841Q440 820 405 797Q370 774 333 753L316 774Q357 814 378.5 839.5Q400 865 433 913H521Q536 867 548.5 841Q561 815 590 774Z" glyph-name="Hcircumflex" horiz-adv-x="743" unicode="Ĥ" /><glyph d="M167 645 113 652L118 680H392L387 652L331 645Q314 643 310 636Q306 629 300 596L210 84Q204 51 205.5 44Q207 37 223 35L277 28L272 0H-2L3 28L59 35Q76 37 80 44Q84 51 90 84L180 596Q186 629 184.5 636Q183 643 167 645ZM264 752 243 776Q273 813 291 843.5Q309 874 325 913H456Q415 867 371.5 830.5Q328 794 264 752Z" glyph-name="Iacute" horiz-adv-x="360" unicode="Í" /><glyph d="M167 645 113 652L118 680H392L387 652L331 645Q314 643 310 636Q306 629 300 596L210 84Q204 51 205.5 44Q207 37 223 35L277 28L272 0H-2L3 28L59 35Q76 37 80 44Q84 51 90 84L180 596Q186 629 184.5 636Q183 643 167 645ZM406 774 388 754Q359 773 332.5 795Q306 817 283 841Q256 820 221 797Q186 774 149 753L132 774Q173 814 194.5 839.5Q216 865 249 913H337Q352 867 364.5 841Q377 815 406 774Z" glyph-name="Icircumflex" horiz-adv-x="360" unicode="Î" /><glyph d="M167 645 113 652L118 680H392L387 652L331 645Q314 643 310 636Q306 629 300 596L210 84Q204 51 205.5 44Q207 37 223 35L277 28L272 0H-2L3 28L59 35Q76 37 80 44Q84 51 90 84L180 596Q186 629 184.5 636Q183 643 167 645ZM239 842Q239 812 219.5 792.5Q200 773 170 773Q144 773 128.5 788Q113 803 113 829Q113 859 132.5 878.5Q152 898 182 898Q208 898 223.5 883Q239 868 239 842ZM447 842Q447 812 427.5 792.5Q408 773 378 773Q352 773 336.5 788Q321 803 321 829Q321 859 340.5 878.5Q360 898 390 898Q416 898 431.5 883Q447 868 447 842Z" glyph-name="Idieresis" horiz-adv-x="360" unicode="Ï" /><glyph d="M167 645 113 652L118 680H392L387 652L331 645Q314 643 310 636Q306 629 300 596L210 84Q204 51 205.5 44Q207 37 223 35L277 28L272 0H-2L3 28L59 35Q76 37 80 44Q84 51 90 84L180 596Q186 629 184.5 636Q183 643 167 645ZM293 770 266 752Q218 793 187 829.5Q156 866 130 913H251Q253 875 262 844Q271 813 293 770Z" glyph-name="Igrave" horiz-adv-x="360" unicode="Ì" /><glyph d="M167 645 113 652L118 680H392L387 652L331 645Q314 643 310 636Q306 629 300 596L210 84Q204 51 205.5 44Q207 37 223 35L277 28L272 0H-2L3 28L59 35Q76 37 80 44Q84 51 90 84L180 596Q186 629 184.5 636Q183 643 167 645ZM278 834Q326 834 357 854.5Q388 875 405 918L439 908Q415 829 374 790.5Q333 752 272 752Q212 752 179 793Q146 834 147 908L179 918Q182 876 206.5 855Q231 834 278 834Z" glyph-name="Ibreve" horiz-adv-x="360" unicode="Ĭ" /><glyph d="M167 645 113 652L118 680H392L387 652L331 645Q314 643 310 636Q306 629 300 596L210 84Q204 51 205.5 44Q207 37 223 35L277 28L272 0H-2L3 28L59 35Q76 37 80 44Q84 51 90 84L180 596Q186 629 184.5 636Q183 643 167 645ZM348 843Q348 810 327.5 789Q307 768 274 768Q245 768 228.5 784Q212 800 212 828Q212 861 232.5 882Q253 903 286 903Q315 903 331.5 887Q348 871 348 843Z" glyph-name="Idotaccent" horiz-adv-x="360" unicode="İ" /><glyph d="M167 645 113 652L118 680H392L387 652L331 645Q314 643 310 636Q306 629 300 596L210 84Q204 51 205.5 44Q207 37 223 35L277 28L272 0H-2L3 28L59 35Q76 37 80 44Q84 51 90 84L180 596Q186 629 184.5 636Q183 643 167 645ZM139 847 426 847L416 792H129Z" glyph-name="Imacron" horiz-adv-x="360" unicode="Ī" /><glyph d="M147 -112 209 -125Q186 -174 152 -198.5Q118 -223 73 -223Q21 -223 -9.5 -200.5Q-40 -178 -40 -139Q-40 -101 -10.5 -65.5Q19 -30 71 -4L177 596Q183 629 181.5 636Q180 643 164 645L110 652L115 680H389L384 652L328 645Q311 643 307 636Q303 629 297 596L207 84Q201 51 202.5 44Q204 37 220 35L274 28L269 0H208Q136 0 89 -42Q42 -84 42 -143Q42 -166 50.5 -177.5Q59 -189 77 -189Q101 -189 118 -170Q135 -151 147 -112Z" glyph-name="Iogonek" horiz-adv-x="357" unicode="Į" /><glyph d="M167 645 113 652L118 680H392L387 652L331 645Q314 643 310 636Q306 629 300 596L210 84Q204 51 205.5 44Q207 37 223 35L277 28L272 0H-2L3 28L59 35Q76 37 80 44Q84 51 90 84L180 596Q186 629 184.5 636Q183 643 167 645ZM338 756Q320 756 303 765.5Q286 775 260 804Q239 826 228.5 832.5Q218 839 208 839Q191 839 179 821Q167 803 154 761H118Q137 844 161.5 881Q186 918 222 918Q241 918 258.5 908.5Q276 899 302 870Q322 848 332.5 841.5Q343 835 353 835Q369 835 381 852.5Q393 870 406 913H442Q423 830 398.5 793Q374 756 338 756Z" glyph-name="Itilde" horiz-adv-x="360" unicode="Ĩ" /><glyph d="M296 645 242 652L247 680H521L516 652L460 645Q443 643 439 636Q435 629 429 596L356 182Q340 90 282 40Q224 -10 133 -10Q60 -10 21.5 29.5Q-17 69 -14 142L63 162Q54 94 69 59.5Q84 25 122 25Q164 25 193 62.5Q222 100 235 174L309 596Q315 629 313.5 636Q312 643 296 645ZM535 774 517 754Q488 773 461.5 795Q435 817 412 841Q385 820 350 797Q315 774 278 753L261 774Q302 814 323.5 839.5Q345 865 378 913H466Q481 867 493.5 841Q506 815 535 774Z" glyph-name="Jcircumflex" horiz-adv-x="476" unicode="Ĵ" /><glyph d="M167 645 113 652L118 680H392L387 652L331 645Q314 643 310 636Q306 629 300 596L210 84Q204 51 205.5 44Q207 37 223 35L277 28L272 0H-2L3 28L59 35Q76 37 80 44Q84 51 90 84L180 596Q186 629 184.5 636Q183 643 167 645ZM656 645 602 652L607 680H881L876 652L820 645Q803 643 799 636Q795 629 789 596L716 182Q700 90 642 40Q584 -10 493 -10Q420 -10 381.5 29.5Q343 69 346 142L423 162Q414 94 429 59.5Q444 25 482 25Q524 25 553 62.5Q582 100 595 174L669 596Q675 629 673.5 636Q672 643 656 645Z" glyph-name="IJ" horiz-adv-x="836" unicode="Ĳ" /><glyph d="M223 35 277 28L272 0H-2L3 28L59 35Q76 37 80 44Q84 51 90 84L180 596Q186 629 184.5 636Q183 643 167 645L113 652L118 680H392L387 652L331 645Q315 642 310 633Q305 624 300 596L256 346L522 596Q553 625 558.5 633.5Q564 642 547 645L493 652L498 680H706L701 652L645 645Q631 643 623 638Q615 633 576 596L411 441L527 84Q536 57 543 47.5Q550 38 568 35L612 28L607 0H422L317 353L245 285L210 84Q204 51 205.5 44Q207 37 223 35ZM185 -248 165 -230Q189 -193 205.5 -157Q222 -121 235 -77H352Q319 -125 277.5 -167.5Q236 -210 185 -248Z" glyph-name="Kcommaaccent" horiz-adv-x="656" unicode="Ķ" /><glyph d="M807 685 831 664Q814 631 793.5 575.5Q773 520 760 474H647Q688 541 731 598Q774 655 807 685ZM223 35 277 28L272 0H-2L3 28L59 35Q76 37 80 44Q84 51 90 84L180 596Q186 629 184.5 636Q183 643 167 645L113 652L118 680H392L387 652L331 645Q315 642 310 633Q305 624 300 596L256 346L522 596Q553 625 558.5 633.5Q564 642 547 645L493 652L498 680H706L701 652L645 645Q631 643 623 638Q615 633 576 596L411 441L527 84Q536 57 543 47.5Q550 38 568 35L612 28L607 0H422L317 353L245 285L210 84Q204 51 205.5 44Q207 37 223 35Z" glyph-name="kgreenlandic.case" horiz-adv-x="766" unicode="" /><glyph d="M475 172 503 172L473 0H-2L3 28L59 35Q76 37 80 44Q84 51 90 84L180 596Q186 629 184.5 636Q183 643 167 645L113 652L118 680H392L387 652L331 645Q314 643 310 636Q306 629 300 596L201 35H365Q398 35 406.5 38.5Q415 42 424 61ZM269 752 248 776Q278 813 296 843.5Q314 874 330 913H461Q420 867 376.5 830.5Q333 794 269 752Z" glyph-name="Lacute" horiz-adv-x="532" unicode="Ĺ" /><glyph d="M475 172 503 172L473 0H-2L3 28L59 35Q76 37 80 44Q84 51 90 84L180 596Q186 629 184.5 636Q183 643 167 645L113 652L118 680H392L387 652L331 645Q314 643 310 636Q306 629 300 596L201 35H365Q398 35 406.5 38.5Q415 42 424 61ZM430 466 406 466L443 680H552Q523 622 494.5 572Q466 522 430 466Z" glyph-name="Lcaron" horiz-adv-x="532" unicode="Ľ" /><glyph d="M475 172 503 172L473 0H-2L3 28L59 35Q76 37 80 44Q84 51 90 84L180 596Q186 629 184.5 636Q183 643 167 645L113 652L118 680H392L387 652L331 645Q314 643 310 636Q306 629 300 596L201 35H365Q398 35 406.5 38.5Q415 42 424 61ZM142 -248 122 -230Q146 -193 162.5 -157Q179 -121 192 -77H309Q276 -125 234.5 -167.5Q193 -210 142 -248Z" glyph-name="Lcommaaccent" horiz-adv-x="532" unicode="Ļ" /><glyph d="M475 172 503 172L473 0H-2L3 28L59 35Q76 37 80 44Q84 51 90 84L180 596Q186 629 184.5 636Q183 643 167 645L113 652L118 680H392L387 652L331 645Q314 643 310 636Q306 629 300 596L201 35H365Q398 35 406.5 38.5Q415 42 424 61ZM534 392Q534 359 513.5 338Q493 317 460 317Q431 317 414.5 333Q398 349 398 377Q398 410 418.5 431Q439 452 472 452Q501 452 517.5 436Q534 420 534 392Z" glyph-name="Ldot" horiz-adv-x="532" unicode="Ŀ" /><glyph d="M167 645 113 652L118 680H310L531 202L602 596Q608 629 606.5 636Q605 643 589 645L535 652L540 680H734L729 652L673 645Q656 643 652 635.5Q648 628 642 596L537 0H494L220 594L130 84Q124 51 125.5 44Q127 37 143 35L197 28L192 0H-2L3 28L59 35Q76 37 80 44Q84 51 90 84L180 596Q186 629 184.5 636Q183 643 167 645ZM518 756Q500 756 483 765.5Q466 775 440 804Q419 826 408.5 832.5Q398 839 388 839Q371 839 359 821Q347 803 334 761H298Q317 844 341.5 881Q366 918 402 918Q421 918 438.5 908.5Q456 899 482 870Q502 848 512.5 841.5Q523 835 533 835Q549 835 561 852.5Q573 870 586 913H622Q603 830 578.5 793Q554 756 518 756Z" glyph-name="Ntilde" horiz-adv-x="687" unicode="Ñ" /><glyph d="M167 645 113 652L118 680H310L531 202L602 596Q608 629 606.5 636Q605 643 589 645L535 652L540 680H734L729 652L673 645Q656 643 652 635.5Q648 628 642 596L537 0H494L220 594L130 84Q124 51 125.5 44Q127 37 143 35L197 28L192 0H-2L3 28L59 35Q76 37 80 44Q84 51 90 84L180 596Q186 629 184.5 636Q183 643 167 645ZM444 752 423 776Q453 813 471 843.5Q489 874 505 913H636Q595 867 551.5 830.5Q508 794 444 752Z" glyph-name="Nacute" horiz-adv-x="687" unicode="Ń" /><glyph d="M167 645 113 652L118 680H310L531 202L602 596Q608 629 606.5 636Q605 643 589 645L535 652L540 680H734L729 652L673 645Q656 643 652 635.5Q648 628 642 596L537 0H494L220 594L130 84Q124 51 125.5 44Q127 37 143 35L197 28L192 0H-2L3 28L59 35Q76 37 80 44Q84 51 90 84L180 596Q186 629 184.5 636Q183 643 167 645ZM591 917 608 896Q567 856 545.5 830.5Q524 805 491 757H403Q388 803 375.5 829Q363 855 334 896L352 916Q381 897 407.5 875Q434 853 457 829Q484 850 519 873Q554 896 591 917Z" glyph-name="Ncaron" horiz-adv-x="687" unicode="Ň" /><glyph d="M167 645 113 652L118 680H310L531 202L602 596Q608 629 606.5 636Q605 643 589 645L535 652L540 680H734L729 652L673 645Q656 643 652 635.5Q648 628 642 596L537 0H494L220 594L130 84Q124 51 125.5 44Q127 37 143 35L197 28L192 0H-2L3 28L59 35Q76 37 80 44Q84 51 90 84L180 596Q186 629 184.5 636Q183 643 167 645ZM185 -248 165 -230Q189 -193 205.5 -157Q222 -121 235 -77H352Q319 -125 277.5 -167.5Q236 -210 185 -248Z" glyph-name="Ncommaaccent" horiz-adv-x="687" unicode="Ņ" /><glyph d="M167 645 113 652L118 680H310L531 202L602 596Q608 629 606.5 636Q605 643 589 645L535 652L540 680H734L729 652L673 645Q656 643 652 635.5Q648 628 642 596L531 -31Q514 -126 459 -174.5Q404 -223 312 -223Q248 -223 212 -183Q176 -143 181 -71L258 -51Q248 -118 260.5 -153Q273 -188 307 -188Q347 -188 374.5 -150.5Q402 -113 415 -39L442 113L220 594L130 84Q124 51 125.5 44Q127 37 143 35L197 28L192 0H-2L3 28L59 35Q76 37 80 44Q84 51 90 84L180 596Q186 629 184.5 636Q183 643 167 645Z" glyph-name="Eng" horiz-adv-x="687" unicode="Ŋ" /><glyph d="M311 645 257 652L262 680H454L675 202L746 596Q752 629 750.5 636Q749 643 733 645L679 652L684 680H878L873 652L817 645Q800 643 796 635.5Q792 628 786 596L681 0H638L364 594L274 84Q268 51 269.5 44Q271 37 287 35L341 28L336 0H142L147 28L203 35Q220 37 224 44Q228 51 234 84L324 596Q330 629 328.5 636Q327 643 311 645ZM139 690Q167 690 183 672Q199 654 199 623Q199 580 166.5 529Q134 478 58 406L38 428Q76 466 96.5 497.5Q117 529 124 559Q97 561 83 575.5Q69 590 69 616Q69 649 88.5 669.5Q108 690 139 690Z" glyph-name="napostrophe.case" horiz-adv-x="831" unicode="" /><glyph d="M405 690Q535 690 594.5 599.5Q654 509 628 357L619 304Q594 155 510 72.5Q426 -10 299 -10Q169 -10 110 80.5Q51 171 77 324L86 377Q111 525 195 607.5Q279 690 405 690ZM484 259 509 412Q529 537 503 596Q477 655 403 655Q332 655 286.5 597Q241 539 221 422L196 269Q176 145 201.5 85Q227 25 300 25Q372 25 418.5 84Q465 143 484 259ZM420 752 399 776Q429 813 447 843.5Q465 874 481 913H612Q571 867 527.5 830.5Q484 794 420 752Z" glyph-name="Oacute" horiz-adv-x="674" unicode="Ó" /><glyph d="M405 690Q535 690 594.5 599.5Q654 509 628 357L619 304Q594 155 510 72.5Q426 -10 299 -10Q169 -10 110 80.5Q51 171 77 324L86 377Q111 525 195 607.5Q279 690 405 690ZM484 259 509 412Q529 537 503 596Q477 655 403 655Q332 655 286.5 597Q241 539 221 422L196 269Q176 145 201.5 85Q227 25 300 25Q372 25 418.5 84Q465 143 484 259ZM562 774 544 754Q515 773 488.5 795Q462 817 439 841Q412 820 377 797Q342 774 305 753L288 774Q329 814 350.5 839.5Q372 865 405 913H493Q508 867 520.5 841Q533 815 562 774Z" glyph-name="Ocircumflex" horiz-adv-x="674" unicode="Ô" /><glyph d="M405 690Q535 690 594.5 599.5Q654 509 628 357L619 304Q594 155 510 72.5Q426 -10 299 -10Q169 -10 110 80.5Q51 171 77 324L86 377Q111 525 195 607.5Q279 690 405 690ZM484 259 509 412Q529 537 503 596Q477 655 403 655Q332 655 286.5 597Q241 539 221 422L196 269Q176 145 201.5 85Q227 25 300 25Q372 25 418.5 84Q465 143 484 259ZM395 842Q395 812 375.5 792.5Q356 773 326 773Q300 773 284.5 788Q269 803 269 829Q269 859 288.5 878.5Q308 898 338 898Q364 898 379.5 883Q395 868 395 842ZM603 842Q603 812 583.5 792.5Q564 773 534 773Q508 773 492.5 788Q477 803 477 829Q477 859 496.5 878.5Q516 898 546 898Q572 898 587.5 883Q603 868 603 842Z" glyph-name="Odieresis" horiz-adv-x="674" unicode="Ö" /><glyph d="M405 690Q535 690 594.5 599.5Q654 509 628 357L619 304Q594 155 510 72.5Q426 -10 299 -10Q169 -10 110 80.5Q51 171 77 324L86 377Q111 525 195 607.5Q279 690 405 690ZM484 259 509 412Q529 537 503 596Q477 655 403 655Q332 655 286.5 597Q241 539 221 422L196 269Q176 145 201.5 85Q227 25 300 25Q372 25 418.5 84Q465 143 484 259ZM449 770 422 752Q374 793 343 829.5Q312 866 286 913H407Q409 875 418 844Q427 813 449 770Z" glyph-name="Ograve" horiz-adv-x="674" unicode="Ò" /><glyph d="M405 690Q535 690 594.5 599.5Q654 509 628 357L619 304Q594 155 510 72.5Q426 -10 299 -10Q169 -10 110 80.5Q51 171 77 324L86 377Q111 525 195 607.5Q279 690 405 690ZM484 259 509 412Q529 537 503 596Q477 655 403 655Q332 655 286.5 597Q241 539 221 422L196 269Q176 145 201.5 85Q227 25 300 25Q372 25 418.5 84Q465 143 484 259ZM494 756Q476 756 459 765.5Q442 775 416 804Q395 826 384.5 832.5Q374 839 364 839Q347 839 335 821Q323 803 310 761H274Q293 844 317.5 881Q342 918 378 918Q397 918 414.5 908.5Q432 899 458 870Q478 848 488.5 841.5Q499 835 509 835Q525 835 537 852.5Q549 870 562 913H598Q579 830 554.5 793Q530 756 494 756Z" glyph-name="Otilde" horiz-adv-x="674" unicode="Õ" /><glyph d="M405 690Q535 690 594.5 599.5Q654 509 628 357L619 304Q594 155 510 72.5Q426 -10 299 -10Q169 -10 110 80.5Q51 171 77 324L86 377Q111 525 195 607.5Q279 690 405 690ZM484 259 509 412Q529 537 503 596Q477 655 403 655Q332 655 286.5 597Q241 539 221 422L196 269Q176 145 201.5 85Q227 25 300 25Q372 25 418.5 84Q465 143 484 259ZM434 834Q482 834 513 854.5Q544 875 561 918L595 908Q571 829 530 790.5Q489 752 428 752Q368 752 335 793Q302 834 303 908L335 918Q338 876 362.5 855Q387 834 434 834Z" glyph-name="Obreve" horiz-adv-x="674" unicode="Ŏ" /><glyph d="M405 690Q535 690 594.5 599.5Q654 509 628 357L619 304Q594 155 510 72.5Q426 -10 299 -10Q169 -10 110 80.5Q51 171 77 324L86 377Q111 525 195 607.5Q279 690 405 690ZM484 259 509 412Q529 537 503 596Q477 655 403 655Q332 655 286.5 597Q241 539 221 422L196 269Q176 145 201.5 85Q227 25 300 25Q372 25 418.5 84Q465 143 484 259ZM341 752 321 774Q345 802 361.5 835Q378 868 391 913H507Q472 869 432.5 830.5Q393 792 341 752ZM483 752 463 774Q487 802 503.5 835Q520 868 533 913H649Q614 869 574.5 830.5Q535 792 483 752Z" glyph-name="Ohungarumlaut" horiz-adv-x="674" unicode="Ő" /><glyph d="M405 690Q535 690 594.5 599.5Q654 509 628 357L619 304Q594 155 510 72.5Q426 -10 299 -10Q169 -10 110 80.5Q51 171 77 324L86 377Q111 525 195 607.5Q279 690 405 690ZM484 259 509 412Q529 537 503 596Q477 655 403 655Q332 655 286.5 597Q241 539 221 422L196 269Q176 145 201.5 85Q227 25 300 25Q372 25 418.5 84Q465 143 484 259ZM295 847 582 847L572 792H285Z" glyph-name="Omacron" horiz-adv-x="674" unicode="Ō" /><glyph d="M167 645 113 652L118 680H415Q515 680 568 629.5Q621 579 607 500L603 477Q592 414 553 374Q514 334 448 319L531 84Q544 49 548.5 43Q553 37 567 35L611 28L606 0H426L330 310H250L210 84Q204 51 205.5 44Q207 37 223 35L277 28L272 0H-2L3 28L59 35Q76 37 80 44Q84 51 90 84L180 596Q186 629 184.5 636Q183 643 167 645ZM414 645 309 645L256 345H361Q407 345 435.5 375.5Q464 406 474 467L481 510Q492 578 475.5 611.5Q459 645 414 645ZM406 752 385 776Q415 813 433 843.5Q451 874 467 913H598Q557 867 513.5 830.5Q470 794 406 752Z" glyph-name="Racute" horiz-adv-x="651" unicode="Ŕ" /><glyph d="M167 645 113 652L118 680H415Q515 680 568 629.5Q621 579 607 500L603 477Q592 414 553 374Q514 334 448 319L531 84Q544 49 548.5 43Q553 37 567 35L611 28L606 0H426L330 310H250L210 84Q204 51 205.5 44Q207 37 223 35L277 28L272 0H-2L3 28L59 35Q76 37 80 44Q84 51 90 84L180 596Q186 629 184.5 636Q183 643 167 645ZM414 645 309 645L256 345H361Q407 345 435.5 375.5Q464 406 474 467L481 510Q492 578 475.5 611.5Q459 645 414 645ZM553 917 570 896Q529 856 507.5 830.5Q486 805 453 757H365Q350 803 337.5 829Q325 855 296 896L314 916Q343 897 369.5 875Q396 853 419 829Q446 850 481 873Q516 896 553 917Z" glyph-name="Rcaron" horiz-adv-x="651" unicode="Ř" /><glyph d="M167 645 113 652L118 680H415Q515 680 568 629.5Q621 579 607 500L603 477Q592 414 553 374Q514 334 448 319L531 84Q544 49 548.5 43Q553 37 567 35L611 28L606 0H426L330 310H250L210 84Q204 51 205.5 44Q207 37 223 35L277 28L272 0H-2L3 28L59 35Q76 37 80 44Q84 51 90 84L180 596Q186 629 184.5 636Q183 643 167 645ZM414 645 309 645L256 345H361Q407 345 435.5 375.5Q464 406 474 467L481 510Q492 578 475.5 611.5Q459 645 414 645ZM183 -248 163 -230Q187 -193 203.5 -157Q220 -121 233 -77H350Q317 -125 275.5 -167.5Q234 -210 183 -248Z" glyph-name="Rcommaaccent" horiz-adv-x="651" unicode="Ŗ" /><glyph d="M501 200Q501 105 432 47.5Q363 -10 245 -10Q137 -10 81.5 36Q26 82 30 171L101 195Q93 109 128 67Q163 25 245 25Q319 25 359 57.5Q399 90 399 151Q399 194 377 221.5Q355 249 305 270L215 308Q156 333 126 378.5Q96 424 96 488Q96 582 157.5 636Q219 690 328 690Q378 690 417.5 676.5Q457 663 485 637Q516 606 527 564.5Q538 523 526 483L407 462Q437 552 413.5 603.5Q390 655 318 655Q260 655 229 624Q198 593 198 536Q198 488 219 458.5Q240 429 286 409L377 371Q439 345 470 302Q501 259 501 200ZM493 917 510 896Q469 856 447.5 830.5Q426 805 393 757H305Q290 803 277.5 829Q265 855 236 896L254 916Q283 897 309.5 875Q336 853 359 829Q386 850 421 873Q456 896 493 917Z" glyph-name="Scaron" horiz-adv-x="562" unicode="Š" /><glyph d="M501 200Q501 105 432 47.5Q363 -10 245 -10Q137 -10 81.5 36Q26 82 30 171L101 195Q93 109 128 67Q163 25 245 25Q319 25 359 57.5Q399 90 399 151Q399 194 377 221.5Q355 249 305 270L215 308Q156 333 126 378.5Q96 424 96 488Q96 582 157.5 636Q219 690 328 690Q378 690 417.5 676.5Q457 663 485 637Q516 606 527 564.5Q538 523 526 483L407 462Q437 552 413.5 603.5Q390 655 318 655Q260 655 229 624Q198 593 198 536Q198 488 219 458.5Q240 429 286 409L377 371Q439 345 470 302Q501 259 501 200ZM346 752 325 776Q355 813 373 843.5Q391 874 407 913H538Q497 867 453.5 830.5Q410 794 346 752Z" glyph-name="Sacute" horiz-adv-x="562" unicode="Ś" /><glyph d="M303 -132Q303 -171 268 -197Q233 -223 179 -223Q130 -223 101 -202.5Q72 -182 71 -145L129 -131Q127 -162 136 -176.5Q145 -191 166 -191Q191 -191 206 -173Q221 -155 221 -128Q221 -107 210 -97Q199 -87 177 -87Q173 -87 168 -87.5Q163 -88 156 -89L148 -63L182 -5Q104 7 65.5 51.5Q27 96 30 171L101 195Q93 109 128 67Q163 25 245 25Q319 25 359 57.5Q399 90 399 151Q399 194 377 221.5Q355 249 305 270L215 308Q156 333 126 378.5Q96 424 96 488Q96 582 157.5 636Q219 690 328 690Q378 690 417.5 676.5Q457 663 485 637Q516 606 527 564.5Q538 523 526 483L407 462Q437 552 413.5 603.5Q390 655 318 655Q260 655 229 624Q198 593 198 536Q198 488 219 458.5Q240 429 286 409L377 371Q439 345 470 302Q501 259 501 200Q501 105 432 47.5Q363 -10 245 -10Q234 -10 229 -10Q224 -10 220 -9L193 -55Q244 -56 273.5 -77Q303 -98 303 -132Z" glyph-name="Scedilla" horiz-adv-x="562" unicode="Ş" /><glyph d="M501 200Q501 105 432 47.5Q363 -10 245 -10Q137 -10 81.5 36Q26 82 30 171L101 195Q93 109 128 67Q163 25 245 25Q319 25 359 57.5Q399 90 399 151Q399 194 377 221.5Q355 249 305 270L215 308Q156 333 126 378.5Q96 424 96 488Q96 582 157.5 636Q219 690 328 690Q378 690 417.5 676.5Q457 663 485 637Q516 606 527 564.5Q538 523 526 483L407 462Q437 552 413.5 603.5Q390 655 318 655Q260 655 229 624Q198 593 198 536Q198 488 219 458.5Q240 429 286 409L377 371Q439 345 470 302Q501 259 501 200ZM488 774 470 754Q441 773 414.5 795Q388 817 365 841Q338 820 303 797Q268 774 231 753L214 774Q255 814 276.5 839.5Q298 865 331 913H419Q434 867 446.5 841Q459 815 488 774Z" glyph-name="Scircumflex" horiz-adv-x="562" unicode="Ŝ" /><glyph d="M501 200Q501 105 432 47.5Q363 -10 245 -10Q137 -10 81.5 36Q26 82 30 171L101 195Q93 109 128 67Q163 25 245 25Q319 25 359 57.5Q399 90 399 151Q399 194 377 221.5Q355 249 305 270L215 308Q156 333 126 378.5Q96 424 96 488Q96 582 157.5 636Q219 690 328 690Q378 690 417.5 676.5Q457 663 485 637Q516 606 527 564.5Q538 523 526 483L407 462Q437 552 413.5 603.5Q390 655 318 655Q260 655 229 624Q198 593 198 536Q198 488 219 458.5Q240 429 286 409L377 371Q439 345 470 302Q501 259 501 200ZM109 -248 89 -230Q113 -193 129.5 -157Q146 -121 159 -77H276Q243 -125 201.5 -167.5Q160 -210 109 -248Z" glyph-name="uni0218" horiz-adv-x="562" unicode="Ș" /><glyph d="M330 35 384 28L379 0H105L110 28L166 35Q183 37 187 44Q191 51 197 84L239 322H98L104 357H245L296 645H195Q176 645 169.5 644.5Q163 644 159 644Q151 642 147 638.5Q143 635 136 619L85 508H57L87 680H637L607 508H579L566 619Q565 635 562 639Q559 643 551 644Q547 645 541 645Q535 645 517 645H416L365 357H506L500 322H359L317 84Q311 51 312.5 44Q314 37 330 35Z" glyph-name="Tbar" horiz-adv-x="574" unicode="Ŧ" /><glyph d="M85 508 57 508L87 680H637L607 508H579L566 619Q565 635 562 639Q559 643 551 644Q547 645 541 645Q535 645 517 645H416L317 84Q311 51 312.5 44Q314 37 330 35L384 28L379 0H105L110 28L166 35Q183 37 187 44Q191 51 197 84L296 645H195Q176 645 169.5 644.5Q163 644 159 644Q151 642 147 638.5Q143 635 136 619ZM516 917 533 896Q492 856 470.5 830.5Q449 805 416 757H328Q313 803 300.5 829Q288 855 259 896L277 916Q306 897 332.5 875Q359 853 382 829Q409 850 444 873Q479 896 516 917Z" glyph-name="Tcaron" horiz-adv-x="574" unicode="Ť" /><glyph d="M85 508 57 508L87 680H637L607 508H579L566 619Q565 635 562 639Q559 643 551 644Q547 645 541 645Q535 645 517 645H416L317 84Q311 51 312.5 44Q314 37 330 35L384 28L379 0H105L110 28L166 35Q183 37 187 44Q191 51 197 84L296 645H195Q176 645 169.5 644.5Q163 644 159 644Q151 642 147 638.5Q143 635 136 619ZM120 -248 100 -230Q124 -193 140.5 -157Q157 -121 170 -77H287Q254 -125 212.5 -167.5Q171 -210 120 -248Z" glyph-name="uni0162" horiz-adv-x="574" unicode="Ţ" /><glyph d="M85 508 57 508L87 680H637L607 508H579L566 619Q565 635 562 639Q559 643 551 644Q547 645 541 645Q535 645 517 645H416L317 84Q311 51 312.5 44Q314 37 330 35L384 28L379 0H105L110 28L166 35Q183 37 187 44Q191 51 197 84L296 645H195Q176 645 169.5 644.5Q163 644 159 644Q151 642 147 638.5Q143 635 136 619ZM120 -248 100 -230Q124 -193 140.5 -157Q157 -121 170 -77H287Q254 -125 212.5 -167.5Q171 -210 120 -248Z" glyph-name="uni021A" horiz-adv-x="574" unicode="Ț" /><glyph d="M589 645 535 652L540 680H734L729 652L673 645Q656 642 651.5 633.5Q647 625 642 596L577 229Q556 110 494 50Q432 -10 330 -10Q205 -10 142.5 57Q80 124 101 239L164 596Q170 629 168.5 636Q167 643 151 645L97 652L102 680H376L371 652L315 645Q298 642 293.5 633.5Q289 625 284 596L219 229Q201 126 230.5 75.5Q260 25 339 25Q420 25 469.5 76Q519 127 537 229L602 596Q608 629 606.5 636Q605 643 589 645ZM458 752 437 776Q467 813 485 843.5Q503 874 519 913H650Q609 867 565.5 830.5Q522 794 458 752Z" glyph-name="Uacute" horiz-adv-x="684" unicode="Ú" /><glyph d="M589 645 535 652L540 680H734L729 652L673 645Q656 642 651.5 633.5Q647 625 642 596L577 229Q556 110 494 50Q432 -10 330 -10Q205 -10 142.5 57Q80 124 101 239L164 596Q170 629 168.5 636Q167 643 151 645L97 652L102 680H376L371 652L315 645Q298 642 293.5 633.5Q289 625 284 596L219 229Q201 126 230.5 75.5Q260 25 339 25Q420 25 469.5 76Q519 127 537 229L602 596Q608 629 606.5 636Q605 643 589 645ZM600 774 582 754Q553 773 526.5 795Q500 817 477 841Q450 820 415 797Q380 774 343 753L326 774Q367 814 388.5 839.5Q410 865 443 913H531Q546 867 558.5 841Q571 815 600 774Z" glyph-name="Ucircumflex" horiz-adv-x="684" unicode="Û" /><glyph d="M589 645 535 652L540 680H734L729 652L673 645Q656 642 651.5 633.5Q647 625 642 596L577 229Q556 110 494 50Q432 -10 330 -10Q205 -10 142.5 57Q80 124 101 239L164 596Q170 629 168.5 636Q167 643 151 645L97 652L102 680H376L371 652L315 645Q298 642 293.5 633.5Q289 625 284 596L219 229Q201 126 230.5 75.5Q260 25 339 25Q420 25 469.5 76Q519 127 537 229L602 596Q608 629 606.5 636Q605 643 589 645ZM433 842Q433 812 413.5 792.5Q394 773 364 773Q338 773 322.5 788Q307 803 307 829Q307 859 326.5 878.5Q346 898 376 898Q402 898 417.5 883Q433 868 433 842ZM641 842Q641 812 621.5 792.5Q602 773 572 773Q546 773 530.5 788Q515 803 515 829Q515 859 534.5 878.5Q554 898 584 898Q610 898 625.5 883Q641 868 641 842Z" glyph-name="Udieresis" horiz-adv-x="684" unicode="Ü" /><glyph d="M589 645 535 652L540 680H734L729 652L673 645Q656 642 651.5 633.5Q647 625 642 596L577 229Q556 110 494 50Q432 -10 330 -10Q205 -10 142.5 57Q80 124 101 239L164 596Q170 629 168.5 636Q167 643 151 645L97 652L102 680H376L371 652L315 645Q298 642 293.5 633.5Q289 625 284 596L219 229Q201 126 230.5 75.5Q260 25 339 25Q420 25 469.5 76Q519 127 537 229L602 596Q608 629 606.5 636Q605 643 589 645ZM487 770 460 752Q412 793 381 829.5Q350 866 324 913H445Q447 875 456 844Q465 813 487 770Z" glyph-name="Ugrave" horiz-adv-x="684" unicode="Ù" /><glyph d="M589 645 535 652L540 680H734L729 652L673 645Q656 642 651.5 633.5Q647 625 642 596L577 229Q556 110 494 50Q432 -10 330 -10Q205 -10 142.5 57Q80 124 101 239L164 596Q170 629 168.5 636Q167 643 151 645L97 652L102 680H376L371 652L315 645Q298 642 293.5 633.5Q289 625 284 596L219 229Q201 126 230.5 75.5Q260 25 339 25Q420 25 469.5 76Q519 127 537 229L602 596Q608 629 606.5 636Q605 643 589 645ZM472 834Q520 834 551 854.5Q582 875 599 918L633 908Q609 829 568 790.5Q527 752 466 752Q406 752 373 793Q340 834 341 908L373 918Q376 876 400.5 855Q425 834 472 834Z" glyph-name="Ubreve" horiz-adv-x="684" unicode="Ŭ" /><glyph d="M589 645 535 652L540 680H734L729 652L673 645Q656 642 651.5 633.5Q647 625 642 596L577 229Q556 110 494 50Q432 -10 330 -10Q205 -10 142.5 57Q80 124 101 239L164 596Q170 629 168.5 636Q167 643 151 645L97 652L102 680H376L371 652L315 645Q298 642 293.5 633.5Q289 625 284 596L219 229Q201 126 230.5 75.5Q260 25 339 25Q420 25 469.5 76Q519 127 537 229L602 596Q608 629 606.5 636Q605 643 589 645ZM379 752 359 774Q383 802 399.5 835Q416 868 429 913H545Q510 869 470.5 830.5Q431 792 379 752ZM521 752 501 774Q525 802 541.5 835Q558 868 571 913H687Q652 869 612.5 830.5Q573 792 521 752Z" glyph-name="Uhungarumlaut" horiz-adv-x="684" unicode="Ű" /><glyph d="M589 645 535 652L540 680H734L729 652L673 645Q656 642 651.5 633.5Q647 625 642 596L577 229Q556 110 494 50Q432 -10 330 -10Q205 -10 142.5 57Q80 124 101 239L164 596Q170 629 168.5 636Q167 643 151 645L97 652L102 680H376L371 652L315 645Q298 642 293.5 633.5Q289 625 284 596L219 229Q201 126 230.5 75.5Q260 25 339 25Q420 25 469.5 76Q519 127 537 229L602 596Q608 629 606.5 636Q605 643 589 645ZM333 847 620 847L610 792H323Z" glyph-name="Umacron" horiz-adv-x="684" unicode="Ū" /><glyph d="M429 -112 491 -125Q468 -174 434 -198.5Q400 -223 355 -223Q303 -223 272.5 -200.5Q242 -178 242 -139Q242 -105 266 -77Q290 -49 373 -7Q362 -9 351.5 -9.5Q341 -10 330 -10Q205 -10 142.5 57Q80 124 101 239L164 596Q170 629 168.5 636Q167 643 151 645L97 652L102 680H376L371 652L315 645Q298 642 293.5 633.5Q289 625 284 596L219 229Q201 126 230.5 75.5Q260 25 339 25Q420 25 469.5 76Q519 127 537 229L602 596Q608 629 606.5 636Q605 643 589 645L535 652L540 680H734L729 652L673 645Q656 642 651.5 633.5Q647 625 642 596L577 229Q567 171 546.5 126Q526 81 496 52Q471 28 431.5 -1Q392 -30 390 -32Q353 -60 338.5 -85.5Q324 -111 324 -143Q324 -166 332.5 -177.5Q341 -189 359 -189Q383 -189 400 -170Q417 -151 429 -112Z" glyph-name="Uogonek" horiz-adv-x="684" unicode="Ų" /><glyph d="M589 645 535 652L540 680H734L729 652L673 645Q656 642 651.5 633.5Q647 625 642 596L577 229Q556 110 494 50Q432 -10 330 -10Q205 -10 142.5 57Q80 124 101 239L164 596Q170 629 168.5 636Q167 643 151 645L97 652L102 680H376L371 652L315 645Q298 642 293.5 633.5Q289 625 284 596L219 229Q201 126 230.5 75.5Q260 25 339 25Q420 25 469.5 76Q519 127 537 229L602 596Q608 629 606.5 636Q605 643 589 645ZM489 976Q547 976 578 940Q609 904 600 854L598 843Q590 795 554 765.5Q518 736 466 736Q409 736 377.5 772Q346 808 355 858L357 869Q366 918 401.5 947Q437 976 489 976ZM461 763Q485 763 500.5 782Q516 801 524 843L529 868Q537 908 527.5 928.5Q518 949 492 949Q468 949 453.5 930Q439 911 431 869L426 844Q418 805 427.5 784Q437 763 461 763Z" glyph-name="Uring" horiz-adv-x="684" unicode="Ů" /><glyph d="M589 645 535 652L540 680H734L729 652L673 645Q656 642 651.5 633.5Q647 625 642 596L577 229Q556 110 494 50Q432 -10 330 -10Q205 -10 142.5 57Q80 124 101 239L164 596Q170 629 168.5 636Q167 643 151 645L97 652L102 680H376L371 652L315 645Q298 642 293.5 633.5Q289 625 284 596L219 229Q201 126 230.5 75.5Q260 25 339 25Q420 25 469.5 76Q519 127 537 229L602 596Q608 629 606.5 636Q605 643 589 645ZM532 756Q514 756 497 765.5Q480 775 454 804Q433 826 422.5 832.5Q412 839 402 839Q385 839 373 821Q361 803 348 761H312Q331 844 355.5 881Q380 918 416 918Q435 918 452.5 908.5Q470 899 496 870Q516 848 526.5 841.5Q537 835 547 835Q563 835 575 852.5Q587 870 600 913H636Q617 830 592.5 793Q568 756 532 756Z" glyph-name="Utilde" horiz-adv-x="684" unicode="Ũ" /><glyph d="M671 0 583 0L516 547L264 0H177L143 596Q142 629 138.5 636Q135 643 119 645L65 652L70 680H343L338 652L282 645Q268 643 265 640Q262 637 261 628Q261 624 261 618Q261 612 262 596L285 132L534 680H617L688 140L871 596Q884 629 884 636Q884 643 869 645L815 652L820 680H1018L1013 652L957 645Q940 643 934 636.5Q928 630 915 596ZM571 752 550 776Q580 813 598 843.5Q616 874 632 913H763Q722 867 678.5 830.5Q635 794 571 752Z" glyph-name="Wacute" horiz-adv-x="938" unicode="Ẃ" /><glyph d="M671 0 583 0L516 547L264 0H177L143 596Q142 629 138.5 636Q135 643 119 645L65 652L70 680H343L338 652L282 645Q268 643 265 640Q262 637 261 628Q261 624 261 618Q261 612 262 596L285 132L534 680H617L688 140L871 596Q884 629 884 636Q884 643 869 645L815 652L820 680H1018L1013 652L957 645Q940 643 934 636.5Q928 630 915 596ZM713 774 695 754Q666 773 639.5 795Q613 817 590 841Q563 820 528 797Q493 774 456 753L439 774Q480 814 501.5 839.5Q523 865 556 913H644Q659 867 671.5 841Q684 815 713 774Z" glyph-name="Wcircumflex" horiz-adv-x="938" unicode="Ŵ" /><glyph d="M671 0 583 0L516 547L264 0H177L143 596Q142 629 138.5 636Q135 643 119 645L65 652L70 680H343L338 652L282 645Q268 643 265 640Q262 637 261 628Q261 624 261 618Q261 612 262 596L285 132L534 680H617L688 140L871 596Q884 629 884 636Q884 643 869 645L815 652L820 680H1018L1013 652L957 645Q940 643 934 636.5Q928 630 915 596ZM545 842Q545 812 525.5 792.5Q506 773 476 773Q450 773 434.5 788Q419 803 419 829Q419 859 438.5 878.5Q458 898 488 898Q514 898 529.5 883Q545 868 545 842ZM753 842Q753 812 733.5 792.5Q714 773 684 773Q658 773 642.5 788Q627 803 627 829Q627 859 646.5 878.5Q666 898 696 898Q722 898 737.5 883Q753 868 753 842Z" glyph-name="Wdieresis" horiz-adv-x="938" unicode="Ẅ" /><glyph d="M671 0 583 0L516 547L264 0H177L143 596Q142 629 138.5 636Q135 643 119 645L65 652L70 680H343L338 652L282 645Q268 643 265 640Q262 637 261 628Q261 624 261 618Q261 612 262 596L285 132L534 680H617L688 140L871 596Q884 629 884 636Q884 643 869 645L815 652L820 680H1018L1013 652L957 645Q940 643 934 636.5Q928 630 915 596ZM600 770 573 752Q525 793 494 829.5Q463 866 437 913H558Q560 875 569 844Q578 813 600 770Z" glyph-name="Wgrave" horiz-adv-x="938" unicode="Ẁ" /><glyph d="M352 35 406 28L401 0H127L132 28L188 35Q203 37 207.5 42Q212 47 215 64L255 292L150 596Q139 629 134 636Q129 643 114 645L60 652L65 680H347L342 652L286 645Q269 643 268.5 635Q268 627 278 596L361 338L540 596Q561 626 563.5 634.5Q566 643 550 645L496 652L501 680H700L695 652L639 645Q623 643 616 636.5Q609 630 586 596L375 292L339 84Q333 51 334.5 44Q336 37 352 35ZM408 752 387 776Q417 813 435 843.5Q453 874 469 913H600Q559 867 515.5 830.5Q472 794 408 752Z" glyph-name="Yacute" horiz-adv-x="615" unicode="Ý" /><glyph d="M352 35 406 28L401 0H127L132 28L188 35Q203 37 207.5 42Q212 47 215 64L255 292L150 596Q139 629 134 636Q129 643 114 645L60 652L65 680H347L342 652L286 645Q269 643 268.5 635Q268 627 278 596L361 338L540 596Q561 626 563.5 634.5Q566 643 550 645L496 652L501 680H700L695 652L639 645Q623 643 616 636.5Q609 630 586 596L375 292L339 84Q333 51 334.5 44Q336 37 352 35ZM382 842Q382 812 362.5 792.5Q343 773 313 773Q287 773 271.5 788Q256 803 256 829Q256 859 275.5 878.5Q295 898 325 898Q351 898 366.5 883Q382 868 382 842ZM590 842Q590 812 570.5 792.5Q551 773 521 773Q495 773 479.5 788Q464 803 464 829Q464 859 483.5 878.5Q503 898 533 898Q559 898 574.5 883Q590 868 590 842Z" glyph-name="Ydieresis" horiz-adv-x="615" unicode="Ÿ" /><glyph d="M352 35 406 28L401 0H127L132 28L188 35Q203 37 207.5 42Q212 47 215 64L255 292L150 596Q139 629 134 636Q129 643 114 645L60 652L65 680H347L342 652L286 645Q269 643 268.5 635Q268 627 278 596L361 338L540 596Q561 626 563.5 634.5Q566 643 550 645L496 652L501 680H700L695 652L639 645Q623 643 616 636.5Q609 630 586 596L375 292L339 84Q333 51 334.5 44Q336 37 352 35ZM550 774 532 754Q503 773 476.5 795Q450 817 427 841Q400 820 365 797Q330 774 293 753L276 774Q317 814 338.5 839.5Q360 865 393 913H481Q496 867 508.5 841Q521 815 550 774Z" glyph-name="Ycircumflex" horiz-adv-x="615" unicode="Ŷ" /><glyph d="M352 35 406 28L401 0H127L132 28L188 35Q203 37 207.5 42Q212 47 215 64L255 292L150 596Q139 629 134 636Q129 643 114 645L60 652L65 680H347L342 652L286 645Q269 643 268.5 635Q268 627 278 596L361 338L540 596Q561 626 563.5 634.5Q566 643 550 645L496 652L501 680H700L695 652L639 645Q623 643 616 636.5Q609 630 586 596L375 292L339 84Q333 51 334.5 44Q336 37 352 35ZM437 770 410 752Q362 793 331 829.5Q300 866 274 913H395Q397 875 406 844Q415 813 437 770Z" glyph-name="Ygrave" horiz-adv-x="615" unicode="Ỳ" /><glyph d="M465 172 493 172L463 0H-7L-3 25L424 645H237Q204 645 195.5 641.5Q187 638 178 619L127 508H99L129 680H573L568 655L141 35H355Q388 35 396.5 38.5Q405 42 414 61ZM497 917 514 896Q473 856 451.5 830.5Q430 805 397 757H309Q294 803 281.5 829Q269 855 240 896L258 916Q287 897 313.5 875Q340 853 363 829Q390 850 425 873Q460 896 497 917Z" glyph-name="Zcaron" horiz-adv-x="546" unicode="Ž" /><glyph d="M465 172 493 172L463 0H-7L-3 25L424 645H237Q204 645 195.5 641.5Q187 638 178 619L127 508H99L129 680H573L568 655L141 35H355Q388 35 396.5 38.5Q405 42 414 61ZM350 752 329 776Q359 813 377 843.5Q395 874 411 913H542Q501 867 457.5 830.5Q414 794 350 752Z" glyph-name="Zacute" horiz-adv-x="546" unicode="Ź" /><glyph d="M465 172 493 172L463 0H-7L-3 25L424 645H237Q204 645 195.5 641.5Q187 638 178 619L127 508H99L129 680H573L568 655L141 35H355Q388 35 396.5 38.5Q405 42 414 61ZM433 843Q433 810 412.5 789Q392 768 359 768Q330 768 313.5 784Q297 800 297 828Q297 861 317.5 882Q338 903 371 903Q400 903 416.5 887Q433 871 433 843Z" glyph-name="Zdotaccent" horiz-adv-x="546" unicode="Ż" /><glyph d="M447 -5Q405 -5 379.5 18Q354 41 350 82Q322 36 285.5 13Q249 -10 202 -10Q114 -10 73.5 68Q33 146 55 266L59 288Q78 393 142.5 455Q207 517 294 517Q332 517 362 503.5Q392 490 411 465Q439 472 462.5 482.5Q486 493 505 507H532L469 150Q456 80 457 57.5Q458 35 473 35Q490 35 505.5 53Q521 71 532 105L571 83Q549 38 518.5 16.5Q488 -5 447 -5ZM184 300 175 248Q158 145 172 88Q186 31 227 31Q260 31 293.5 65Q327 99 356 163L400 415Q385 445 361.5 461Q338 477 307 477Q259 477 229.5 434.5Q200 392 184 300ZM323 579 302 603Q332 640 350 670.5Q368 701 384 740H515Q474 694 430.5 657.5Q387 621 323 579Z" glyph-name="aacute" horiz-adv-x="587" unicode="á" /><glyph d="M447 -5Q405 -5 379.5 18Q354 41 350 82Q322 36 285.5 13Q249 -10 202 -10Q114 -10 73.5 68Q33 146 55 266L59 288Q78 393 142.5 455Q207 517 294 517Q332 517 362 503.5Q392 490 411 465Q439 472 462.5 482.5Q486 493 505 507H532L469 150Q456 80 457 57.5Q458 35 473 35Q490 35 505.5 53Q521 71 532 105L571 83Q549 38 518.5 16.5Q488 -5 447 -5ZM184 300 175 248Q158 145 172 88Q186 31 227 31Q260 31 293.5 65Q327 99 356 163L400 415Q385 445 361.5 461Q338 477 307 477Q259 477 229.5 434.5Q200 392 184 300ZM465 601 447 581Q418 600 391.5 622Q365 644 342 668Q315 647 280 624Q245 601 208 580L191 601Q232 641 253.5 666.5Q275 692 308 740H396Q411 694 423.5 668Q436 642 465 601Z" glyph-name="acircumflex" horiz-adv-x="587" unicode="â" /><glyph d="M447 -5Q405 -5 379.5 18Q354 41 350 82Q322 36 285.5 13Q249 -10 202 -10Q114 -10 73.5 68Q33 146 55 266L59 288Q78 393 142.5 455Q207 517 294 517Q332 517 362 503.5Q392 490 411 465Q439 472 462.5 482.5Q486 493 505 507H532L469 150Q456 80 457 57.5Q458 35 473 35Q490 35 505.5 53Q521 71 532 105L571 83Q549 38 518.5 16.5Q488 -5 447 -5ZM184 300 175 248Q158 145 172 88Q186 31 227 31Q260 31 293.5 65Q327 99 356 163L400 415Q385 445 361.5 461Q338 477 307 477Q259 477 229.5 434.5Q200 392 184 300ZM297 669Q297 639 277.5 619.5Q258 600 228 600Q202 600 186.5 615Q171 630 171 656Q171 686 190.5 705.5Q210 725 240 725Q266 725 281.5 710Q297 695 297 669ZM505 669Q505 639 485.5 619.5Q466 600 436 600Q410 600 394.5 615Q379 630 379 656Q379 686 398.5 705.5Q418 725 448 725Q474 725 489.5 710Q505 695 505 669Z" glyph-name="adieresis" horiz-adv-x="587" unicode="ä" /><glyph d="M447 -5Q405 -5 379.5 18Q354 41 350 82Q322 36 285.5 13Q249 -10 202 -10Q114 -10 73.5 68Q33 146 55 266L59 288Q78 393 142.5 455Q207 517 294 517Q332 517 362 503.5Q392 490 411 465Q439 472 462.5 482.5Q486 493 505 507H532L469 150Q456 80 457 57.5Q458 35 473 35Q490 35 505.5 53Q521 71 532 105L571 83Q549 38 518.5 16.5Q488 -5 447 -5ZM184 300 175 248Q158 145 172 88Q186 31 227 31Q260 31 293.5 65Q327 99 356 163L400 415Q385 445 361.5 461Q338 477 307 477Q259 477 229.5 434.5Q200 392 184 300ZM352 597 325 579Q277 620 246 656.5Q215 693 189 740H310Q312 702 321 671Q330 640 352 597Z" glyph-name="agrave" horiz-adv-x="587" unicode="à" /><glyph d="M447 -5Q405 -5 379.5 18Q354 41 350 82Q322 36 285.5 13Q249 -10 202 -10Q114 -10 73.5 68Q33 146 55 266L59 288Q78 393 142.5 455Q207 517 294 517Q332 517 362 503.5Q392 490 411 465Q439 472 462.5 482.5Q486 493 505 507H532L469 150Q456 80 457 57.5Q458 35 473 35Q490 35 505.5 53Q521 71 532 105L571 83Q549 38 518.5 16.5Q488 -5 447 -5ZM184 300 175 248Q158 145 172 88Q186 31 227 31Q260 31 293.5 65Q327 99 356 163L400 415Q385 445 361.5 461Q338 477 307 477Q259 477 229.5 434.5Q200 392 184 300ZM354 803Q412 803 443 767Q474 731 465 681L463 670Q455 622 419 592.5Q383 563 331 563Q274 563 242.5 599Q211 635 220 685L222 696Q231 745 266.5 774Q302 803 354 803ZM326 590Q350 590 365.5 609Q381 628 389 670L394 695Q402 735 392.5 755.5Q383 776 357 776Q333 776 318.5 757Q304 738 296 696L291 671Q283 632 292.5 611Q302 590 326 590Z" glyph-name="aring" horiz-adv-x="587" unicode="å" /><glyph d="M447 -5Q405 -5 379.5 18Q354 41 350 82Q322 36 285.5 13Q249 -10 202 -10Q114 -10 73.5 68Q33 146 55 266L59 288Q78 393 142.5 455Q207 517 294 517Q332 517 362 503.5Q392 490 411 465Q439 472 462.5 482.5Q486 493 505 507H532L469 150Q456 80 457 57.5Q458 35 473 35Q490 35 505.5 53Q521 71 532 105L571 83Q549 38 518.5 16.5Q488 -5 447 -5ZM184 300 175 248Q158 145 172 88Q186 31 227 31Q260 31 293.5 65Q327 99 356 163L400 415Q385 445 361.5 461Q338 477 307 477Q259 477 229.5 434.5Q200 392 184 300ZM397 583Q379 583 362 592.5Q345 602 319 631Q298 653 287.5 659.5Q277 666 267 666Q250 666 238 648Q226 630 213 588H177Q196 671 220.5 708Q245 745 281 745Q300 745 317.5 735.5Q335 726 361 697Q381 675 391.5 668.5Q402 662 412 662Q428 662 440 679.5Q452 697 465 740H501Q482 657 457.5 620Q433 583 397 583Z" glyph-name="atilde" horiz-adv-x="587" unicode="ã" /><glyph d="M447 -5Q405 -5 379.5 18Q354 41 350 82Q322 36 285.5 13Q249 -10 202 -10Q114 -10 73.5 68Q33 146 55 266L59 288Q78 393 142.5 455Q207 517 294 517Q332 517 362 503.5Q392 490 411 465Q439 472 462.5 482.5Q486 493 505 507H532L469 150Q456 80 457 57.5Q458 35 473 35Q490 35 505.5 53Q521 71 532 105L571 83Q549 38 518.5 16.5Q488 -5 447 -5ZM184 300 175 248Q158 145 172 88Q186 31 227 31Q260 31 293.5 65Q327 99 356 163L400 415Q385 445 361.5 461Q338 477 307 477Q259 477 229.5 434.5Q200 392 184 300ZM337 661Q385 661 416 681.5Q447 702 464 745L498 735Q474 656 433 617.5Q392 579 331 579Q271 579 238 620Q205 661 206 735L238 745Q241 703 265.5 682Q290 661 337 661Z" glyph-name="abreve" horiz-adv-x="587" unicode="ă" /><glyph d="M447 -5Q405 -5 379.5 18Q354 41 350 82Q322 36 285.5 13Q249 -10 202 -10Q114 -10 73.5 68Q33 146 55 266L59 288Q78 393 142.5 455Q207 517 294 517Q332 517 362 503.5Q392 490 411 465Q439 472 462.5 482.5Q486 493 505 507H532L469 150Q456 80 457 57.5Q458 35 473 35Q490 35 505.5 53Q521 71 532 105L571 83Q549 38 518.5 16.5Q488 -5 447 -5ZM184 300 175 248Q158 145 172 88Q186 31 227 31Q260 31 293.5 65Q327 99 356 163L400 415Q385 445 361.5 461Q338 477 307 477Q259 477 229.5 434.5Q200 392 184 300ZM197 674 484 674L474 619H187Z" glyph-name="amacron" horiz-adv-x="587" unicode="ā" /><glyph d="M471 -112 533 -125Q510 -175 475.5 -199Q441 -223 392 -223Q343 -223 313.5 -200.5Q284 -178 284 -139Q284 -102 314 -72Q344 -42 436 -5Q399 -2 376.5 20.5Q354 43 350 82Q322 36 285.5 13Q249 -10 202 -10Q114 -10 73.5 68Q33 146 55 266L59 288Q78 393 142.5 455Q207 517 294 517Q332 517 362 503.5Q392 490 411 465Q439 472 462.5 482.5Q486 493 505 507H532L469 150Q456 80 457 57.5Q458 35 473 35Q490 35 505.5 53Q521 71 532 105L571 83Q558 55 535 31Q512 7 458 -28Q400 -65 383 -89Q366 -113 366 -143Q366 -166 374.5 -177.5Q383 -189 401 -189Q425 -189 442 -170Q459 -151 471 -112ZM184 300 175 248Q158 145 172 88Q186 31 227 31Q260 31 293.5 65Q327 99 356 163L400 415Q385 445 361.5 461Q338 477 307 477Q259 477 229.5 434.5Q200 392 184 300Z" glyph-name="aogonek" horiz-adv-x="587" unicode="ą" /><glyph d="M329 -132Q329 -171 294 -197Q259 -223 205 -223Q156 -223 127 -202.5Q98 -182 97 -145L155 -131Q153 -162 162 -176.5Q171 -191 192 -191Q217 -191 232 -173Q247 -155 247 -128Q247 -107 236 -97Q225 -87 203 -87Q199 -87 194 -87.5Q189 -88 182 -89L174 -63L206 -8Q114 4 72 76.5Q30 149 51 260L55 282Q74 387 145.5 452Q217 517 316 517Q405 517 450.5 458.5Q496 400 469 322L356 306Q381 385 368 433.5Q355 482 310 482Q263 482 229 433.5Q195 385 180 295L170 235Q153 130 173 77.5Q193 25 249 25Q290 25 324 52.5Q358 80 375 129L428 98Q397 45 351 18Q305 -9 245 -10L219 -55Q270 -56 299.5 -77Q329 -98 329 -132Z" glyph-name="ccedilla" horiz-adv-x="489" unicode="ç" /><glyph d="M310 482Q263 482 229 433.5Q195 385 180 295L170 235Q153 130 173 77.5Q193 25 249 25Q290 25 324 52.5Q358 80 375 129L428 98Q397 44 350 17Q303 -10 240 -10Q132 -10 80 64Q28 138 51 260L55 282Q74 387 145.5 452Q217 517 316 517Q405 517 450.5 458.5Q496 400 469 322L356 306Q381 385 368 433.5Q355 482 310 482ZM324 579 303 603Q333 640 351 670.5Q369 701 385 740H516Q475 694 431.5 657.5Q388 621 324 579Z" glyph-name="cacute" horiz-adv-x="489" unicode="ć" /><glyph d="M310 482Q263 482 229 433.5Q195 385 180 295L170 235Q153 130 173 77.5Q193 25 249 25Q290 25 324 52.5Q358 80 375 129L428 98Q397 44 350 17Q303 -10 240 -10Q132 -10 80 64Q28 138 51 260L55 282Q74 387 145.5 452Q217 517 316 517Q405 517 450.5 458.5Q496 400 469 322L356 306Q381 385 368 433.5Q355 482 310 482ZM471 744 488 723Q447 683 425.5 657.5Q404 632 371 584H283Q268 630 255.5 656Q243 682 214 723L232 743Q261 724 287.5 702Q314 680 337 656Q364 677 399 700Q434 723 471 744Z" glyph-name="ccaron" horiz-adv-x="489" unicode="č" /><glyph d="M310 482Q263 482 229 433.5Q195 385 180 295L170 235Q153 130 173 77.5Q193 25 249 25Q290 25 324 52.5Q358 80 375 129L428 98Q397 44 350 17Q303 -10 240 -10Q132 -10 80 64Q28 138 51 260L55 282Q74 387 145.5 452Q217 517 316 517Q405 517 450.5 458.5Q496 400 469 322L356 306Q381 385 368 433.5Q355 482 310 482ZM466 601 448 581Q419 600 392.5 622Q366 644 343 668Q316 647 281 624Q246 601 209 580L192 601Q233 641 254.5 666.5Q276 692 309 740H397Q412 694 424.5 668Q437 642 466 601Z" glyph-name="ccircumflex" horiz-adv-x="489" unicode="ĉ" /><glyph d="M310 482Q263 482 229 433.5Q195 385 180 295L170 235Q153 130 173 77.5Q193 25 249 25Q290 25 324 52.5Q358 80 375 129L428 98Q397 44 350 17Q303 -10 240 -10Q132 -10 80 64Q28 138 51 260L55 282Q74 387 145.5 452Q217 517 316 517Q405 517 450.5 458.5Q496 400 469 322L356 306Q381 385 368 433.5Q355 482 310 482ZM407 670Q407 637 386.5 616Q366 595 333 595Q304 595 287.5 611Q271 627 271 655Q271 688 291.5 709Q312 730 345 730Q374 730 390.5 714Q407 698 407 670Z" glyph-name="cdotaccent" horiz-adv-x="489" unicode="ċ" /><glyph d="M449 -5Q404 -5 378 21Q352 47 351 94Q321 41 284 15.5Q247 -10 201 -10Q114 -10 73.5 68Q33 146 55 266L59 288Q78 393 142.5 455Q207 517 295 517Q332 517 361.5 504.5Q391 492 411 468L444 656Q450 689 448.5 696Q447 703 431 705L378 712L382 740H575L471 150Q458 80 459 57.5Q460 35 475 35Q492 35 507.5 53Q523 71 534 105L573 83Q551 38 520.5 16.5Q490 -5 449 -5ZM184 300 175 248Q157 145 171.5 88Q186 31 228 31Q260 31 295 72.5Q330 114 363 192L402 415Q387 445 363 461Q339 477 308 477Q260 477 230 434.5Q200 392 184 300ZM624 526 600 526L637 740H746Q717 682 688.5 632Q660 582 624 526Z" glyph-name="dcaron" horiz-adv-x="694" unicode="ď" /><glyph d="M449 -5Q404 -5 378 21Q352 47 351 94Q321 41 284 15.5Q247 -10 201 -10Q114 -10 73.5 68Q33 146 55 266L59 288Q78 393 142.5 455Q207 517 295 517Q332 517 361.5 504.5Q391 492 411 468L432 590H289L295 625H439L444 656Q450 689 448.5 696Q447 703 431 705L378 712L382 740H575L555 625H632L626 590H549L471 150Q458 80 459 57.5Q460 35 475 35Q492 35 507.5 53Q523 71 534 105L573 83Q551 38 520.5 16.5Q490 -5 449 -5ZM184 300 175 248Q157 145 171.5 88Q186 31 228 31Q260 31 295 72.5Q330 114 363 192L402 415Q387 445 363 461Q339 477 308 477Q260 477 230 434.5Q200 392 184 300Z" glyph-name="dcroat" horiz-adv-x="590" unicode="đ" /><glyph d="M387 128 440 98Q409 45 359 17.5Q309 -10 244 -10Q134 -10 81.5 64Q29 138 51 260L55 282Q74 388 147 452.5Q220 517 322 517Q393 517 436.5 483Q480 449 480 397Q480 323 407 277Q334 231 206 222L168 219Q154 122 175 73.5Q196 25 253 25Q296 25 333 52.5Q370 80 387 128ZM316 482Q266 482 230.5 433.5Q195 385 180 295L173 254L205 256Q292 261 337.5 299Q383 337 383 401Q383 439 365.5 460.5Q348 482 316 482ZM326 579 305 603Q335 640 353 670.5Q371 701 387 740H518Q477 694 433.5 657.5Q390 621 326 579Z" glyph-name="eacute" horiz-adv-x="497" unicode="é" /><glyph d="M387 128 440 98Q409 45 359 17.5Q309 -10 244 -10Q134 -10 81.5 64Q29 138 51 260L55 282Q74 388 147 452.5Q220 517 322 517Q393 517 436.5 483Q480 449 480 397Q480 323 407 277Q334 231 206 222L168 219Q154 122 175 73.5Q196 25 253 25Q296 25 333 52.5Q370 80 387 128ZM316 482Q266 482 230.5 433.5Q195 385 180 295L173 254L205 256Q292 261 337.5 299Q383 337 383 401Q383 439 365.5 460.5Q348 482 316 482ZM469 601 451 581Q422 600 395.5 622Q369 644 346 668Q319 647 284 624Q249 601 212 580L195 601Q236 641 257.5 666.5Q279 692 312 740H400Q415 694 427.5 668Q440 642 469 601Z" glyph-name="ecircumflex" horiz-adv-x="497" unicode="ê" /><glyph d="M387 128 440 98Q409 45 359 17.5Q309 -10 244 -10Q134 -10 81.5 64Q29 138 51 260L55 282Q74 388 147 452.5Q220 517 322 517Q393 517 436.5 483Q480 449 480 397Q480 323 407 277Q334 231 206 222L168 219Q154 122 175 73.5Q196 25 253 25Q296 25 333 52.5Q370 80 387 128ZM316 482Q266 482 230.5 433.5Q195 385 180 295L173 254L205 256Q292 261 337.5 299Q383 337 383 401Q383 439 365.5 460.5Q348 482 316 482ZM301 669Q301 639 281.5 619.5Q262 600 232 600Q206 600 190.5 615Q175 630 175 656Q175 686 194.5 705.5Q214 725 244 725Q270 725 285.5 710Q301 695 301 669ZM509 669Q509 639 489.5 619.5Q470 600 440 600Q414 600 398.5 615Q383 630 383 656Q383 686 402.5 705.5Q422 725 452 725Q478 725 493.5 710Q509 695 509 669Z" glyph-name="edieresis" horiz-adv-x="497" unicode="ë" /><glyph d="M387 128 440 98Q409 45 359 17.5Q309 -10 244 -10Q134 -10 81.5 64Q29 138 51 260L55 282Q74 388 147 452.5Q220 517 322 517Q393 517 436.5 483Q480 449 480 397Q480 323 407 277Q334 231 206 222L168 219Q154 122 175 73.5Q196 25 253 25Q296 25 333 52.5Q370 80 387 128ZM316 482Q266 482 230.5 433.5Q195 385 180 295L173 254L205 256Q292 261 337.5 299Q383 337 383 401Q383 439 365.5 460.5Q348 482 316 482ZM355 597 328 579Q280 620 249 656.5Q218 693 192 740H313Q315 702 324 671Q333 640 355 597Z" glyph-name="egrave" horiz-adv-x="497" unicode="è" /><glyph d="M387 128 440 98Q409 45 359 17.5Q309 -10 244 -10Q134 -10 81.5 64Q29 138 51 260L55 282Q74 388 147 452.5Q220 517 322 517Q393 517 436.5 483Q480 449 480 397Q480 323 407 277Q334 231 206 222L168 219Q154 122 175 73.5Q196 25 253 25Q296 25 333 52.5Q370 80 387 128ZM316 482Q266 482 230.5 433.5Q195 385 180 295L173 254L205 256Q292 261 337.5 299Q383 337 383 401Q383 439 365.5 460.5Q348 482 316 482ZM340 661Q388 661 419 681.5Q450 702 467 745L501 735Q477 656 436 617.5Q395 579 334 579Q274 579 241 620Q208 661 209 735L241 745Q244 703 268.5 682Q293 661 340 661Z" glyph-name="ebreve" horiz-adv-x="497" unicode="ĕ" /><glyph d="M387 128 440 98Q409 45 359 17.5Q309 -10 244 -10Q134 -10 81.5 64Q29 138 51 260L55 282Q74 388 147 452.5Q220 517 322 517Q393 517 436.5 483Q480 449 480 397Q480 323 407 277Q334 231 206 222L168 219Q154 122 175 73.5Q196 25 253 25Q296 25 333 52.5Q370 80 387 128ZM316 482Q266 482 230.5 433.5Q195 385 180 295L173 254L205 256Q292 261 337.5 299Q383 337 383 401Q383 439 365.5 460.5Q348 482 316 482ZM473 744 490 723Q449 683 427.5 657.5Q406 632 373 584H285Q270 630 257.5 656Q245 682 216 723L234 743Q263 724 289.5 702Q316 680 339 656Q366 677 401 700Q436 723 473 744Z" glyph-name="ecaron" horiz-adv-x="497" unicode="ě" /><glyph d="M387 128 440 98Q409 45 359 17.5Q309 -10 244 -10Q134 -10 81.5 64Q29 138 51 260L55 282Q74 388 147 452.5Q220 517 322 517Q393 517 436.5 483Q480 449 480 397Q480 323 407 277Q334 231 206 222L168 219Q154 122 175 73.5Q196 25 253 25Q296 25 333 52.5Q370 80 387 128ZM316 482Q266 482 230.5 433.5Q195 385 180 295L173 254L205 256Q292 261 337.5 299Q383 337 383 401Q383 439 365.5 460.5Q348 482 316 482ZM410 670Q410 637 389.5 616Q369 595 336 595Q307 595 290.5 611Q274 627 274 655Q274 688 294.5 709Q315 730 348 730Q377 730 393.5 714Q410 698 410 670Z" glyph-name="edotaccent" horiz-adv-x="497" unicode="ė" /><glyph d="M387 128 440 98Q409 45 359 17.5Q309 -10 244 -10Q134 -10 81.5 64Q29 138 51 260L55 282Q74 388 147 452.5Q220 517 322 517Q393 517 436.5 483Q480 449 480 397Q480 323 407 277Q334 231 206 222L168 219Q154 122 175 73.5Q196 25 253 25Q296 25 333 52.5Q370 80 387 128ZM316 482Q266 482 230.5 433.5Q195 385 180 295L173 254L205 256Q292 261 337.5 299Q383 337 383 401Q383 439 365.5 460.5Q348 482 316 482ZM201 674 488 674L478 619H191Z" glyph-name="emacron" horiz-adv-x="497" unicode="ē" /><glyph d="M338 -112 400 -125Q377 -174 343 -198.5Q309 -223 264 -223Q212 -223 181.5 -200.5Q151 -178 151 -139Q151 -104 175.5 -76Q200 -48 281 -8Q263 -9 256.5 -9.5Q250 -10 244 -10Q134 -10 81.5 64Q29 138 51 260L55 282Q74 388 147 452.5Q220 517 322 517Q393 517 436.5 483Q480 449 480 397Q480 323 407 277Q334 231 206 222L168 219Q154 122 175 73.5Q196 25 253 25Q296 25 333 52.5Q370 80 387 128L440 98Q427 75 405.5 53Q384 31 335 -5Q271 -51 252 -80Q233 -109 233 -143Q233 -166 241.5 -177.5Q250 -189 268 -189Q292 -189 309 -170Q326 -151 338 -112ZM316 482Q266 482 230.5 433.5Q195 385 180 295L173 254L205 256Q292 261 337.5 299Q383 337 383 401Q383 439 365.5 460.5Q348 482 316 482Z" glyph-name="eogonek" horiz-adv-x="497" unicode="ę" /><glyph d="M533 507 445 9Q425 -101 354.5 -162Q284 -223 174 -223Q99 -223 61 -185.5Q23 -148 25 -78L82 -64Q78 -127 100.5 -158.5Q123 -190 172 -190Q237 -190 274.5 -144.5Q312 -99 329 -1L341 66Q314 28 279.5 9Q245 -10 203 -10Q115 -10 74 67.5Q33 145 55 266L59 288Q78 393 142.5 455Q207 517 295 517Q333 517 363 503.5Q393 490 413 465Q440 472 463.5 482.5Q487 493 506 507ZM184 300 175 248Q157 145 171.5 88Q186 31 228 31Q261 31 295 65Q329 99 358 163L402 414Q388 445 363.5 461Q339 477 308 477Q260 477 230 434.5Q200 392 184 300ZM337 661Q385 661 416 681.5Q447 702 464 745L498 735Q474 656 433 617.5Q392 579 331 579Q271 579 238 620Q205 661 206 735L238 745Q241 703 265.5 682Q290 661 337 661Z" glyph-name="gbreve" horiz-adv-x="574" unicode="ğ" /><glyph d="M533 507 445 9Q425 -101 354.5 -162Q284 -223 174 -223Q99 -223 61 -185.5Q23 -148 25 -78L82 -64Q78 -127 100.5 -158.5Q123 -190 172 -190Q237 -190 274.5 -144.5Q312 -99 329 -1L341 66Q314 28 279.5 9Q245 -10 203 -10Q115 -10 74 67.5Q33 145 55 266L59 288Q78 393 142.5 455Q207 517 295 517Q333 517 363 503.5Q393 490 413 465Q440 472 463.5 482.5Q487 493 506 507ZM184 300 175 248Q157 145 171.5 88Q186 31 228 31Q261 31 295 65Q329 99 358 163L402 414Q388 445 363.5 461Q339 477 308 477Q260 477 230 434.5Q200 392 184 300ZM465 601 447 581Q418 600 391.5 622Q365 644 342 668Q315 647 280 624Q245 601 208 580L191 601Q232 641 253.5 666.5Q275 692 308 740H396Q411 694 423.5 668Q436 642 465 601Z" glyph-name="gcircumflex" horiz-adv-x="574" unicode="ĝ" /><glyph d="M533 507 445 9Q425 -101 354.5 -162Q284 -223 174 -223Q99 -223 61 -185.5Q23 -148 25 -78L82 -64Q78 -127 100.5 -158.5Q123 -190 172 -190Q237 -190 274.5 -144.5Q312 -99 329 -1L341 66Q314 28 279.5 9Q245 -10 203 -10Q115 -10 74 67.5Q33 145 55 266L59 288Q78 393 142.5 455Q207 517 295 517Q333 517 363 503.5Q393 490 413 465Q440 472 463.5 482.5Q487 493 506 507ZM184 300 175 248Q157 145 171.5 88Q186 31 228 31Q261 31 295 65Q329 99 358 163L402 414Q388 445 363.5 461Q339 477 308 477Q260 477 230 434.5Q200 392 184 300ZM431 755 451 737Q427 700 410.5 664Q394 628 381 584H264Q297 632 338.5 674.5Q380 717 431 755Z" glyph-name="gcommaaccent" horiz-adv-x="574" unicode="ģ" /><glyph d="M533 507 445 9Q425 -101 354.5 -162Q284 -223 174 -223Q99 -223 61 -185.5Q23 -148 25 -78L82 -64Q78 -127 100.5 -158.5Q123 -190 172 -190Q237 -190 274.5 -144.5Q312 -99 329 -1L341 66Q314 28 279.5 9Q245 -10 203 -10Q115 -10 74 67.5Q33 145 55 266L59 288Q78 393 142.5 455Q207 517 295 517Q333 517 363 503.5Q393 490 413 465Q440 472 463.5 482.5Q487 493 506 507ZM184 300 175 248Q157 145 171.5 88Q186 31 228 31Q261 31 295 65Q329 99 358 163L402 414Q388 445 363.5 461Q339 477 308 477Q260 477 230 434.5Q200 392 184 300ZM406 670Q406 637 385.5 616Q365 595 332 595Q303 595 286.5 611Q270 627 270 655Q270 688 290.5 709Q311 730 344 730Q373 730 389.5 714Q406 698 406 670Z" glyph-name="gdotaccent" horiz-adv-x="574" unicode="ġ" /><glyph d="M564 105 603 83Q581 38 550.5 16.5Q520 -5 479 -5Q422 -5 396 35Q370 75 384 142L423 336Q436 400 424.5 434Q413 468 380 468Q340 468 298.5 432Q257 396 222 328L164 0H49L152 590H76L82 625H159L164 656Q170 689 168.5 696Q167 703 151 705L97 712L102 740H294L274 625H419L413 590H268L238 419Q275 468 319 492.5Q363 517 413 517Q487 517 521 468.5Q555 420 538 337L501 150Q488 81 488.5 58Q489 35 505 35Q522 35 537.5 53Q553 71 564 105Z" glyph-name="hbar" horiz-adv-x="619" unicode="ħ" /><glyph d="M564 105 603 83Q581 38 550.5 16.5Q520 -5 479 -5Q422 -5 396 35Q370 75 384 142L423 336Q436 400 424.5 434Q413 468 380 468Q340 468 298.5 432Q257 396 222 328L164 0H49L164 656Q170 689 168.5 696Q167 703 151 705L97 712L102 740H294L238 419Q275 468 319 492.5Q363 517 413 517Q487 517 521 468.5Q555 420 538 337L501 150Q488 81 488.5 58Q489 35 505 35Q522 35 537.5 53Q553 71 564 105ZM487 823 469 803Q440 822 413.5 844Q387 866 364 890Q337 869 302 846Q267 823 230 802L213 823Q254 863 275.5 888.5Q297 914 330 962H418Q433 916 445.5 890Q458 864 487 823Z" glyph-name="hcircumflex" horiz-adv-x="619" unicode="ĥ" /><glyph d="M110 472 56 479L61 507H253L191 150Q179 78 179.5 56.5Q180 35 195 35Q212 35 227.5 53Q243 71 254 105L293 83Q271 38 240.5 16.5Q210 -5 169 -5Q113 -5 87.5 34.5Q62 74 74 142L124 423Q130 454 128 462Q126 470 110 472ZM187 579 166 603Q196 640 214 670.5Q232 701 248 740H379Q338 694 294.5 657.5Q251 621 187 579Z" glyph-name="iacute" horiz-adv-x="308" unicode="í" /><glyph d="M110 472 56 479L61 507H253L191 150Q179 78 179.5 56.5Q180 35 195 35Q212 35 227.5 53Q243 71 254 105L293 83Q271 38 240.5 16.5Q210 -5 169 -5Q113 -5 87.5 34.5Q62 74 74 142L124 423Q130 454 128 462Q126 470 110 472ZM329 601 311 581Q282 600 255.5 622Q229 644 206 668Q179 647 144 624Q109 601 72 580L55 601Q96 641 117.5 666.5Q139 692 172 740H260Q275 694 287.5 668Q300 642 329 601Z" glyph-name="icircumflex" horiz-adv-x="308" unicode="î" /><glyph d="M110 472 56 479L61 507H253L191 150Q179 78 179.5 56.5Q180 35 195 35Q212 35 227.5 53Q243 71 254 105L293 83Q271 38 240.5 16.5Q210 -5 169 -5Q113 -5 87.5 34.5Q62 74 74 142L124 423Q130 454 128 462Q126 470 110 472ZM161 669Q161 639 141.5 619.5Q122 600 92 600Q66 600 50.5 615Q35 630 35 656Q35 686 54.5 705.5Q74 725 104 725Q130 725 145.5 710Q161 695 161 669ZM369 669Q369 639 349.5 619.5Q330 600 300 600Q274 600 258.5 615Q243 630 243 656Q243 686 262.5 705.5Q282 725 312 725Q338 725 353.5 710Q369 695 369 669Z" glyph-name="idieresis" horiz-adv-x="308" unicode="ï" /><glyph d="M110 472 56 479L61 507H253L191 150Q179 78 179.5 56.5Q180 35 195 35Q212 35 227.5 53Q243 71 254 105L293 83Q271 38 240.5 16.5Q210 -5 169 -5Q113 -5 87.5 34.5Q62 74 74 142L124 423Q130 454 128 462Q126 470 110 472ZM216 597 189 579Q141 620 110 656.5Q79 693 53 740H174Q176 702 185 671Q194 640 216 597Z" glyph-name="igrave" horiz-adv-x="308" unicode="ì" /><glyph d="M110 472 56 479L61 507H253L191 150Q179 78 179.5 56.5Q180 35 195 35Q212 35 227.5 53Q243 71 254 105L293 83Q271 38 240.5 16.5Q210 -5 169 -5Q113 -5 87.5 34.5Q62 74 74 142L124 423Q130 454 128 462Q126 470 110 472ZM201 661Q249 661 280 681.5Q311 702 328 745L362 735Q338 656 297 617.5Q256 579 195 579Q135 579 102 620Q69 661 70 735L102 745Q105 703 129.5 682Q154 661 201 661Z" glyph-name="ibreve" horiz-adv-x="308" unicode="ĭ" /><glyph d="M290 670Q290 637 269.5 616Q249 595 216 595Q187 595 170.5 611Q154 627 154 655Q154 688 174.5 709Q195 730 228 730Q257 730 273.5 714Q290 698 290 670ZM110 472 56 479L61 507H253L191 150Q179 78 179.5 56.5Q180 35 195 35Q212 35 227.5 53Q243 71 254 105L293 83Q271 38 240.5 16.5Q210 -5 169 -5Q113 -5 87.5 34.5Q62 74 74 142L123 423Q129 456 127.5 463Q126 470 110 472Z" glyph-name="i.dot" horiz-adv-x="308" unicode="" /><glyph d="M110 472 56 479L61 507H253L191 150Q179 78 179.5 56.5Q180 35 195 35Q212 35 227.5 53Q243 71 254 105L293 83Q271 38 240.5 16.5Q210 -5 169 -5Q113 -5 87.5 34.5Q62 74 74 142L124 423Q130 454 128 462Q126 470 110 472ZM61 674 348 674L338 619H51Z" glyph-name="imacron" horiz-adv-x="308" unicode="ī" /><glyph d="M290 670Q290 637 269.5 616Q249 595 216 595Q187 595 170.5 611Q154 627 154 655Q154 688 174.5 709Q195 730 228 730Q257 730 273.5 714Q290 698 290 670ZM110 472 56 479L61 507H253L191 150Q179 78 179.5 56.5Q180 35 195 35Q212 35 227.5 53Q243 71 254 105L293 83Q281 59 262.5 37.5Q244 16 201 -16Q149 -55 133.5 -82Q118 -109 118 -143Q118 -166 126.5 -177.5Q135 -189 153 -189Q177 -189 194 -170Q211 -151 223 -112L285 -125Q262 -175 227.5 -199Q193 -223 144 -223Q95 -223 65.5 -200.5Q36 -178 36 -139Q36 -101 63 -70Q90 -39 162 -5Q109 -2 86 37Q63 76 74 142L123 423Q129 456 127.5 463Q126 470 110 472Z" glyph-name="iogonek" horiz-adv-x="308" unicode="į" /><glyph d="M110 472 56 479L61 507H253L191 150Q179 78 179.5 56.5Q180 35 195 35Q212 35 227.5 53Q243 71 254 105L293 83Q271 38 240.5 16.5Q210 -5 169 -5Q113 -5 87.5 34.5Q62 74 74 142L124 423Q130 454 128 462Q126 470 110 472ZM261 583Q243 583 226 592.5Q209 602 183 631Q162 653 151.5 659.5Q141 666 131 666Q114 666 102 648Q90 630 77 588H41Q60 671 84.5 708Q109 745 145 745Q164 745 181.5 735.5Q199 726 225 697Q245 675 255.5 668.5Q266 662 276 662Q292 662 304 679.5Q316 697 329 740H365Q346 657 321.5 620Q297 583 261 583Z" glyph-name="itilde" horiz-adv-x="308" unicode="ĩ" /><glyph d="M114 472 60 479L65 507H257L161 -34Q146 -123 92.5 -173Q39 -223 -44 -223Q-107 -223 -139.5 -191Q-172 -159 -167 -101L-102 -79Q-106 -133 -93.5 -160.5Q-81 -188 -52 -188Q-14 -188 8 -156.5Q30 -125 43 -54L128 423Q134 454 132 462Q130 470 114 472ZM337 601 319 581Q290 600 263.5 622Q237 644 214 668Q187 647 152 624Q117 601 80 580L63 601Q104 641 125.5 666.5Q147 692 180 740H268Q283 694 295.5 668Q308 642 337 601Z" glyph-name="jcircumflex" horiz-adv-x="302" unicode="ĵ" /><glyph d="M290 670Q290 637 269.5 616Q249 595 216 595Q187 595 170.5 611Q154 627 154 655Q154 688 174.5 709Q195 730 228 730Q257 730 273.5 714Q290 698 290 670ZM110 472 56 479L61 507H253L191 150Q179 78 179.5 56.5Q180 35 195 35Q212 35 227.5 53Q243 71 254 105L293 83Q271 38 240.5 16.5Q210 -5 169 -5Q113 -5 87.5 34.5Q62 74 74 142L123 423Q129 456 127.5 463Q126 470 110 472ZM602 663Q597 633 574.5 614Q552 595 522 595Q492 595 477 613.5Q462 632 467 663Q472 693 494 711.5Q516 730 546 730Q576 730 591.5 711.5Q607 693 602 663ZM422 472 368 479L373 507H565L469 -34Q454 -123 400.5 -173Q347 -223 264 -223Q201 -223 168.5 -191Q136 -159 141 -101L206 -79Q202 -133 214.5 -160.5Q227 -188 256 -188Q294 -188 316 -156.5Q338 -125 351 -54L435 423Q441 456 439.5 463Q438 470 422 472Z" glyph-name="ij" horiz-adv-x="609" unicode="ĳ" /><glyph d="M527 0 344 0L255 246L189 190L156 0H41L156 656Q162 689 160.5 696Q159 703 143 705L90 712L94 740H286L200 251L314 353Q337 374 369.5 404Q402 434 413 444Q446 474 470.5 489.5Q495 505 525 517L541 398Q486 390 438 371Q390 352 344 320L435 84Q446 56 452.5 47Q459 38 478 35L532 28ZM138 -248 118 -230Q142 -193 158.5 -157Q175 -121 188 -77H305Q272 -125 230.5 -167.5Q189 -210 138 -248Z" glyph-name="kcommaaccent" horiz-adv-x="539" unicode="ķ" /><glyph d="M540 0 357 0L268 246L202 190L169 0H54L129 423Q135 456 133 463Q131 470 115 472L62 479L66 507H258L213 251L327 353Q350 374 382.5 404Q415 434 426 444Q459 474 483.5 489.5Q508 505 538 517L554 398Q499 390 451 371Q403 352 357 320L448 84Q459 56 465.5 47Q472 38 491 35L545 28Z" glyph-name="kgreenlandic" horiz-adv-x="552" unicode="ĸ" /><glyph d="M142 705 88 712L93 740H285L182 151Q169 80 170 57.5Q171 35 186 35Q203 35 218.5 53Q234 71 245 105L284 83Q262 38 231.5 16.5Q201 -5 160 -5Q104 -5 78.5 34.5Q53 74 65 142L155 656Q161 689 159.5 696Q158 703 142 705ZM231 801 210 825Q240 862 258 892.5Q276 923 292 962H423Q382 916 338.5 879.5Q295 843 231 801Z" glyph-name="lacute" horiz-adv-x="300" unicode="ĺ" /><glyph d="M142 705 88 712L93 740H285L182 151Q169 80 170 57.5Q171 35 186 35Q203 35 218.5 53Q234 71 245 105L284 83Q262 38 231.5 16.5Q201 -5 160 -5Q104 -5 78.5 34.5Q53 74 65 142L155 656Q161 689 159.5 696Q158 703 142 705ZM328 526 304 526L341 740H450Q421 682 392.5 632Q364 582 328 526Z" glyph-name="lcaron" horiz-adv-x="398" unicode="ľ" /><glyph d="M142 705 88 712L93 740H285L182 151Q169 80 170 57.5Q171 35 186 35Q203 35 218.5 53Q234 71 245 105L284 83Q262 38 231.5 16.5Q201 -5 160 -5Q104 -5 78.5 34.5Q53 74 65 142L155 656Q161 689 159.5 696Q158 703 142 705ZM12 -248 -8 -230Q16 -193 32.5 -157Q49 -121 62 -77H179Q146 -125 104.5 -167.5Q63 -210 12 -248Z" glyph-name="lcommaaccent" horiz-adv-x="301" unicode="ļ" /><glyph d="M142 705 88 712L93 740H285L182 151Q169 80 170 57.5Q171 35 186 35Q203 35 218.5 53Q234 71 245 105L284 83Q262 38 231.5 16.5Q201 -5 160 -5Q104 -5 78.5 34.5Q53 74 65 142L155 656Q161 689 159.5 696Q158 703 142 705ZM404 392Q404 359 383.5 338Q363 317 330 317Q301 317 284.5 333Q268 349 268 377Q268 410 288.5 431Q309 452 342 452Q371 452 387.5 436Q404 420 404 392Z" glyph-name="ldot" horiz-adv-x="342" unicode="ŀ" /><glyph d="M569 105 608 83Q586 38 555.5 16.5Q525 -5 484 -5Q427 -5 401 35Q375 75 389 142L428 336Q441 400 429.5 434Q418 468 385 468Q345 468 303.5 432Q262 396 227 329L169 0H54L128 423Q134 456 132.5 463Q131 470 115 472L61 479L66 507H252L235 409Q274 463 320 490Q366 517 418 517Q492 517 526 468.5Q560 420 543 337L506 150Q493 81 493.5 58Q494 35 510 35Q527 35 542.5 53Q558 71 569 105ZM452 583Q434 583 417 592.5Q400 602 374 631Q353 653 342.5 659.5Q332 666 322 666Q305 666 293 648Q281 630 268 588H232Q251 671 275.5 708Q300 745 336 745Q355 745 372.5 735.5Q390 726 416 697Q436 675 446.5 668.5Q457 662 467 662Q483 662 495 679.5Q507 697 520 740H556Q537 657 512.5 620Q488 583 452 583Z" glyph-name="ntilde" horiz-adv-x="624" unicode="ñ" /><glyph d="M569 105 608 83Q586 38 555.5 16.5Q525 -5 484 -5Q427 -5 401 35Q375 75 389 142L428 336Q441 400 429.5 434Q418 468 385 468Q345 468 303.5 432Q262 396 227 329L169 0H54L128 423Q134 456 132.5 463Q131 470 115 472L61 479L66 507H252L235 409Q274 463 320 490Q366 517 418 517Q492 517 526 468.5Q560 420 543 337L506 150Q493 81 493.5 58Q494 35 510 35Q527 35 542.5 53Q558 71 569 105ZM378 579 357 603Q387 640 405 670.5Q423 701 439 740H570Q529 694 485.5 657.5Q442 621 378 579Z" glyph-name="nacute" horiz-adv-x="624" unicode="ń" /><glyph d="M569 105 608 83Q586 38 555.5 16.5Q525 -5 484 -5Q427 -5 401 35Q375 75 389 142L428 336Q441 400 429.5 434Q418 468 385 468Q345 468 303.5 432Q262 396 227 329L169 0H54L128 423Q134 456 132.5 463Q131 470 115 472L61 479L66 507H252L235 409Q274 463 320 490Q366 517 418 517Q492 517 526 468.5Q560 420 543 337L506 150Q493 81 493.5 58Q494 35 510 35Q527 35 542.5 53Q558 71 569 105ZM525 744 542 723Q501 683 479.5 657.5Q458 632 425 584H337Q322 630 309.5 656Q297 682 268 723L286 743Q315 724 341.5 702Q368 680 391 656Q418 677 453 700Q488 723 525 744Z" glyph-name="ncaron" horiz-adv-x="624" unicode="ň" /><glyph d="M569 105 608 83Q586 38 555.5 16.5Q525 -5 484 -5Q427 -5 401 35Q375 75 389 142L428 336Q441 400 429.5 434Q418 468 385 468Q345 468 303.5 432Q262 396 227 329L169 0H54L128 423Q134 456 132.5 463Q131 470 115 472L61 479L66 507H252L235 409Q274 463 320 490Q366 517 418 517Q492 517 526 468.5Q560 420 543 337L506 150Q493 81 493.5 58Q494 35 510 35Q527 35 542.5 53Q558 71 569 105ZM154 -248 134 -230Q158 -193 174.5 -157Q191 -121 204 -77H321Q288 -125 246.5 -167.5Q205 -210 154 -248Z" glyph-name="ncommaaccent" horiz-adv-x="624" unicode="ņ" /><glyph d="M535 337 469 -34Q453 -123 399.5 -173Q346 -223 264 -223Q200 -223 166.5 -190Q133 -157 141 -101L206 -79Q199 -132 212.5 -160Q226 -188 256 -188Q294 -188 316 -156.5Q338 -125 351 -54L420 336Q431 401 420.5 434.5Q410 468 377 468Q337 468 295.5 432Q254 396 219 329L161 0H46L120 423Q126 456 124.5 463Q123 470 107 472L53 479L58 507H244L227 409Q266 463 312 490Q358 517 410 517Q483 517 516.5 469Q550 421 535 337Z" glyph-name="eng" horiz-adv-x="600" unicode="ŋ" /><glyph d="M682 105 721 83Q699 38 668.5 16.5Q638 -5 597 -5Q540 -5 514 35Q488 75 502 142L541 336Q554 400 542.5 434Q531 468 498 468Q458 468 416.5 432Q375 396 340 329L282 0H167L241 423Q247 456 245.5 463Q244 470 228 472L174 479L179 507H365L348 409Q387 463 433 490Q479 517 531 517Q605 517 639 468.5Q673 420 656 337L619 150Q606 81 606.5 58Q607 35 623 35Q640 35 655.5 53Q671 71 682 105ZM96 690Q124 690 140 672Q156 654 156 623Q156 580 123.5 529Q91 478 15 406L-5 428Q33 466 53.5 497.5Q74 529 81 559Q54 561 40 575.5Q26 590 26 616Q26 649 45.5 669.5Q65 690 96 690Z" glyph-name="napostrophe" horiz-adv-x="737" unicode="ŉ" /><glyph d="M315 517Q422 517 475 440Q528 363 505 244L501 223Q480 111 412.5 50.5Q345 -10 240 -10Q134 -10 81.5 67Q29 144 51 263L55 284Q76 396 143.5 456.5Q211 517 315 517ZM376 213 387 274Q406 377 388.5 429.5Q371 482 317 482Q264 482 230.5 436Q197 390 179 294L168 233Q150 130 167.5 77.5Q185 25 238 25Q292 25 325.5 71Q359 117 376 213ZM337 579 316 603Q346 640 364 670.5Q382 701 398 740H529Q488 694 444.5 657.5Q401 621 337 579Z" glyph-name="oacute" horiz-adv-x="557" unicode="ó" /><glyph d="M315 517Q422 517 475 440Q528 363 505 244L501 223Q480 111 412.5 50.5Q345 -10 240 -10Q134 -10 81.5 67Q29 144 51 263L55 284Q76 396 143.5 456.5Q211 517 315 517ZM376 213 387 274Q406 377 388.5 429.5Q371 482 317 482Q264 482 230.5 436Q197 390 179 294L168 233Q150 130 167.5 77.5Q185 25 238 25Q292 25 325.5 71Q359 117 376 213ZM479 601 461 581Q432 600 405.5 622Q379 644 356 668Q329 647 294 624Q259 601 222 580L205 601Q246 641 267.5 666.5Q289 692 322 740H410Q425 694 437.5 668Q450 642 479 601Z" glyph-name="ocircumflex" horiz-adv-x="557" unicode="ô" /><glyph d="M315 517Q422 517 475 440Q528 363 505 244L501 223Q480 111 412.5 50.5Q345 -10 240 -10Q134 -10 81.5 67Q29 144 51 263L55 284Q76 396 143.5 456.5Q211 517 315 517ZM376 213 387 274Q406 377 388.5 429.5Q371 482 317 482Q264 482 230.5 436Q197 390 179 294L168 233Q150 130 167.5 77.5Q185 25 238 25Q292 25 325.5 71Q359 117 376 213ZM311 669Q311 639 291.5 619.5Q272 600 242 600Q216 600 200.5 615Q185 630 185 656Q185 686 204.5 705.5Q224 725 254 725Q280 725 295.5 710Q311 695 311 669ZM519 669Q519 639 499.5 619.5Q480 600 450 600Q424 600 408.5 615Q393 630 393 656Q393 686 412.5 705.5Q432 725 462 725Q488 725 503.5 710Q519 695 519 669Z" glyph-name="odieresis" horiz-adv-x="557" unicode="ö" /><glyph d="M315 517Q422 517 475 440Q528 363 505 244L501 223Q480 111 412.5 50.5Q345 -10 240 -10Q134 -10 81.5 67Q29 144 51 263L55 284Q76 396 143.5 456.5Q211 517 315 517ZM376 213 387 274Q406 377 388.5 429.5Q371 482 317 482Q264 482 230.5 436Q197 390 179 294L168 233Q150 130 167.5 77.5Q185 25 238 25Q292 25 325.5 71Q359 117 376 213ZM366 597 339 579Q291 620 260 656.5Q229 693 203 740H324Q326 702 335 671Q344 640 366 597Z" glyph-name="ograve" horiz-adv-x="557" unicode="ò" /><glyph d="M315 517Q422 517 475 440Q528 363 505 244L501 223Q480 111 412.5 50.5Q345 -10 240 -10Q134 -10 81.5 67Q29 144 51 263L55 284Q76 396 143.5 456.5Q211 517 315 517ZM376 213 387 274Q406 377 388.5 429.5Q371 482 317 482Q264 482 230.5 436Q197 390 179 294L168 233Q150 130 167.5 77.5Q185 25 238 25Q292 25 325.5 71Q359 117 376 213ZM411 583Q393 583 376 592.5Q359 602 333 631Q312 653 301.5 659.5Q291 666 281 666Q264 666 252 648Q240 630 227 588H191Q210 671 234.5 708Q259 745 295 745Q314 745 331.5 735.5Q349 726 375 697Q395 675 405.5 668.5Q416 662 426 662Q442 662 454 679.5Q466 697 479 740H515Q496 657 471.5 620Q447 583 411 583Z" glyph-name="otilde" horiz-adv-x="557" unicode="õ" /><glyph d="M315 517Q422 517 475 440Q528 363 505 244L501 223Q480 111 412.5 50.5Q345 -10 240 -10Q134 -10 81.5 67Q29 144 51 263L55 284Q76 396 143.5 456.5Q211 517 315 517ZM376 213 387 274Q406 377 388.5 429.5Q371 482 317 482Q264 482 230.5 436Q197 390 179 294L168 233Q150 130 167.5 77.5Q185 25 238 25Q292 25 325.5 71Q359 117 376 213ZM351 661Q399 661 430 681.5Q461 702 478 745L512 735Q488 656 447 617.5Q406 579 345 579Q285 579 252 620Q219 661 220 735L252 745Q255 703 279.5 682Q304 661 351 661Z" glyph-name="obreve" horiz-adv-x="557" unicode="ŏ" /><glyph d="M315 517Q422 517 475 440Q528 363 505 244L501 223Q480 111 412.5 50.5Q345 -10 240 -10Q134 -10 81.5 67Q29 144 51 263L55 284Q76 396 143.5 456.5Q211 517 315 517ZM376 213 387 274Q406 377 388.5 429.5Q371 482 317 482Q264 482 230.5 436Q197 390 179 294L168 233Q150 130 167.5 77.5Q185 25 238 25Q292 25 325.5 71Q359 117 376 213ZM258 579 238 601Q262 629 278.5 662Q295 695 308 740H424Q389 696 349.5 657.5Q310 619 258 579ZM400 579 380 601Q404 629 420.5 662Q437 695 450 740H566Q531 696 491.5 657.5Q452 619 400 579Z" glyph-name="ohungarumlaut" horiz-adv-x="557" unicode="ő" /><glyph d="M315 517Q422 517 475 440Q528 363 505 244L501 223Q480 111 412.5 50.5Q345 -10 240 -10Q134 -10 81.5 67Q29 144 51 263L55 284Q76 396 143.5 456.5Q211 517 315 517ZM376 213 387 274Q406 377 388.5 429.5Q371 482 317 482Q264 482 230.5 436Q197 390 179 294L168 233Q150 130 167.5 77.5Q185 25 238 25Q292 25 325.5 71Q359 117 376 213ZM211 674 498 674L488 619H201Z" glyph-name="omacron" horiz-adv-x="557" unicode="ō" /><glyph d="M342 447Q314 447 285 416Q256 385 226 325L169 0H54L128 424Q134 456 132.5 463Q131 470 115 472L61 479L66 507H252L234 407Q272 463 312.5 490Q353 517 396 517Q435 517 458.5 494Q482 471 491 425L393 377Q387 412 374 429.5Q361 447 342 447ZM315 579 294 603Q324 640 342 670.5Q360 701 376 740H507Q466 694 422.5 657.5Q379 621 315 579Z" glyph-name="racute" horiz-adv-x="457" unicode="ŕ" /><glyph d="M342 447Q314 447 285 416Q256 385 226 325L169 0H54L128 424Q134 456 132.5 463Q131 470 115 472L61 479L66 507H252L234 407Q272 463 312.5 490Q353 517 396 517Q435 517 458.5 494Q482 471 491 425L393 377Q387 412 374 429.5Q361 447 342 447ZM462 744 479 723Q438 683 416.5 657.5Q395 632 362 584H274Q259 630 246.5 656Q234 682 205 723L223 743Q252 724 278.5 702Q305 680 328 656Q355 677 390 700Q425 723 462 744Z" glyph-name="rcaron" horiz-adv-x="457" unicode="ř" /><glyph d="M342 447Q314 447 285 416Q256 385 226 325L169 0H54L128 424Q134 456 132.5 463Q131 470 115 472L61 479L66 507H252L234 407Q272 463 312.5 490Q353 517 396 517Q435 517 458.5 494Q482 471 491 425L393 377Q387 412 374 429.5Q361 447 342 447ZM-8 -248 -28 -230Q-4 -193 12.5 -157Q29 -121 42 -77H159Q126 -125 84.5 -167.5Q43 -210 -8 -248Z" glyph-name="rcommaaccent" horiz-adv-x="457" unicode="ŗ" /><glyph d="M411 149Q411 76 354.5 33Q298 -10 199 -10Q116 -10 68.5 23Q21 56 14 119L84 145Q79 86 108 55.5Q137 25 197 25Q249 25 278.5 48Q308 71 308 111Q308 139 290 157.5Q272 176 228 193L171 215Q119 235 91.5 270.5Q64 306 64 354Q64 427 117 472Q170 517 263 517Q357 517 405 470Q453 423 430 356L317 340Q339 408 323 445Q307 482 255 482Q215 482 191 459.5Q167 437 167 400Q167 369 183 348.5Q199 328 239 313L295 291Q356 267 383.5 233Q411 199 411 149ZM425 744 442 723Q401 683 379.5 657.5Q358 632 325 584H237Q222 630 209.5 656Q197 682 168 723L186 743Q215 724 241.5 702Q268 680 291 656Q318 677 353 700Q388 723 425 744Z" glyph-name="scaron" horiz-adv-x="468" unicode="š" /><glyph d="M411 149Q411 76 354.5 33Q298 -10 199 -10Q116 -10 68.5 23Q21 56 14 119L84 145Q79 86 108 55.5Q137 25 197 25Q249 25 278.5 48Q308 71 308 111Q308 139 290 157.5Q272 176 228 193L171 215Q119 235 91.5 270.5Q64 306 64 354Q64 427 117 472Q170 517 263 517Q357 517 405 470Q453 423 430 356L317 340Q339 408 323 445Q307 482 255 482Q215 482 191 459.5Q167 437 167 400Q167 369 183 348.5Q199 328 239 313L295 291Q356 267 383.5 233Q411 199 411 149ZM278 579 257 603Q287 640 305 670.5Q323 701 339 740H470Q429 694 385.5 657.5Q342 621 278 579Z" glyph-name="sacute" horiz-adv-x="468" unicode="ś" /><glyph d="M286 -132Q286 -171 251 -197Q216 -223 162 -223Q113 -223 84 -202.5Q55 -182 54 -145L112 -131Q110 -162 119 -176.5Q128 -191 149 -191Q174 -191 189 -173Q204 -155 204 -128Q204 -107 193 -97Q182 -87 160 -87Q156 -87 151 -87.5Q146 -88 139 -89L131 -63L163 -8Q96 -1 58 31Q20 63 14 119L84 145Q79 86 108 55.5Q137 25 197 25Q249 25 278.5 48Q308 71 308 111Q308 139 290 157.5Q272 176 228 193L171 215Q119 235 91.5 270.5Q64 306 64 354Q64 427 117 472Q170 517 263 517Q357 517 405 470Q453 423 430 356L317 340Q339 408 323 445Q307 482 255 482Q215 482 191 459.5Q167 437 167 400Q167 369 183 348.5Q199 328 239 313L295 291Q356 267 383.5 233Q411 199 411 149Q411 77 355.5 33.5Q300 -10 202 -10L176 -55Q227 -56 256.5 -77Q286 -98 286 -132Z" glyph-name="scedilla" horiz-adv-x="468" unicode="ş" /><glyph d="M411 149Q411 76 354.5 33Q298 -10 199 -10Q116 -10 68.5 23Q21 56 14 119L84 145Q79 86 108 55.5Q137 25 197 25Q249 25 278.5 48Q308 71 308 111Q308 139 290 157.5Q272 176 228 193L171 215Q119 235 91.5 270.5Q64 306 64 354Q64 427 117 472Q170 517 263 517Q357 517 405 470Q453 423 430 356L317 340Q339 408 323 445Q307 482 255 482Q215 482 191 459.5Q167 437 167 400Q167 369 183 348.5Q199 328 239 313L295 291Q356 267 383.5 233Q411 199 411 149ZM420 601 402 581Q373 600 346.5 622Q320 644 297 668Q270 647 235 624Q200 601 163 580L146 601Q187 641 208.5 666.5Q230 692 263 740H351Q366 694 378.5 668Q391 642 420 601Z" glyph-name="scircumflex" horiz-adv-x="468" unicode="ŝ" /><glyph d="M411 149Q411 76 354.5 33Q298 -10 199 -10Q116 -10 68.5 23Q21 56 14 119L84 145Q79 86 108 55.5Q137 25 197 25Q249 25 278.5 48Q308 71 308 111Q308 139 290 157.5Q272 176 228 193L171 215Q119 235 91.5 270.5Q64 306 64 354Q64 427 117 472Q170 517 263 517Q357 517 405 470Q453 423 430 356L317 340Q339 408 323 445Q307 482 255 482Q215 482 191 459.5Q167 437 167 400Q167 369 183 348.5Q199 328 239 313L295 291Q356 267 383.5 233Q411 199 411 149ZM73 -248 53 -230Q77 -193 93.5 -157Q110 -121 123 -77H240Q207 -125 165.5 -167.5Q124 -210 73 -248Z" glyph-name="uni0219" horiz-adv-x="468" unicode="ș" /><glyph d="M309 123 364 104Q342 46 307 18Q272 -10 222 -10Q144 -10 107 37Q70 84 84 160L105 280H27L33 315H111L129 423Q135 456 133.5 463Q132 470 116 472L62 479L67 507H144L164 623L283 646L259 507H419L413 472H252L225 315H353L347 280H219L194 139Q184 81 192 53Q200 25 228 25Q258 25 276.5 47.5Q295 70 309 123Z" glyph-name="tbar" horiz-adv-x="384" unicode="ŧ" /><glyph d="M294 123 349 104Q327 46 292 18Q257 -10 207 -10Q129 -10 92 37Q55 84 69 160L114 423Q120 456 118.5 463Q117 470 101 472L47 479L52 507H129L149 623L268 646L244 507H404L398 472H237L179 139Q169 81 177 53Q185 25 213 25Q243 25 261.5 47.5Q280 70 294 123ZM334 556 310 556L347 770H456Q427 712 398.5 662Q370 612 334 556Z" glyph-name="tcaron" horiz-adv-x="369" unicode="ť" /><glyph d="M294 123 349 104Q327 46 292 18Q257 -10 207 -10Q129 -10 92 37Q55 84 69 160L114 423Q120 456 118.5 463Q117 470 101 472L47 479L52 507H129L149 623L268 646L244 507H404L398 472H237L179 139Q169 81 177 53Q185 25 213 25Q243 25 261.5 47.5Q280 70 294 123ZM56 -248 36 -230Q60 -193 76.5 -157Q93 -121 106 -77H223Q190 -125 148.5 -167.5Q107 -210 56 -248Z" glyph-name="uni0163" horiz-adv-x="369" unicode="ţ" /><glyph d="M294 123 349 104Q327 46 292 18Q257 -10 207 -10Q129 -10 92 37Q55 84 69 160L114 423Q120 456 118.5 463Q117 470 101 472L47 479L52 507H129L149 623L268 646L244 507H404L398 472H237L179 139Q169 81 177 53Q185 25 213 25Q243 25 261.5 47.5Q280 70 294 123ZM56 -248 36 -230Q60 -193 76.5 -157Q93 -121 106 -77H223Q190 -125 148.5 -167.5Q107 -210 56 -248Z" glyph-name="uni021B" horiz-adv-x="369" unicode="ț" /><glyph d="M470 -5Q425 -5 399 20.5Q373 46 371 93Q333 42 289 16Q245 -10 196 -10Q126 -10 93.5 38Q61 86 76 170L120 423Q126 456 124 463Q122 470 106 472L52 479L57 507H250L191 171Q180 106 189.5 72.5Q199 39 229 39Q267 39 306.5 74.5Q346 110 381 176L440 507H555L492 150Q479 80 480 57.5Q481 35 496 35Q513 35 528.5 53Q544 71 555 105L594 83Q572 38 541.5 16.5Q511 -5 470 -5ZM355 579 334 603Q364 640 382 670.5Q400 701 416 740H547Q506 694 462.5 657.5Q419 621 355 579Z" glyph-name="uacute" horiz-adv-x="610" unicode="ú" /><glyph d="M470 -5Q425 -5 399 20.5Q373 46 371 93Q333 42 289 16Q245 -10 196 -10Q126 -10 93.5 38Q61 86 76 170L120 423Q126 456 124 463Q122 470 106 472L52 479L57 507H250L191 171Q180 106 189.5 72.5Q199 39 229 39Q267 39 306.5 74.5Q346 110 381 176L440 507H555L492 150Q479 80 480 57.5Q481 35 496 35Q513 35 528.5 53Q544 71 555 105L594 83Q572 38 541.5 16.5Q511 -5 470 -5ZM497 601 479 581Q450 600 423.5 622Q397 644 374 668Q347 647 312 624Q277 601 240 580L223 601Q264 641 285.5 666.5Q307 692 340 740H428Q443 694 455.5 668Q468 642 497 601Z" glyph-name="ucircumflex" horiz-adv-x="610" unicode="û" /><glyph d="M470 -5Q425 -5 399 20.5Q373 46 371 93Q333 42 289 16Q245 -10 196 -10Q126 -10 93.5 38Q61 86 76 170L120 423Q126 456 124 463Q122 470 106 472L52 479L57 507H250L191 171Q180 106 189.5 72.5Q199 39 229 39Q267 39 306.5 74.5Q346 110 381 176L440 507H555L492 150Q479 80 480 57.5Q481 35 496 35Q513 35 528.5 53Q544 71 555 105L594 83Q572 38 541.5 16.5Q511 -5 470 -5ZM329 669Q329 639 309.5 619.5Q290 600 260 600Q234 600 218.5 615Q203 630 203 656Q203 686 222.5 705.5Q242 725 272 725Q298 725 313.5 710Q329 695 329 669ZM537 669Q537 639 517.5 619.5Q498 600 468 600Q442 600 426.5 615Q411 630 411 656Q411 686 430.5 705.5Q450 725 480 725Q506 725 521.5 710Q537 695 537 669Z" glyph-name="udieresis" horiz-adv-x="610" unicode="ü" /><glyph d="M470 -5Q425 -5 399 20.5Q373 46 371 93Q333 42 289 16Q245 -10 196 -10Q126 -10 93.5 38Q61 86 76 170L120 423Q126 456 124 463Q122 470 106 472L52 479L57 507H250L191 171Q180 106 189.5 72.5Q199 39 229 39Q267 39 306.5 74.5Q346 110 381 176L440 507H555L492 150Q479 80 480 57.5Q481 35 496 35Q513 35 528.5 53Q544 71 555 105L594 83Q572 38 541.5 16.5Q511 -5 470 -5ZM384 597 357 579Q309 620 278 656.5Q247 693 221 740H342Q344 702 353 671Q362 640 384 597Z" glyph-name="ugrave" horiz-adv-x="610" unicode="ù" /><glyph d="M470 -5Q425 -5 399 20.5Q373 46 371 93Q333 42 289 16Q245 -10 196 -10Q126 -10 93.5 38Q61 86 76 170L120 423Q126 456 124 463Q122 470 106 472L52 479L57 507H250L191 171Q180 106 189.5 72.5Q199 39 229 39Q267 39 306.5 74.5Q346 110 381 176L440 507H555L492 150Q479 80 480 57.5Q481 35 496 35Q513 35 528.5 53Q544 71 555 105L594 83Q572 38 541.5 16.5Q511 -5 470 -5ZM369 661Q417 661 448 681.5Q479 702 496 745L530 735Q506 656 465 617.5Q424 579 363 579Q303 579 270 620Q237 661 238 735L270 745Q273 703 297.5 682Q322 661 369 661Z" glyph-name="ubreve" horiz-adv-x="610" unicode="ŭ" /><glyph d="M470 -5Q425 -5 399 20.5Q373 46 371 93Q333 42 289 16Q245 -10 196 -10Q126 -10 93.5 38Q61 86 76 170L120 423Q126 456 124 463Q122 470 106 472L52 479L57 507H250L191 171Q180 106 189.5 72.5Q199 39 229 39Q267 39 306.5 74.5Q346 110 381 176L440 507H555L492 150Q479 80 480 57.5Q481 35 496 35Q513 35 528.5 53Q544 71 555 105L594 83Q572 38 541.5 16.5Q511 -5 470 -5ZM276 579 256 601Q280 629 296.5 662Q313 695 326 740H442Q407 696 367.5 657.5Q328 619 276 579ZM418 579 398 601Q422 629 438.5 662Q455 695 468 740H584Q549 696 509.5 657.5Q470 619 418 579Z" glyph-name="uhungarumlaut" horiz-adv-x="610" unicode="ű" /><glyph d="M470 -5Q425 -5 399 20.5Q373 46 371 93Q333 42 289 16Q245 -10 196 -10Q126 -10 93.5 38Q61 86 76 170L120 423Q126 456 124 463Q122 470 106 472L52 479L57 507H250L191 171Q180 106 189.5 72.5Q199 39 229 39Q267 39 306.5 74.5Q346 110 381 176L440 507H555L492 150Q479 80 480 57.5Q481 35 496 35Q513 35 528.5 53Q544 71 555 105L594 83Q572 38 541.5 16.5Q511 -5 470 -5ZM229 674 516 674L506 619H219Z" glyph-name="umacron" horiz-adv-x="610" unicode="ū" /><glyph d="M106 472 52 479L57 507H250L191 171Q180 106 189.5 72.5Q199 39 229 39Q267 39 306.5 74.5Q346 110 381 176L440 507H555L492 150Q479 80 480 57.5Q481 35 496 35Q513 35 528.5 53Q544 71 555 105L594 83Q580 54 555.5 29.5Q531 5 475 -30Q417 -66 400 -89.5Q383 -113 383 -143Q383 -166 391.5 -177.5Q400 -189 418 -189Q442 -189 459 -170Q476 -151 488 -112L550 -125Q527 -175 492.5 -199Q458 -223 409 -223Q360 -223 330.5 -200.5Q301 -178 301 -139Q301 -102 332 -72.5Q363 -43 459 -5Q419 -1 396 24Q373 49 371 93Q333 42 289 16Q245 -10 196 -10Q126 -10 93.5 38Q61 86 76 170L120 423Q126 456 124 463Q122 470 106 472Z" glyph-name="uogonek" horiz-adv-x="610" unicode="ų" /><glyph d="M470 -5Q425 -5 399 20.5Q373 46 371 93Q333 42 289 16Q245 -10 196 -10Q126 -10 93.5 38Q61 86 76 170L120 423Q126 456 124 463Q122 470 106 472L52 479L57 507H250L191 171Q180 106 189.5 72.5Q199 39 229 39Q267 39 306.5 74.5Q346 110 381 176L440 507H555L492 150Q479 80 480 57.5Q481 35 496 35Q513 35 528.5 53Q544 71 555 105L594 83Q572 38 541.5 16.5Q511 -5 470 -5ZM386 803Q444 803 475 767Q506 731 497 681L495 670Q487 622 451 592.5Q415 563 363 563Q306 563 274.5 599Q243 635 252 685L254 696Q263 745 298.5 774Q334 803 386 803ZM358 590Q382 590 397.5 609Q413 628 421 670L426 695Q434 735 424.5 755.5Q415 776 389 776Q365 776 350.5 757Q336 738 328 696L323 671Q315 632 324.5 611Q334 590 358 590Z" glyph-name="uring" horiz-adv-x="610" unicode="ů" /><glyph d="M470 -5Q425 -5 399 20.5Q373 46 371 93Q333 42 289 16Q245 -10 196 -10Q126 -10 93.5 38Q61 86 76 170L120 423Q126 456 124 463Q122 470 106 472L52 479L57 507H250L191 171Q180 106 189.5 72.5Q199 39 229 39Q267 39 306.5 74.5Q346 110 381 176L440 507H555L492 150Q479 80 480 57.5Q481 35 496 35Q513 35 528.5 53Q544 71 555 105L594 83Q572 38 541.5 16.5Q511 -5 470 -5ZM433 583Q415 583 398 592.5Q381 602 355 631Q334 653 323.5 659.5Q313 666 303 666Q286 666 274 648Q262 630 249 588H213Q232 671 256.5 708Q281 745 317 745Q336 745 353.5 735.5Q371 726 397 697Q417 675 427.5 668.5Q438 662 448 662Q464 662 476 679.5Q488 697 501 740H537Q518 657 493.5 620Q469 583 433 583Z" glyph-name="utilde" horiz-adv-x="610" unicode="ũ" /><glyph d="M689 480 808 517Q806 422 789.5 340Q773 258 743 192Q700 97 634.5 43.5Q569 -10 500 -10Q447 -10 414 22Q381 54 373 113Q334 52 287.5 21Q241 -10 190 -10Q120 -10 88 38Q56 86 71 170L115 423Q121 456 119 463Q117 470 101 472L47 479L52 507H245L186 171Q173 97 180.5 68Q188 39 219 39Q257 39 297 76Q337 113 372 183Q372 188 373 193Q374 198 377 217L426 507H541L492 218Q476 123 486.5 81Q497 39 537 39Q606 39 649.5 127.5Q693 216 693 376Q693 403 692 428.5Q691 454 689 480ZM487 579 466 603Q496 640 514 670.5Q532 701 548 740H679Q638 694 594.5 657.5Q551 621 487 579Z" glyph-name="wacute" horiz-adv-x="829" unicode="ẃ" /><glyph d="M689 480 808 517Q806 422 789.5 340Q773 258 743 192Q700 97 634.5 43.5Q569 -10 500 -10Q447 -10 414 22Q381 54 373 113Q334 52 287.5 21Q241 -10 190 -10Q120 -10 88 38Q56 86 71 170L115 423Q121 456 119 463Q117 470 101 472L47 479L52 507H245L186 171Q173 97 180.5 68Q188 39 219 39Q257 39 297 76Q337 113 372 183Q372 188 373 193Q374 198 377 217L426 507H541L492 218Q476 123 486.5 81Q497 39 537 39Q606 39 649.5 127.5Q693 216 693 376Q693 403 692 428.5Q691 454 689 480ZM629 601 611 581Q582 600 555.5 622Q529 644 506 668Q479 647 444 624Q409 601 372 580L355 601Q396 641 417.5 666.5Q439 692 472 740H560Q575 694 587.5 668Q600 642 629 601Z" glyph-name="wcircumflex" horiz-adv-x="829" unicode="ŵ" /><glyph d="M689 480 808 517Q806 422 789.5 340Q773 258 743 192Q700 97 634.5 43.5Q569 -10 500 -10Q447 -10 414 22Q381 54 373 113Q334 52 287.5 21Q241 -10 190 -10Q120 -10 88 38Q56 86 71 170L115 423Q121 456 119 463Q117 470 101 472L47 479L52 507H245L186 171Q173 97 180.5 68Q188 39 219 39Q257 39 297 76Q337 113 372 183Q372 188 373 193Q374 198 377 217L426 507H541L492 218Q476 123 486.5 81Q497 39 537 39Q606 39 649.5 127.5Q693 216 693 376Q693 403 692 428.5Q691 454 689 480ZM461 669Q461 639 441.5 619.5Q422 600 392 600Q366 600 350.5 615Q335 630 335 656Q335 686 354.5 705.5Q374 725 404 725Q430 725 445.5 710Q461 695 461 669ZM669 669Q669 639 649.5 619.5Q630 600 600 600Q574 600 558.5 615Q543 630 543 656Q543 686 562.5 705.5Q582 725 612 725Q638 725 653.5 710Q669 695 669 669Z" glyph-name="wdieresis" horiz-adv-x="829" unicode="ẅ" /><glyph d="M689 480 808 517Q806 422 789.5 340Q773 258 743 192Q700 97 634.5 43.5Q569 -10 500 -10Q447 -10 414 22Q381 54 373 113Q334 52 287.5 21Q241 -10 190 -10Q120 -10 88 38Q56 86 71 170L115 423Q121 456 119 463Q117 470 101 472L47 479L52 507H245L186 171Q173 97 180.5 68Q188 39 219 39Q257 39 297 76Q337 113 372 183Q372 188 373 193Q374 198 377 217L426 507H541L492 218Q476 123 486.5 81Q497 39 537 39Q606 39 649.5 127.5Q693 216 693 376Q693 403 692 428.5Q691 454 689 480ZM516 597 489 579Q441 620 410 656.5Q379 693 353 740H474Q476 702 485 671Q494 640 516 597Z" glyph-name="wgrave" horiz-adv-x="829" unicode="ẁ" /><glyph d="M554 507 466 9Q447 -100 376.5 -161.5Q306 -223 195 -223Q120 -223 82 -185.5Q44 -148 46 -78L103 -64Q99 -127 121.5 -158.5Q144 -190 193 -190Q258 -190 295.5 -144Q333 -98 350 -1L365 85Q328 38 286 14Q244 -10 196 -10Q126 -10 93.5 38Q61 86 76 170L120 423Q126 456 124 463Q122 470 106 472L52 479L57 507H250L191 171Q180 106 189.5 72.5Q199 39 229 39Q267 39 306.5 74.5Q346 110 381 176L439 507ZM365 579 344 603Q374 640 392 670.5Q410 701 426 740H557Q516 694 472.5 657.5Q429 621 365 579Z" glyph-name="yacute" horiz-adv-x="595" unicode="ý" /><glyph d="M554 507 466 9Q447 -100 376.5 -161.5Q306 -223 195 -223Q120 -223 82 -185.5Q44 -148 46 -78L103 -64Q99 -127 121.5 -158.5Q144 -190 193 -190Q258 -190 295.5 -144Q333 -98 350 -1L365 85Q328 38 286 14Q244 -10 196 -10Q126 -10 93.5 38Q61 86 76 170L120 423Q126 456 124 463Q122 470 106 472L52 479L57 507H250L191 171Q180 106 189.5 72.5Q199 39 229 39Q267 39 306.5 74.5Q346 110 381 176L439 507ZM339 669Q339 639 319.5 619.5Q300 600 270 600Q244 600 228.5 615Q213 630 213 656Q213 686 232.5 705.5Q252 725 282 725Q308 725 323.5 710Q339 695 339 669ZM547 669Q547 639 527.5 619.5Q508 600 478 600Q452 600 436.5 615Q421 630 421 656Q421 686 440.5 705.5Q460 725 490 725Q516 725 531.5 710Q547 695 547 669Z" glyph-name="ydieresis" horiz-adv-x="595" unicode="ÿ" /><glyph d="M554 507 466 9Q447 -100 376.5 -161.5Q306 -223 195 -223Q120 -223 82 -185.5Q44 -148 46 -78L103 -64Q99 -127 121.5 -158.5Q144 -190 193 -190Q258 -190 295.5 -144Q333 -98 350 -1L365 85Q328 38 286 14Q244 -10 196 -10Q126 -10 93.5 38Q61 86 76 170L120 423Q126 456 124 463Q122 470 106 472L52 479L57 507H250L191 171Q180 106 189.5 72.5Q199 39 229 39Q267 39 306.5 74.5Q346 110 381 176L439 507ZM507 601 489 581Q460 600 433.5 622Q407 644 384 668Q357 647 322 624Q287 601 250 580L233 601Q274 641 295.5 666.5Q317 692 350 740H438Q453 694 465.5 668Q478 642 507 601Z" glyph-name="ycircumflex" horiz-adv-x="595" unicode="ŷ" /><glyph d="M554 507 466 9Q447 -100 376.5 -161.5Q306 -223 195 -223Q120 -223 82 -185.5Q44 -148 46 -78L103 -64Q99 -127 121.5 -158.5Q144 -190 193 -190Q258 -190 295.5 -144Q333 -98 350 -1L365 85Q328 38 286 14Q244 -10 196 -10Q126 -10 93.5 38Q61 86 76 170L120 423Q126 456 124 463Q122 470 106 472L52 479L57 507H250L191 171Q180 106 189.5 72.5Q199 39 229 39Q267 39 306.5 74.5Q346 110 381 176L439 507ZM394 597 367 579Q319 620 288 656.5Q257 693 231 740H352Q354 702 363 671Q372 640 394 597Z" glyph-name="ygrave" horiz-adv-x="595" unicode="ỳ" /><glyph d="M190 24Q158 41 142 46.5Q126 52 113 52Q92 52 72 40.5Q52 29 33 6L28 0L-3 25L334 413H189Q155 413 146.5 410Q138 407 129 390L88 316H60L94 507H451L447 482L131 119Q145 126 157 129.5Q169 133 181 133Q195 133 209.5 128Q224 123 252 107Q280 90 295 85Q310 80 324 80Q351 80 367.5 100.5Q384 121 395 170L422 164Q409 78 376 34Q343 -10 291 -10Q271 -10 250 -3.5Q229 3 190 24ZM436 744 453 723Q412 683 390.5 657.5Q369 632 336 584H248Q233 630 220.5 656Q208 682 179 723L197 743Q226 724 252.5 702Q279 680 302 656Q329 677 364 700Q399 723 436 744Z" glyph-name="zcaron" horiz-adv-x="456" unicode="ž" /><glyph d="M190 24Q158 41 142 46.5Q126 52 113 52Q92 52 72 40.5Q52 29 33 6L28 0L-3 25L334 413H189Q155 413 146.5 410Q138 407 129 390L88 316H60L94 507H451L447 482L131 119Q145 126 157 129.5Q169 133 181 133Q195 133 209.5 128Q224 123 252 107Q280 90 295 85Q310 80 324 80Q351 80 367.5 100.5Q384 121 395 170L422 164Q409 78 376 34Q343 -10 291 -10Q271 -10 250 -3.5Q229 3 190 24ZM289 579 268 603Q298 640 316 670.5Q334 701 350 740H481Q440 694 396.5 657.5Q353 621 289 579Z" glyph-name="zacute" horiz-adv-x="456" unicode="ź" /><glyph d="M190 24Q158 41 142 46.5Q126 52 113 52Q92 52 72 40.5Q52 29 33 6L28 0L-3 25L334 413H189Q155 413 146.5 410Q138 407 129 390L88 316H60L94 507H451L447 482L131 119Q145 126 157 129.5Q169 133 181 133Q195 133 209.5 128Q224 123 252 107Q280 90 295 85Q310 80 324 80Q351 80 367.5 100.5Q384 121 395 170L422 164Q409 78 376 34Q343 -10 291 -10Q271 -10 250 -3.5Q229 3 190 24ZM373 670Q373 637 352.5 616Q332 595 299 595Q270 595 253.5 611Q237 627 237 655Q237 688 257.5 709Q278 730 311 730Q340 730 356.5 714Q373 698 373 670Z" glyph-name="zdotaccent" horiz-adv-x="456" unicode="ż" /><glyph d="M289 579 268 603Q298 640 316 670.5Q334 701 350 740H481Q440 694 396.5 657.5Q353 621 289 579Z" glyph-name="acute" horiz-adv-x="500" unicode="´" /><glyph d="M394 597 367 579Q319 620 288 656.5Q257 693 231 740H352Q354 702 363 671Q372 640 394 597Z" glyph-name="grave" horiz-adv-x="500" unicode="`" /><glyph d="M507 601 489 581Q460 600 433.5 622Q407 644 384 668Q357 647 322 624Q287 601 250 580L233 601Q274 641 295.5 666.5Q317 692 350 740H438Q453 694 465.5 668Q478 642 507 601Z" glyph-name="circumflex" horiz-adv-x="500" unicode="ˆ" /><glyph d="M436 744 453 723Q412 683 390.5 657.5Q369 632 336 584H248Q233 630 220.5 656Q208 682 179 723L197 743Q226 724 252.5 702Q279 680 302 656Q329 677 364 700Q399 723 436 744Z" glyph-name="caron" horiz-adv-x="500" unicode="ˇ" /><glyph d="M433 583Q415 583 398 592.5Q381 602 355 631Q334 653 323.5 659.5Q313 666 303 666Q286 666 274 648Q262 630 249 588H213Q232 671 256.5 708Q281 745 317 745Q336 745 353.5 735.5Q371 726 397 697Q417 675 427.5 668.5Q438 662 448 662Q464 662 476 679.5Q488 697 501 740H537Q518 657 493.5 620Q469 583 433 583Z" glyph-name="tilde" horiz-adv-x="500" unicode="˜" /><glyph d="M339 669Q339 639 319.5 619.5Q300 600 270 600Q244 600 228.5 615Q213 630 213 656Q213 686 232.5 705.5Q252 725 282 725Q308 725 323.5 710Q339 695 339 669ZM547 669Q547 639 527.5 619.5Q508 600 478 600Q452 600 436.5 615Q421 630 421 656Q421 686 440.5 705.5Q460 725 490 725Q516 725 531.5 710Q547 695 547 669Z" glyph-name="dieresis" horiz-adv-x="500" unicode="¨" /><glyph d="M386 803Q444 803 475 767Q506 731 497 681L495 670Q487 622 451 592.5Q415 563 363 563Q306 563 274.5 599Q243 635 252 685L254 696Q263 745 298.5 774Q334 803 386 803ZM358 590Q382 590 397.5 609Q413 628 421 670L426 695Q434 735 424.5 755.5Q415 776 389 776Q365 776 350.5 757Q336 738 328 696L323 671Q315 632 324.5 611Q334 590 358 590Z" glyph-name="ring" horiz-adv-x="500" unicode="˚" /><glyph d="M296 -132Q296 -171 261 -197Q226 -223 172 -223Q123 -223 94 -202.5Q65 -182 64 -145L122 -131Q120 -162 129 -176.5Q138 -191 159 -191Q184 -191 199 -173Q214 -155 214 -128Q214 -107 203 -97Q192 -87 170 -87Q166 -87 161 -87.5Q156 -88 149 -89L141 -63L178 0H218L186 -55Q237 -56 266.5 -77Q296 -98 296 -132Z" glyph-name="cedilla" horiz-adv-x="500" unicode="¸" /><glyph d="M276 579 256 601Q280 629 296.5 662Q313 695 326 740H442Q407 696 367.5 657.5Q328 619 276 579ZM418 579 398 601Q422 629 438.5 662Q455 695 468 740H584Q549 696 509.5 657.5Q470 619 418 579Z" glyph-name="hungarumlaut" horiz-adv-x="500" unicode="˝" /><glyph d="M369 661Q417 661 448 681.5Q479 702 496 745L530 735Q506 656 465 617.5Q424 579 363 579Q303 579 270 620Q237 661 238 735L270 745Q273 703 297.5 682Q322 661 369 661Z" glyph-name="breve" horiz-adv-x="500" unicode="˘" /><glyph d="M229 674 516 674L506 619H219Z" glyph-name="macron" horiz-adv-x="500" unicode="¯" /><glyph d="M373 670Q373 637 352.5 616Q332 595 299 595Q270 595 253.5 611Q237 627 237 655Q237 688 257.5 709Q278 730 311 730Q340 730 356.5 714Q373 698 373 670Z" glyph-name="dotaccent" horiz-adv-x="500" unicode="˙" /><glyph d="M404 392Q404 359 383.5 338Q363 317 330 317Q301 317 284.5 333Q268 349 268 377Q268 410 288.5 431Q309 452 342 452Q371 452 387.5 436Q404 420 404 392Z" glyph-name="periodcentered" horiz-adv-x="500" unicode="·" /><glyph d="M171 -223Q119 -223 88.5 -200.5Q58 -178 58 -139Q58 -73 139 -21.5Q220 30 311 30L306 0Q234 0 187 -42Q140 -84 140 -143Q140 -166 148.5 -177.5Q157 -189 175 -189Q199 -189 216 -170Q233 -151 245 -112L307 -125Q284 -174 250 -198.5Q216 -223 171 -223Z" glyph-name="ogonek" horiz-adv-x="500" unicode="˛" /><glyph d="M56 -248 36 -230Q60 -193 76.5 -157Q93 -121 106 -77H223Q190 -125 148.5 -167.5Q107 -210 56 -248Z" glyph-name="commaaccent" horiz-adv-x="500" unicode="" /><glyph d="M334 556 310 556L347 770H456Q427 712 398.5 662Q370 612 334 556Z" glyph-name="caron.alt" horiz-adv-x="500" unicode="" /><glyph d="M431 755 451 737Q427 700 410.5 664Q394 628 381 584H264Q297 632 338.5 674.5Q380 717 431 755Z" glyph-name="revcommaaccent" horiz-adv-x="500" unicode="" /><glyph d="M88 -10Q58 -10 40.5 6.5Q23 23 23 53Q23 87 44 109Q65 131 99 131Q129 131 146.5 114.5Q164 98 164 68Q164 34 143 12Q122 -10 88 -10Z" glyph-name="period" horiz-adv-x="255" unicode="." /><glyph d="M99 125Q128 125 144.5 107Q161 89 161 56Q161 9 123.5 -47.5Q86 -104 0 -186L-20 -164Q26 -119 51.5 -81.5Q77 -44 84 -10Q57 -8 42 7Q27 22 27 49Q27 82 47 103.5Q67 125 99 125Z" glyph-name="comma" horiz-adv-x="255" unicode="," /><glyph d="M232 454Q232 420 211 398Q190 376 156 376Q126 376 108.5 392.5Q91 409 91 439Q91 473 112 495Q133 517 167 517Q197 517 214.5 500.5Q232 484 232 454ZM164 68Q164 34 143 12Q122 -10 88 -10Q58 -10 40.5 6.5Q23 23 23 53Q23 87 44 109Q65 131 99 131Q129 131 146.5 114.5Q164 98 164 68Z" glyph-name="colon" horiz-adv-x="255" unicode=":" /><glyph d="M232 454Q232 420 211 398Q190 376 156 376Q126 376 108.5 392.5Q91 409 91 439Q91 473 112 495Q133 517 167 517Q197 517 214.5 500.5Q232 484 232 454ZM99 125Q128 125 144.5 107Q161 89 161 56Q161 9 123.5 -47.5Q86 -104 0 -186L-20 -164Q26 -119 51.5 -81.5Q77 -44 84 -10Q57 -8 42 7Q27 22 27 49Q27 82 47 103.5Q67 125 99 125Z" glyph-name="semicolon" horiz-adv-x="255" unicode=";" /><glyph d="M488 -10Q458 -10 440.5 6.5Q423 23 423 53Q423 87 444 109Q465 131 499 131Q529 131 546.5 114.5Q564 98 564 68Q564 34 543 12Q522 -10 488 -10ZM488 -10Q458 -10 440.5 6.5Q423 23 423 53Q423 87 444 109Q465 131 499 131Q529 131 546.5 114.5Q564 98 564 68Q564 34 543 12Q522 -10 488 -10ZM488 -10Q458 -10 440.5 6.5Q423 23 423 53Q423 87 444 109Q465 131 499 131Q529 131 546.5 114.5Q564 98 564 68Q564 34 543 12Q522 -10 488 -10Z" glyph-name="ellipsis" horiz-adv-x="655" unicode="…" /><glyph d="M254 219 253 202H202L204 218Q209 256 225.5 287.5Q242 319 290 364Q345 417 362 457Q379 497 379 549Q379 602 360 628.5Q341 655 303 655Q256 655 228 607Q200 559 193 467L81 483Q83 579 143 634.5Q203 690 310 690Q399 690 451.5 648Q504 606 504 538Q504 492 479.5 455.5Q455 419 376 369Q303 323 279.5 291Q256 259 254 219ZM272 68Q272 34 251 12Q230 -10 196 -10Q166 -10 148.5 6.5Q131 23 131 53Q131 87 152 109Q173 131 207 131Q237 131 254.5 114.5Q272 98 272 68Z" glyph-name="question" horiz-adv-x="492" unicode="?" /><glyph d="M203 463Q175 375 161 319.5Q147 264 136 202H101Q112 264 117.5 319.5Q123 375 125 462Q127 540 131.5 585.5Q136 631 145 680H260Q251 631 239.5 586Q228 541 203 463ZM164 68Q164 34 143 12Q122 -10 88 -10Q58 -10 40.5 6.5Q23 23 23 53Q23 87 44 109Q65 131 99 131Q129 131 146.5 114.5Q164 98 164 68Z" glyph-name="exclam" horiz-adv-x="255" unicode="!" /><glyph d="M223 439Q223 473 244 495Q265 517 299 517Q329 517 346.5 500.5Q364 484 364 454Q364 420 343 398Q322 376 288 376Q258 376 240.5 392.5Q223 409 223 439ZM241 288 242 305H293L291 289Q286 251 269.5 219.5Q253 188 205 143Q150 90 133 50Q116 10 116 -42Q116 -95 135 -121.5Q154 -148 192 -148Q239 -148 267 -100Q295 -52 302 40L414 24Q412 -72 352 -127.5Q292 -183 185 -183Q96 -183 43.5 -141Q-9 -99 -9 -31Q-9 15 15.5 51.5Q40 88 119 138Q192 184 215.5 216Q239 248 241 288Z" glyph-name="questiondown" horiz-adv-x="492" unicode="¿" /><glyph d="M91 439Q91 473 112 495Q133 517 167 517Q197 517 214.5 500.5Q232 484 232 454Q232 420 211 398Q190 376 156 376Q126 376 108.5 392.5Q91 409 91 439ZM52 44Q80 132 94 187.5Q108 243 119 305H154Q143 243 137.5 187.5Q132 132 130 45Q128 -33 123.5 -78.5Q119 -124 110 -173H-5Q4 -124 15.5 -79Q27 -34 52 44Z" glyph-name="exclamdown" horiz-adv-x="255" unicode="¡" /><glyph d="M65 297 71 335Q92 465 164 560.5Q236 656 387 750L407 720Q321 655 269.5 559.5Q218 464 190 315L183 278Q160 158 178.5 47.5Q197 -63 253 -131L228 -153Q132 -59 89 60Q46 179 65 297Z" glyph-name="parenleft" horiz-adv-x="333" unicode="(" /><glyph d="M283 300 277 262Q256 132 184 36.5Q112 -59 -39 -153L-59 -123Q27 -58 78.5 37.5Q130 133 158 282L165 319Q188 439 169.5 549.5Q151 660 95 728L120 750Q216 656 259 537Q302 418 283 300Z" glyph-name="parenright" horiz-adv-x="333" unicode=")" /><glyph d="M233 -109 318 -109L312 -144H237Q133 -144 91.5 -93.5Q50 -43 89 41L138 147Q162 201 156.5 241Q151 281 120 281H37L43 316H126Q157 316 177 355.5Q197 395 191 449L180 555Q170 651 215.5 695.5Q261 740 372 740H467L461 705H376Q331 705 310.5 671Q290 637 296 574L308 468Q316 396 286 352Q256 308 190 294Q244 277 260 232.5Q276 188 248 128L199 22Q170 -41 178.5 -75Q187 -109 233 -109Z" glyph-name="braceleft" horiz-adv-x="392" unicode="{" /><glyph d="M216 147 227 41Q237 -55 191.5 -99.5Q146 -144 35 -144H-60L-54 -109H31Q76 -109 96.5 -75Q117 -41 111 22L99 128Q91 200 121 244Q151 288 217 302Q163 319 147 363.5Q131 408 159 468L208 574Q237 637 228.5 671Q220 705 174 705H89L95 740H170Q274 740 315.5 689.5Q357 639 318 555L269 449Q245 395 250.5 355Q256 315 287 315H370L364 280H281Q250 280 230 240.5Q210 201 216 147Z" glyph-name="braceright" horiz-adv-x="392" unicode="}" /><glyph d="M146 -108 276 -108L270 -143H25L180 740H425L419 705H289Z" glyph-name="bracketleft" horiz-adv-x="350" unicode="[" /><glyph d="M95 740 340 740L185 -143H-60L-54 -108H76L219 705H89Z" glyph-name="bracketright" horiz-adv-x="350" unicode="]" /><glyph d="M-88 -125 407 740L444 722L-51 -143Z" glyph-name="slash" horiz-adv-x="373" unicode="/" /><glyph d="M93 729 133 740L327 -128L287 -139Z" glyph-name="backslash" horiz-adv-x="373" unicode="\" /><glyph d="M330 -145 -54 -145L-47 -110H337Z" glyph-name="underscore" horiz-adv-x="418" unicode="_" /><glyph d="M335 317 71 317L77 352H341Z" glyph-name="hyphen" horiz-adv-x="384" unicode="-" /><glyph d="" glyph-name="uni00AD" horiz-adv-x="0" unicode="­" /><glyph d="M535 317 71 317L77 352H541Z" glyph-name="endash" horiz-adv-x="584" unicode="–" /><glyph d="M735 317 71 317L77 352H741Z" glyph-name="emdash" horiz-adv-x="784" unicode="—" /><glyph d="M101 357 168 740H208L141 357ZM0 -213 68 170H108L40 -213Z" glyph-name="brokenbar" horiz-adv-x="206" unicode="¦" /><glyph d="M5 -213 173 740H213L45 -213Z" glyph-name="bar" horiz-adv-x="216" unicode="|" /><glyph d="M176 237 305 28L282 10L46 232L50 256L364 478L385 452ZM426 237 555 28L532 10L296 232L300 256L614 478L635 452Z" glyph-name="guillemotleft" horiz-adv-x="651" unicode="«" /><glyph d="M601 256 597 232L283 10L262 36L471 251L342 460L365 478ZM351 256 347 232L33 10L12 36L221 251L92 460L115 478Z" glyph-name="guillemotright" horiz-adv-x="651" unicode="»" /><glyph d="M176 237 305 28L282 10L46 232L50 256L364 478L385 452Z" glyph-name="guilsinglleft" horiz-adv-x="401" unicode="‹" /><glyph d="M351 257 347 233L33 11L12 37L221 252L92 461L115 479Z" glyph-name="guilsinglright" horiz-adv-x="401" unicode="›" /><glyph d="M99 121Q127 121 143 103Q159 85 159 54Q159 11 126.5 -40Q94 -91 18 -163L-2 -141Q36 -103 56.5 -71.5Q77 -40 84 -10Q58 -9 43.5 6Q29 21 29 47Q29 80 48.5 100.5Q68 121 99 121Z" glyph-name="quotesinglbase" horiz-adv-x="255" unicode="‚" /><glyph d="M99 121Q127 121 143 103Q159 85 159 54Q159 11 126.5 -40Q94 -91 18 -163L-2 -141Q36 -103 56.5 -71.5Q77 -40 84 -10Q57 -8 43 6.5Q29 21 29 47Q29 80 48.5 100.5Q68 121 99 121ZM292 121Q320 121 336 103Q352 85 352 54Q352 11 319.5 -40Q287 -91 211 -163L191 -141Q229 -103 249.5 -71.5Q270 -40 277 -10Q250 -8 236 6.5Q222 21 222 47Q222 80 241.5 100.5Q261 121 292 121Z" glyph-name="quotedblbase" horiz-adv-x="448" unicode="„" /><glyph d="M177 537Q204 535 218 520.5Q232 506 232 480Q232 447 212.5 426.5Q193 406 162 406Q134 406 118 424Q102 442 102 473Q102 516 134.5 567Q167 618 243 690L263 668Q225 630 204.5 598.5Q184 567 177 537Z" glyph-name="quoteleft" horiz-adv-x="255" unicode="‘" /><glyph d="M370 537Q397 535 411 520.5Q425 506 425 480Q425 447 405.5 426.5Q386 406 355 406Q327 406 311 424Q295 442 295 473Q295 516 327.5 567Q360 618 436 690L456 668Q418 630 397.5 598.5Q377 567 370 537ZM177 537Q204 535 218 520.5Q232 506 232 480Q232 447 212.5 426.5Q193 406 162 406Q134 406 118 424Q102 442 102 473Q102 516 134.5 567Q167 618 243 690L263 668Q225 630 204.5 598.5Q184 567 177 537Z" glyph-name="quotedblleft" horiz-adv-x="448" unicode="“" /><glyph d="M96 690Q124 690 140 672Q156 654 156 623Q156 580 123.5 529Q91 478 15 406L-5 428Q33 466 53.5 497.5Q74 529 81 559Q54 561 40 575.5Q26 590 26 616Q26 649 45.5 669.5Q65 690 96 690Z" glyph-name="quoteright" horiz-adv-x="255" unicode="’" /><glyph d="M196 690Q224 690 240 672Q256 654 256 623Q256 580 223.5 529Q191 478 115 406L95 428Q133 466 153.5 497.5Q174 529 181 559Q154 561 140 575.5Q126 590 126 616Q126 649 145.5 669.5Q165 690 196 690ZM389 690Q417 690 433 672Q449 654 449 623Q449 580 416.5 529Q384 478 308 406L288 428Q326 466 346.5 497.5Q367 529 374 559Q347 561 333 575.5Q319 590 319 616Q319 649 338.5 669.5Q358 690 389 690Z" glyph-name="quotedblright" horiz-adv-x="448" unicode="”" /><glyph d="M226 553Q200 511 187.5 478.5Q175 446 168 407H143Q146 422 147.5 438Q149 454 149 473Q149 491 147 508Q145 525 138 554Q132 577 130.5 588.5Q129 600 129 611Q129 645 149 667.5Q169 690 199 690Q225 690 240 674Q255 658 255 630Q255 614 250 598.5Q245 583 226 553Z" glyph-name="quotesingle" horiz-adv-x="256" unicode="'" /><glyph d="M226 553Q200 511 187.5 478.5Q175 446 168 407H143Q146 422 147.5 438Q149 454 149 473Q149 491 147 508Q145 525 138 554Q132 577 130.5 588.5Q129 600 129 611Q129 645 149 667.5Q169 690 199 690Q225 690 240 674Q255 658 255 630Q255 614 250 598.5Q245 583 226 553ZM420 553Q394 511 381.5 478.5Q369 446 362 407H337Q340 422 341.5 438Q343 454 343 473Q343 491 341 508Q339 525 332 554Q326 577 324.5 588.5Q323 600 323 611Q323 645 343 667.5Q363 690 393 690Q419 690 434 674Q449 658 449 630Q449 614 444 598.5Q439 583 420 553Z" glyph-name="quotedbl" horiz-adv-x="449" unicode="&quot;" /><glyph d="M239 343Q239 298 211 269Q183 240 139 240Q99 240 76 262Q53 284 53 323Q53 368 81 397Q109 426 154 426Q194 426 216.5 404Q239 382 239 343Z" glyph-name="bullet" horiz-adv-x="264" unicode="•" /><glyph d="M510 178Q510 93 438.5 41.5Q367 -10 248 -10Q141 -10 82.5 30.5Q24 71 24 145Q24 214 76 261.5Q128 309 247 346Q181 384 147.5 429Q114 474 114 525Q114 597 174.5 643.5Q235 690 328 690Q434 690 486.5 636Q539 582 515 504L396 478Q418 556 398 605.5Q378 655 327 655Q286 655 260.5 622Q235 589 235 532Q235 486 249.5 438Q264 390 288 358L400 388Q464 405 512 427Q560 449 602 480L625 378Q597 371 566.5 365.5Q536 360 475 351L403 340Q456 311 483 270Q510 229 510 178ZM145 151Q145 89 173.5 57Q202 25 257 25Q323 25 362 71.5Q401 118 401 199Q401 238 391 271.5Q381 305 360 333L302 324Q225 312 185 268Q145 224 145 151Z" glyph-name="ampersand" horiz-adv-x="624" unicode="&amp;" /><glyph d="M74 479 78 503Q93 592 154 636Q215 680 322 680H630L625 652L569 645Q552 643 548 636Q544 629 538 596L423 -59Q417 -93 418.5 -99.5Q420 -106 436 -108L490 -115L485 -143H191L196 -115L272 -108Q288 -106 292.5 -99Q297 -92 303 -59L427 645H364L300 286H264Q164 286 112 339.5Q60 393 74 479Z" glyph-name="paragraph" horiz-adv-x="598" unicode="¶" /><glyph d="M291 270 290 267Q285 239 277.5 212Q270 185 251 131Q221 48 205.5 -12Q190 -72 178 -143H143Q155 -73 160.5 -13Q166 47 166 130Q166 184 168 211.5Q170 239 175 267L176 270Q180 291 187 310Q194 329 211 361Q229 394 237 414.5Q245 435 249 459Q227 458 206.5 454Q186 450 152 438Q119 426 99.5 422.5Q80 419 59 419L79 531Q100 531 118 527.5Q136 524 166 512Q195 500 214 496Q233 492 255 491Q259 514 258.5 535Q258 556 251 590Q245 621 244.5 640Q244 659 248 680H363Q359 659 352 640Q345 621 328 590Q309 557 301.5 536Q294 515 290 491Q312 492 332.5 496Q353 500 387 512Q421 524 440.5 527.5Q460 531 481 531L461 419Q440 419 422 422.5Q404 426 374 438Q345 450 325.5 454Q306 458 284 459Q280 435 280.5 414Q281 393 287 360Q294 328 294.5 309.5Q295 291 291 270Z" glyph-name="dagger" horiz-adv-x="462" unicode="†" /><glyph d="M422 118 402 6Q381 6 363 9.5Q345 13 315 25Q286 37 266.5 41Q247 45 225 46Q221 22 221.5 1Q222 -20 228 -53Q235 -85 235.5 -103.5Q236 -122 232 -143H117Q121 -122 128 -103Q135 -84 152 -53Q171 -20 178.5 1Q186 22 190 46Q168 45 147.5 41Q127 37 93 25Q60 13 40.5 9.5Q21 6 0 6L20 118Q41 118 59 114.5Q77 111 107 99Q136 87 155 83Q174 79 196 78Q200 101 199.5 122Q199 143 192 177Q186 208 185.5 227Q185 246 189 267L190 270Q194 291 201 310Q208 329 225 361Q243 394 251 414.5Q259 435 263 459Q241 458 220.5 454Q200 450 166 438Q133 426 113.5 422.5Q94 419 73 419L93 531Q114 531 132 527.5Q150 524 180 512Q209 500 228 496Q247 492 269 491Q273 514 272.5 535Q272 556 265 590Q259 621 258.5 640Q258 659 262 680H377Q373 659 366 640Q359 621 342 590Q323 557 315.5 536Q308 515 304 491Q326 492 346.5 496Q367 500 401 512Q435 524 454.5 527.5Q474 531 495 531L475 419Q454 419 436 422.5Q418 426 388 438Q359 450 339.5 454Q320 458 298 459Q294 435 294.5 414Q295 393 301 360Q308 328 308.5 309.5Q309 291 305 270L304 267Q300 246 293 227Q286 208 269 177Q250 144 242.5 123Q235 102 231 78Q253 79 273.5 83Q294 87 328 99Q362 111 381.5 114.5Q401 118 422 118Z" glyph-name="daggerdbl" horiz-adv-x="490" unicode="‡" /><glyph d="M361 95Q392 71 407.5 39Q423 7 423 -33Q423 -119 360 -171Q297 -223 190 -223Q96 -223 42 -174.5Q-12 -126 -8 -42L63 -18Q54 -99 88 -143.5Q122 -188 190 -188Q253 -188 287 -160.5Q321 -133 321 -82Q321 -46 301.5 -23.5Q282 -1 235 19L157 52Q99 76 68.5 115.5Q38 155 38 207Q38 265 76 311Q114 357 179 378Q147 403 131.5 435Q116 467 116 508Q116 593 172 641.5Q228 690 328 690Q422 690 472.5 638Q523 586 510 517L391 496Q412 568 392 611.5Q372 655 318 655Q270 655 244 629.5Q218 604 218 556Q218 519 237.5 495.5Q257 472 305 452L377 422Q438 397 469.5 357Q501 317 501 264Q501 208 464 163.5Q427 119 361 95ZM140 263Q140 225 160 201Q180 177 228 157L321 118Q359 129 379 153Q399 177 399 211Q399 248 378.5 271.5Q358 295 305 317L220 353Q181 346 160.5 323Q140 300 140 263Z" glyph-name="section" horiz-adv-x="550" unicode="§" /><glyph d="M345 385Q366 364 376 350Q386 336 394 319L309 277Q300 295 295.5 311Q291 327 288 356Q284 389 277.5 410Q271 431 260 455Q241 437 227.5 419Q214 401 199 372Q186 346 176 332.5Q166 319 152 306L86 374Q100 388 114 397.5Q128 407 155 419Q185 433 203.5 445.5Q222 458 241 476Q217 488 196 495.5Q175 503 142 508Q114 512 97.5 517.5Q81 523 64 532L110 616Q127 607 140 596.5Q153 586 172 565Q195 541 212.5 527.5Q230 514 254 501Q258 527 258.5 549Q259 571 254 603Q249 631 249 648.5Q249 666 253 685L346 669Q343 650 337 634Q331 618 317 592Q301 563 294 542Q287 521 282 495Q308 499 329 505.5Q350 512 379 527Q405 541 421.5 546Q438 551 457 554L470 459Q451 457 434 457.5Q417 458 389 463Q356 470 333.5 470.5Q311 471 285 467Q297 444 309.5 426Q322 408 345 385Z" glyph-name="asterisk" horiz-adv-x="450" unicode="*" /><glyph d="M407 680 519 680L569 465L693 680H816L812 657L783 654Q775 653 773 649.5Q771 646 768 630L726 391Q723 375 724 371Q725 367 733 366L760 364L756 340H612L616 364L645 366Q653 367 655 370.5Q657 374 660 391L704 640L553 380H524L467 628L425 391Q422 375 423 371Q424 367 432 366L459 364L455 340H347L351 364L380 366Q388 367 390 370.5Q392 374 395 391L437 630Q440 646 439 649.5Q438 653 430 654L403 657ZM89 591 69 591L85 680H369L353 591H333L332 641Q332 650 328 652Q324 654 307 654H255L209 391Q206 375 207 371Q208 367 216 366L243 364L239 340H95L99 364L128 366Q136 367 138 371Q140 375 143 391L189 654H137Q120 654 115.5 652Q111 650 108 641Z" glyph-name="trademark" horiz-adv-x="764" unicode="™" /><glyph d="M542 479Q542 379 474 310Q406 241 308 241Q209 241 141.5 310Q74 379 74 479Q74 580 141.5 648.5Q209 717 308 717Q406 717 474 648Q542 579 542 479ZM107 479Q107 392 165 332.5Q223 273 308 273Q393 273 451 332.5Q509 392 509 479Q509 566 451 626Q393 686 308 686Q223 686 165 626Q107 566 107 479ZM215 587 194 589V611H312Q353 611 376.5 593.5Q400 576 400 545V529Q400 508 388 491.5Q376 475 355 468L398 399Q405 387 407.5 384.5Q410 382 416 381L434 379V356H358L299 461H278V399Q278 386 279 384Q280 382 286 381L307 379V356H194V379L215 381Q221 382 222 385Q223 388 223 399V569Q223 580 222 583Q221 586 215 587ZM312 587 278 587V486H312Q327 486 335.5 497Q344 508 344 529V545Q344 565 335.5 576Q327 587 312 587Z" glyph-name="registered" horiz-adv-x="536" unicode="®" /><glyph d="M809 340Q809 181 701.5 72Q594 -37 437 -37Q280 -37 172.5 72Q65 181 65 340Q65 500 172 608.5Q279 717 437 717Q594 717 701.5 608Q809 499 809 340ZM102 340Q102 195 198.5 96.5Q295 -2 437 -2Q579 -2 675.5 96.5Q772 195 772 340Q772 485 675.5 583.5Q579 682 437 682Q295 682 198.5 583.5Q102 485 102 340ZM439 539Q384 539 357 497.5Q330 456 330 371V310Q330 220 357.5 180.5Q385 141 448 141Q495 141 521 164Q547 187 558 237L616 224Q601 167 556 137.5Q511 108 443 108Q347 108 294.5 166Q242 224 242 330V351Q242 455 294 513.5Q346 572 439 572Q527 572 574 523.5Q621 475 609 398L532 389Q542 460 517.5 499.5Q493 539 439 539Z" glyph-name="copyright" horiz-adv-x="844" unicode="©" /><glyph d="M714 -116 734 -167Q683 -193 614.5 -208Q546 -223 480 -223Q290 -223 172.5 -101.5Q55 20 55 214Q55 419 180.5 554.5Q306 690 499 690Q672 690 785.5 572.5Q899 455 899 278Q899 157 838 76Q777 -5 686 -5Q636 -5 601 19.5Q566 44 556 87Q525 38 489 14Q453 -10 409 -10Q328 -10 286.5 62.5Q245 135 265 246L269 268Q286 364 346.5 420.5Q407 477 489 477Q531 477 564 459.5Q597 442 616 410Q639 422 658.5 436.5Q678 451 694 467H721L664 150Q652 86 658.5 57.5Q665 29 693 29Q763 29 812.5 101Q862 173 862 278Q862 440 759 547.5Q656 655 499 655Q322 655 207 530Q92 405 92 214Q92 34 198.5 -77Q305 -188 480 -188Q549 -188 608.5 -170Q668 -152 714 -116ZM379 276 369 216Q354 125 368.5 75Q383 25 423 25Q458 25 490.5 58.5Q523 92 556 161L595 378Q580 409 554 425.5Q528 442 497 442Q451 442 422 402Q393 362 379 276Z" glyph-name="at" horiz-adv-x="950" unicode="@" /><glyph d="M350 338Q323 338 306 353Q289 368 285 395Q267 365 243 350Q219 335 188 335Q130 335 103.5 385.5Q77 436 91 516L94 533Q106 602 148.5 643.5Q191 685 249 685Q277 685 298.5 673.5Q320 662 332 641Q345 648 357.5 657Q370 666 382 678H406L364 440Q356 395 356.5 379.5Q357 364 367 364Q378 364 388.5 376.5Q399 389 406 411L432 396Q417 367 397 352.5Q377 338 350 338ZM176 541 170 507Q158 439 167.5 400.5Q177 362 204 362Q226 362 248 383.5Q270 405 289 447L319 616Q309 637 293 647.5Q277 658 257 658Q226 658 206.5 630.5Q187 603 176 541Z" glyph-name="ordfeminine" horiz-adv-x="404" unicode="ª" /><glyph d="M260 685Q333 685 368.5 635.5Q404 586 391 504L389 491Q378 418 333.5 376.5Q289 335 222 335Q149 335 113.5 384.5Q78 434 91 516L93 529Q104 602 148.5 643.5Q193 685 260 685ZM306 484 313 524Q325 590 311.5 625.5Q298 661 262 661Q230 661 208.5 629.5Q187 598 176 536L169 496Q157 430 170.5 394.5Q184 359 219 359Q252 359 273.5 390Q295 421 306 484Z" glyph-name="ordmasculine" horiz-adv-x="392" unicode="º" /><glyph d="M547 245 541 210H423L317 -10L283 4L382 210H161L55 -10L21 4L120 210H12L18 245H137L228 435H121L127 470H245L351 690L385 676L286 470H507L613 690L647 676L548 470H656L650 435H531L440 245ZM269 435 178 245H399L490 435Z" glyph-name="numbersign" horiz-adv-x="638" unicode="#" /><glyph d="M946 685Q1028 685 1067.5 632.5Q1107 580 1093 493L1091 480Q1079 404 1030 361Q981 318 908 318Q827 318 787.5 369Q748 420 761 505L763 518Q775 596 824 640.5Q873 685 946 685ZM167 645 113 652L118 680H310L531 202L602 596Q608 629 606.5 636Q605 643 589 645L535 652L540 680H734L729 652L673 645Q656 643 652 635.5Q648 628 642 596L537 0H494L220 594L130 84Q124 51 125.5 44Q127 37 143 35L197 28L192 0H-2L3 28L59 35Q76 37 80 44Q84 51 90 84L180 596Q186 629 184.5 636Q183 643 167 645ZM1004 473 1011 513Q1024 586 1008 623.5Q992 661 948 661Q911 661 886.5 627Q862 593 850 525L843 485Q830 414 846 378Q862 342 905 342Q943 342 968 375Q993 408 1004 473ZM1015 190 731 190L737 225H1021Z" glyph-name="uni2116" horiz-adv-x="1099" unicode="№" /><glyph d="M494 167 565 143Q532 67 476.5 28.5Q421 -10 345 -10Q235 -10 170 57Q105 124 101 239H13L19 274H101Q102 295 103 305Q104 315 106 324L115 379H38L44 414H121Q149 544 227.5 617Q306 690 420 690Q528 690 585.5 627Q643 564 621 477L499 448Q526 547 504.5 601Q483 655 418 655Q353 655 310.5 598.5Q268 542 251 432L248 414H451L439 379H243L226 274H402L390 239H221Q210 130 241 77.5Q272 25 347 25Q401 25 437.5 60.5Q474 96 494 167Z" glyph-name="Euro" horiz-adv-x="624" unicode="€" /><glyph d="M501 200Q501 105 432.5 47.5Q364 -10 246 -10L226 -125H190L210 -9Q118 -1 72.5 44.5Q27 90 30 171L101 195Q94 117 122.5 75Q151 33 217 26L263 288L215 308Q156 333 126 378.5Q96 424 96 488Q96 582 157.5 636Q219 690 328 690H334L354 805H390L369 687Q461 675 504.5 613.5Q548 552 526 483L407 462Q432 536 420 585Q408 634 362 649L318 396L377 371Q439 345 470 302Q501 259 501 200ZM198 536Q198 489 218.5 459Q239 429 284 410L327 655H318Q260 655 229 624Q198 593 198 536ZM399 151Q399 194 377 221.5Q355 249 305 270L296 274L252 25Q323 26 361 59Q399 92 399 151Z" glyph-name="dollar" horiz-adv-x="562" unicode="$" /><glyph d="M359 35 413 28L408 0H134L139 28L195 35Q210 37 214.5 42Q219 47 222 64L249 214H83L89 249H255L262 292L241 354H107L114 389H229L157 596Q146 629 141 636Q136 643 121 645L67 652L72 680H354L349 652L293 645Q276 643 275.5 635Q275 627 285 596L368 338L547 596Q568 626 570.5 634.5Q573 643 557 645L503 652L508 680H707L702 652L646 645Q630 643 623 636.5Q616 630 593 596L449 389H566L559 354H425L382 292L375 249H541L535 214H369L346 84Q340 51 341.5 44Q343 37 359 35Z" glyph-name="yen" horiz-adv-x="629" unicode="¥" /><glyph d="M441 221 469 221L430 0H11L23 70Q91 107 124.5 149.5Q158 192 158 242Q158 252 157 262.5Q156 273 153 284H53L59 319H143Q139 330 128 356Q117 382 112 397Q104 420 100.5 440Q97 460 97 480Q97 573 162 631.5Q227 690 340 690Q452 690 501.5 629.5Q551 569 520 483L397 467Q424 558 409.5 606.5Q395 655 342 655Q289 655 257.5 604.5Q226 554 226 470Q226 457 227 438.5Q228 420 231 380Q234 355 234.5 342.5Q235 330 236 319H398L392 284H237V280Q237 227 211.5 185.5Q186 144 134 104H349Q383 104 392 107.5Q401 111 408 130Z" glyph-name="sterling" horiz-adv-x="531" unicode="£" /><glyph d="M375 129 428 98Q397 44 350 17Q303 -10 242 -10L222 -125H186L207 -8Q114 4 72 76.5Q30 149 51 260L55 282Q73 383 139.5 447Q206 511 299 516L319 632H355L335 516Q416 509 455 452.5Q494 396 469 322L356 306Q378 376 370.5 422.5Q363 469 328 479L248 25Q289 25 323.5 52.5Q358 80 375 129ZM180 295 170 235Q156 149 167 98Q178 47 214 32L292 480Q252 471 223 423.5Q194 376 180 295Z" glyph-name="cent" horiz-adv-x="489" unicode="¢" /><glyph d="M287 342 184 -34Q155 -140 108.5 -181.5Q62 -223 -16 -223Q-83 -223 -117.5 -188Q-152 -153 -136 -110L-23 -94Q-38 -143 -35 -165.5Q-32 -188 -10 -188Q13 -188 29 -159Q45 -130 66 -54L175 342H56L62 377H184L235 561Q264 667 310.5 708.5Q357 750 435 750Q502 750 536.5 715Q571 680 555 637L442 621Q457 670 454 692.5Q451 715 429 715Q406 715 390 686Q374 657 353 581L297 377H417L411 342Z" glyph-name="florin" horiz-adv-x="472" unicode="ƒ" /><glyph d="M419 35 463 28L458 0H273L49 310L55 345H223Q269 345 297.5 375.5Q326 406 336 467L338 478H78L84 513H343Q353 579 336.5 612Q320 645 276 645H108L114 680H578L572 645H411Q444 622 459.5 588Q475 554 471 513H548L542 478H465Q451 395 389.5 352.5Q328 310 223 310H194L363 84Q386 53 395 45Q404 37 419 35Z" glyph-name="uni20B9" horiz-adv-x="533" unicode="₹" /><glyph d="M424 161 498 67L471 43L395 138Q369 121 339 112Q309 103 277 103Q239 103 207 114.5Q175 126 151 148L31 43L8 69L128 174Q113 196 105 223.5Q97 251 97 282Q97 328 114 369Q131 410 162 440L88 533L115 557L190 463Q216 480 246 488.5Q276 497 308 497Q346 497 378.5 485.5Q411 474 434 452L555 557L578 531L457 425Q472 404 480 376.5Q488 349 488 318Q488 273 471.5 232Q455 191 424 161ZM447 317Q447 385 410 423Q373 461 308 461Q233 461 185.5 411Q138 361 138 283Q138 215 175 177Q212 139 277 139Q352 139 399.5 189Q447 239 447 317Z" glyph-name="currency" horiz-adv-x="564" unicode="¤" /><glyph d="M370 690Q490 690 542.5 601.5Q595 513 568 357L559 304Q532 147 461 68.5Q390 -10 274 -10Q154 -10 102 78.5Q50 167 77 324L86 377Q113 533 184 611.5Q255 690 370 690ZM424 262 449 415Q469 539 449.5 597Q430 655 368 655Q310 655 276 601Q242 547 221 419L196 266Q176 143 195 84Q214 25 275 25Q334 25 368.5 80Q403 135 424 262Z" glyph-name="zero" horiz-adv-x="616" unicode="0" /><glyph d="M93 559 78 591L233 680H329L224 84Q218 51 219.5 44Q221 37 237 35L291 28L286 0H-8L-3 28L73 35Q90 37 94 44.5Q98 52 104 84L198 619Z" glyph-name="one" horiz-adv-x="365" unicode="1" /><glyph d="M438 241 466 241L424 0H5L17 70Q25 116 45 154.5Q65 193 97 226Q117 246 143.5 266Q170 286 241 330Q336 389 368.5 438.5Q401 488 401 554Q401 605 383 630Q365 655 328 655Q275 655 244 607.5Q213 560 206 467L89 483Q89 574 154.5 632Q220 690 328 690Q423 690 475 646.5Q527 603 527 526Q527 474 503 434Q479 394 428 362Q393 340 325.5 311Q258 282 245 276Q169 241 127 200Q85 159 67 104H328Q361 104 369.5 107.5Q378 111 387 130Z" glyph-name="two" horiz-adv-x="533" unicode="2" /><glyph d="M342 348Q403 331 433.5 294Q464 257 464 200Q464 105 394 47.5Q324 -10 208 -10Q117 -10 66.5 30.5Q16 71 9 150L71 169Q74 101 106.5 63Q139 25 192 25Q254 25 294.5 78.5Q335 132 335 213Q335 273 307 302Q279 331 221 331H194L201 366H228Q306 366 347.5 414.5Q389 463 389 552Q389 605 371 630Q353 655 315 655Q262 655 231 607.5Q200 560 193 467L76 483Q76 574 142 632Q208 690 318 690Q413 690 465 647.5Q517 605 517 529Q517 459 472 412.5Q427 366 342 348Z" glyph-name="three" horiz-adv-x="523" unicode="3" /><glyph d="M262 84 278 176H-2L4 211Q117 313 187 420Q257 527 311 680H456Q406 567 317.5 461.5Q229 356 56 211H284L311 364L434 382L404 211H481L475 176H398L382 84Q376 51 377.5 44Q379 37 395 35L449 28L444 0H150L155 28L231 35Q248 37 252 43.5Q256 50 262 84Z" glyph-name="four" horiz-adv-x="512" unicode="4" /><glyph d="M106 332 84 347L162 680H417Q451 680 459.5 683.5Q468 687 475 706L498 767H526L493 576H173L128 386Q157 404 192.5 413.5Q228 423 266 423Q360 423 412.5 375Q465 327 465 241Q465 134 390.5 62Q316 -10 192 -10Q116 -10 71 31.5Q26 73 20 150L82 169Q84 96 109 60.5Q134 25 184 25Q252 25 295.5 94.5Q339 164 339 269Q339 332 317 360Q295 388 246 388Q211 388 177 374.5Q143 361 106 332Z" glyph-name="five" horiz-adv-x="514" unicode="5" /><glyph d="M522 201 519 177Q508 93 441.5 41.5Q375 -10 279 -10Q155 -10 102.5 76Q50 162 77 318L88 381Q116 539 185 614.5Q254 690 372 690Q466 690 520.5 640Q575 590 565 517L446 502Q462 575 442 615Q422 655 370 655Q315 655 280.5 602Q246 549 226 437L210 348Q240 376 274 389.5Q308 403 348 403Q435 403 484 346.5Q533 290 522 201ZM198 279 194 256Q173 139 192 82Q211 25 270 25Q322 25 353.5 64.5Q385 104 395 182L397 197Q408 280 389.5 319.5Q371 359 321 359Q287 359 257 339Q227 319 198 279Z" glyph-name="six" horiz-adv-x="581" unicode="6" /><glyph d="M520 680 503 586Q395 470 333 340Q271 210 224 0H79Q132 172 215.5 300Q299 428 447 576H190Q157 576 148 572.5Q139 569 131 550L93 459H65L104 680Z" glyph-name="seven" horiz-adv-x="462" unicode="7" /><glyph d="M364 378Q431 336 461 291Q491 246 491 189Q491 102 424.5 46Q358 -10 250 -10Q152 -10 92 34Q32 78 32 146Q32 204 77 252.5Q122 301 207 334Q154 371 129.5 411.5Q105 452 105 501Q105 585 166.5 637.5Q228 690 330 690Q421 690 475.5 651Q530 612 530 548Q530 493 488 450Q446 407 364 378ZM215 540Q215 501 231.5 474.5Q248 448 294 420L336 395Q378 417 399.5 454.5Q421 492 421 543Q421 596 395 625.5Q369 655 323 655Q274 655 244.5 624Q215 593 215 540ZM141 149Q141 90 170.5 57.5Q200 25 254 25Q312 25 347 60.5Q382 96 382 156Q382 195 364.5 221.5Q347 248 300 277L235 316Q189 292 165 249Q141 206 141 149Z" glyph-name="eight" horiz-adv-x="554" unicode="8" /><glyph d="M533 362 522 299Q495 143 420 66.5Q345 -10 218 -10Q137 -10 88.5 32.5Q40 75 40 148L114 167Q111 96 136 60.5Q161 25 214 25Q279 25 322 80Q365 135 384 243L395 308Q367 282 334 269.5Q301 257 262 257Q174 257 124 317.5Q74 378 88 471L92 498Q105 586 170.5 638Q236 690 331 690Q455 690 507.5 604Q560 518 533 362ZM216 494 212 468Q199 384 218.5 342.5Q238 301 289 301Q322 301 351 319Q380 337 407 374L416 424Q437 541 418 598Q399 655 340 655Q289 655 258.5 615.5Q228 576 216 494Z" glyph-name="nine" horiz-adv-x="581" unicode="9" /><glyph d="M332 690Q452 690 504.5 601.5Q557 513 530 357L521 304Q494 147 423 68.5Q352 -10 236 -10Q116 -10 64 78.5Q12 167 39 324L48 377Q75 533 146 611.5Q217 690 332 690ZM386 262 411 415Q431 539 411.5 597Q392 655 330 655Q272 655 238 601Q204 547 183 419L158 266Q138 143 157 84Q176 25 237 25Q296 25 330.5 80Q365 135 386 262Z" glyph-name="zero.tlf" horiz-adv-x="540" unicode="" /><glyph d="M147 533 132 565L331 680H427L323 88Q317 55 318.5 48Q320 41 336 39L419 28L414 0H60L65 28L172 39Q189 41 193 48.5Q197 56 203 88L296 619Z" glyph-name="one.tlf" horiz-adv-x="540" unicode="" /><glyph d="M440 241 468 241L426 0H7L19 70Q27 116 47 154.5Q67 193 99 226Q119 246 145.5 266Q172 286 243 330Q338 389 370.5 438.5Q403 488 403 554Q403 605 385 630Q367 655 330 655Q277 655 246 607.5Q215 560 208 467L91 483Q91 574 156.5 632Q222 690 330 690Q425 690 477 646.5Q529 603 529 526Q529 474 505 434Q481 394 430 362Q395 340 327.5 311Q260 282 247 276Q171 241 129 200Q87 159 69 104H330Q363 104 371.5 107.5Q380 111 389 130Z" glyph-name="two.tlf" horiz-adv-x="540" unicode="" /><glyph d="M351 348Q412 331 442.5 294Q473 257 473 200Q473 105 403 47.5Q333 -10 217 -10Q126 -10 75.5 30.5Q25 71 18 150L80 169Q83 101 115.5 63Q148 25 201 25Q263 25 303.5 78.5Q344 132 344 213Q344 273 316 302Q288 331 230 331H203L210 366H237Q315 366 356.5 414.5Q398 463 398 552Q398 605 380 630Q362 655 324 655Q271 655 240 607.5Q209 560 202 467L85 483Q85 574 151 632Q217 690 327 690Q422 690 474 647.5Q526 605 526 529Q526 459 481 412.5Q436 366 351 348Z" glyph-name="three.tlf" horiz-adv-x="540" unicode="" /><glyph d="M278 84 294 176H14L20 211Q133 313 203 420Q273 527 327 680H472Q422 567 333.5 461.5Q245 356 72 211H300L327 364L450 382L420 211H497L491 176H414L398 84Q392 51 393.5 44Q395 37 411 35L465 28L460 0H166L171 28L247 35Q264 37 268 43.5Q272 50 278 84Z" glyph-name="four.tlf" horiz-adv-x="540" unicode="" /><glyph d="M117 332 95 347L173 680H428Q462 680 470.5 683.5Q479 687 486 706L509 767H537L504 576H184L139 386Q168 404 203.5 413.5Q239 423 277 423Q371 423 423.5 375Q476 327 476 241Q476 134 401.5 62Q327 -10 203 -10Q127 -10 82 31.5Q37 73 31 150L93 169Q95 96 120 60.5Q145 25 195 25Q263 25 306.5 94.5Q350 164 350 269Q350 332 328 360Q306 388 257 388Q222 388 188 374.5Q154 361 117 332Z" glyph-name="five.tlf" horiz-adv-x="540" unicode="" /><glyph d="M496 201 493 177Q482 93 415.5 41.5Q349 -10 253 -10Q129 -10 76.5 76Q24 162 51 318L62 381Q90 539 159 614.5Q228 690 346 690Q440 690 494.5 640Q549 590 539 517L420 502Q436 575 416 615Q396 655 344 655Q289 655 254.5 602Q220 549 200 437L184 348Q214 376 248 389.5Q282 403 322 403Q409 403 458 346.5Q507 290 496 201ZM172 279 168 256Q147 139 166 82Q185 25 244 25Q296 25 327.5 64.5Q359 104 369 182L371 197Q382 280 363.5 319.5Q345 359 295 359Q261 359 231 339Q201 319 172 279Z" glyph-name="six.tlf" horiz-adv-x="540" unicode="" /><glyph d="M554 680 537 586Q429 470 367 340Q305 210 258 0H113Q166 172 249.5 300Q333 428 481 576H224Q191 576 182 572.5Q173 569 165 550L127 459H99L138 680Z" glyph-name="seven.tlf" horiz-adv-x="540" unicode="" /><glyph d="M357 378Q424 336 454 291Q484 246 484 189Q484 102 417.5 46Q351 -10 243 -10Q145 -10 85 34Q25 78 25 146Q25 204 70 252.5Q115 301 200 334Q147 371 122.5 411.5Q98 452 98 501Q98 585 159.5 637.5Q221 690 323 690Q414 690 468.5 651Q523 612 523 548Q523 493 481 450Q439 407 357 378ZM208 540Q208 501 224.5 474.5Q241 448 287 420L329 395Q371 417 392.5 454.5Q414 492 414 543Q414 596 388 625.5Q362 655 316 655Q267 655 237.5 624Q208 593 208 540ZM134 149Q134 90 163.5 57.5Q193 25 247 25Q305 25 340 60.5Q375 96 375 156Q375 195 357.5 221.5Q340 248 293 277L228 316Q182 292 158 249Q134 206 134 149Z" glyph-name="eight.tlf" horiz-adv-x="540" unicode="" /><glyph d="M518 362 507 299Q480 143 405 66.5Q330 -10 203 -10Q122 -10 73.5 32.5Q25 75 25 148L99 167Q96 96 121 60.5Q146 25 199 25Q264 25 307 80Q350 135 369 243L380 308Q352 282 319 269.5Q286 257 247 257Q159 257 109 317.5Q59 378 73 471L77 498Q90 586 155.5 638Q221 690 316 690Q440 690 492.5 604Q545 518 518 362ZM201 494 197 468Q184 384 203.5 342.5Q223 301 274 301Q307 301 336 319Q365 337 392 374L401 424Q422 541 403 598Q384 655 325 655Q274 655 243.5 615.5Q213 576 201 494Z" glyph-name="nine.tlf" horiz-adv-x="540" unicode="" /><glyph d="M322 517Q432 517 486 440.5Q540 364 517 244L513 223Q492 111 423 50.5Q354 -10 247 -10Q139 -10 85 67Q31 144 53 263L57 284Q78 396 147 456.5Q216 517 322 517ZM388 213 399 274Q418 379 399.5 430.5Q381 482 324 482Q269 482 233.5 435.5Q198 389 181 294L170 233Q151 130 170 77.5Q189 25 245 25Q301 25 336 71Q371 117 388 213Z" glyph-name="zero.posf" horiz-adv-x="571" unicode="" /><glyph d="M57 386 42 418L197 507H293L219 84Q213 51 214.5 44Q216 37 232 35L286 28L281 0H-13L-8 28L68 35Q85 37 89 44.5Q93 52 99 84L163 446Z" glyph-name="one.posf" horiz-adv-x="342" unicode="" /><glyph d="M421 195 449 195L415 0H22L34 70Q43 125 74.5 162Q106 199 176 232Q185 236 232.5 256Q280 276 304 293Q337 315 352.5 344.5Q368 374 368 413Q368 450 353 466Q338 482 304 482Q258 482 231.5 443.5Q205 405 200 332L82 348Q82 425 141.5 471Q201 517 306 517Q397 517 446 483.5Q495 450 495 390Q495 346 467.5 314.5Q440 283 378 260Q353 251 290.5 233Q228 215 199 202Q149 181 122 156.5Q95 132 82 98H333Q366 98 375 101.5Q384 105 392 124Z" glyph-name="two.posf" horiz-adv-x="532" unicode="" /><glyph d="M291 61Q291 117 270 144.5Q249 172 205 172H178L184 207L399 403H178Q145 403 136.5 399.5Q128 396 119 377L81 286H53L92 507H482L466 413L238 206Q321 199 370 153.5Q419 108 419 36Q419 -58 345.5 -120.5Q272 -183 153 -183Q71 -183 26 -142Q-19 -101 -19 -25L55 -6Q51 -78 74.5 -113Q98 -148 150 -148Q214 -148 252.5 -90Q291 -32 291 61Z" glyph-name="three.posf" horiz-adv-x="508" unicode="" /><glyph d="M348 -160 224 -183L256 0H-24L-18 35Q94 137 164.5 244.5Q235 352 289 507H434Q384 392 294.5 285Q205 178 34 35H262L289 188L412 206L382 35H459L453 0H376Z" glyph-name="four.posf" horiz-adv-x="510" unicode="" /><glyph d="M71 159 49 174L127 507H382Q416 507 424.5 510.5Q433 514 440 533L463 594H491L458 403H138L93 213Q122 231 157.5 240.5Q193 250 231 250Q325 250 377.5 202Q430 154 430 68Q430 -39 355.5 -111Q281 -183 157 -183Q81 -183 36 -141.5Q-9 -100 -15 -23L47 -4Q49 -77 74 -112.5Q99 -148 149 -148Q217 -148 260.5 -78.5Q304 -9 304 96Q304 159 282 187Q260 215 211 215Q176 215 142 201.5Q108 188 71 159Z" glyph-name="five.posf" horiz-adv-x="518" unicode="" /><glyph d="M509 201 506 177Q495 93 428.5 41.5Q362 -10 266 -10Q142 -10 89.5 76Q37 162 64 318L75 381Q103 539 172 614.5Q241 690 359 690Q453 690 507.5 640Q562 590 552 517L433 502Q449 575 429 615Q409 655 357 655Q302 655 267.5 602Q233 549 213 437L197 348Q227 376 261 389.5Q295 403 335 403Q422 403 471 346.5Q520 290 509 201ZM185 279 181 256Q160 139 179 82Q198 25 257 25Q309 25 340.5 64.5Q372 104 382 182L384 197Q395 280 376.5 319.5Q358 359 308 359Q274 359 244 339Q214 319 185 279Z" glyph-name="six.posf" horiz-adv-x="579" unicode="" /><glyph d="M488 507 471 413Q363 297 301 167Q239 37 192 -173H47Q100 -1 183.5 127Q267 255 415 403H158Q125 403 116 399.5Q107 396 99 377L61 286H33L72 507Z" glyph-name="seven.posf" horiz-adv-x="480" unicode="" /><glyph d="M342 378Q409 336 439 291Q469 246 469 189Q469 102 402.5 46Q336 -10 228 -10Q130 -10 70 34Q10 78 10 146Q10 204 55 252.5Q100 301 185 334Q132 371 107.5 411.5Q83 452 83 501Q83 585 144.5 637.5Q206 690 308 690Q399 690 453.5 651Q508 612 508 548Q508 493 466 450Q424 407 342 378ZM193 540Q193 501 209.5 474.5Q226 448 272 420L314 395Q356 417 377.5 454.5Q399 492 399 543Q399 596 373 625.5Q347 655 301 655Q252 655 222.5 624Q193 593 193 540ZM119 149Q119 90 148.5 57.5Q178 25 232 25Q290 25 325 60.5Q360 96 360 156Q360 195 342.5 221.5Q325 248 278 277L213 316Q167 292 143 249Q119 206 119 149Z" glyph-name="eight.posf" horiz-adv-x="531" unicode="" /><glyph d="M492 189 481 126Q454 -30 379 -106.5Q304 -183 177 -183Q96 -183 47.5 -140.5Q-1 -98 -1 -25L73 -6Q70 -77 95 -112.5Q120 -148 173 -148Q238 -148 281 -93Q324 -38 343 70L354 135Q326 109 293 96.5Q260 84 221 84Q133 84 83 144.5Q33 205 47 298L51 325Q64 413 129.5 465Q195 517 290 517Q414 517 466.5 431Q519 345 492 189ZM175 321 171 295Q158 211 177.5 169.5Q197 128 248 128Q281 128 310 146Q339 164 366 201L375 251Q396 368 377 425Q358 482 299 482Q248 482 217.5 442.5Q187 403 175 321Z" glyph-name="nine.posf" horiz-adv-x="569" unicode="" /><glyph d="M392 546Q392 470 341.5 418Q291 366 216 366Q151 366 111 405.5Q71 445 71 510Q71 586 121.5 638Q172 690 247 690Q312 690 352 650.5Q392 611 392 546ZM351 545Q351 596 323.5 625Q296 654 247 654Q188 654 150 613.5Q112 573 112 511Q112 460 139.5 431Q167 402 216 402Q275 402 313 442.5Q351 483 351 545Z" glyph-name="degree" horiz-adv-x="366" unicode="°" /><glyph d="M240 685Q310 685 346.5 640.5Q383 596 372 526L370 513Q360 449 318.5 412Q277 375 214 375Q144 375 107.5 419Q71 463 82 533L84 546Q94 611 136 648Q178 685 240 685ZM118 18 607 680L634 662L145 0ZM287 504 294 544Q303 596 289 626.5Q275 657 242 657Q214 657 195 631.5Q176 606 167 556L160 516Q151 463 165 433Q179 403 211 403Q240 403 259 428.5Q278 454 287 504ZM541 305Q611 305 647.5 260.5Q684 216 673 146L671 133Q661 69 619.5 32Q578 -5 515 -5Q445 -5 408.5 39Q372 83 383 153L385 166Q395 231 437 268Q479 305 541 305ZM588 124 595 164Q604 216 590 246.5Q576 277 543 277Q515 277 496 251.5Q477 226 468 176L461 136Q452 83 466 53Q480 23 512 23Q541 23 560 48.5Q579 74 588 124Z" glyph-name="percent" horiz-adv-x="725" unicode="%" /><glyph d="M240 685Q310 685 346.5 640.5Q383 596 372 526L370 513Q360 449 318.5 412Q277 375 214 375Q144 375 107.5 419Q71 463 82 533L84 546Q94 611 136 648Q178 685 240 685ZM118 18 607 680L634 662L145 0ZM287 504 294 544Q303 596 289 626.5Q275 657 242 657Q214 657 195 631.5Q176 606 167 556L160 516Q151 463 165 433Q179 403 211 403Q240 403 259 428.5Q278 454 287 504ZM541 305Q611 305 647.5 260.5Q684 216 673 146L671 133Q661 69 619.5 32Q578 -5 515 -5Q445 -5 408.5 39Q372 83 383 153L385 166Q395 231 437 268Q479 305 541 305ZM888 305Q958 305 994.5 260.5Q1031 216 1020 146L1018 133Q1008 69 966.5 32Q925 -5 862 -5Q792 -5 755.5 39Q719 83 730 153L732 166Q742 231 784 268Q826 305 888 305ZM588 124 595 164Q604 216 590 246.5Q576 277 543 277Q515 277 496 251.5Q477 226 468 176L461 136Q452 83 466 53Q480 23 512 23Q541 23 560 48.5Q579 74 588 124ZM935 124 942 164Q951 216 937 246.5Q923 277 890 277Q862 277 843 251.5Q824 226 815 176L808 136Q799 83 813 53Q827 23 859 23Q888 23 907 48.5Q926 74 935 124Z" glyph-name="perthousand" horiz-adv-x="1072" unicode="‰" /><glyph d="M-217 18 272 680L299 662L-190 0Z" glyph-name="fraction" horiz-adv-x="51" unicode="⁄" /><glyph d="M-217 18 272 680L299 662L-190 0Z" glyph-name="uni2215" horiz-adv-x="51" unicode="∕" /><glyph d="M252 790Q319 790 350.5 744.5Q382 699 369 624L364 594Q352 518 312.5 479Q273 440 210 440Q143 440 111.5 485.5Q80 531 93 607L98 637Q110 713 149 751.5Q188 790 252 790ZM279 576 291 653Q300 711 290.5 737Q281 763 252 763Q224 763 208 737.5Q192 712 183 655L171 578Q162 521 171 494.5Q180 468 209 468Q237 468 253.5 493.5Q270 519 279 576Z" glyph-name="zerosuperior" horiz-adv-x="337" unicode="⁰" /><glyph d="M133 715 120 741L197 785H260L209 497Q206 482 207 478Q208 474 216 473L243 469L239 445H77L81 469L119 473Q127 474 129 476.5Q131 479 134 497L177 740Z" glyph-name="onesuperior" horiz-adv-x="240" unicode="¹" /><glyph d="M283 566 307 566L286 445H61L67 480Q74 523 92.5 546.5Q111 570 159 595Q213 622 236 650Q259 678 259 720Q259 741 252 752Q245 763 232 763Q207 763 193 741Q179 719 176 676L102 684Q103 730 138 760Q173 790 230 790Q282 790 310 768Q338 746 338 706Q338 678 323 656.5Q308 635 276 616Q255 605 216.5 589Q178 573 169 569Q143 557 128 542.5Q113 528 106 507H235Q251 507 255.5 509Q260 511 264 520Z" glyph-name="twosuperior" horiz-adv-x="299" unicode="²" /><glyph d="M251 619Q279 611 293 593.5Q307 576 307 550Q307 502 268.5 471Q230 440 165 440Q118 440 93 460Q68 480 68 519L106 529Q104 496 117.5 479.5Q131 463 159 463Q192 463 209.5 486.5Q227 510 227 553Q227 581 215 595Q203 609 178 609H154L158 631H182Q216 631 235.5 656.5Q255 682 255 724Q255 746 247.5 757Q240 768 225 768Q201 768 187 745Q173 722 171 679L98 687Q97 733 130.5 761.5Q164 790 223 790Q276 790 305 768Q334 746 334 708Q334 676 312.5 653Q291 630 251 619Z" glyph-name="threesuperior" horiz-adv-x="293" unicode="³" /><glyph d="M188 493 195 533H53L58 556Q119 612 152 662.5Q185 713 210 785H297Q285 754 263.5 723.5Q242 693 209 659Q199 649 170 623Q141 597 93 556H199L212 627L288 636L274 556H312L308 533H270L263 493Q265 487 266.5 481Q268 475 270 469L296 465L292 445H130L134 465L173 469Q181 470 183 473.5Q185 477 188 493Z" glyph-name="foursuperior" horiz-adv-x="271" unicode="⁴" /><glyph d="M113 605 103 613L143 785H280Q296 785 300.5 786.5Q305 788 309 798L321 829H335L316 723H148L129 641Q144 649 161 653Q178 657 197 657Q247 657 277.5 631.5Q308 606 308 563Q308 510 269.5 475Q231 440 166 440Q125 440 101 458Q77 476 73 510L111 523Q112 492 122 478Q132 464 153 464Q187 464 208 494.5Q229 525 229 572Q229 603 217 618Q205 633 181 633Q166 633 148.5 626Q131 619 113 605Z" glyph-name="fivesuperior" horiz-adv-x="281" unicode="⁵" /><glyph d="M339 547 338 539Q332 492 297 466Q262 440 207 440Q143 440 115 481.5Q87 523 99 599L104 630Q117 710 154.5 750Q192 790 254 790Q310 790 339.5 763Q369 736 359 698L283 690Q293 728 286 748Q279 768 256 768Q229 768 213 742Q197 716 187 659L182 629Q195 639 210 644Q225 649 244 649Q291 649 317.5 620.5Q344 592 339 547ZM175 593 171 568Q162 514 169.5 488.5Q177 463 204 463Q226 463 240.5 482.5Q255 502 260 540L261 547Q267 586 259 604Q251 622 228 622Q213 622 200 615Q187 608 175 593Z" glyph-name="sixsuperior" horiz-adv-x="321" unicode="⁶" /><glyph d="M351 785 341 728Q287 671 257.5 609Q228 547 205 445H117Q140 520 182 581.5Q224 643 304 723H180Q163 723 158.5 721Q154 719 151 710L135 665H111L132 785Z" glyph-name="sevensuperior" horiz-adv-x="286" unicode="⁷" /><glyph d="M329 544Q329 498 294.5 469Q260 440 202 440Q151 440 119.5 461Q88 482 88 516Q88 543 111.5 565Q135 587 186 607Q149 635 136.5 654.5Q124 674 124 697Q124 737 156.5 763.5Q189 790 243 790Q292 790 321.5 770.5Q351 751 351 719Q351 695 331 676Q311 657 267 639L268 638Q300 615 314.5 592.5Q329 570 329 544ZM194 716Q194 703 201.5 692Q209 681 230 665L248 652Q264 666 272.5 683Q281 700 281 719Q281 740 271 751.5Q261 763 242 763Q220 763 207 749.5Q194 736 194 716ZM158 518Q158 494 170 480.5Q182 467 204 467Q229 467 244 483Q259 499 259 523Q259 538 251.5 550.5Q244 563 229 575L201 596Q180 582 169 561.5Q158 541 158 518Z" glyph-name="eightsuperior" horiz-adv-x="320" unicode="⁸" /><glyph d="M336 627 331 594Q320 517 279.5 478.5Q239 440 170 440Q128 440 102.5 458.5Q77 477 73 510L110 525Q111 494 126 478.5Q141 463 168 463Q200 463 219 489Q238 515 248 572L253 603Q240 592 224.5 587Q209 582 191 582Q144 582 117.5 610Q91 638 96 683L97 692Q102 739 136 765Q170 791 222 791Q290 791 319 749Q348 707 336 627ZM175 691 174 683Q169 643 176.5 626Q184 609 207 609Q222 609 235 616Q248 623 260 638L264 663Q273 717 265.5 742.5Q258 768 231 768Q207 768 193.5 749Q180 730 175 691Z" glyph-name="ninesuperior" horiz-adv-x="301" unicode="⁹" /><glyph d="M156 240Q223 240 254.5 194.5Q286 149 273 74L268 44Q256 -32 216.5 -71Q177 -110 114 -110Q47 -110 15.5 -64.5Q-16 -19 -3 57L2 87Q14 163 53 201.5Q92 240 156 240ZM183 26 195 103Q204 161 194.5 187Q185 213 156 213Q128 213 112 187.5Q96 162 87 105L75 28Q66 -29 75 -55.5Q84 -82 113 -82Q141 -82 157.5 -56.5Q174 -31 183 26Z" glyph-name="zeroinferior" horiz-adv-x="337" unicode="₀" /><glyph d="M37 165 24 191L101 235H164L113 -53Q110 -68 111 -72Q112 -76 120 -77L147 -81L143 -105H-19L-15 -81L23 -77Q31 -76 33 -73.5Q35 -71 38 -53L81 190Z" glyph-name="oneinferior" horiz-adv-x="240" unicode="₁" /><glyph d="M187 16 211 16L190 -105H-35L-29 -70Q-22 -27 -3.5 -3.5Q15 20 63 45Q117 72 140 100Q163 128 163 170Q163 191 156 202Q149 213 136 213Q111 213 97 191Q83 169 80 126L6 134Q7 180 42 210Q77 240 134 240Q186 240 214 218Q242 196 242 156Q242 128 227 106.5Q212 85 180 66Q159 55 120.5 39Q82 23 73 19Q47 7 32 -7.5Q17 -22 10 -43H139Q155 -43 159.5 -41Q164 -39 168 -30Z" glyph-name="twoinferior" horiz-adv-x="299" unicode="₂" /><glyph d="M155 69Q183 61 197 43.5Q211 26 211 0Q211 -48 172.5 -79Q134 -110 69 -110Q22 -110 -3 -90Q-28 -70 -28 -31L10 -21Q8 -54 21.5 -70.5Q35 -87 63 -87Q96 -87 113.5 -63.5Q131 -40 131 3Q131 31 119 45Q107 59 82 59H58L62 81H86Q120 81 139.5 106.5Q159 132 159 174Q159 196 151.5 207Q144 218 129 218Q105 218 91 195Q77 172 75 129L2 137Q1 183 34.5 211.5Q68 240 127 240Q180 240 209 218Q238 196 238 158Q238 126 216.5 103Q195 80 155 69Z" glyph-name="threeinferior" horiz-adv-x="293" unicode="₃" /><glyph d="M91 -57 98 -17H-44L-39 6Q22 62 55 112.5Q88 163 113 235H200Q188 204 166.5 173.5Q145 143 112 109Q102 99 73 73Q44 47 -4 6H102L115 77L191 86L177 6H215L211 -17H173L166 -57Q168 -63 169.5 -69Q171 -75 173 -81L199 -85L195 -105H33L37 -85L76 -81Q84 -80 86 -76.5Q88 -73 91 -57Z" glyph-name="fourinferior" horiz-adv-x="271" unicode="₄" /><glyph d="M17 55 7 63L47 235H184Q200 235 204.5 236.5Q209 238 213 248L225 279H239L220 173H52L33 91Q48 99 65 103Q82 107 101 107Q151 107 181.5 81.5Q212 56 212 13Q212 -40 173.5 -75Q135 -110 70 -110Q29 -110 5 -92Q-19 -74 -23 -40L15 -27Q16 -58 26 -72Q36 -86 57 -86Q91 -86 112 -55.5Q133 -25 133 22Q133 53 121 68Q109 83 85 83Q70 83 52.5 76Q35 69 17 55Z" glyph-name="fiveinferior" horiz-adv-x="281" unicode="₅" /><glyph d="M243 -3 242 -11Q236 -58 201 -84Q166 -110 111 -110Q47 -110 19 -68.5Q-9 -27 3 49L8 80Q21 160 58.5 200Q96 240 158 240Q214 240 243.5 213Q273 186 263 148L187 140Q197 178 190 198Q183 218 160 218Q133 218 117 192Q101 166 91 109L86 79Q99 89 114 94Q129 99 148 99Q195 99 221.5 70.5Q248 42 243 -3ZM79 43 75 18Q66 -36 73.5 -61.5Q81 -87 108 -87Q130 -87 144.5 -67.5Q159 -48 164 -10L165 -3Q171 36 163 54Q155 72 132 72Q117 72 104 65Q91 58 79 43Z" glyph-name="sixinferior" horiz-adv-x="321" unicode="₆" /><glyph d="M255 235 245 178Q191 121 161.5 59Q132 -3 109 -105H21Q44 -30 86 31.5Q128 93 208 173H84Q67 173 62.5 171Q58 169 55 160L39 115H15L36 235Z" glyph-name="seveninferior" horiz-adv-x="286" unicode="₇" /><glyph d="M233 -6Q233 -52 198.5 -81Q164 -110 106 -110Q55 -110 23.5 -89Q-8 -68 -8 -34Q-8 -7 15.5 15Q39 37 90 57Q53 85 40.5 104.5Q28 124 28 147Q28 187 60.5 213.5Q93 240 147 240Q196 240 225.5 220.5Q255 201 255 169Q255 145 235 126Q215 107 171 89L172 88Q204 65 218.5 42.5Q233 20 233 -6ZM98 166Q98 153 105.5 142Q113 131 134 115L152 102Q168 116 176.5 133Q185 150 185 169Q185 190 175 201.5Q165 213 146 213Q124 213 111 199.5Q98 186 98 166ZM62 -32Q62 -56 74 -69.5Q86 -83 108 -83Q133 -83 148 -67Q163 -51 163 -27Q163 -12 155.5 0.5Q148 13 133 25L105 46Q84 32 73 11.5Q62 -9 62 -32Z" glyph-name="eightinferior" horiz-adv-x="320" unicode="₈" /><glyph d="M240 77 235 44Q224 -33 183.5 -71.5Q143 -110 74 -110Q32 -110 6.5 -91.5Q-19 -73 -23 -40L14 -25Q15 -56 30 -71.5Q45 -87 72 -87Q104 -87 123 -61Q142 -35 152 22L157 53Q144 42 128.5 37Q113 32 95 32Q48 32 21.5 60Q-5 88 0 133L1 142Q6 189 40 215Q74 241 126 241Q194 241 223 199Q252 157 240 77ZM79 141 78 133Q73 93 80.5 76Q88 59 111 59Q126 59 139 66Q152 73 164 88L168 113Q177 167 169.5 192.5Q162 218 135 218Q111 218 97.5 199Q84 180 79 141Z" glyph-name="nineinferior" horiz-adv-x="301" unicode="₉" /><glyph d="M156 240Q223 240 254.5 194.5Q286 149 273 74L268 44Q256 -32 216.5 -71Q177 -110 114 -110Q47 -110 15.5 -64.5Q-16 -19 -3 57L2 87Q14 163 53 201.5Q92 240 156 240ZM183 26 195 103Q204 161 194.5 187Q185 213 156 213Q128 213 112 187.5Q96 162 87 105L75 28Q66 -29 75 -55.5Q84 -82 113 -82Q141 -82 157.5 -56.5Q174 -31 183 26Z" glyph-name="zero.numerator" horiz-adv-x="337" unicode="" /><glyph d="M37 165 24 191L101 235H164L113 -53Q110 -68 111 -72Q112 -76 120 -77L147 -81L143 -105H-19L-15 -81L23 -77Q31 -76 33 -73.5Q35 -71 38 -53L81 190Z" glyph-name="one.numerator" horiz-adv-x="240" unicode="" /><glyph d="M187 16 211 16L190 -105H-35L-29 -70Q-22 -27 -3.5 -3.5Q15 20 63 45Q117 72 140 100Q163 128 163 170Q163 191 156 202Q149 213 136 213Q111 213 97 191Q83 169 80 126L6 134Q7 180 42 210Q77 240 134 240Q186 240 214 218Q242 196 242 156Q242 128 227 106.5Q212 85 180 66Q159 55 120.5 39Q82 23 73 19Q47 7 32 -7.5Q17 -22 10 -43H139Q155 -43 159.5 -41Q164 -39 168 -30Z" glyph-name="two.numerator" horiz-adv-x="299" unicode="" /><glyph d="M155 69Q183 61 197 43.5Q211 26 211 0Q211 -48 172.5 -79Q134 -110 69 -110Q22 -110 -3 -90Q-28 -70 -28 -31L10 -21Q8 -54 21.5 -70.5Q35 -87 63 -87Q96 -87 113.5 -63.5Q131 -40 131 3Q131 31 119 45Q107 59 82 59H58L62 81H86Q120 81 139.5 106.5Q159 132 159 174Q159 196 151.5 207Q144 218 129 218Q105 218 91 195Q77 172 75 129L2 137Q1 183 34.5 211.5Q68 240 127 240Q180 240 209 218Q238 196 238 158Q238 126 216.5 103Q195 80 155 69Z" glyph-name="three.numerator" horiz-adv-x="293" unicode="" /><glyph d="M91 -57 98 -17H-44L-39 6Q22 62 55 112.5Q88 163 113 235H200Q188 204 166.5 173.5Q145 143 112 109Q102 99 73 73Q44 47 -4 6H102L115 77L191 86L177 6H215L211 -17H173L166 -57Q168 -63 169.5 -69Q171 -75 173 -81L199 -85L195 -105H33L37 -85L76 -81Q84 -80 86 -76.5Q88 -73 91 -57Z" glyph-name="four.numerator" horiz-adv-x="271" unicode="" /><glyph d="M17 55 7 63L47 235H184Q200 235 204.5 236.5Q209 238 213 248L225 279H239L220 173H52L33 91Q48 99 65 103Q82 107 101 107Q151 107 181.5 81.5Q212 56 212 13Q212 -40 173.5 -75Q135 -110 70 -110Q29 -110 5 -92Q-19 -74 -23 -40L15 -27Q16 -58 26 -72Q36 -86 57 -86Q91 -86 112 -55.5Q133 -25 133 22Q133 53 121 68Q109 83 85 83Q70 83 52.5 76Q35 69 17 55Z" glyph-name="five.numerator" horiz-adv-x="281" unicode="" /><glyph d="M243 -3 242 -11Q236 -58 201 -84Q166 -110 111 -110Q47 -110 19 -68.5Q-9 -27 3 49L8 80Q21 160 58.5 200Q96 240 158 240Q214 240 243.5 213Q273 186 263 148L187 140Q197 178 190 198Q183 218 160 218Q133 218 117 192Q101 166 91 109L86 79Q99 89 114 94Q129 99 148 99Q195 99 221.5 70.5Q248 42 243 -3ZM79 43 75 18Q66 -36 73.5 -61.5Q81 -87 108 -87Q130 -87 144.5 -67.5Q159 -48 164 -10L165 -3Q171 36 163 54Q155 72 132 72Q117 72 104 65Q91 58 79 43Z" glyph-name="six.numerator" horiz-adv-x="321" unicode="" /><glyph d="M255 235 245 178Q191 121 161.5 59Q132 -3 109 -105H21Q44 -30 86 31.5Q128 93 208 173H84Q67 173 62.5 171Q58 169 55 160L39 115H15L36 235Z" glyph-name="seven.numerator" horiz-adv-x="286" unicode="" /></font>
</defs>
</svg>
