<?xml version="1.0" standalone="no"?>
<!DOCTYPE svg
  PUBLIC '-//W3C//DTD SVG 1.1//EN'
  'http://www.w3.org/Graphics/SVG/1.1/DTD/svg11.dtd'><svg version="1.1" xmlns="http://www.w3.org/2000/svg"><defs><font horiz-adv-x="0" id="font"><font-face ascent="650" bbox="-175 -238 1252 974" cap-height="680" descent="-200" font-family="Inria Serif Light" font-stretch="normal" font-style="normal" font-weight="680" units-per-em="1000" x-height="487" /><missing-glyph d="M538 0 120 0V680H538ZM185 650 185 30H473V650Z" horiz-adv-x="658" /><glyph d="" glyph-name=".null" horiz-adv-x="0" unicode="" /><glyph d="" glyph-name="CR" horiz-adv-x="0" unicode="" /><glyph d="" glyph-name="space" horiz-adv-x="230" unicode=" " /><glyph d="" glyph-name="uni00A0" horiz-adv-x="230" unicode=" " /><glyph d="M134 30 189 25V0H0V25L55 30Q72 32 76.5 38.5Q81 45 92 79L287 680H334L531 79Q542 46 546.5 39Q551 32 567 30L622 25V0H401V25L456 30Q473 32 474 39Q475 46 464 79L421 210H168L126 79Q115 46 116 39Q117 32 134 30ZM295 600 178 240H412Z" glyph-name="A" horiz-adv-x="622" unicode="A" /><glyph d="M107 650 52 655V680H322Q405 680 455 635.5Q505 591 505 517V491Q505 440 476 403Q447 366 394 350Q460 339 497.5 297.5Q535 256 535 195V169Q535 93 483.5 46.5Q432 0 347 0H52V25L107 30Q123 32 126 38.5Q129 45 129 79V601Q129 635 126 641.5Q123 648 107 650ZM322 650 194 650V360H322Q378 360 407.5 391Q437 422 437 481V527Q437 586 407.5 618Q378 650 322 650ZM347 330 194 330V30H347Q405 30 436 63.5Q467 97 467 159V205Q467 265 435.5 297.5Q404 330 347 330Z" glyph-name="B" horiz-adv-x="598" unicode="B" /><glyph d="M323 -10Q207 -10 143.5 71Q80 152 80 299V382Q80 526 144 608Q208 690 320 690Q423 690 478.5 630.5Q534 571 519 483L454 467Q464 560 430 610Q396 660 322 660Q235 660 194 604.5Q153 549 153 432V249Q153 132 195 76Q237 20 326 20Q387 20 425 52Q463 84 470 144L526 131Q506 62 454 26Q402 -10 323 -10Z" glyph-name="C" horiz-adv-x="579" unicode="C" /><glyph d="M107 650 52 655V680H329Q443 680 507.5 600Q572 520 572 382V299Q572 160 507.5 80Q443 0 329 0H52V25L107 30Q123 32 126 38.5Q129 45 129 79V601Q129 635 126 641.5Q123 648 107 650ZM329 650 194 650V30H329Q416 30 457.5 83.5Q499 137 499 249V432Q499 544 457.5 597Q416 650 329 650Z" glyph-name="D" horiz-adv-x="652" unicode="D" /><glyph d="M469 56 496 157H520V0H52V25L107 30Q123 32 126 38.5Q129 45 129 79V601Q129 635 126 641.5Q123 648 107 650L52 655V680H506V523H482L455 624Q450 643 441.5 646.5Q433 650 401 650H194V359H342Q375 359 383 362.5Q391 366 396 385L413 456H437V232H413L396 303Q391 322 383 325.5Q375 329 342 329H194V30H415Q447 30 455.5 33.5Q464 37 469 56Z" glyph-name="E" horiz-adv-x="565" unicode="E" /><glyph d="M386 374 403 445H428V221H403L386 292Q381 311 373 314.5Q365 318 332 318H194V79Q194 45 197 38Q200 31 216 30L291 25V0H52V25L107 30Q123 32 126 38.5Q129 45 129 79V601Q129 635 126 641.5Q123 648 107 650L52 655V680H498V523H473L446 624Q441 643 432.5 646.5Q424 650 392 650H194V348H332Q365 348 373 351.5Q381 355 386 374Z" glyph-name="F" horiz-adv-x="537" unicode="F" /><glyph d="M455 278 380 283V308H616V283L561 278Q545 276 542 269.5Q539 263 539 229V0H517Q511 13 502.5 24.5Q494 36 482 47Q452 18 413 4Q374 -10 324 -10Q210 -10 145 72.5Q80 155 80 299V382Q80 525 146 607.5Q212 690 328 690Q436 690 494 630.5Q552 571 537 483L472 467Q483 561 446 611Q409 661 330 661Q239 661 196 605.5Q153 550 153 432V249Q153 132 196 76Q239 20 329 20Q379 20 415 37.5Q451 55 477 91V229Q477 263 474 270Q471 277 455 278Z" glyph-name="G" horiz-adv-x="640" unicode="G" /><glyph d="M609 30 664 25V0H445V25L500 30Q516 32 519 38.5Q522 45 522 79V329H194V79Q194 45 197 38.5Q200 32 216 30L271 25V0H52V25L107 30Q123 32 126 38.5Q129 45 129 79V601Q129 635 126 641.5Q123 648 107 650L52 655V680H271V655L216 650Q200 648 197 641.5Q194 635 194 601V359H522V601Q522 635 519 641.5Q516 648 500 650L445 655V680H664V655L609 650Q593 648 590 641.5Q587 635 587 601V79Q587 45 590 38.5Q593 32 609 30Z" glyph-name="H" horiz-adv-x="716" unicode="H" /><glyph d="M107 650 52 655V680H271V655L216 650Q200 648 197 641.5Q194 635 194 601V79Q194 45 197 38.5Q200 32 216 30L271 25V0H52V25L107 30Q123 32 126 38.5Q129 45 129 79V601Q129 635 126 641.5Q123 648 107 650Z" glyph-name="I" horiz-adv-x="323" unicode="I" /><glyph d="M248 650 193 655V680H412V655L357 650Q341 648 338 641.5Q335 635 335 601V202Q335 100 292 45Q249 -10 167 -10Q101 -10 62 25.5Q23 61 17 129L67 144Q69 82 93.5 51Q118 20 165 20Q220 20 245 64.5Q270 109 270 202V601Q270 635 267 641.5Q264 648 248 650Z" glyph-name="J" horiz-adv-x="452" unicode="J" /><glyph d="M107 651 52 656V680H271V656L216 651Q200 649 197 642.5Q194 636 194 602V290L452 612Q473 638 474 643.5Q475 649 457 651L408 656V680H590V656L541 651Q527 650 520.5 644.5Q514 639 492 612L324 403L526 79Q547 46 553.5 39Q560 32 577 30L627 25V0H495L282 351L194 242V79Q194 45 197 38.5Q200 32 216 30L271 25V0H52V25L107 30Q123 32 126 38.5Q129 45 129 79V602Q129 636 126 642.5Q123 649 107 651Z" glyph-name="K" horiz-adv-x="636" unicode="K" /><glyph d="M441 56 468 161H493V0H52V25L107 30Q123 32 126 38.5Q129 45 129 79V601Q129 635 126 641.5Q123 648 107 650L52 655V680H271V655L216 650Q200 648 197 641.5Q194 635 194 601V30H387Q419 30 427.5 33.5Q436 37 441 56Z" glyph-name="L" horiz-adv-x="504" unicode="L" /><glyph d="M746 30 801 25V0H582V25L637 30Q653 32 656 38.5Q659 45 659 79V638L434 80H392L164 638V79Q164 45 167 38.5Q170 32 186 30L241 25V0H52V25L107 30Q123 32 126 38.5Q129 45 129 79V601Q129 635 126 641.5Q123 648 107 650L52 655V680H216L431 154L641 680H801V655L746 650Q730 648 727 641.5Q724 635 724 601V79Q724 45 727 38.5Q730 32 746 30Z" glyph-name="M" horiz-adv-x="853" unicode="M" /><glyph d="M514 650 459 655V680H648V655L593 650Q577 648 574 641.5Q571 635 571 601V0H526L164 630V79Q164 45 167 38.5Q170 32 186 30L241 25V0H52V25L107 30Q123 32 126 38.5Q129 45 129 79V601Q129 635 126 641.5Q123 648 107 650L52 655V680H206L536 106V601Q536 635 533 641.5Q530 648 514 650Z" glyph-name="N" horiz-adv-x="695" unicode="N" /><glyph d="M331 690Q448 690 515 607.5Q582 525 582 382V299Q582 155 515 72.5Q448 -10 331 -10Q213 -10 146.5 72.5Q80 155 80 299V382Q80 526 146.5 608Q213 690 331 690ZM509 249 509 432Q509 548 465.5 604Q422 660 331 660Q240 660 196.5 604Q153 548 153 432V249Q153 133 197 76.5Q241 20 331 20Q421 20 465 76.5Q509 133 509 249Z" glyph-name="O" horiz-adv-x="662" unicode="O" /><glyph d="M107 650 52 655V680H324Q414 680 465.5 632.5Q517 585 517 502V469Q517 386 465.5 338Q414 290 324 290H194V79Q194 45 197 38Q200 31 216 30L291 25V0H52V25L107 30Q123 32 126 38.5Q129 45 129 79V601Q129 635 126 641.5Q123 648 107 650ZM324 650 194 650V320H324Q388 320 418.5 354Q449 388 449 459V512Q449 582 418 616Q387 650 324 650Z" glyph-name="P" horiz-adv-x="558" unicode="P" /><glyph d="M369 -8Q393 -63 433.5 -86Q474 -109 556 -109L567 -173Q479 -173 422.5 -133Q366 -93 336 -10H331Q213 -10 146.5 72.5Q80 155 80 299V382Q80 526 146.5 608Q213 690 331 690Q448 690 515 607.5Q582 525 582 382V299Q582 168 525.5 86.5Q469 5 369 -8ZM509 249 509 432Q509 548 465.5 604Q422 660 331 660Q240 660 196.5 604Q153 548 153 432V249Q153 133 197 76.5Q241 20 331 20Q421 20 465 76.5Q509 133 509 249Z" glyph-name="Q" horiz-adv-x="662" unicode="Q" /><glyph d="M107 650 52 655V680H314Q404 680 455.5 635Q507 590 507 512V477Q507 413 472.5 370.5Q438 328 375 314L506 79Q525 45 531 38.5Q537 32 554 30L599 25V0H472L307 308H194V79Q194 45 197 38.5Q200 32 216 30L271 25V0H52V25L107 30Q123 32 126 38.5Q129 45 129 79V601Q129 635 126 641.5Q123 648 107 650ZM314 650 194 650V338H314Q371 338 405 375.5Q439 413 439 477V512Q439 576 405.5 613Q372 650 314 650Z" glyph-name="R" horiz-adv-x="608" unicode="R" /><glyph d="M267 20Q341 20 382.5 56.5Q424 93 424 159Q424 218 388 254.5Q352 291 274 311L221 325Q141 346 99.5 394Q58 442 58 512Q58 592 112.5 641Q167 690 262 690Q370 690 425 631.5Q480 573 464 483L401 467Q412 564 377.5 612.5Q343 661 263 661Q194 661 156 626Q118 591 118 527Q118 471 150.5 438Q183 405 255 386L308 372Q394 349 439 298.5Q484 248 484 174Q484 90 426 40Q368 -10 267 -10Q172 -10 116.5 36Q61 82 46 173L101 191Q108 106 150 63Q192 20 267 20Z" glyph-name="S" horiz-adv-x="540" unicode="S" /><glyph d="M14 523 14 680H535V523H510L483 624Q478 643 469.5 646.5Q461 650 429 650H307V79Q307 45 310 38.5Q313 32 329 30L384 25V0H165V25L220 30Q236 32 239 38.5Q242 45 242 79V650H120Q88 650 79.5 646.5Q71 643 66 624L39 523Z" glyph-name="T" horiz-adv-x="549" unicode="T" /><glyph d="M501 650 446 655V680H635V655L580 650Q564 648 561 641.5Q558 635 558 601V231Q558 115 502 52.5Q446 -10 341 -10Q232 -10 173.5 57.5Q115 125 115 251V601Q115 635 112 641.5Q109 648 93 650L38 655V680H257V655L202 650Q186 648 183 641.5Q180 635 180 601V231Q180 124 221 72.5Q262 21 347 21Q433 21 478 74.5Q523 128 523 231V601Q523 635 520 641.5Q517 648 501 650Z" glyph-name="U" horiz-adv-x="673" unicode="U" /><glyph d="M531 611 334 0H279L82 611Q77 625 75.5 630Q74 635 72 638Q69 644 65.5 646.5Q62 649 49 650L0 655V680H209V655L160 650Q144 648 142.5 642.5Q141 637 149 611L323 66L497 611Q506 637 504.5 642.5Q503 648 486 650L437 655V680H612V655L563 650Q548 648 544 642.5Q540 637 531 611Z" glyph-name="V" horiz-adv-x="612" unicode="V" /><glyph d="M682 0 632 0L458 591L281 0H230L79 611Q72 638 68 643Q64 648 49 650L0 655V680H205V655L156 650Q140 648 138 642.5Q136 637 143 611L272 86L449 680H497L671 90L799 611Q806 637 804 642.5Q802 648 786 650L737 655V680H911V655L862 650Q847 648 843 642Q839 636 833 611Z" glyph-name="W" horiz-adv-x="911" unicode="W" /><glyph d="M133 30 182 25V0H3V25L52 30Q68 32 74 38Q80 44 95 69L260 339L102 611Q87 637 81.5 642.5Q76 648 61 650L12 655V680H226V655L177 650Q160 648 160.5 642Q161 636 175 611L304 389L439 611Q455 636 455 642Q455 648 439 650L390 655V680H569V655L520 650Q504 648 498 642Q492 636 477 611L322 358L489 69Q505 42 510.5 36.5Q516 31 531 30L580 25V0H366V25L415 30Q432 32 431.5 38Q431 44 417 69L278 308L133 69Q117 43 117 37.5Q117 32 133 30Z" glyph-name="X" horiz-adv-x="583" unicode="X" /><glyph d="M340 30 395 25V0H176V25L231 30Q247 32 250 38.5Q253 45 253 79V290L90 611Q77 637 71 642.5Q65 648 49 650L0 655V680H214V655L165 650Q149 648 149 642.5Q149 637 162 611L303 328L444 611Q457 637 457 642.5Q457 648 441 650L392 655V680H570V655L521 650Q505 649 499.5 643.5Q494 638 480 611L318 290V79Q318 45 321 38.5Q324 32 340 30Z" glyph-name="Y" horiz-adv-x="570" unicode="Y" /><glyph d="M429 56 456 157H481V0H41V20L395 650H157Q125 650 116.5 646.5Q108 643 103 624L76 523H51V680H471V660L117 30H375Q407 30 415.5 33.5Q424 37 429 56Z" glyph-name="Z" horiz-adv-x="522" unicode="Z" /><glyph d="M803 157 827 157V0H362V25L417 30Q433 32 436 38.5Q439 45 439 79V210H211L140 79Q122 45 121.5 38.5Q121 32 138 30L193 25V0H0V25L55 30Q71 32 77 38.5Q83 45 102 79L384 601Q403 635 403.5 641.5Q404 648 388 650L333 655V680H817V523H793L766 624Q761 643 752.5 646.5Q744 650 712 650H504V359H652Q685 359 693 362.5Q701 366 706 385L723 456H747V232H723L706 303Q701 322 693 325.5Q685 329 652 329H504V30H722Q754 30 762.5 33.5Q771 37 776 56ZM439 632 227 240H439Z" glyph-name="AE" horiz-adv-x="875" unicode="Æ" /><glyph d="M795 56 822 157H846V0H323Q209 0 144.5 80Q80 160 80 299V382Q80 520 144.5 600Q209 680 323 680H836V523H812L785 624Q780 643 771.5 646.5Q763 650 731 650H523V359H671Q704 359 712 362.5Q720 366 725 385L742 456H766V232H742L725 303Q720 322 712 325.5Q704 329 671 329H523V30H741Q773 30 781.5 33.5Q790 37 795 56ZM323 30 458 30V650H323Q236 650 194.5 597Q153 544 153 432V249Q153 137 194.5 83.5Q236 30 323 30Z" glyph-name="OE" horiz-adv-x="894" unicode="Œ" /><glyph d="M444 56 471 161H496V0H55V25L110 30Q126 32 129 38.5Q132 45 132 79V304L53 262L38 290L132 340V601Q132 635 129 641.5Q126 648 110 650L55 655V680H274V655L219 650Q203 648 200 641.5Q197 635 197 601V375L330 446L345 418L197 339V30H390Q422 30 430.5 33.5Q439 37 444 56Z" glyph-name="Lslash" horiz-adv-x="507" unicode="Ł" /><glyph d="M582 382 582 299Q582 155 515 72.5Q448 -10 331 -10Q278 -10 234.5 7Q191 24 159 58L120 0H80L137 85Q109 125 94.5 179.5Q80 234 80 299V382Q80 526 146.5 608Q213 690 331 690Q384 690 427 673Q470 656 502 622L542 680H582L524 595Q553 555 567.5 501Q582 447 582 382ZM153 432 153 249Q153 213 157 183.5Q161 154 169 131L478 585Q456 623 419.5 641.5Q383 660 331 660Q240 660 196.5 604Q153 548 153 432ZM509 249 509 432Q509 468 505 497Q501 526 493 549L185 95Q206 57 242.5 38.5Q279 20 331 20Q421 20 465 76.5Q509 133 509 249Z" glyph-name="Oslash" horiz-adv-x="662" unicode="Ø" /><glyph d="M110 650 55 655V680H332Q446 680 510.5 600Q575 520 575 382V299Q575 160 510.5 80Q446 0 332 0H55V25L110 30Q126 32 129 38.5Q132 45 132 79V339H55V369H132V601Q132 635 129 641.5Q126 648 110 650ZM359 369 359 339H197V30H332Q419 30 460.5 83.5Q502 137 502 249V432Q502 544 460.5 597Q419 650 332 650H197V369Z" glyph-name="Eth" horiz-adv-x="655" unicode="Ð" /><glyph d="M107 650 52 655V680H291V655L216 650Q200 649 197 642Q194 635 194 601V536H324Q414 536 465.5 488.5Q517 441 517 358V325Q517 242 465.5 194Q414 146 324 146H194V79Q194 45 197 38Q200 31 216 30L291 25V0H52V25L107 30Q123 32 126 38.5Q129 45 129 79V601Q129 635 126 641.5Q123 648 107 650ZM324 506 194 506V176H324Q388 176 418.5 210Q449 244 449 315V368Q449 438 418 472Q387 506 324 506Z" glyph-name="Thorn" horiz-adv-x="558" unicode="Þ" /><glyph d="M325 660Q254 660 218.5 618Q183 576 183 491V0H41V25L96 30Q112 32 115 38.5Q118 45 118 79V481Q118 581 171.5 635.5Q225 690 325 690Q387 690 444 666.5Q501 643 541 602V585L411 384Q499 370 550 316.5Q601 263 601 185V169Q601 88 553 39Q505 -10 426 -10Q361 -10 318 21.5Q275 53 261 111L310 127Q321 73 349.5 46Q378 19 426 19Q478 19 505.5 55Q533 91 533 159V195Q533 274 485 317Q437 360 349 360H341V384L477 594Q449 626 410.5 643Q372 660 325 660Z" glyph-name="uni1E9E" horiz-adv-x="650" unicode="ẞ" /><glyph d="M452 -5Q418 -5 396 14.5Q374 34 369 69Q335 30 292.5 10Q250 -10 204 -10Q141 -10 105 25.5Q69 61 69 122Q69 186 111 216.5Q153 247 241 247H368V328Q368 400 340.5 433.5Q313 467 253 467Q190 467 165.5 433Q141 399 149 326L91 336Q85 410 129 453.5Q173 497 255 497Q342 497 385 455Q428 413 428 328V107Q428 67 438 48.5Q448 30 471 30Q481 30 491.5 34.5Q502 39 512 48L530 24Q514 9 494.5 2Q475 -5 452 -5ZM132 127Q132 77 154.5 51Q177 25 221 25Q261 25 297.5 46.5Q334 68 368 112V217H249Q188 217 160 195.5Q132 174 132 127Z" glyph-name="a" horiz-adv-x="542" unicode="a" /><glyph d="M85 710 30 715V740H167V417Q196 457 234 477Q272 497 319 497Q406 497 452.5 434Q499 371 499 254V234Q499 121 445 55.5Q391 -10 296 -10Q257 -10 224 4Q191 18 166 46Q157 39 149.5 29Q142 19 129 -5H107V661Q107 695 104 701.5Q101 708 85 710ZM315 467Q270 467 233.5 442Q197 417 167 367V96Q191 57 222.5 38.5Q254 20 296 20Q363 20 397 66.5Q431 113 431 204V284Q431 375 402 421Q373 467 315 467Z" glyph-name="b" horiz-adv-x="571" unicode="b" /><glyph d="M269 467Q203 467 171 419Q139 371 139 274V214Q139 110 171.5 65Q204 20 279 20Q330 20 358.5 45Q387 70 399 124L445 111Q429 52 384.5 21Q340 -10 274 -10Q176 -10 123.5 54Q71 118 71 234V254Q71 368 123 432.5Q175 497 269 497Q357 497 403.5 447Q450 397 438 318L381 309Q391 385 362.5 426Q334 467 269 467Z" glyph-name="c" horiz-adv-x="502" unicode="c" /><glyph d="M486 30 541 24V0H408V76Q379 33 340 11.5Q301 -10 252 -10Q165 -10 118.5 53Q72 116 72 233V253Q72 366 126 431.5Q180 497 275 497Q314 497 346.5 483Q379 469 404 442V661Q404 695 401 701.5Q398 708 382 710L327 715V740H464V79Q464 45 467 38.5Q470 32 486 30ZM140 283 140 203Q140 112 169 66Q198 20 256 20Q301 20 337.5 45Q374 70 404 120V391Q380 430 348.5 448.5Q317 467 275 467Q208 467 174 420.5Q140 374 140 283Z" glyph-name="d" horiz-adv-x="578" unicode="d" /><glyph d="M407 124 453 111Q437 52 391.5 21Q346 -10 278 -10Q178 -10 124.5 53.5Q71 117 71 234V254Q71 369 123 433Q175 497 269 497Q354 497 406 445.5Q458 394 458 306Q458 292 456.5 277Q455 262 452 245H139V214Q139 110 172.5 65Q206 20 283 20Q336 20 365.5 45Q395 70 407 124ZM395 314Q395 389 363 428Q331 467 269 467Q201 467 170 421Q139 375 139 275H393Q394 291 394.5 301Q395 311 395 314Z" glyph-name="e" horiz-adv-x="523" unicode="e" /><glyph d="M203 30 278 25V0H44V25L99 30Q115 32 118 38.5Q121 45 121 79V408Q121 425 121 430.5Q121 436 120 440Q119 449 116 452.5Q113 456 99 457L44 462V487H121V571Q121 660 159.5 705Q198 750 274 750Q349 750 388 707Q427 664 416 595L359 586Q368 652 346.5 686Q325 720 274 720Q222 720 201.5 688Q181 656 181 581V487H346V457H181V79Q181 45 184 38Q187 31 203 30Z" glyph-name="f" horiz-adv-x="355" unicode="f" /><glyph d="M495 -63Q495 -140 439 -181.5Q383 -223 280 -223Q177 -223 123 -186.5Q69 -150 70 -82L122 -67Q119 -130 158.5 -161.5Q198 -193 280 -193Q362 -193 408 -163.5Q454 -134 454 -80Q454 -37 425.5 -16.5Q397 4 337 4H215Q163 4 134 28Q105 52 105 93Q105 121 118 145Q131 169 159 192Q118 213 96 249Q74 285 74 333Q74 409 124 453Q174 497 258 497H275Q302 497 327 491.5Q352 486 373 476L518 513L528 454H407Q432 433 445 402Q458 371 458 333Q458 259 407.5 215Q357 171 275 171H258Q240 171 223 173.5Q206 176 191 180Q171 166 161 149.5Q151 133 151 114Q151 89 166.5 76Q182 63 212 63H342Q417 63 456 31Q495 -1 495 -63ZM258 201 275 201Q332 201 361 234Q390 267 390 333Q390 400 361 433.5Q332 467 275 467H258Q200 467 171 433.5Q142 400 142 333Q142 267 171 234Q200 201 258 201Z" glyph-name="g" horiz-adv-x="546" unicode="g" /><glyph d="M521 30 576 25V0H362V25L417 30Q433 32 436 38.5Q439 45 439 79V326Q439 397 415.5 430Q392 463 339 463Q293 463 252 440.5Q211 418 174 372V79Q174 45 177 38.5Q180 32 196 30L251 25V0H37V25L92 30Q108 32 111 38.5Q114 45 114 79V661Q114 695 111 701.5Q108 708 92 710L37 715V740H174V414Q211 455 255 476Q299 497 348 497Q421 497 460 453Q499 409 499 327V79Q499 45 502 38.5Q505 32 521 30Z" glyph-name="h" horiz-adv-x="607" unicode="h" /><glyph d="M195 663Q195 643 182 630Q169 617 149 617Q129 617 116.5 630Q104 643 104 663Q104 683 117 695.5Q130 708 149 708Q169 708 182 695.5Q195 683 195 663ZM98 457 43 462V487H180V79Q180 45 183 38.5Q186 32 202 30L257 25V0H43V25L98 30Q114 32 117 38.5Q120 45 120 79V408Q120 442 117 448.5Q114 455 98 457Z" glyph-name="i" horiz-adv-x="294" unicode="i" /><glyph d="M188 663Q188 643 175 630Q162 617 142 617Q122 617 109.5 630Q97 643 97 663Q97 683 110 695.5Q123 708 142 708Q162 708 175 695.5Q188 683 188 663ZM91 457 36 462V487H173V-64Q173 -139 138.5 -181Q104 -223 41 -223Q-10 -223 -40.5 -195Q-71 -167 -80 -111L-31 -99Q-28 -148 -11.5 -170.5Q5 -193 38 -193Q80 -193 96.5 -163Q113 -133 113 -64V408Q113 442 110 448.5Q107 455 91 457Z" glyph-name="j" horiz-adv-x="280" unicode="j" /><glyph d="M92 710 37 715V740H174V210L372 418Q396 444 398 449.5Q400 455 383 457L334 462V487H520V462L471 457Q457 456 450 451Q443 446 416 418L297 294L447 69Q465 42 471 36.5Q477 31 493 30L542 25V0H419L256 251L174 165V79Q174 45 177 38.5Q180 32 196 30L251 25V0H37V25L92 30Q108 32 111 38.5Q114 45 114 79V661Q114 695 111 701.5Q108 708 92 710Z" glyph-name="k" horiz-adv-x="546" unicode="k" /><glyph d="M92 710 37 715V740H174V79Q174 45 177 38.5Q180 32 196 30L251 25V0H37V25L92 30Q108 32 111 38.5Q114 45 114 79V661Q114 695 111 701.5Q108 708 92 710Z" glyph-name="l" horiz-adv-x="288" unicode="l" /><glyph d="M517 30 572 25V0H358V25L413 30Q429 32 432 38.5Q435 45 435 79V326Q435 397 412.5 430Q390 463 340 463Q296 463 256 440.5Q216 418 180 372V79Q180 45 183 38.5Q186 32 202 30L257 25V0H43V25L98 30Q114 32 117 38.5Q120 45 120 79V408Q120 442 117 448.5Q114 455 98 457L43 462V487H176V409Q213 452 257 474.5Q301 497 349 497Q401 497 435.5 473Q470 449 485 402Q523 449 568.5 473Q614 497 664 497Q734 497 772 453Q810 409 810 327V79Q810 45 813 38.5Q816 32 832 30L887 25V0H673V25L728 30Q744 32 747 38.5Q750 45 750 79V326Q750 397 727.5 430Q705 463 655 463Q611 463 570 439.5Q529 416 492 369Q494 359 494.5 348.5Q495 338 495 327V79Q495 45 498 38.5Q501 32 517 30Z" glyph-name="m" horiz-adv-x="918" unicode="m" /><glyph d="M527 30 582 25V0H368V25L423 30Q439 32 442 38.5Q445 45 445 79V326Q445 397 421.5 430Q398 463 345 463Q299 463 258 440.5Q217 418 180 372V79Q180 45 183 38.5Q186 32 202 30L257 25V0H43V25L98 30Q114 32 117 38.5Q120 45 120 79V408Q120 442 117 448.5Q114 455 98 457L43 462V487H176V409Q214 452 259 474.5Q304 497 354 497Q427 497 466 453Q505 409 505 327V79Q505 45 508 38.5Q511 32 527 30Z" glyph-name="n" horiz-adv-x="613" unicode="n" /><glyph d="M277 497Q374 497 429.5 432Q485 367 485 254V234Q485 121 429.5 55.5Q374 -10 277 -10Q180 -10 124.5 55Q69 120 69 234V254Q69 368 124 432.5Q179 497 277 497ZM417 214 417 274Q417 372 382.5 419.5Q348 467 277 467Q206 467 171.5 419.5Q137 372 137 274V214Q137 116 171.5 68Q206 20 277 20Q348 20 382.5 68Q417 116 417 214Z" glyph-name="o" horiz-adv-x="554" unicode="o" /><glyph d="M91 457 36 463V487H169V411Q198 454 237 475.5Q276 497 325 497Q412 497 458.5 434Q505 371 505 254V234Q505 121 451 55.5Q397 -10 302 -10Q263 -10 230.5 4Q198 18 173 45V-134Q173 -168 176 -175Q179 -182 195 -183L270 -188V-213H36V-188L91 -183Q107 -181 110 -174.5Q113 -168 113 -134V408Q113 442 110 448.5Q107 455 91 457ZM321 467Q276 467 239.5 442Q203 417 173 367V96Q197 57 228.5 38.5Q260 20 302 20Q369 20 403 66.5Q437 113 437 204V284Q437 375 408 421Q379 467 321 467Z" glyph-name="p" horiz-adv-x="577" unicode="p" /><glyph d="M486 -183 541 -188V-213H307V-188L382 -183Q398 -182 401 -175Q404 -168 404 -134V70Q375 30 337 10Q299 -10 252 -10Q165 -10 118.5 53Q72 116 72 233V253Q72 366 126 431.5Q180 497 275 497Q314 497 347 483Q380 469 405 441Q415 450 423.5 461.5Q432 473 442 492H464V-134Q464 -168 467 -174.5Q470 -181 486 -183ZM140 283 140 203Q140 112 169 66Q198 20 256 20Q301 20 337.5 45Q374 70 404 120V391Q380 430 348.5 448.5Q317 467 275 467Q208 467 174 420.5Q140 374 140 283Z" glyph-name="q" horiz-adv-x="571" unicode="q" /><glyph d="M98 457 43 462V487H176V409Q212 454 247 475.5Q282 497 318 497Q351 497 378.5 478.5Q406 460 424 426L375 392Q360 424 341 438.5Q322 453 296 453Q266 453 240 433.5Q214 414 180 368V79Q180 45 183 38Q186 31 202 30L277 25V0H43V25L98 30Q114 32 117 38.5Q120 45 120 79V408Q120 442 117 448.5Q114 455 98 457Z" glyph-name="r" horiz-adv-x="425" unicode="r" /><glyph d="M356 113Q356 149 329.5 172Q303 195 244 211L187 226Q128 242 97.5 276Q67 310 67 361Q67 421 110 459Q153 497 226 497Q312 497 356 455Q400 413 391 344L334 334Q345 399 317 433Q289 467 225 467Q172 467 143 442.5Q114 418 114 374Q114 339 136.5 317.5Q159 296 207 284L265 269Q334 251 368.5 215.5Q403 180 403 126Q403 63 358.5 26.5Q314 -10 237 -10Q167 -10 119 22Q71 54 55 111L104 127Q117 73 150.5 46Q184 19 239 19Q290 19 323 44Q356 69 356 113Z" glyph-name="s" horiz-adv-x="470" unicode="s" /><glyph d="M309 114 356 102Q340 43 310.5 16.5Q281 -10 234 -10Q175 -10 142 28Q109 66 109 129V408Q109 425 109 430.5Q109 436 108 440Q107 449 104 452.5Q101 456 87 457L32 462V487H109V629L169 641V487H334V457H169V129Q169 72 185 46Q201 20 237 20Q267 20 283.5 41Q300 62 309 114Z" glyph-name="t" horiz-adv-x="382" unicode="t" /><glyph d="M503 30 558 25V0H425V78Q388 35 344 12.5Q300 -10 252 -10Q182 -10 144 34Q106 78 106 160V408Q106 442 103 448.5Q100 455 84 457L29 462V487H166V161Q166 90 188.5 57Q211 24 261 24Q305 24 345 46.5Q385 69 421 115V408Q421 442 418 449Q415 456 399 457L324 462V487H481V79Q481 45 484 38.5Q487 32 503 30Z" glyph-name="u" horiz-adv-x="595" unicode="u" /><glyph d="M430 418 282 0H234L84 418Q74 445 69.5 450Q65 455 49 457L0 462V487H201V462L152 457Q136 455 135 449.5Q134 444 143 418L270 61L396 418Q405 444 403.5 449.5Q402 455 386 457L337 462V487H513V462L464 457Q448 455 443.5 450Q439 445 430 418Z" glyph-name="v" horiz-adv-x="513" unicode="v" /><glyph d="M679 418 565 0H517L379 422L242 0H194L81 418Q74 445 69.5 450Q65 455 49 457L0 462V487H201V462L152 457Q136 455 134.5 449.5Q133 444 140 418L232 70L367 487H416L552 69L644 418Q651 444 649.5 449.5Q648 455 632 457L583 462V487H759V462L710 457Q695 455 690.5 450Q686 445 679 418Z" glyph-name="w" horiz-adv-x="759" unicode="w" /><glyph d="M147 30 196 25V0H12V25L61 30Q77 31 83 36.5Q89 42 108 69L228 242L115 418Q98 445 92 450.5Q86 456 70 457L21 462V487H228V462L179 457Q163 455 163.5 449.5Q164 444 180 418L264 287L354 418Q370 441 371.5 448Q373 455 356 457L307 462V487H491V462L442 457Q426 456 420 450.5Q414 445 395 418L283 257L404 69Q421 42 427 36.5Q433 31 449 30L498 25V0H291V25L340 30Q357 32 356 38Q355 44 339 69L246 214V210L149 69Q133 46 131.5 39Q130 32 147 30Z" glyph-name="x" horiz-adv-x="510" unicode="x" /><glyph d="M431 418 265 -50Q230 -147 188.5 -185Q147 -223 77 -223V-163Q143 -163 176 -136.5Q209 -110 233 -43L248 0H234L84 418Q75 442 70.5 448Q66 454 49 456L0 462V487H201V462L152 456Q136 454 135 449Q134 444 143 418L270 62L396 418Q405 443 403.5 448.5Q402 454 386 456L337 462V487H514V462L465 456Q450 454 445.5 449Q441 444 431 418Z" glyph-name="y" horiz-adv-x="514" unicode="y" /><glyph d="M356 56 383 137H408V0H51V25L329 457H167Q137 457 128.5 454Q120 451 113 431L86 350H61V487H398V462L120 30H302Q332 30 340.5 33Q349 36 356 56Z" glyph-name="z" horiz-adv-x="459" unicode="z" /><glyph d="M704 124 750 111Q734 52 688.5 21Q643 -10 575 -10Q510 -10 464 17.5Q418 45 394 98Q355 45 306.5 17.5Q258 -10 204 -10Q141 -10 105 25.5Q69 61 69 122Q69 186 111 216.5Q153 247 241 247H368V328Q368 400 340.5 433.5Q313 467 253 467Q190 467 165.5 433Q141 399 149 326L91 336Q85 410 129 453.5Q173 497 255 497Q316 497 354.5 474.5Q393 452 409 406Q433 450 473 473.5Q513 497 566 497Q651 497 703 445.5Q755 394 755 306Q755 292 753.5 277Q752 262 749 245H436V214Q436 110 469.5 65Q503 20 580 20Q633 20 662.5 45Q692 70 704 124ZM692 314Q692 389 660 428Q628 467 566 467Q498 467 467 421Q436 375 436 275H690V279Q691 294 691.5 301Q692 308 692 314ZM132 127Q132 77 154.5 51Q177 25 221 25Q265 25 305 51Q345 77 382 129Q377 147 373.5 168.5Q370 190 368 217H249Q188 217 160 195.5Q132 174 132 127Z" glyph-name="ae" horiz-adv-x="820" unicode="æ" /><glyph d="M753 124 799 111Q783 52 737.5 21Q692 -10 624 -10Q562 -10 517.5 17.5Q473 45 450 97Q425 45 380.5 17.5Q336 -10 277 -10Q180 -10 124.5 55Q69 120 69 234V254Q69 368 124 432.5Q179 497 277 497Q337 497 381 470Q425 443 450 391Q472 443 514.5 470Q557 497 615 497Q700 497 752 445.5Q804 394 804 306Q804 292 802.5 277Q801 262 798 245H485V214Q485 110 518.5 65Q552 20 629 20Q682 20 711.5 45Q741 70 753 124ZM417 214 417 274Q417 372 382.5 419.5Q348 467 277 467Q206 467 171.5 419.5Q137 372 137 274V214Q137 116 171.5 68Q206 20 277 20Q348 20 382.5 68Q417 116 417 214ZM741 314Q741 389 709 428Q677 467 615 467Q547 467 516 421Q485 375 485 275H739V279Q740 294 740.5 301Q741 308 741 314Z" glyph-name="oe" horiz-adv-x="869" unicode="œ" /><glyph d="M113 710 58 715V740H195V406L295 459L310 431L195 370V79Q195 45 198 38.5Q201 32 217 30L272 25V0H58V25L113 30Q129 32 132 38.5Q135 45 135 79V338L35 285L20 313L135 374V661Q135 695 132 701.5Q129 708 113 710Z" glyph-name="lslash" horiz-adv-x="330" unicode="ł" /><glyph d="M485 254 485 234Q485 121 429.5 55.5Q374 -10 277 -10Q236 -10 201 2.5Q166 15 139 39L109 0H69L118 63Q94 95 81.5 138.5Q69 182 69 234V254Q69 368 124 432.5Q179 497 277 497Q318 497 353 484.5Q388 472 415 448L445 487H485L436 424Q460 392 472.5 349Q485 306 485 254ZM137 274 137 214Q137 181 140.5 154.5Q144 128 152 107L387 412Q370 439 342.5 453Q315 467 277 467Q206 467 171.5 419.5Q137 372 137 274ZM417 214 417 274Q417 305 413.5 331.5Q410 358 403 380L167 75Q184 48 211.5 34Q239 20 277 20Q348 20 382.5 68Q417 116 417 214Z" glyph-name="oslash" horiz-adv-x="554" unicode="ø" /><glyph d="M485 284 485 264Q485 134 430 62Q375 -10 275 -10Q179 -10 124 48.5Q69 107 69 209V229Q69 330 123 388.5Q177 447 271 447Q311 447 346 433Q381 419 411 392Q401 461 374 518.5Q347 576 304 623L183 534L167 559L283 644Q258 668 228.5 688.5Q199 709 164 726L174 750Q214 731 248.5 710Q283 689 311 665L427 750L443 725L334 645Q408 576 446.5 484Q485 392 485 284ZM137 249 137 189Q137 104 171 62Q205 20 275 20Q349 20 383 73.5Q417 127 417 244V304Q417 321 417 329.5Q417 338 416 345Q386 382 351 399.5Q316 417 271 417Q203 417 170 375.5Q137 334 137 249Z" glyph-name="eth" horiz-adv-x="558" unicode="ð" /><glyph d="M89 710 34 716V740H171V415Q202 456 239.5 476.5Q277 497 323 497Q410 497 456.5 434Q503 371 503 254V234Q503 121 449 55.5Q395 -10 300 -10Q261 -10 228.5 4Q196 18 171 45V-134Q171 -168 174 -175Q177 -182 193 -183L268 -188V-213H34V-188L89 -183Q105 -181 108 -174.5Q111 -168 111 -134V661Q111 695 108 701.5Q105 708 89 710ZM319 467Q274 467 237.5 442Q201 417 171 367V96Q195 57 226.5 38.5Q258 20 300 20Q367 20 401 66.5Q435 113 435 204V284Q435 375 406 421Q377 467 319 467Z" glyph-name="thorn" horiz-adv-x="575" unicode="þ" /><glyph d="M294 720Q232 720 206.5 687.5Q181 655 181 581V0H44V25L99 30Q115 32 118 38.5Q121 45 121 79V408Q121 442 118 448.5Q115 455 99 457L44 462V487H121V571Q121 660 164.5 705Q208 750 294 750Q371 750 415 714.5Q459 679 459 621Q459 597 450.5 573Q442 549 414 507Q387 466 378.5 442.5Q370 419 370 396Q370 372 381 354.5Q392 337 441 300L484 268Q528 235 549 199Q570 163 570 121Q570 61 531.5 25.5Q493 -10 427 -10Q359 -10 317 21Q275 52 261 111L310 127Q321 71 348.5 45Q376 19 426 19Q469 19 496 43Q523 67 523 108Q523 135 506.5 159Q490 183 453 211L411 243Q354 286 338.5 311.5Q323 337 323 370Q323 392 329.5 413.5Q336 435 359 475Q385 523 393.5 553Q402 583 402 615Q402 669 375.5 694.5Q349 720 294 720Z" glyph-name="germandbls" horiz-adv-x="615" unicode="ß" /><glyph d="M98 457 43 462V487H180V79Q180 45 183 38.5Q186 32 202 30L257 25V0H43V25L98 30Q114 32 117 38.5Q120 45 120 79V408Q120 442 117 448.5Q114 455 98 457Z" glyph-name="dotlessi" horiz-adv-x="294" unicode="ı" /><glyph d="M91 457 36 462V487H173V-64Q173 -139 138.5 -181Q104 -223 41 -223Q-10 -223 -40.5 -195Q-71 -167 -80 -111L-31 -99Q-28 -148 -11.5 -170.5Q5 -193 38 -193Q80 -193 96.5 -163Q113 -133 113 -64V408Q113 442 110 448.5Q107 455 91 457Z" glyph-name="dotlessj" horiz-adv-x="280" unicode="ȷ" /><glyph d="M513 30 568 25V0H354V25L409 30Q425 32 428 38.5Q431 45 431 79V457H181V79Q181 45 184 38.5Q187 32 203 30L258 25V0H44V25L99 30Q115 32 118 38.5Q121 45 121 79V408Q121 425 121 430.5Q121 436 120 440Q119 449 116 452.5Q113 456 99 457L44 462V487H121V531Q121 635 172 692.5Q223 750 318 750Q406 750 452 704.5Q498 659 486 585L429 576Q439 648 411 684Q383 720 318 720Q245 720 213 677Q181 634 181 541V487H491V79Q491 45 494 38.5Q497 32 513 30Z" glyph-name="fi" horiz-adv-x="605" unicode="ﬁ" /><glyph d="M513 30 568 25V0H354V25L409 30Q425 32 428 38.5Q431 45 431 79V457H181V79Q181 45 184 38.5Q187 32 203 30L258 25V0H44V25L99 30Q115 32 118 38.5Q121 45 121 79V408Q121 425 121 430.5Q121 436 120 440Q119 449 116 452.5Q113 456 99 457L44 462V487H121V531Q121 629 170 684.5Q219 740 309 740Q364 740 401 718Q438 696 456 653Q479 701 522.5 725.5Q566 750 628 750Q716 750 762 704.5Q808 659 796 585L739 576Q749 648 721 684Q693 720 628 720Q555 720 523 677Q491 634 491 541V487H801V79Q801 45 804 38.5Q807 32 823 30L878 25V0H664V25L719 30Q735 32 738 38.5Q741 45 741 79V457H491V79Q491 45 494 38.5Q497 32 513 30ZM181 541 181 487H431V536Q431 628 402.5 669Q374 710 309 710Q244 710 212.5 668.5Q181 627 181 541Z" glyph-name="ffi" horiz-adv-x="915" unicode="ﬃ" /><glyph d="M529 30 584 25V0H370V25L425 30Q441 32 444 38.5Q447 45 447 79V546Q447 637 416.5 678.5Q386 720 317 720Q247 720 214 678.5Q181 637 181 551V487H346V457H181V79Q181 45 184 38.5Q187 32 203 30L258 25V0H44V25L99 30Q115 32 118 38.5Q121 45 121 79V408Q121 425 121 430.5Q121 436 120 440Q119 449 116 452.5Q113 456 99 457L44 462V487H121V541Q121 639 172 694.5Q223 750 317 750Q363 750 397.5 736Q432 722 453 695Q465 706 473.5 717Q482 728 489 740H507V79Q507 45 510 38.5Q513 32 529 30Z" glyph-name="fl" horiz-adv-x="621" unicode="ﬂ" /><glyph d="M513 30 568 25V0H354V25L409 30Q425 32 428 38.5Q431 45 431 79V457H181V79Q181 45 184 38.5Q187 32 203 30L258 25V0H44V25L99 30Q115 32 118 38.5Q121 45 121 79V408Q121 425 121 430.5Q121 436 120 440Q119 449 116 452.5Q113 456 99 457L44 462V487H121V531Q121 629 170 684.5Q219 740 309 740Q363 740 399.5 718.5Q436 697 455 655Q478 701 522 725.5Q566 750 627 750Q673 750 707.5 736Q742 722 763 695Q777 709 785 719Q793 729 799 740H817V79Q817 45 820 38.5Q823 32 839 30L894 25V0H680V25L735 30Q751 32 754 38.5Q757 45 757 79V546Q757 637 726.5 678.5Q696 720 627 720Q557 720 524 678.5Q491 637 491 551V487H656V457H491V79Q491 45 494 38.5Q497 32 513 30ZM309 710Q244 710 212.5 668.5Q181 627 181 541V487H431V536Q431 628 402.5 669Q374 710 309 710Z" glyph-name="ffl" horiz-adv-x="931" unicode="ﬄ" /><glyph d="M203 30 278 25V0H44V25L99 30Q115 32 118 38.5Q121 45 121 79V408Q121 425 121 430.5Q121 436 120 440Q119 449 116 452.5Q113 456 99 457L44 462V487H121V541Q121 638 167 694Q213 750 297 750Q358 750 395 720Q432 690 444 630Q448 633 452 637Q456 641 463 650H481V487H646V457H481V129Q481 72 497 46Q513 20 549 20Q579 20 595.5 41Q612 62 621 114L668 102Q652 43 622.5 16.5Q593 -10 546 -10Q487 -10 454 28Q421 66 421 129V457H181V79Q181 45 184 38Q187 31 203 30ZM304 720Q241 720 211 678.5Q181 637 181 551V487H421V546Q421 637 393.5 678.5Q366 720 304 720Z" glyph-name="ft" horiz-adv-x="694" unicode="" /><glyph d="M203 30 258 25V0H44V25L99 30Q115 32 118 38.5Q121 45 121 79V408Q121 425 121 430.5Q121 436 120 440Q119 449 116 452.5Q113 456 99 457L44 462V487H121V531Q121 629 170 684.5Q219 740 309 740Q362 740 399 719.5Q436 699 454 658Q476 703 515 726.5Q554 750 607 750Q668 750 705 720Q742 690 754 630Q758 633 762 637Q766 641 773 650H791V487H956V457H791V129Q791 72 807 46Q823 20 859 20Q889 20 905.5 41Q922 62 931 114L978 102Q962 43 932.5 16.5Q903 -10 856 -10Q797 -10 764 28Q731 66 731 129V457H491V79Q491 45 494 38Q497 31 513 30L588 25V0H354V25L409 30Q425 32 428 38.5Q431 45 431 79V457H181V79Q181 45 184 38.5Q187 32 203 30ZM614 720Q551 720 521 678.5Q491 637 491 551V487H731V546Q731 637 703.5 678.5Q676 720 614 720ZM309 710Q244 710 212.5 668.5Q181 627 181 541V487H431V536Q431 628 402.5 669Q374 710 309 710Z" glyph-name="fft" horiz-adv-x="1004" unicode="" /><glyph d="M203 30 278 25V0H44V25L99 30Q115 32 118 38.5Q121 45 121 79V408Q121 425 121 430.5Q121 436 120 440Q119 449 116 452.5Q113 456 99 457L44 462V487H121V541Q121 639 172 694.5Q223 750 317 750Q363 750 397.5 736Q432 722 453 695Q461 704 468.5 714.5Q476 725 485 740H507V415Q538 456 575.5 476.5Q613 497 659 497Q746 497 792.5 434Q839 371 839 254V234Q839 121 785 55.5Q731 -10 636 -10Q597 -10 564 4Q531 18 506 46Q496 37 487.5 25.5Q479 14 469 -5H447V546Q447 637 416.5 678.5Q386 720 317 720Q247 720 214 678.5Q181 637 181 551V487H346V457H181V79Q181 45 184 38Q187 31 203 30ZM655 467Q610 467 573.5 442Q537 417 507 367V96Q531 57 562.5 38.5Q594 20 636 20Q703 20 737 66.5Q771 113 771 204V284Q771 375 742 421Q713 467 655 467Z" glyph-name="fb" horiz-adv-x="911" unicode="" /><glyph d="M203 30 258 25V0H44V25L99 30Q115 32 118 38.5Q121 45 121 79V408Q121 425 121 430.5Q121 436 120 440Q119 449 116 452.5Q113 456 99 457L44 462V487H121V531Q121 629 170 684.5Q219 740 309 740Q363 740 399.5 718.5Q436 697 455 655Q478 701 522 725.5Q566 750 627 750Q673 750 707.5 736Q742 722 763 695Q771 704 778.5 714.5Q786 725 795 740H817V415Q848 456 885.5 476.5Q923 497 969 497Q1056 497 1102.5 434Q1149 371 1149 254V234Q1149 121 1095 55.5Q1041 -10 946 -10Q907 -10 874 4Q841 18 816 46Q806 37 797.5 25.5Q789 14 779 -5H757V546Q757 637 726.5 678.5Q696 720 627 720Q557 720 524 678.5Q491 637 491 551V487H656V457H491V79Q491 45 494 38Q497 31 513 30L588 25V0H354V25L409 30Q425 32 428 38.5Q431 45 431 79V457H181V79Q181 45 184 38.5Q187 32 203 30ZM309 710Q244 710 212.5 668.5Q181 627 181 541V487H431V536Q431 628 402.5 669Q374 710 309 710ZM965 467Q920 467 883.5 442Q847 417 817 367V96Q841 57 872.5 38.5Q904 20 946 20Q1013 20 1047 66.5Q1081 113 1081 204V284Q1081 375 1052 421Q1023 467 965 467Z" glyph-name="ffb" horiz-adv-x="1221" unicode="" /><glyph d="M513 30 588 25V0H354V25L409 30Q425 32 428 38.5Q431 45 431 79V457H181V79Q181 45 184 38.5Q187 32 203 30L258 25V0H44V25L99 30Q115 32 118 38.5Q121 45 121 79V408Q121 425 121 430.5Q121 436 120 440Q119 449 116 452.5Q113 456 99 457L44 462V487H121V531Q121 629 170 684.5Q219 740 309 740Q358 740 393 722.5Q428 705 448 670Q465 710 499 730Q533 750 584 750Q659 750 698 707Q737 664 726 595L669 586Q678 652 656.5 686Q635 720 584 720Q532 720 511.5 688Q491 656 491 581V487H656V457H491V79Q491 45 494 38Q497 31 513 30ZM309 710Q244 710 212.5 668.5Q181 627 181 541V487H431V536Q431 628 402.5 669Q374 710 309 710Z" glyph-name="ff" horiz-adv-x="665" unicode="ﬀ" /><glyph d="M513 30 568 25V0H354V25L409 30Q425 32 428 38.5Q431 45 431 79V457H181V79Q181 45 184 38.5Q187 32 203 30L258 25V0H44V25L99 30Q115 32 118 38.5Q121 45 121 79V408Q121 425 121 430.5Q121 436 120 440Q119 449 116 452.5Q113 456 99 457L44 462V487H121V531Q121 629 170 684.5Q219 740 309 740Q364 740 401.5 717.5Q439 695 457 651Q480 695 521 717.5Q562 740 619 740Q668 740 703 722.5Q738 705 758 670Q775 710 809 730Q843 750 894 750Q969 750 1008 707Q1047 664 1036 595L979 586Q988 652 966.5 686Q945 720 894 720Q842 720 821.5 688Q801 656 801 581V487H966V457H801V79Q801 45 804 38Q807 31 823 30L898 25V0H664V25L719 30Q735 32 738 38.5Q741 45 741 79V457H491V79Q491 45 494 38.5Q497 32 513 30ZM181 541 181 487H431V536Q431 628 402.5 669Q374 710 309 710Q244 710 212.5 668.5Q181 627 181 541ZM619 710Q554 710 522.5 668.5Q491 627 491 541V487H741V536Q741 628 712.5 669Q684 710 619 710Z" glyph-name="fff" horiz-adv-x="975" unicode="" /><glyph d="M529 30 584 25V0H370V25L425 30Q441 32 444 38.5Q447 45 447 79V546Q447 637 416.5 678.5Q386 720 317 720Q247 720 214 678.5Q181 637 181 551V487H346V457H181V79Q181 45 184 38.5Q187 32 203 30L258 25V0H44V25L99 30Q115 32 118 38.5Q121 45 121 79V408Q121 425 121 430.5Q121 436 120 440Q119 449 116 452.5Q113 456 99 457L44 462V487H121V541Q121 639 172 694.5Q223 750 317 750Q363 750 397.5 736Q432 722 453 695Q461 704 468.5 714.5Q476 725 485 740H507V414Q544 455 588 476Q632 497 681 497Q754 497 793 453Q832 409 832 327V79Q832 45 835 38.5Q838 32 854 30L909 25V0H695V25L750 30Q766 32 769 38.5Q772 45 772 79V326Q772 397 748.5 430Q725 463 672 463Q626 463 585 440.5Q544 418 507 372V79Q507 45 510 38.5Q513 32 529 30Z" glyph-name="fh" horiz-adv-x="940" unicode="" /><glyph d="M513 30 568 25V0H354V25L409 30Q425 32 428 38.5Q431 45 431 79V457H181V79Q181 45 184 38.5Q187 32 203 30L258 25V0H44V25L99 30Q115 32 118 38.5Q121 45 121 79V408Q121 425 121 430.5Q121 436 120 440Q119 449 116 452.5Q113 456 99 457L44 462V487H121V531Q121 629 170 684.5Q219 740 309 740Q363 740 399.5 718.5Q436 697 455 655Q478 701 522 725.5Q566 750 627 750Q673 750 707.5 736Q742 722 763 695Q771 704 778.5 714.5Q786 725 795 740H817V414Q854 455 898 476Q942 497 991 497Q1064 497 1103 453Q1142 409 1142 327V79Q1142 45 1145 38.5Q1148 32 1164 30L1219 25V0H1005V25L1060 30Q1076 32 1079 38.5Q1082 45 1082 79V326Q1082 397 1058.5 430Q1035 463 982 463Q936 463 895 440.5Q854 418 817 372V79Q817 45 820 38.5Q823 32 839 30L894 25V0H680V25L735 30Q751 32 754 38.5Q757 45 757 79V546Q757 637 726.5 678.5Q696 720 627 720Q557 720 524 678.5Q491 637 491 551V487H656V457H491V79Q491 45 494 38.5Q497 32 513 30ZM309 710Q244 710 212.5 668.5Q181 627 181 541V487H431V536Q431 628 402.5 669Q374 710 309 710Z" glyph-name="ffh" horiz-adv-x="1250" unicode="" /><glyph d="M318 720Q245 720 213 677Q181 634 181 541V487H491V-64Q491 -139 456.5 -181Q422 -223 359 -223Q308 -223 277.5 -195Q247 -167 238 -111L287 -99Q290 -148 306.5 -170.5Q323 -193 356 -193Q398 -193 414.5 -163Q431 -133 431 -64V457H181V79Q181 45 184 38Q187 31 203 30L278 25V0H44V25L99 30Q115 32 118 38.5Q121 45 121 79V408Q121 425 121 430.5Q121 436 120 440Q119 449 116 452.5Q113 456 99 457L44 462V487H121V531Q121 635 172 692.5Q223 750 318 750Q406 750 452 704.5Q498 659 486 585L429 576Q439 648 411 684Q383 720 318 720Z" glyph-name="fj" horiz-adv-x="583" unicode="" /><glyph d="M628 720Q555 720 523 677Q491 634 491 541V487H801V-64Q801 -139 766.5 -181Q732 -223 669 -223Q618 -223 587.5 -195Q557 -167 548 -111L597 -99Q600 -148 616.5 -170.5Q633 -193 666 -193Q708 -193 724.5 -163Q741 -133 741 -64V457H491V79Q491 45 494 38Q497 31 513 30L588 25V0H354V25L409 30Q425 32 428 38.5Q431 45 431 79V457H181V79Q181 45 184 38.5Q187 32 203 30L258 25V0H44V25L99 30Q115 32 118 38.5Q121 45 121 79V408Q121 425 121 430.5Q121 436 120 440Q119 449 116 452.5Q113 456 99 457L44 462V487H121V531Q121 629 170 684.5Q219 740 309 740Q364 740 401 718Q438 696 456 653Q479 701 522.5 725.5Q566 750 628 750Q716 750 762 704.5Q808 659 796 585L739 576Q749 648 721 684Q693 720 628 720ZM181 541 181 487H431V536Q431 628 402.5 669Q374 710 309 710Q244 710 212.5 668.5Q181 627 181 541Z" glyph-name="ffj" horiz-adv-x="893" unicode="" /><glyph d="M529 30 584 25V0H370V25L425 30Q441 32 444 38.5Q447 45 447 79V546Q447 637 416.5 678.5Q386 720 317 720Q247 720 214 678.5Q181 637 181 551V487H346V457H181V79Q181 45 184 38.5Q187 32 203 30L258 25V0H44V25L99 30Q115 32 118 38.5Q121 45 121 79V408Q121 425 121 430.5Q121 436 120 440Q119 449 116 452.5Q113 456 99 457L44 462V487H121V541Q121 639 172 694.5Q223 750 317 750Q363 750 397.5 736Q432 722 453 695Q461 704 468.5 714.5Q476 725 485 740H507V213L705 418Q729 444 731 449.5Q733 455 716 457L667 462V487H853V462L804 457Q790 456 783 451Q776 446 749 418L630 294L780 69Q798 42 804 36.5Q810 31 826 30L875 25V0H752L589 251L507 165V79Q507 45 510 38.5Q513 32 529 30Z" glyph-name="fk" horiz-adv-x="879" unicode="" /><glyph d="M513 30 568 25V0H354V25L409 30Q425 32 428 38.5Q431 45 431 79V457H181V79Q181 45 184 38.5Q187 32 203 30L258 25V0H44V25L99 30Q115 32 118 38.5Q121 45 121 79V408Q121 425 121 430.5Q121 436 120 440Q119 449 116 452.5Q113 456 99 457L44 462V487H121V531Q121 629 170 684.5Q219 740 309 740Q363 740 399.5 718.5Q436 697 455 655Q478 701 522 725.5Q566 750 627 750Q673 750 707.5 736Q742 722 763 695Q771 704 778.5 714.5Q786 725 795 740H817V213L1015 418Q1039 444 1041 449.5Q1043 455 1026 457L977 462V487H1163V462L1114 457Q1100 456 1093 451Q1086 446 1059 418L940 294L1090 69Q1108 42 1114 36.5Q1120 31 1136 30L1185 25V0H1062L899 251L817 165V79Q817 45 820 38.5Q823 32 839 30L894 25V0H680V25L735 30Q751 32 754 38.5Q757 45 757 79V546Q757 637 726.5 678.5Q696 720 627 720Q557 720 524 678.5Q491 637 491 551V487H656V457H491V79Q491 45 494 38.5Q497 32 513 30ZM309 710Q244 710 212.5 668.5Q181 627 181 541V487H431V536Q431 628 402.5 669Q374 710 309 710Z" glyph-name="ffk" horiz-adv-x="1189" unicode="" /><glyph d="M134 30 189 25V0H0V25L55 30Q72 32 76.5 38.5Q81 45 92 79L287 680H334L531 79Q542 46 546.5 39Q551 32 567 30L622 25V0H401V25L456 30Q473 32 474 39Q475 46 464 79L421 210H168L126 79Q115 46 116 39Q117 32 134 30ZM295 600 178 240H412ZM310 772 291 791Q319 826 334.5 857Q350 888 362 933H438Q411 888 379.5 848.5Q348 809 310 772Z" glyph-name="Aacute" horiz-adv-x="622" unicode="Á" /><glyph d="M134 30 189 25V0H0V25L55 30Q72 32 76.5 38.5Q81 45 92 79L287 680H334L531 79Q542 46 546.5 39Q551 32 567 30L622 25V0H401V25L456 30Q473 32 474 39Q475 46 464 79L421 210H168L126 79Q115 46 116 39Q117 32 134 30ZM295 600 178 240H412ZM438 791 419 772Q385 801 358 827Q331 853 308 878Q289 856 265 831.5Q241 807 203 772L184 791Q224 833 243.5 861Q263 889 285 933H337Q359 889 378.5 861Q398 833 438 791Z" glyph-name="Acircumflex" horiz-adv-x="622" unicode="Â" /><glyph d="M134 30 189 25V0H0V25L55 30Q72 32 76.5 38.5Q81 45 92 79L287 680H334L531 79Q542 46 546.5 39Q551 32 567 30L622 25V0H401V25L456 30Q473 32 474 39Q475 46 464 79L421 210H168L126 79Q115 46 116 39Q117 32 134 30ZM295 600 178 240H412ZM251 856Q251 837 239 824.5Q227 812 207 812Q188 812 176 824.5Q164 837 164 856Q164 875 176 887Q188 899 207 899Q226 899 238.5 887Q251 875 251 856ZM450 856Q450 837 438 824.5Q426 812 406 812Q387 812 375 824.5Q363 837 363 856Q363 875 375 887Q387 899 406 899Q425 899 437.5 887Q450 875 450 856Z" glyph-name="Adieresis" horiz-adv-x="622" unicode="Ä" /><glyph d="M134 30 189 25V0H0V25L55 30Q72 32 76.5 38.5Q81 45 92 79L287 680H334L531 79Q542 46 546.5 39Q551 32 567 30L622 25V0H401V25L456 30Q473 32 474 39Q475 46 464 79L421 210H168L126 79Q115 46 116 39Q117 32 134 30ZM295 600 178 240H412ZM331 791 312 772Q274 809 242.5 848.5Q211 888 184 933H260Q272 888 287.5 857Q303 826 331 791Z" glyph-name="Agrave" horiz-adv-x="622" unicode="À" /><glyph d="M134 30 189 25V0H0V25L55 30Q72 32 76.5 38.5Q81 45 92 79L280 658Q241 666 216.5 695Q192 724 192 760V771Q192 814 225.5 844.5Q259 875 310 875Q361 875 394.5 844.5Q428 814 428 771V760Q428 725 404 696Q380 667 341 658L531 79Q542 46 546.5 39Q551 32 567 30L622 25V0H401V25L456 30Q473 32 474 39Q475 46 464 79L421 210H168L126 79Q115 46 116 39Q117 32 134 30ZM377 753 377 778Q377 812 359 831Q341 850 310 850Q279 850 261.5 831Q244 812 244 778V753Q244 719 261.5 699.5Q279 680 310 680Q341 680 359 699.5Q377 719 377 753ZM295 600 178 240H412Z" glyph-name="Aring" horiz-adv-x="622" unicode="Å" /><glyph d="M134 30 189 25V0H0V25L55 30Q72 32 76.5 38.5Q81 45 92 79L287 680H334L531 79Q542 46 546.5 39Q551 32 567 30L622 25V0H401V25L456 30Q473 32 474 39Q475 46 464 79L421 210H168L126 79Q115 46 116 39Q117 32 134 30ZM295 600 178 240H412ZM382 786Q363 786 344.5 796.5Q326 807 296 839Q272 864 259.5 871.5Q247 879 236 879Q216 879 204 858.5Q192 838 191 801H162Q163 862 184 895Q205 928 242 928Q261 928 279.5 917.5Q298 907 328 875Q351 850 363 842.5Q375 835 386 835Q406 835 418 855.5Q430 876 431 913H460Q459 853 438 819.5Q417 786 382 786Z" glyph-name="Atilde" horiz-adv-x="622" unicode="Ã" /><glyph d="M134 30 189 25V0H0V25L55 30Q72 32 76.5 38.5Q81 45 92 79L287 680H334L531 79Q542 46 546.5 39Q551 32 567 30L622 25V0H401V25L456 30Q473 32 474 39Q475 46 464 79L421 210H168L126 79Q115 46 116 39Q117 32 134 30ZM295 600 178 240H412ZM311 825Q358 825 384 849.5Q410 874 424 933L450 926Q436 846 402.5 809Q369 772 311 772Q253 772 219.5 809Q186 846 172 926L198 933Q212 874 238 849.5Q264 825 311 825Z" glyph-name="Abreve" horiz-adv-x="622" unicode="Ă" /><glyph d="M134 30 189 25V0H0V25L55 30Q72 32 76.5 38.5Q81 45 92 79L287 680H334L531 79Q542 46 546.5 39Q551 32 567 30L622 25V0H401V25L456 30Q473 32 474 39Q475 46 464 79L421 210H168L126 79Q115 46 116 39Q117 32 134 30ZM295 600 178 240H412ZM168 855 455 855V812H168Z" glyph-name="Amacron" horiz-adv-x="622" unicode="Ā" /><glyph d="M578 -112 622 -125Q609 -172 576.5 -197.5Q544 -223 499 -223Q451 -223 422 -197Q393 -171 393 -127Q393 -80 418 -43Q443 -6 486 12L422 210H168L126 79Q115 46 116 39Q117 32 134 30L189 25V0H0V25L55 30Q72 32 76.5 38.5Q81 45 92 79L287 680H334L531 79Q542 46 546.5 39Q551 32 567 30L622 25V0H559Q506 0 475.5 -34Q445 -68 445 -127Q445 -161 459.5 -178.5Q474 -196 503 -196Q532 -196 550.5 -175Q569 -154 578 -112ZM295 600 178 240H412Z" glyph-name="Aogonek" horiz-adv-x="622" unicode="Ą" /><glyph d="M431 -141Q431 -179 402.5 -201Q374 -223 326 -223Q282 -223 255 -203Q228 -183 221 -145L265 -132Q269 -166 283 -182Q297 -198 324 -198Q350 -198 364 -183Q378 -168 378 -141Q378 -113 363 -99.5Q348 -86 317 -86Q311 -86 303.5 -86.5Q296 -87 292 -88L283 -63L305 -9Q197 -3 138.5 77Q80 157 80 299V382Q80 526 144 608Q208 690 320 690Q423 690 478.5 630.5Q534 571 519 483L454 467Q464 560 430 610Q396 660 322 660Q235 660 194 604.5Q153 549 153 432V249Q153 132 195 76Q237 20 326 20Q387 20 425 52Q463 84 470 144L526 131Q507 65 459 29Q411 -7 337 -10L316 -60H320Q371 -60 401 -81.5Q431 -103 431 -141Z" glyph-name="Ccedilla" horiz-adv-x="579" unicode="Ç" /><glyph d="M323 -10Q207 -10 143.5 71Q80 152 80 299V382Q80 526 144 608Q208 690 320 690Q423 690 478.5 630.5Q534 571 519 483L454 467Q464 560 430 610Q396 660 322 660Q235 660 194 604.5Q153 549 153 432V249Q153 132 195 76Q237 20 326 20Q387 20 425 52Q463 84 470 144L526 131Q506 62 454 26Q402 -10 323 -10ZM315 772 296 791Q324 826 339.5 857Q355 888 367 933H443Q416 888 384.5 848.5Q353 809 315 772Z" glyph-name="Cacute" horiz-adv-x="579" unicode="Ć" /><glyph d="M323 -10Q207 -10 143.5 71Q80 152 80 299V382Q80 526 144 608Q208 690 320 690Q423 690 478.5 630.5Q534 571 519 483L454 467Q464 560 430 610Q396 660 322 660Q235 660 194 604.5Q153 549 153 432V249Q153 132 195 76Q237 20 326 20Q387 20 425 52Q463 84 470 144L526 131Q506 62 454 26Q402 -10 323 -10ZM425 938 444 919Q404 877 384.5 849Q365 821 343 777H291Q269 821 249.5 849Q230 877 190 919L209 938Q243 909 270 883Q297 857 320 832Q342 857 367 882.5Q392 908 425 938Z" glyph-name="Ccaron" horiz-adv-x="579" unicode="Č" /><glyph d="M323 -10Q207 -10 143.5 71Q80 152 80 299V382Q80 526 144 608Q208 690 320 690Q423 690 478.5 630.5Q534 571 519 483L454 467Q464 560 430 610Q396 660 322 660Q235 660 194 604.5Q153 549 153 432V249Q153 132 195 76Q237 20 326 20Q387 20 425 52Q463 84 470 144L526 131Q506 62 454 26Q402 -10 323 -10ZM443 791 424 772Q390 801 363 827Q336 853 313 878Q294 856 270 831.5Q246 807 208 772L189 791Q229 833 248.5 861Q268 889 290 933H342Q364 889 383.5 861Q403 833 443 791Z" glyph-name="Ccircumflex" horiz-adv-x="579" unicode="Ĉ" /><glyph d="M323 -10Q207 -10 143.5 71Q80 152 80 299V382Q80 526 144 608Q208 690 320 690Q423 690 478.5 630.5Q534 571 519 483L454 467Q464 560 430 610Q396 660 322 660Q235 660 194 604.5Q153 549 153 432V249Q153 132 195 76Q237 20 326 20Q387 20 425 52Q463 84 470 144L526 131Q506 62 454 26Q402 -10 323 -10ZM362 856Q362 836 349 823Q336 810 316 810Q296 810 283.5 823Q271 836 271 856Q271 876 284 888.5Q297 901 316 901Q336 901 349 888.5Q362 876 362 856Z" glyph-name="Cdotaccent" horiz-adv-x="579" unicode="Ċ" /><glyph d="M107 650 52 655V680H329Q443 680 507.5 600Q572 520 572 382V299Q572 160 507.5 80Q443 0 329 0H52V25L107 30Q123 32 126 38.5Q129 45 129 79V601Q129 635 126 641.5Q123 648 107 650ZM329 650 194 650V30H329Q416 30 457.5 83.5Q499 137 499 249V432Q499 544 457.5 597Q416 650 329 650ZM421 938 440 919Q400 877 380.5 849Q361 821 339 777H287Q265 821 245.5 849Q226 877 186 919L205 938Q239 909 266 883Q293 857 316 832Q338 857 363 882.5Q388 908 421 938Z" glyph-name="Dcaron" horiz-adv-x="652" unicode="Ď" /><glyph d="M110 650 55 655V680H332Q446 680 510.5 600Q575 520 575 382V299Q575 160 510.5 80Q446 0 332 0H55V25L110 30Q126 32 129 38.5Q132 45 132 79V339H55V369H132V601Q132 635 129 641.5Q126 648 110 650ZM359 369 359 339H197V30H332Q419 30 460.5 83.5Q502 137 502 249V432Q502 544 460.5 597Q419 650 332 650H197V369Z" glyph-name="Dcroat" horiz-adv-x="655" unicode="Đ" /><glyph d="M469 56 496 157H520V0H52V25L107 30Q123 32 126 38.5Q129 45 129 79V601Q129 635 126 641.5Q123 648 107 650L52 655V680H506V523H482L455 624Q450 643 441.5 646.5Q433 650 401 650H194V359H342Q375 359 383 362.5Q391 366 396 385L413 456H437V232H413L396 303Q391 322 383 325.5Q375 329 342 329H194V30H415Q447 30 455.5 33.5Q464 37 469 56ZM301 772 282 791Q310 826 325.5 857Q341 888 353 933H429Q402 888 370.5 848.5Q339 809 301 772Z" glyph-name="Eacute" horiz-adv-x="565" unicode="É" /><glyph d="M469 56 496 157H520V0H52V25L107 30Q123 32 126 38.5Q129 45 129 79V601Q129 635 126 641.5Q123 648 107 650L52 655V680H506V523H482L455 624Q450 643 441.5 646.5Q433 650 401 650H194V359H342Q375 359 383 362.5Q391 366 396 385L413 456H437V232H413L396 303Q391 322 383 325.5Q375 329 342 329H194V30H415Q447 30 455.5 33.5Q464 37 469 56ZM430 791 411 772Q377 801 350 827Q323 853 300 878Q281 856 257 831.5Q233 807 195 772L176 791Q216 833 235.5 861Q255 889 277 933H329Q351 889 370.5 861Q390 833 430 791Z" glyph-name="Ecircumflex" horiz-adv-x="565" unicode="Ê" /><glyph d="M469 56 496 157H520V0H52V25L107 30Q123 32 126 38.5Q129 45 129 79V601Q129 635 126 641.5Q123 648 107 650L52 655V680H506V523H482L455 624Q450 643 441.5 646.5Q433 650 401 650H194V359H342Q375 359 383 362.5Q391 366 396 385L413 456H437V232H413L396 303Q391 322 383 325.5Q375 329 342 329H194V30H415Q447 30 455.5 33.5Q464 37 469 56ZM246 856Q246 837 234 824.5Q222 812 202 812Q183 812 171 824.5Q159 837 159 856Q159 875 171 887Q183 899 202 899Q221 899 233.5 887Q246 875 246 856ZM445 856Q445 837 433 824.5Q421 812 401 812Q382 812 370 824.5Q358 837 358 856Q358 875 370 887Q382 899 401 899Q420 899 432.5 887Q445 875 445 856Z" glyph-name="Edieresis" horiz-adv-x="565" unicode="Ë" /><glyph d="M469 56 496 157H520V0H52V25L107 30Q123 32 126 38.5Q129 45 129 79V601Q129 635 126 641.5Q123 648 107 650L52 655V680H506V523H482L455 624Q450 643 441.5 646.5Q433 650 401 650H194V359H342Q375 359 383 362.5Q391 366 396 385L413 456H437V232H413L396 303Q391 322 383 325.5Q375 329 342 329H194V30H415Q447 30 455.5 33.5Q464 37 469 56ZM322 791 303 772Q265 809 233.5 848.5Q202 888 175 933H251Q263 888 278.5 857Q294 826 322 791Z" glyph-name="Egrave" horiz-adv-x="565" unicode="È" /><glyph d="M469 56 496 157H520V0H52V25L107 30Q123 32 126 38.5Q129 45 129 79V601Q129 635 126 641.5Q123 648 107 650L52 655V680H506V523H482L455 624Q450 643 441.5 646.5Q433 650 401 650H194V359H342Q375 359 383 362.5Q391 366 396 385L413 456H437V232H413L396 303Q391 322 383 325.5Q375 329 342 329H194V30H415Q447 30 455.5 33.5Q464 37 469 56ZM302 825Q349 825 375 849.5Q401 874 415 933L441 926Q427 846 393.5 809Q360 772 302 772Q244 772 210.5 809Q177 846 163 926L189 933Q203 874 229 849.5Q255 825 302 825Z" glyph-name="Ebreve" horiz-adv-x="565" unicode="Ĕ" /><glyph d="M469 56 496 157H520V0H52V25L107 30Q123 32 126 38.5Q129 45 129 79V601Q129 635 126 641.5Q123 648 107 650L52 655V680H506V523H482L455 624Q450 643 441.5 646.5Q433 650 401 650H194V359H342Q375 359 383 362.5Q391 366 396 385L413 456H437V232H413L396 303Q391 322 383 325.5Q375 329 342 329H194V30H415Q447 30 455.5 33.5Q464 37 469 56ZM410 938 429 919Q389 877 369.5 849Q350 821 328 777H276Q254 821 234.5 849Q215 877 175 919L194 938Q228 909 255 883Q282 857 305 832Q327 857 352 882.5Q377 908 410 938Z" glyph-name="Ecaron" horiz-adv-x="565" unicode="Ě" /><glyph d="M469 56 496 157H520V0H52V25L107 30Q123 32 126 38.5Q129 45 129 79V601Q129 635 126 641.5Q123 648 107 650L52 655V680H506V523H482L455 624Q450 643 441.5 646.5Q433 650 401 650H194V359H342Q375 359 383 362.5Q391 366 396 385L413 456H437V232H413L396 303Q391 322 383 325.5Q375 329 342 329H194V30H415Q447 30 455.5 33.5Q464 37 469 56ZM348 856Q348 836 335 823Q322 810 302 810Q282 810 269.5 823Q257 836 257 856Q257 876 270 888.5Q283 901 302 901Q322 901 335 888.5Q348 876 348 856Z" glyph-name="Edotaccent" horiz-adv-x="565" unicode="Ė" /><glyph d="M469 56 496 157H520V0H52V25L107 30Q123 32 126 38.5Q129 45 129 79V601Q129 635 126 641.5Q123 648 107 650L52 655V680H506V523H482L455 624Q450 643 441.5 646.5Q433 650 401 650H194V359H342Q375 359 383 362.5Q391 366 396 385L413 456H437V232H413L396 303Q391 322 383 325.5Q375 329 342 329H194V30H415Q447 30 455.5 33.5Q464 37 469 56ZM159 855 446 855V812H159Z" glyph-name="Emacron" horiz-adv-x="565" unicode="Ē" /><glyph d="M476 -112 520 -125Q507 -172 474.5 -197.5Q442 -223 397 -223Q349 -223 320 -197Q291 -171 291 -127Q291 -85 313.5 -51.5Q336 -18 375 0H52V25L107 30Q123 32 126 38.5Q129 45 129 79V601Q129 635 126 641.5Q123 648 107 650L52 655V680H506V523H482L455 624Q450 643 441.5 646.5Q433 650 401 650H194V359H342Q375 359 383 362.5Q391 366 396 385L413 456H437V232H413L396 303Q391 322 383 325.5Q375 329 342 329H194V30H415Q447 30 455.5 33.5Q464 37 469 56L496 157H520V0H457Q404 0 373.5 -34Q343 -68 343 -127Q343 -161 357.5 -178.5Q372 -196 401 -196Q430 -196 448.5 -175Q467 -154 476 -112Z" glyph-name="Eogonek" horiz-adv-x="565" unicode="Ę" /><glyph d="M455 278 380 283V308H616V283L561 278Q545 276 542 269.5Q539 263 539 229V0H517Q511 13 502.5 24.5Q494 36 482 47Q452 18 413 4Q374 -10 324 -10Q210 -10 145 72.5Q80 155 80 299V382Q80 525 146 607.5Q212 690 328 690Q436 690 494 630.5Q552 571 537 483L472 467Q483 561 446 611Q409 661 330 661Q239 661 196 605.5Q153 550 153 432V249Q153 132 196 76Q239 20 329 20Q379 20 415 37.5Q451 55 477 91V229Q477 263 474 270Q471 277 455 278ZM323 825Q370 825 396 849.5Q422 874 436 933L462 926Q448 846 414.5 809Q381 772 323 772Q265 772 231.5 809Q198 846 184 926L210 933Q224 874 250 849.5Q276 825 323 825Z" glyph-name="Gbreve" horiz-adv-x="640" unicode="Ğ" /><glyph d="M455 278 380 283V308H616V283L561 278Q545 276 542 269.5Q539 263 539 229V0H517Q511 13 502.5 24.5Q494 36 482 47Q452 18 413 4Q374 -10 324 -10Q210 -10 145 72.5Q80 155 80 299V382Q80 525 146 607.5Q212 690 328 690Q436 690 494 630.5Q552 571 537 483L472 467Q483 561 446 611Q409 661 330 661Q239 661 196 605.5Q153 550 153 432V249Q153 132 196 76Q239 20 329 20Q379 20 415 37.5Q451 55 477 91V229Q477 263 474 270Q471 277 455 278ZM450 791 431 772Q397 801 370 827Q343 853 320 878Q301 856 277 831.5Q253 807 215 772L196 791Q236 833 255.5 861Q275 889 297 933H349Q371 889 390.5 861Q410 833 450 791Z" glyph-name="Gcircumflex" horiz-adv-x="640" unicode="Ĝ" /><glyph d="M455 278 380 283V308H616V283L561 278Q545 276 542 269.5Q539 263 539 229V0H517Q511 13 502.5 24.5Q494 36 482 47Q452 18 413 4Q374 -10 324 -10Q210 -10 145 72.5Q80 155 80 299V382Q80 525 146 607.5Q212 690 328 690Q436 690 494 630.5Q552 571 537 483L472 467Q483 561 446 611Q409 661 330 661Q239 661 196 605.5Q153 550 153 432V249Q153 132 196 76Q239 20 329 20Q379 20 415 37.5Q451 55 477 91V229Q477 263 474 270Q471 277 455 278ZM294 -238 274 -224Q291 -187 298 -153.5Q305 -120 305 -77H371Q357 -132 340 -166.5Q323 -201 294 -238Z" glyph-name="Gcommaaccent" horiz-adv-x="640" unicode="Ģ" /><glyph d="M455 278 380 283V308H616V283L561 278Q545 276 542 269.5Q539 263 539 229V0H517Q511 13 502.5 24.5Q494 36 482 47Q452 18 413 4Q374 -10 324 -10Q210 -10 145 72.5Q80 155 80 299V382Q80 525 146 607.5Q212 690 328 690Q436 690 494 630.5Q552 571 537 483L472 467Q483 561 446 611Q409 661 330 661Q239 661 196 605.5Q153 550 153 432V249Q153 132 196 76Q239 20 329 20Q379 20 415 37.5Q451 55 477 91V229Q477 263 474 270Q471 277 455 278ZM369 856Q369 836 356 823Q343 810 323 810Q303 810 290.5 823Q278 836 278 856Q278 876 291 888.5Q304 901 323 901Q343 901 356 888.5Q369 876 369 856Z" glyph-name="Gdotaccent" horiz-adv-x="640" unicode="Ġ" /><glyph d="M219 30 274 25V0H55V25L110 30Q126 32 129 38.5Q132 45 132 79V494H55V523H132V601Q132 635 129 641.5Q126 648 110 650L55 655V680H274V655L219 650Q203 648 200 641.5Q197 635 197 601V523H525V601Q525 635 522 641.5Q519 648 503 650L448 655V680H667V655L612 650Q596 648 593 641.5Q590 635 590 601V523H667V494H590V79Q590 45 593 38.5Q596 32 612 30L667 25V0H448V25L503 30Q519 32 522 38.5Q525 45 525 79V329H197V79Q197 45 200 38.5Q203 32 219 30ZM197 494 197 359H525V494Z" glyph-name="Hbar" horiz-adv-x="722" unicode="Ħ" /><glyph d="M609 30 664 25V0H445V25L500 30Q516 32 519 38.5Q522 45 522 79V329H194V79Q194 45 197 38.5Q200 32 216 30L271 25V0H52V25L107 30Q123 32 126 38.5Q129 45 129 79V601Q129 635 126 641.5Q123 648 107 650L52 655V680H271V655L216 650Q200 648 197 641.5Q194 635 194 601V359H522V601Q522 635 519 641.5Q516 648 500 650L445 655V680H664V655L609 650Q593 648 590 641.5Q587 635 587 601V79Q587 45 590 38.5Q593 32 609 30ZM485 791 466 772Q432 801 405 827Q378 853 355 878Q336 856 312 831.5Q288 807 250 772L231 791Q271 833 290.5 861Q310 889 332 933H384Q406 889 425.5 861Q445 833 485 791Z" glyph-name="Hcircumflex" horiz-adv-x="716" unicode="Ĥ" /><glyph d="M107 650 52 655V680H271V655L216 650Q200 648 197 641.5Q194 635 194 601V79Q194 45 197 38.5Q200 32 216 30L271 25V0H52V25L107 30Q123 32 126 38.5Q129 45 129 79V601Q129 635 126 641.5Q123 648 107 650ZM161 772 142 791Q170 826 185.5 857Q201 888 213 933H289Q262 888 230.5 848.5Q199 809 161 772Z" glyph-name="Iacute" horiz-adv-x="323" unicode="Í" /><glyph d="M107 650 52 655V680H271V655L216 650Q200 648 197 641.5Q194 635 194 601V79Q194 45 197 38.5Q200 32 216 30L271 25V0H52V25L107 30Q123 32 126 38.5Q129 45 129 79V601Q129 635 126 641.5Q123 648 107 650ZM289 791 270 772Q236 801 209 827Q182 853 159 878Q140 856 116 831.5Q92 807 54 772L35 791Q75 833 94.5 861Q114 889 136 933H188Q210 889 229.5 861Q249 833 289 791Z" glyph-name="Icircumflex" horiz-adv-x="323" unicode="Î" /><glyph d="M107 650 52 655V680H271V655L216 650Q200 648 197 641.5Q194 635 194 601V79Q194 45 197 38.5Q200 32 216 30L271 25V0H52V25L107 30Q123 32 126 38.5Q129 45 129 79V601Q129 635 126 641.5Q123 648 107 650ZM106 856Q106 837 94 824.5Q82 812 62 812Q43 812 31 824.5Q19 837 19 856Q19 875 31 887Q43 899 62 899Q81 899 93.5 887Q106 875 106 856ZM305 856Q305 837 293 824.5Q281 812 261 812Q242 812 230 824.5Q218 837 218 856Q218 875 230 887Q242 899 261 899Q280 899 292.5 887Q305 875 305 856Z" glyph-name="Idieresis" horiz-adv-x="323" unicode="Ï" /><glyph d="M107 650 52 655V680H271V655L216 650Q200 648 197 641.5Q194 635 194 601V79Q194 45 197 38.5Q200 32 216 30L271 25V0H52V25L107 30Q123 32 126 38.5Q129 45 129 79V601Q129 635 126 641.5Q123 648 107 650ZM182 791 163 772Q125 809 93.5 848.5Q62 888 35 933H111Q123 888 138.5 857Q154 826 182 791Z" glyph-name="Igrave" horiz-adv-x="323" unicode="Ì" /><glyph d="M107 650 52 655V680H271V655L216 650Q200 648 197 641.5Q194 635 194 601V79Q194 45 197 38.5Q200 32 216 30L271 25V0H52V25L107 30Q123 32 126 38.5Q129 45 129 79V601Q129 635 126 641.5Q123 648 107 650ZM162 825Q209 825 235 849.5Q261 874 275 933L301 926Q287 846 253.5 809Q220 772 162 772Q104 772 70.5 809Q37 846 23 926L49 933Q63 874 89 849.5Q115 825 162 825Z" glyph-name="Ibreve" horiz-adv-x="323" unicode="Ĭ" /><glyph d="M107 650 52 655V680H271V655L216 650Q200 648 197 641.5Q194 635 194 601V79Q194 45 197 38.5Q200 32 216 30L271 25V0H52V25L107 30Q123 32 126 38.5Q129 45 129 79V601Q129 635 126 641.5Q123 648 107 650ZM208 856Q208 836 195 823Q182 810 162 810Q142 810 129.5 823Q117 836 117 856Q117 876 130 888.5Q143 901 162 901Q182 901 195 888.5Q208 876 208 856Z" glyph-name="Idotaccent" horiz-adv-x="323" unicode="İ" /><glyph d="M107 650 52 655V680H271V655L216 650Q200 648 197 641.5Q194 635 194 601V79Q194 45 197 38.5Q200 32 216 30L271 25V0H52V25L107 30Q123 32 126 38.5Q129 45 129 79V601Q129 635 126 641.5Q123 648 107 650ZM19 855 306 855V812H19Z" glyph-name="Imacron" horiz-adv-x="323" unicode="Ī" /><glyph d="M103 650 48 655V680H267V655L212 650Q196 648 193 641.5Q190 635 190 601V79Q190 45 193 38.5Q196 32 212 30L267 25V0H204Q151 0 120.5 -34Q90 -68 90 -127Q90 -161 104.5 -178.5Q119 -196 148 -196Q177 -196 195.5 -175Q214 -154 223 -112L267 -125Q254 -172 221.5 -197.5Q189 -223 144 -223Q96 -223 67 -197Q38 -171 38 -127Q38 -82 61 -46Q84 -10 125 9V601Q125 635 122 641.5Q119 648 103 650Z" glyph-name="Iogonek" horiz-adv-x="319" unicode="Į" /><glyph d="M107 650 52 655V680H271V655L216 650Q200 648 197 641.5Q194 635 194 601V79Q194 45 197 38.5Q200 32 216 30L271 25V0H52V25L107 30Q123 32 126 38.5Q129 45 129 79V601Q129 635 126 641.5Q123 648 107 650ZM233 786Q214 786 195.5 796.5Q177 807 147 839Q123 864 110.5 871.5Q98 879 87 879Q67 879 55 858.5Q43 838 42 801H13Q14 862 35 895Q56 928 93 928Q112 928 130.5 917.5Q149 907 179 875Q202 850 214 842.5Q226 835 237 835Q257 835 269 855.5Q281 876 282 913H311Q310 853 289 819.5Q268 786 233 786Z" glyph-name="Itilde" horiz-adv-x="323" unicode="Ĩ" /><glyph d="M248 650 193 655V680H412V655L357 650Q341 648 338 641.5Q335 635 335 601V202Q335 100 292 45Q249 -10 167 -10Q101 -10 62 25.5Q23 61 17 129L67 144Q69 82 93.5 51Q118 20 165 20Q220 20 245 64.5Q270 109 270 202V601Q270 635 267 641.5Q264 648 248 650ZM429 791 410 772Q376 801 349 827Q322 853 299 878Q280 856 256 831.5Q232 807 194 772L175 791Q215 833 234.5 861Q254 889 276 933H328Q350 889 369.5 861Q389 833 429 791Z" glyph-name="Jcircumflex" horiz-adv-x="452" unicode="Ĵ" /><glyph d="M107 650 52 655V680H271V655L216 650Q200 648 197 641.5Q194 635 194 601V79Q194 45 197 38.5Q200 32 216 30L271 25V0H52V25L107 30Q123 32 126 38.5Q129 45 129 79V601Q129 635 126 641.5Q123 648 107 650ZM571 650 516 655V680H735V655L680 650Q664 648 661 641.5Q658 635 658 601V202Q658 100 615 45Q572 -10 490 -10Q424 -10 385 25.5Q346 61 340 129L390 144Q392 82 416.5 51Q441 20 488 20Q543 20 568 64.5Q593 109 593 202V601Q593 635 590 641.5Q587 648 571 650Z" glyph-name="IJ" horiz-adv-x="775" unicode="Ĳ" /><glyph d="M107 651 52 656V680H271V656L216 651Q200 649 197 642.5Q194 636 194 602V290L452 612Q473 638 474 643.5Q475 649 457 651L408 656V680H590V656L541 651Q527 650 520.5 644.5Q514 639 492 612L324 403L526 79Q547 46 553.5 39Q560 32 577 30L627 25V0H495L282 351L194 242V79Q194 45 197 38.5Q200 32 216 30L271 25V0H52V25L107 30Q123 32 126 38.5Q129 45 129 79V602Q129 636 126 642.5Q123 649 107 651ZM293 -238 273 -224Q290 -187 297 -153.5Q304 -120 304 -77H370Q356 -132 339 -166.5Q322 -201 293 -238Z" glyph-name="Kcommaaccent" horiz-adv-x="636" unicode="Ķ" /><glyph d="M700 685 720 671Q703 634 696 600.5Q689 567 689 524H623Q637 579 654 613.5Q671 648 700 685ZM107 651 52 656V680H271V656L216 651Q200 649 197 642.5Q194 636 194 602V290L452 612Q473 638 474 643.5Q475 649 457 651L408 656V680H590V656L541 651Q527 650 520.5 644.5Q514 639 492 612L324 403L526 79Q547 46 553.5 39Q560 32 577 30L627 25V0H495L282 351L194 242V79Q194 45 197 38.5Q200 32 216 30L271 25V0H52V25L107 30Q123 32 126 38.5Q129 45 129 79V602Q129 636 126 642.5Q123 649 107 651Z" glyph-name="kgreenlandic.case" horiz-adv-x="738" unicode="" /><glyph d="M441 56 468 161H493V0H52V25L107 30Q123 32 126 38.5Q129 45 129 79V601Q129 635 126 641.5Q123 648 107 650L52 655V680H271V655L216 650Q200 648 197 641.5Q194 635 194 601V30H387Q419 30 427.5 33.5Q436 37 441 56ZM171 772 152 791Q180 826 195.5 857Q211 888 223 933H299Q272 888 240.5 848.5Q209 809 171 772Z" glyph-name="Lacute" horiz-adv-x="504" unicode="Ĺ" /><glyph d="M441 56 468 161H493V0H52V25L107 30Q123 32 126 38.5Q129 45 129 79V601Q129 635 126 641.5Q123 648 107 650L52 655V680H271V655L216 650Q200 648 197 641.5Q194 635 194 601V30H387Q419 30 427.5 33.5Q436 37 441 56ZM372 466 353 466V680H417Q407 620 396 568Q385 516 372 466Z" glyph-name="Lcaron" horiz-adv-x="504" unicode="Ľ" /><glyph d="M441 56 468 161H493V0H52V25L107 30Q123 32 126 38.5Q129 45 129 79V601Q129 635 126 641.5Q123 648 107 650L52 655V680H271V655L216 650Q200 648 197 641.5Q194 635 194 601V30H387Q419 30 427.5 33.5Q436 37 441 56ZM250 -238 230 -224Q247 -187 254 -153.5Q261 -120 261 -77H327Q313 -132 296 -166.5Q279 -201 250 -238Z" glyph-name="Lcommaaccent" horiz-adv-x="504" unicode="Ļ" /><glyph d="M441 56 468 161H493V0H52V25L107 30Q123 32 126 38.5Q129 45 129 79V601Q129 635 126 641.5Q123 648 107 650L52 655V680H271V655L216 650Q200 648 197 641.5Q194 635 194 601V30H387Q419 30 427.5 33.5Q436 37 441 56ZM459 385Q459 365 446 352Q433 339 413 339Q393 339 380.5 352Q368 365 368 385Q368 405 381 417.5Q394 430 413 430Q433 430 446 417.5Q459 405 459 385Z" glyph-name="Ldot" horiz-adv-x="504" unicode="Ŀ" /><glyph d="M514 650 459 655V680H648V655L593 650Q577 648 574 641.5Q571 635 571 601V0H526L164 630V79Q164 45 167 38.5Q170 32 186 30L241 25V0H52V25L107 30Q123 32 126 38.5Q129 45 129 79V601Q129 635 126 641.5Q123 648 107 650L52 655V680H206L536 106V601Q536 635 533 641.5Q530 648 514 650ZM423 786Q404 786 385.5 796.5Q367 807 337 839Q313 864 300.5 871.5Q288 879 277 879Q257 879 245 858.5Q233 838 232 801H203Q204 862 225 895Q246 928 283 928Q302 928 320.5 917.5Q339 907 369 875Q392 850 404 842.5Q416 835 427 835Q447 835 459 855.5Q471 876 472 913H501Q500 853 479 819.5Q458 786 423 786Z" glyph-name="Ntilde" horiz-adv-x="695" unicode="Ñ" /><glyph d="M514 650 459 655V680H648V655L593 650Q577 648 574 641.5Q571 635 571 601V0H526L164 630V79Q164 45 167 38.5Q170 32 186 30L241 25V0H52V25L107 30Q123 32 126 38.5Q129 45 129 79V601Q129 635 126 641.5Q123 648 107 650L52 655V680H206L536 106V601Q536 635 533 641.5Q530 648 514 650ZM351 772 332 791Q360 826 375.5 857Q391 888 403 933H479Q452 888 420.5 848.5Q389 809 351 772Z" glyph-name="Nacute" horiz-adv-x="695" unicode="Ń" /><glyph d="M514 650 459 655V680H648V655L593 650Q577 648 574 641.5Q571 635 571 601V0H526L164 630V79Q164 45 167 38.5Q170 32 186 30L241 25V0H52V25L107 30Q123 32 126 38.5Q129 45 129 79V601Q129 635 126 641.5Q123 648 107 650L52 655V680H206L536 106V601Q536 635 533 641.5Q530 648 514 650ZM460 938 479 919Q439 877 419.5 849Q400 821 378 777H326Q304 821 284.5 849Q265 877 225 919L244 938Q278 909 305 883Q332 857 355 832Q377 857 402 882.5Q427 908 460 938Z" glyph-name="Ncaron" horiz-adv-x="695" unicode="Ň" /><glyph d="M514 650 459 655V680H648V655L593 650Q577 648 574 641.5Q571 635 571 601V0H526L164 630V79Q164 45 167 38.5Q170 32 186 30L241 25V0H52V25L107 30Q123 32 126 38.5Q129 45 129 79V601Q129 635 126 641.5Q123 648 107 650L52 655V680H206L536 106V601Q536 635 533 641.5Q530 648 514 650ZM304 -238 284 -224Q301 -187 308 -153.5Q315 -120 315 -77H381Q367 -132 350 -166.5Q333 -201 304 -238Z" glyph-name="Ncommaaccent" horiz-adv-x="695" unicode="Ņ" /><glyph d="M648 655 593 650Q577 648 574 641.5Q571 635 571 601V-31Q571 -123 530.5 -173Q490 -223 413 -223Q351 -223 315 -190Q279 -157 273 -94L323 -79Q325 -136 347 -164.5Q369 -193 411 -193Q460 -193 483 -153.5Q506 -114 506 -31V35L164 630V79Q164 45 167 38.5Q170 32 186 30L241 25V0H52V25L107 30Q123 32 126 38.5Q129 45 129 79V601Q129 635 126 641.5Q123 648 107 650L52 655V680H206L536 106V601Q536 635 533 641.5Q530 648 514 650L459 655V680H648Z" glyph-name="Eng" horiz-adv-x="695" unicode="Ŋ" /><glyph d="M645 650 590 655V680H779V655L724 650Q708 648 705 641.5Q702 635 702 601V0H657L295 630V79Q295 45 298 38.5Q301 32 317 30L372 25V0H183V25L238 30Q254 32 257 38.5Q260 45 260 79V601Q260 635 257 641.5Q254 648 238 650L183 655V680H337L667 106V601Q667 635 664 641.5Q661 648 645 650ZM68 690Q88 690 100 676Q112 662 112 638Q112 600 89.5 549Q67 498 29 449L8 467Q39 511 53.5 542.5Q68 574 70 603H68Q49 603 37 615.5Q25 628 25 647Q25 666 37 678Q49 690 68 690Z" glyph-name="napostrophe.case" horiz-adv-x="826" unicode="" /><glyph d="M331 690Q448 690 515 607.5Q582 525 582 382V299Q582 155 515 72.5Q448 -10 331 -10Q213 -10 146.5 72.5Q80 155 80 299V382Q80 526 146.5 608Q213 690 331 690ZM509 249 509 432Q509 548 465.5 604Q422 660 331 660Q240 660 196.5 604Q153 548 153 432V249Q153 133 197 76.5Q241 20 331 20Q421 20 465 76.5Q509 133 509 249ZM330 772 311 791Q339 826 354.5 857Q370 888 382 933H458Q431 888 399.5 848.5Q368 809 330 772Z" glyph-name="Oacute" horiz-adv-x="662" unicode="Ó" /><glyph d="M331 690Q448 690 515 607.5Q582 525 582 382V299Q582 155 515 72.5Q448 -10 331 -10Q213 -10 146.5 72.5Q80 155 80 299V382Q80 526 146.5 608Q213 690 331 690ZM509 249 509 432Q509 548 465.5 604Q422 660 331 660Q240 660 196.5 604Q153 548 153 432V249Q153 133 197 76.5Q241 20 331 20Q421 20 465 76.5Q509 133 509 249ZM458 791 439 772Q405 801 378 827Q351 853 328 878Q309 856 285 831.5Q261 807 223 772L204 791Q244 833 263.5 861Q283 889 305 933H357Q379 889 398.5 861Q418 833 458 791Z" glyph-name="Ocircumflex" horiz-adv-x="662" unicode="Ô" /><glyph d="M331 690Q448 690 515 607.5Q582 525 582 382V299Q582 155 515 72.5Q448 -10 331 -10Q213 -10 146.5 72.5Q80 155 80 299V382Q80 526 146.5 608Q213 690 331 690ZM509 249 509 432Q509 548 465.5 604Q422 660 331 660Q240 660 196.5 604Q153 548 153 432V249Q153 133 197 76.5Q241 20 331 20Q421 20 465 76.5Q509 133 509 249ZM275 856Q275 837 263 824.5Q251 812 231 812Q212 812 200 824.5Q188 837 188 856Q188 875 200 887Q212 899 231 899Q250 899 262.5 887Q275 875 275 856ZM474 856Q474 837 462 824.5Q450 812 430 812Q411 812 399 824.5Q387 837 387 856Q387 875 399 887Q411 899 430 899Q449 899 461.5 887Q474 875 474 856Z" glyph-name="Odieresis" horiz-adv-x="662" unicode="Ö" /><glyph d="M331 690Q448 690 515 607.5Q582 525 582 382V299Q582 155 515 72.5Q448 -10 331 -10Q213 -10 146.5 72.5Q80 155 80 299V382Q80 526 146.5 608Q213 690 331 690ZM509 249 509 432Q509 548 465.5 604Q422 660 331 660Q240 660 196.5 604Q153 548 153 432V249Q153 133 197 76.5Q241 20 331 20Q421 20 465 76.5Q509 133 509 249ZM351 791 332 772Q294 809 262.5 848.5Q231 888 204 933H280Q292 888 307.5 857Q323 826 351 791Z" glyph-name="Ograve" horiz-adv-x="662" unicode="Ò" /><glyph d="M331 690Q448 690 515 607.5Q582 525 582 382V299Q582 155 515 72.5Q448 -10 331 -10Q213 -10 146.5 72.5Q80 155 80 299V382Q80 526 146.5 608Q213 690 331 690ZM509 249 509 432Q509 548 465.5 604Q422 660 331 660Q240 660 196.5 604Q153 548 153 432V249Q153 133 197 76.5Q241 20 331 20Q421 20 465 76.5Q509 133 509 249ZM402 786Q383 786 364.5 796.5Q346 807 316 839Q292 864 279.5 871.5Q267 879 256 879Q236 879 224 858.5Q212 838 211 801H182Q183 862 204 895Q225 928 262 928Q281 928 299.5 917.5Q318 907 348 875Q371 850 383 842.5Q395 835 406 835Q426 835 438 855.5Q450 876 451 913H480Q479 853 458 819.5Q437 786 402 786Z" glyph-name="Otilde" horiz-adv-x="662" unicode="Õ" /><glyph d="M331 690Q448 690 515 607.5Q582 525 582 382V299Q582 155 515 72.5Q448 -10 331 -10Q213 -10 146.5 72.5Q80 155 80 299V382Q80 526 146.5 608Q213 690 331 690ZM509 249 509 432Q509 548 465.5 604Q422 660 331 660Q240 660 196.5 604Q153 548 153 432V249Q153 133 197 76.5Q241 20 331 20Q421 20 465 76.5Q509 133 509 249ZM331 825Q378 825 404 849.5Q430 874 444 933L470 926Q456 846 422.5 809Q389 772 331 772Q273 772 239.5 809Q206 846 192 926L218 933Q232 874 258 849.5Q284 825 331 825Z" glyph-name="Obreve" horiz-adv-x="662" unicode="Ŏ" /><glyph d="M331 690Q448 690 515 607.5Q582 525 582 382V299Q582 155 515 72.5Q448 -10 331 -10Q213 -10 146.5 72.5Q80 155 80 299V382Q80 526 146.5 608Q213 690 331 690ZM509 249 509 432Q509 548 465.5 604Q422 660 331 660Q240 660 196.5 604Q153 548 153 432V249Q153 133 197 76.5Q241 20 331 20Q421 20 465 76.5Q509 133 509 249ZM264 772 243 787Q260 819 273 853Q286 887 298 933H369Q348 892 320.5 850Q293 808 264 772ZM404 772 383 787Q400 819 413 853Q426 887 438 933H509Q488 892 460.5 850Q433 808 404 772Z" glyph-name="Ohungarumlaut" horiz-adv-x="662" unicode="Ő" /><glyph d="M331 690Q448 690 515 607.5Q582 525 582 382V299Q582 155 515 72.5Q448 -10 331 -10Q213 -10 146.5 72.5Q80 155 80 299V382Q80 526 146.5 608Q213 690 331 690ZM509 249 509 432Q509 548 465.5 604Q422 660 331 660Q240 660 196.5 604Q153 548 153 432V249Q153 133 197 76.5Q241 20 331 20Q421 20 465 76.5Q509 133 509 249ZM188 855 475 855V812H188Z" glyph-name="Omacron" horiz-adv-x="662" unicode="Ō" /><glyph d="M107 650 52 655V680H314Q404 680 455.5 635Q507 590 507 512V477Q507 413 472.5 370.5Q438 328 375 314L506 79Q525 45 531 38.5Q537 32 554 30L599 25V0H472L307 308H194V79Q194 45 197 38.5Q200 32 216 30L271 25V0H52V25L107 30Q123 32 126 38.5Q129 45 129 79V601Q129 635 126 641.5Q123 648 107 650ZM314 650 194 650V338H314Q371 338 405 375.5Q439 413 439 477V512Q439 576 405.5 613Q372 650 314 650ZM295 772 276 791Q304 826 319.5 857Q335 888 347 933H423Q396 888 364.5 848.5Q333 809 295 772Z" glyph-name="Racute" horiz-adv-x="608" unicode="Ŕ" /><glyph d="M107 650 52 655V680H314Q404 680 455.5 635Q507 590 507 512V477Q507 413 472.5 370.5Q438 328 375 314L506 79Q525 45 531 38.5Q537 32 554 30L599 25V0H472L307 308H194V79Q194 45 197 38.5Q200 32 216 30L271 25V0H52V25L107 30Q123 32 126 38.5Q129 45 129 79V601Q129 635 126 641.5Q123 648 107 650ZM314 650 194 650V338H314Q371 338 405 375.5Q439 413 439 477V512Q439 576 405.5 613Q372 650 314 650ZM404 938 423 919Q383 877 363.5 849Q344 821 322 777H270Q248 821 228.5 849Q209 877 169 919L188 938Q222 909 249 883Q276 857 299 832Q321 857 346 882.5Q371 908 404 938Z" glyph-name="Rcaron" horiz-adv-x="608" unicode="Ř" /><glyph d="M107 650 52 655V680H314Q404 680 455.5 635Q507 590 507 512V477Q507 413 472.5 370.5Q438 328 375 314L506 79Q525 45 531 38.5Q537 32 554 30L599 25V0H472L307 308H194V79Q194 45 197 38.5Q200 32 216 30L271 25V0H52V25L107 30Q123 32 126 38.5Q129 45 129 79V601Q129 635 126 641.5Q123 648 107 650ZM314 650 194 650V338H314Q371 338 405 375.5Q439 413 439 477V512Q439 576 405.5 613Q372 650 314 650ZM296 -238 276 -224Q293 -187 300 -153.5Q307 -120 307 -77H373Q359 -132 342 -166.5Q325 -201 296 -238Z" glyph-name="Rcommaaccent" horiz-adv-x="608" unicode="Ŗ" /><glyph d="M267 20Q341 20 382.5 56.5Q424 93 424 159Q424 218 388 254.5Q352 291 274 311L221 325Q141 346 99.5 394Q58 442 58 512Q58 592 112.5 641Q167 690 262 690Q370 690 425 631.5Q480 573 464 483L401 467Q412 564 377.5 612.5Q343 661 263 661Q194 661 156 626Q118 591 118 527Q118 471 150.5 438Q183 405 255 386L308 372Q394 349 439 298.5Q484 248 484 174Q484 90 426 40Q368 -10 267 -10Q172 -10 116.5 36Q61 82 46 173L101 191Q108 106 150 63Q192 20 267 20ZM372 938 391 919Q351 877 331.5 849Q312 821 290 777H238Q216 821 196.5 849Q177 877 137 919L156 938Q190 909 217 883Q244 857 267 832Q289 857 314 882.5Q339 908 372 938Z" glyph-name="Scaron" horiz-adv-x="540" unicode="Š" /><glyph d="M267 20Q341 20 382.5 56.5Q424 93 424 159Q424 218 388 254.5Q352 291 274 311L221 325Q141 346 99.5 394Q58 442 58 512Q58 592 112.5 641Q167 690 262 690Q370 690 425 631.5Q480 573 464 483L401 467Q412 564 377.5 612.5Q343 661 263 661Q194 661 156 626Q118 591 118 527Q118 471 150.5 438Q183 405 255 386L308 372Q394 349 439 298.5Q484 248 484 174Q484 90 426 40Q368 -10 267 -10Q172 -10 116.5 36Q61 82 46 173L101 191Q108 106 150 63Q192 20 267 20ZM263 772 244 791Q272 826 287.5 857Q303 888 315 933H391Q364 888 332.5 848.5Q301 809 263 772Z" glyph-name="Sacute" horiz-adv-x="540" unicode="Ś" /><glyph d="M367 -141Q367 -179 338.5 -201Q310 -223 262 -223Q218 -223 191 -203Q164 -183 157 -145L201 -132Q205 -166 219 -182Q233 -198 260 -198Q286 -198 300 -183Q314 -168 314 -141Q314 -113 299 -99.5Q284 -86 253 -86Q247 -86 239.5 -86.5Q232 -87 228 -88L219 -63L241 -9Q159 -4 109.5 42Q60 88 46 173L101 191Q108 106 150 63Q192 20 267 20Q341 20 382.5 56.5Q424 93 424 159Q424 218 388 254.5Q352 291 274 311L221 325Q141 346 99.5 394Q58 442 58 512Q58 592 112.5 641Q167 690 262 690Q370 690 425 631.5Q480 573 464 483L401 467Q412 564 377.5 612.5Q343 661 263 661Q194 661 156 626Q118 591 118 527Q118 471 150.5 438Q183 405 255 386L308 372Q394 349 439 298.5Q484 248 484 174Q484 90 427.5 40Q371 -10 273 -10L252 -60H256Q307 -60 337 -81.5Q367 -103 367 -141Z" glyph-name="Scedilla" horiz-adv-x="540" unicode="Ş" /><glyph d="M267 20Q341 20 382.5 56.5Q424 93 424 159Q424 218 388 254.5Q352 291 274 311L221 325Q141 346 99.5 394Q58 442 58 512Q58 592 112.5 641Q167 690 262 690Q370 690 425 631.5Q480 573 464 483L401 467Q412 564 377.5 612.5Q343 661 263 661Q194 661 156 626Q118 591 118 527Q118 471 150.5 438Q183 405 255 386L308 372Q394 349 439 298.5Q484 248 484 174Q484 90 426 40Q368 -10 267 -10Q172 -10 116.5 36Q61 82 46 173L101 191Q108 106 150 63Q192 20 267 20ZM391 791 372 772Q338 801 311 827Q284 853 261 878Q242 856 218 831.5Q194 807 156 772L137 791Q177 833 196.5 861Q216 889 238 933H290Q312 889 331.5 861Q351 833 391 791Z" glyph-name="Scircumflex" horiz-adv-x="540" unicode="Ŝ" /><glyph d="M267 20Q341 20 382.5 56.5Q424 93 424 159Q424 218 388 254.5Q352 291 274 311L221 325Q141 346 99.5 394Q58 442 58 512Q58 592 112.5 641Q167 690 262 690Q370 690 425 631.5Q480 573 464 483L401 467Q412 564 377.5 612.5Q343 661 263 661Q194 661 156 626Q118 591 118 527Q118 471 150.5 438Q183 405 255 386L308 372Q394 349 439 298.5Q484 248 484 174Q484 90 426 40Q368 -10 267 -10Q172 -10 116.5 36Q61 82 46 173L101 191Q108 106 150 63Q192 20 267 20ZM225 -238 205 -224Q222 -187 229 -153.5Q236 -120 236 -77H302Q288 -132 271 -166.5Q254 -201 225 -238Z" glyph-name="uni0218" horiz-adv-x="540" unicode="Ș" /><glyph d="M329 30 384 25V0H165V25L220 30Q236 32 239 38.5Q242 45 242 79V326H96V355H242V650H120Q88 650 79.5 646.5Q71 643 66 624L39 523H14V680H535V523H510L483 624Q478 643 469.5 646.5Q461 650 429 650H307V355H453V326H307V79Q307 45 310 38.5Q313 32 329 30Z" glyph-name="Tbar" horiz-adv-x="549" unicode="Ŧ" /><glyph d="M14 523 14 680H535V523H510L483 624Q478 643 469.5 646.5Q461 650 429 650H307V79Q307 45 310 38.5Q313 32 329 30L384 25V0H165V25L220 30Q236 32 239 38.5Q242 45 242 79V650H120Q88 650 79.5 646.5Q71 643 66 624L39 523ZM382 938 401 919Q361 877 341.5 849Q322 821 300 777H248Q226 821 206.5 849Q187 877 147 919L166 938Q200 909 227 883Q254 857 277 832Q299 857 324 882.5Q349 908 382 938Z" glyph-name="Tcaron" horiz-adv-x="549" unicode="Ť" /><glyph d="M14 523 14 680H535V523H510L483 624Q478 643 469.5 646.5Q461 650 429 650H307V79Q307 45 310 38.5Q313 32 329 30L384 25V0H165V25L220 30Q236 32 239 38.5Q242 45 242 79V650H120Q88 650 79.5 646.5Q71 643 66 624L39 523ZM230 -238 210 -224Q227 -187 234 -153.5Q241 -120 241 -77H307Q293 -132 276 -166.5Q259 -201 230 -238Z" glyph-name="uni0162" horiz-adv-x="549" unicode="Ţ" /><glyph d="M14 523 14 680H535V523H510L483 624Q478 643 469.5 646.5Q461 650 429 650H307V79Q307 45 310 38.5Q313 32 329 30L384 25V0H165V25L220 30Q236 32 239 38.5Q242 45 242 79V650H120Q88 650 79.5 646.5Q71 643 66 624L39 523ZM230 -238 210 -224Q227 -187 234 -153.5Q241 -120 241 -77H307Q293 -132 276 -166.5Q259 -201 230 -238Z" glyph-name="uni021A" horiz-adv-x="549" unicode="Ț" /><glyph d="M501 650 446 655V680H635V655L580 650Q564 648 561 641.5Q558 635 558 601V231Q558 115 502 52.5Q446 -10 341 -10Q232 -10 173.5 57.5Q115 125 115 251V601Q115 635 112 641.5Q109 648 93 650L38 655V680H257V655L202 650Q186 648 183 641.5Q180 635 180 601V231Q180 124 221 72.5Q262 21 347 21Q433 21 478 74.5Q523 128 523 231V601Q523 635 520 641.5Q517 648 501 650ZM349 772 330 791Q358 826 373.5 857Q389 888 401 933H477Q450 888 418.5 848.5Q387 809 349 772Z" glyph-name="Uacute" horiz-adv-x="673" unicode="Ú" /><glyph d="M501 650 446 655V680H635V655L580 650Q564 648 561 641.5Q558 635 558 601V231Q558 115 502 52.5Q446 -10 341 -10Q232 -10 173.5 57.5Q115 125 115 251V601Q115 635 112 641.5Q109 648 93 650L38 655V680H257V655L202 650Q186 648 183 641.5Q180 635 180 601V231Q180 124 221 72.5Q262 21 347 21Q433 21 478 74.5Q523 128 523 231V601Q523 635 520 641.5Q517 648 501 650ZM477 791 458 772Q424 801 397 827Q370 853 347 878Q328 856 304 831.5Q280 807 242 772L223 791Q263 833 282.5 861Q302 889 324 933H376Q398 889 417.5 861Q437 833 477 791Z" glyph-name="Ucircumflex" horiz-adv-x="673" unicode="Û" /><glyph d="M501 650 446 655V680H635V655L580 650Q564 648 561 641.5Q558 635 558 601V231Q558 115 502 52.5Q446 -10 341 -10Q232 -10 173.5 57.5Q115 125 115 251V601Q115 635 112 641.5Q109 648 93 650L38 655V680H257V655L202 650Q186 648 183 641.5Q180 635 180 601V231Q180 124 221 72.5Q262 21 347 21Q433 21 478 74.5Q523 128 523 231V601Q523 635 520 641.5Q517 648 501 650ZM294 856Q294 837 282 824.5Q270 812 250 812Q231 812 219 824.5Q207 837 207 856Q207 875 219 887Q231 899 250 899Q269 899 281.5 887Q294 875 294 856ZM493 856Q493 837 481 824.5Q469 812 449 812Q430 812 418 824.5Q406 837 406 856Q406 875 418 887Q430 899 449 899Q468 899 480.5 887Q493 875 493 856Z" glyph-name="Udieresis" horiz-adv-x="673" unicode="Ü" /><glyph d="M501 650 446 655V680H635V655L580 650Q564 648 561 641.5Q558 635 558 601V231Q558 115 502 52.5Q446 -10 341 -10Q232 -10 173.5 57.5Q115 125 115 251V601Q115 635 112 641.5Q109 648 93 650L38 655V680H257V655L202 650Q186 648 183 641.5Q180 635 180 601V231Q180 124 221 72.5Q262 21 347 21Q433 21 478 74.5Q523 128 523 231V601Q523 635 520 641.5Q517 648 501 650ZM370 791 351 772Q313 809 281.5 848.5Q250 888 223 933H299Q311 888 326.5 857Q342 826 370 791Z" glyph-name="Ugrave" horiz-adv-x="673" unicode="Ù" /><glyph d="M501 650 446 655V680H635V655L580 650Q564 648 561 641.5Q558 635 558 601V231Q558 115 502 52.5Q446 -10 341 -10Q232 -10 173.5 57.5Q115 125 115 251V601Q115 635 112 641.5Q109 648 93 650L38 655V680H257V655L202 650Q186 648 183 641.5Q180 635 180 601V231Q180 124 221 72.5Q262 21 347 21Q433 21 478 74.5Q523 128 523 231V601Q523 635 520 641.5Q517 648 501 650ZM350 825Q397 825 423 849.5Q449 874 463 933L489 926Q475 846 441.5 809Q408 772 350 772Q292 772 258.5 809Q225 846 211 926L237 933Q251 874 277 849.5Q303 825 350 825Z" glyph-name="Ubreve" horiz-adv-x="673" unicode="Ŭ" /><glyph d="M501 650 446 655V680H635V655L580 650Q564 648 561 641.5Q558 635 558 601V231Q558 115 502 52.5Q446 -10 341 -10Q232 -10 173.5 57.5Q115 125 115 251V601Q115 635 112 641.5Q109 648 93 650L38 655V680H257V655L202 650Q186 648 183 641.5Q180 635 180 601V231Q180 124 221 72.5Q262 21 347 21Q433 21 478 74.5Q523 128 523 231V601Q523 635 520 641.5Q517 648 501 650ZM283 772 262 787Q279 819 292 853Q305 887 317 933H388Q367 892 339.5 850Q312 808 283 772ZM423 772 402 787Q419 819 432 853Q445 887 457 933H528Q507 892 479.5 850Q452 808 423 772Z" glyph-name="Uhungarumlaut" horiz-adv-x="673" unicode="Ű" /><glyph d="M501 650 446 655V680H635V655L580 650Q564 648 561 641.5Q558 635 558 601V231Q558 115 502 52.5Q446 -10 341 -10Q232 -10 173.5 57.5Q115 125 115 251V601Q115 635 112 641.5Q109 648 93 650L38 655V680H257V655L202 650Q186 648 183 641.5Q180 635 180 601V231Q180 124 221 72.5Q262 21 347 21Q433 21 478 74.5Q523 128 523 231V601Q523 635 520 641.5Q517 648 501 650ZM207 855 494 855V812H207Z" glyph-name="Umacron" horiz-adv-x="673" unicode="Ū" /><glyph d="M501 650 446 655V680H635V655L580 650Q564 648 561 641.5Q558 635 558 601V231Q558 166 540.5 118.5Q523 71 487 38Q472 24 442 1.5Q412 -21 400 -31Q374 -54 362.5 -77Q351 -100 351 -127Q351 -161 365.5 -178.5Q380 -196 409 -196Q438 -196 456.5 -175Q475 -154 484 -112L528 -125Q515 -172 482.5 -197.5Q450 -223 405 -223Q357 -223 328 -197Q299 -171 299 -127Q299 -96 318 -69.5Q337 -43 393 -6Q382 -8 369 -9Q356 -10 341 -10Q232 -10 173.5 57.5Q115 125 115 251V601Q115 635 112 641.5Q109 648 93 650L38 655V680H257V655L202 650Q186 648 183 641.5Q180 635 180 601V231Q180 124 221 72.5Q262 21 347 21Q433 21 478 74.5Q523 128 523 231V601Q523 635 520 641.5Q517 648 501 650Z" glyph-name="Uogonek" horiz-adv-x="673" unicode="Ų" /><glyph d="M501 650 446 655V680H635V655L580 650Q564 648 561 641.5Q558 635 558 601V231Q558 115 502 52.5Q446 -10 341 -10Q232 -10 173.5 57.5Q115 125 115 251V601Q115 635 112 641.5Q109 648 93 650L38 655V680H257V655L202 650Q186 648 183 641.5Q180 635 180 601V231Q180 124 221 72.5Q262 21 347 21Q433 21 478 74.5Q523 128 523 231V601Q523 635 520 641.5Q517 648 501 650ZM350 974Q401 974 434.5 943.5Q468 913 468 870V859Q468 816 434.5 785Q401 754 350 754Q299 754 265.5 784.5Q232 815 232 859V870Q232 913 265.5 943.5Q299 974 350 974ZM417 852 417 877Q417 911 399 930Q381 949 350 949Q319 949 301.5 930Q284 911 284 877V852Q284 818 301.5 798.5Q319 779 350 779Q381 779 399 798.5Q417 818 417 852Z" glyph-name="Uring" horiz-adv-x="673" unicode="Ů" /><glyph d="M501 650 446 655V680H635V655L580 650Q564 648 561 641.5Q558 635 558 601V231Q558 115 502 52.5Q446 -10 341 -10Q232 -10 173.5 57.5Q115 125 115 251V601Q115 635 112 641.5Q109 648 93 650L38 655V680H257V655L202 650Q186 648 183 641.5Q180 635 180 601V231Q180 124 221 72.5Q262 21 347 21Q433 21 478 74.5Q523 128 523 231V601Q523 635 520 641.5Q517 648 501 650ZM421 786Q402 786 383.5 796.5Q365 807 335 839Q311 864 298.5 871.5Q286 879 275 879Q255 879 243 858.5Q231 838 230 801H201Q202 862 223 895Q244 928 281 928Q300 928 318.5 917.5Q337 907 367 875Q390 850 402 842.5Q414 835 425 835Q445 835 457 855.5Q469 876 470 913H499Q498 853 477 819.5Q456 786 421 786Z" glyph-name="Utilde" horiz-adv-x="673" unicode="Ũ" /><glyph d="M682 0 632 0L458 591L281 0H230L79 611Q72 638 68 643Q64 648 49 650L0 655V680H205V655L156 650Q140 648 138 642.5Q136 637 143 611L272 86L449 680H497L671 90L799 611Q806 637 804 642.5Q802 648 786 650L737 655V680H911V655L862 650Q847 648 843 642Q839 636 833 611ZM463 772 444 791Q472 826 487.5 857Q503 888 515 933H591Q564 888 532.5 848.5Q501 809 463 772Z" glyph-name="Wacute" horiz-adv-x="911" unicode="Ẃ" /><glyph d="M682 0 632 0L458 591L281 0H230L79 611Q72 638 68 643Q64 648 49 650L0 655V680H205V655L156 650Q140 648 138 642.5Q136 637 143 611L272 86L449 680H497L671 90L799 611Q806 637 804 642.5Q802 648 786 650L737 655V680H911V655L862 650Q847 648 843 642Q839 636 833 611ZM591 791 572 772Q538 801 511 827Q484 853 461 878Q442 856 418 831.5Q394 807 356 772L337 791Q377 833 396.5 861Q416 889 438 933H490Q512 889 531.5 861Q551 833 591 791Z" glyph-name="Wcircumflex" horiz-adv-x="911" unicode="Ŵ" /><glyph d="M682 0 632 0L458 591L281 0H230L79 611Q72 638 68 643Q64 648 49 650L0 655V680H205V655L156 650Q140 648 138 642.5Q136 637 143 611L272 86L449 680H497L671 90L799 611Q806 637 804 642.5Q802 648 786 650L737 655V680H911V655L862 650Q847 648 843 642Q839 636 833 611ZM408 856Q408 837 396 824.5Q384 812 364 812Q345 812 333 824.5Q321 837 321 856Q321 875 333 887Q345 899 364 899Q383 899 395.5 887Q408 875 408 856ZM607 856Q607 837 595 824.5Q583 812 563 812Q544 812 532 824.5Q520 837 520 856Q520 875 532 887Q544 899 563 899Q582 899 594.5 887Q607 875 607 856Z" glyph-name="Wdieresis" horiz-adv-x="911" unicode="Ẅ" /><glyph d="M682 0 632 0L458 591L281 0H230L79 611Q72 638 68 643Q64 648 49 650L0 655V680H205V655L156 650Q140 648 138 642.5Q136 637 143 611L272 86L449 680H497L671 90L799 611Q806 637 804 642.5Q802 648 786 650L737 655V680H911V655L862 650Q847 648 843 642Q839 636 833 611ZM484 791 465 772Q427 809 395.5 848.5Q364 888 337 933H413Q425 888 440.5 857Q456 826 484 791Z" glyph-name="Wgrave" horiz-adv-x="911" unicode="Ẁ" /><glyph d="M340 30 395 25V0H176V25L231 30Q247 32 250 38.5Q253 45 253 79V290L90 611Q77 637 71 642.5Q65 648 49 650L0 655V680H214V655L165 650Q149 648 149 642.5Q149 637 162 611L303 328L444 611Q457 637 457 642.5Q457 648 441 650L392 655V680H570V655L521 650Q505 649 499.5 643.5Q494 638 480 611L318 290V79Q318 45 321 38.5Q324 32 340 30ZM299 772 280 791Q308 826 323.5 857Q339 888 351 933H427Q400 888 368.5 848.5Q337 809 299 772Z" glyph-name="Yacute" horiz-adv-x="570" unicode="Ý" /><glyph d="M340 30 395 25V0H176V25L231 30Q247 32 250 38.5Q253 45 253 79V290L90 611Q77 637 71 642.5Q65 648 49 650L0 655V680H214V655L165 650Q149 648 149 642.5Q149 637 162 611L303 328L444 611Q457 637 457 642.5Q457 648 441 650L392 655V680H570V655L521 650Q505 649 499.5 643.5Q494 638 480 611L318 290V79Q318 45 321 38.5Q324 32 340 30ZM244 856Q244 837 232 824.5Q220 812 200 812Q181 812 169 824.5Q157 837 157 856Q157 875 169 887Q181 899 200 899Q219 899 231.5 887Q244 875 244 856ZM443 856Q443 837 431 824.5Q419 812 399 812Q380 812 368 824.5Q356 837 356 856Q356 875 368 887Q380 899 399 899Q418 899 430.5 887Q443 875 443 856Z" glyph-name="Ydieresis" horiz-adv-x="570" unicode="Ÿ" /><glyph d="M340 30 395 25V0H176V25L231 30Q247 32 250 38.5Q253 45 253 79V290L90 611Q77 637 71 642.5Q65 648 49 650L0 655V680H214V655L165 650Q149 648 149 642.5Q149 637 162 611L303 328L444 611Q457 637 457 642.5Q457 648 441 650L392 655V680H570V655L521 650Q505 649 499.5 643.5Q494 638 480 611L318 290V79Q318 45 321 38.5Q324 32 340 30ZM427 791 408 772Q374 801 347 827Q320 853 297 878Q278 856 254 831.5Q230 807 192 772L173 791Q213 833 232.5 861Q252 889 274 933H326Q348 889 367.5 861Q387 833 427 791Z" glyph-name="Ycircumflex" horiz-adv-x="570" unicode="Ŷ" /><glyph d="M340 30 395 25V0H176V25L231 30Q247 32 250 38.5Q253 45 253 79V290L90 611Q77 637 71 642.5Q65 648 49 650L0 655V680H214V655L165 650Q149 648 149 642.5Q149 637 162 611L303 328L444 611Q457 637 457 642.5Q457 648 441 650L392 655V680H570V655L521 650Q505 649 499.5 643.5Q494 638 480 611L318 290V79Q318 45 321 38.5Q324 32 340 30ZM320 791 301 772Q263 809 231.5 848.5Q200 888 173 933H249Q261 888 276.5 857Q292 826 320 791Z" glyph-name="Ygrave" horiz-adv-x="570" unicode="Ỳ" /><glyph d="M429 56 456 157H481V0H41V20L395 650H157Q125 650 116.5 646.5Q108 643 103 624L76 523H51V680H471V660L117 30H375Q407 30 415.5 33.5Q424 37 429 56ZM369 938 388 919Q348 877 328.5 849Q309 821 287 777H235Q213 821 193.5 849Q174 877 134 919L153 938Q187 909 214 883Q241 857 264 832Q286 857 311 882.5Q336 908 369 938Z" glyph-name="Zcaron" horiz-adv-x="522" unicode="Ž" /><glyph d="M429 56 456 157H481V0H41V20L395 650H157Q125 650 116.5 646.5Q108 643 103 624L76 523H51V680H471V660L117 30H375Q407 30 415.5 33.5Q424 37 429 56ZM260 772 241 791Q269 826 284.5 857Q300 888 312 933H388Q361 888 329.5 848.5Q298 809 260 772Z" glyph-name="Zacute" horiz-adv-x="522" unicode="Ź" /><glyph d="M429 56 456 157H481V0H41V20L395 650H157Q125 650 116.5 646.5Q108 643 103 624L76 523H51V680H471V660L117 30H375Q407 30 415.5 33.5Q424 37 429 56ZM307 856Q307 836 294 823Q281 810 261 810Q241 810 228.5 823Q216 836 216 856Q216 876 229 888.5Q242 901 261 901Q281 901 294 888.5Q307 876 307 856Z" glyph-name="Zdotaccent" horiz-adv-x="522" unicode="Ż" /><glyph d="M452 -5Q418 -5 396 14.5Q374 34 369 69Q335 30 292.5 10Q250 -10 204 -10Q141 -10 105 25.5Q69 61 69 122Q69 186 111 216.5Q153 247 241 247H368V328Q368 400 340.5 433.5Q313 467 253 467Q190 467 165.5 433Q141 399 149 326L91 336Q85 410 129 453.5Q173 497 255 497Q342 497 385 455Q428 413 428 328V107Q428 67 438 48.5Q448 30 471 30Q481 30 491.5 34.5Q502 39 512 48L530 24Q514 9 494.5 2Q475 -5 452 -5ZM132 127Q132 77 154.5 51Q177 25 221 25Q261 25 297.5 46.5Q334 68 368 112V217H249Q188 217 160 195.5Q132 174 132 127ZM260 579 241 598Q269 633 284.5 664Q300 695 312 740H388Q361 695 329.5 655.5Q298 616 260 579Z" glyph-name="aacute" horiz-adv-x="542" unicode="á" /><glyph d="M452 -5Q418 -5 396 14.5Q374 34 369 69Q335 30 292.5 10Q250 -10 204 -10Q141 -10 105 25.5Q69 61 69 122Q69 186 111 216.5Q153 247 241 247H368V328Q368 400 340.5 433.5Q313 467 253 467Q190 467 165.5 433Q141 399 149 326L91 336Q85 410 129 453.5Q173 497 255 497Q342 497 385 455Q428 413 428 328V107Q428 67 438 48.5Q448 30 471 30Q481 30 491.5 34.5Q502 39 512 48L530 24Q514 9 494.5 2Q475 -5 452 -5ZM132 127Q132 77 154.5 51Q177 25 221 25Q261 25 297.5 46.5Q334 68 368 112V217H249Q188 217 160 195.5Q132 174 132 127ZM388 598 369 579Q335 608 308 634Q281 660 258 685Q239 663 215 638.5Q191 614 153 579L134 598Q174 640 193.5 668Q213 696 235 740H287Q309 696 328.5 668Q348 640 388 598Z" glyph-name="acircumflex" horiz-adv-x="542" unicode="â" /><glyph d="M452 -5Q418 -5 396 14.5Q374 34 369 69Q335 30 292.5 10Q250 -10 204 -10Q141 -10 105 25.5Q69 61 69 122Q69 186 111 216.5Q153 247 241 247H368V328Q368 400 340.5 433.5Q313 467 253 467Q190 467 165.5 433Q141 399 149 326L91 336Q85 410 129 453.5Q173 497 255 497Q342 497 385 455Q428 413 428 328V107Q428 67 438 48.5Q448 30 471 30Q481 30 491.5 34.5Q502 39 512 48L530 24Q514 9 494.5 2Q475 -5 452 -5ZM132 127Q132 77 154.5 51Q177 25 221 25Q261 25 297.5 46.5Q334 68 368 112V217H249Q188 217 160 195.5Q132 174 132 127ZM205 663Q205 644 193 631.5Q181 619 161 619Q142 619 130 631.5Q118 644 118 663Q118 682 130 694Q142 706 161 706Q180 706 192.5 694Q205 682 205 663ZM404 663Q404 644 392 631.5Q380 619 360 619Q341 619 329 631.5Q317 644 317 663Q317 682 329 694Q341 706 360 706Q379 706 391.5 694Q404 682 404 663Z" glyph-name="adieresis" horiz-adv-x="542" unicode="ä" /><glyph d="M452 -5Q418 -5 396 14.5Q374 34 369 69Q335 30 292.5 10Q250 -10 204 -10Q141 -10 105 25.5Q69 61 69 122Q69 186 111 216.5Q153 247 241 247H368V328Q368 400 340.5 433.5Q313 467 253 467Q190 467 165.5 433Q141 399 149 326L91 336Q85 410 129 453.5Q173 497 255 497Q342 497 385 455Q428 413 428 328V107Q428 67 438 48.5Q448 30 471 30Q481 30 491.5 34.5Q502 39 512 48L530 24Q514 9 494.5 2Q475 -5 452 -5ZM132 127Q132 77 154.5 51Q177 25 221 25Q261 25 297.5 46.5Q334 68 368 112V217H249Q188 217 160 195.5Q132 174 132 127ZM281 598 262 579Q224 616 192.5 655.5Q161 695 134 740H210Q222 695 237.5 664Q253 633 281 598Z" glyph-name="agrave" horiz-adv-x="542" unicode="à" /><glyph d="M452 -5Q418 -5 396 14.5Q374 34 369 69Q335 30 292.5 10Q250 -10 204 -10Q141 -10 105 25.5Q69 61 69 122Q69 186 111 216.5Q153 247 241 247H368V328Q368 400 340.5 433.5Q313 467 253 467Q190 467 165.5 433Q141 399 149 326L91 336Q85 410 129 453.5Q173 497 255 497Q342 497 385 455Q428 413 428 328V107Q428 67 438 48.5Q448 30 471 30Q481 30 491.5 34.5Q502 39 512 48L530 24Q514 9 494.5 2Q475 -5 452 -5ZM132 127Q132 77 154.5 51Q177 25 221 25Q261 25 297.5 46.5Q334 68 368 112V217H249Q188 217 160 195.5Q132 174 132 127ZM261 781Q312 781 345.5 750.5Q379 720 379 677V666Q379 623 345.5 592Q312 561 261 561Q210 561 176.5 591.5Q143 622 143 666V677Q143 720 176.5 750.5Q210 781 261 781ZM328 659 328 684Q328 718 310 737Q292 756 261 756Q230 756 212.5 737Q195 718 195 684V659Q195 625 212.5 605.5Q230 586 261 586Q292 586 310 605.5Q328 625 328 659Z" glyph-name="aring" horiz-adv-x="542" unicode="å" /><glyph d="M452 -5Q418 -5 396 14.5Q374 34 369 69Q335 30 292.5 10Q250 -10 204 -10Q141 -10 105 25.5Q69 61 69 122Q69 186 111 216.5Q153 247 241 247H368V328Q368 400 340.5 433.5Q313 467 253 467Q190 467 165.5 433Q141 399 149 326L91 336Q85 410 129 453.5Q173 497 255 497Q342 497 385 455Q428 413 428 328V107Q428 67 438 48.5Q448 30 471 30Q481 30 491.5 34.5Q502 39 512 48L530 24Q514 9 494.5 2Q475 -5 452 -5ZM132 127Q132 77 154.5 51Q177 25 221 25Q261 25 297.5 46.5Q334 68 368 112V217H249Q188 217 160 195.5Q132 174 132 127ZM332 593Q313 593 294.5 603.5Q276 614 246 646Q222 671 209.5 678.5Q197 686 186 686Q166 686 154 665.5Q142 645 141 608H112Q113 669 134 702Q155 735 192 735Q211 735 229.5 724.5Q248 714 278 682Q301 657 313 649.5Q325 642 336 642Q356 642 368 662.5Q380 683 381 720H410Q409 660 388 626.5Q367 593 332 593Z" glyph-name="atilde" horiz-adv-x="542" unicode="ã" /><glyph d="M452 -5Q418 -5 396 14.5Q374 34 369 69Q335 30 292.5 10Q250 -10 204 -10Q141 -10 105 25.5Q69 61 69 122Q69 186 111 216.5Q153 247 241 247H368V328Q368 400 340.5 433.5Q313 467 253 467Q190 467 165.5 433Q141 399 149 326L91 336Q85 410 129 453.5Q173 497 255 497Q342 497 385 455Q428 413 428 328V107Q428 67 438 48.5Q448 30 471 30Q481 30 491.5 34.5Q502 39 512 48L530 24Q514 9 494.5 2Q475 -5 452 -5ZM132 127Q132 77 154.5 51Q177 25 221 25Q261 25 297.5 46.5Q334 68 368 112V217H249Q188 217 160 195.5Q132 174 132 127ZM261 632Q308 632 334 656.5Q360 681 374 740L400 733Q386 653 352.5 616Q319 579 261 579Q203 579 169.5 616Q136 653 122 733L148 740Q162 681 188 656.5Q214 632 261 632Z" glyph-name="abreve" horiz-adv-x="542" unicode="ă" /><glyph d="M452 -5Q418 -5 396 14.5Q374 34 369 69Q335 30 292.5 10Q250 -10 204 -10Q141 -10 105 25.5Q69 61 69 122Q69 186 111 216.5Q153 247 241 247H368V328Q368 400 340.5 433.5Q313 467 253 467Q190 467 165.5 433Q141 399 149 326L91 336Q85 410 129 453.5Q173 497 255 497Q342 497 385 455Q428 413 428 328V107Q428 67 438 48.5Q448 30 471 30Q481 30 491.5 34.5Q502 39 512 48L530 24Q514 9 494.5 2Q475 -5 452 -5ZM132 127Q132 77 154.5 51Q177 25 221 25Q261 25 297.5 46.5Q334 68 368 112V217H249Q188 217 160 195.5Q132 174 132 127ZM118 662 405 662V619H118Z" glyph-name="amacron" horiz-adv-x="542" unicode="ā" /><glyph d="M486 -112 530 -125Q517 -172 484.5 -197.5Q452 -223 407 -223Q359 -223 330 -198Q301 -173 301 -131Q301 -92 331 -61Q361 -30 427 -2Q403 4 388.5 22Q374 40 369 69Q335 30 292.5 10Q250 -10 204 -10Q141 -10 105 25.5Q69 61 69 122Q69 186 111 216.5Q153 247 241 247H368V328Q368 400 340.5 433.5Q313 467 253 467Q190 467 165.5 433Q141 399 149 326L91 336Q85 410 129 453.5Q173 497 255 497Q342 497 385 455Q428 413 428 328V107Q428 67 438 48.5Q448 30 471 30Q481 30 491.5 34.5Q502 39 512 48L530 24Q510 7 469 -12.5Q428 -32 422 -35Q385 -54 369 -76Q353 -98 353 -127Q353 -161 367.5 -178.5Q382 -196 411 -196Q440 -196 458.5 -175Q477 -154 486 -112ZM132 127Q132 77 154.5 51Q177 25 221 25Q261 25 297.5 46.5Q334 68 368 112V217H249Q188 217 160 195.5Q132 174 132 127Z" glyph-name="aogonek" horiz-adv-x="542" unicode="ą" /><glyph d="M386 -141Q386 -179 357.5 -201Q329 -223 281 -223Q237 -223 210 -203Q183 -183 176 -145L220 -132Q224 -166 238 -182Q252 -198 279 -198Q305 -198 319 -183Q333 -168 333 -141Q333 -113 318 -99.5Q303 -86 272 -86Q266 -86 258.5 -86.5Q251 -87 247 -88L238 -63L260 -10Q169 -5 120 58.5Q71 122 71 234V254Q71 368 123 432.5Q175 497 269 497Q357 497 403.5 447Q450 397 438 318L381 309Q391 385 362.5 426Q334 467 269 467Q203 467 171 419Q139 371 139 274V214Q139 110 171.5 65Q204 20 279 20Q330 20 358.5 45Q387 70 399 124L445 111Q430 57 391 26Q352 -5 292 -9L271 -60H275Q326 -60 356 -81.5Q386 -103 386 -141Z" glyph-name="ccedilla" horiz-adv-x="502" unicode="ç" /><glyph d="M269 467Q203 467 171 419Q139 371 139 274V214Q139 110 171.5 65Q204 20 279 20Q330 20 358.5 45Q387 70 399 124L445 111Q429 52 384.5 21Q340 -10 274 -10Q176 -10 123.5 54Q71 118 71 234V254Q71 368 123 432.5Q175 497 269 497Q357 497 403.5 447Q450 397 438 318L381 309Q391 385 362.5 426Q334 467 269 467ZM264 579 245 598Q273 633 288.5 664Q304 695 316 740H392Q365 695 333.5 655.5Q302 616 264 579Z" glyph-name="cacute" horiz-adv-x="502" unicode="ć" /><glyph d="M269 467Q203 467 171 419Q139 371 139 274V214Q139 110 171.5 65Q204 20 279 20Q330 20 358.5 45Q387 70 399 124L445 111Q429 52 384.5 21Q340 -10 274 -10Q176 -10 123.5 54Q71 118 71 234V254Q71 368 123 432.5Q175 497 269 497Q357 497 403.5 447Q450 397 438 318L381 309Q391 385 362.5 426Q334 467 269 467ZM373 745 392 726Q352 684 332.5 656Q313 628 291 584H239Q217 628 197.5 656Q178 684 138 726L157 745Q191 716 218 690Q245 664 268 639Q290 664 315 689.5Q340 715 373 745Z" glyph-name="ccaron" horiz-adv-x="502" unicode="č" /><glyph d="M269 467Q203 467 171 419Q139 371 139 274V214Q139 110 171.5 65Q204 20 279 20Q330 20 358.5 45Q387 70 399 124L445 111Q429 52 384.5 21Q340 -10 274 -10Q176 -10 123.5 54Q71 118 71 234V254Q71 368 123 432.5Q175 497 269 497Q357 497 403.5 447Q450 397 438 318L381 309Q391 385 362.5 426Q334 467 269 467ZM392 598 373 579Q339 608 312 634Q285 660 262 685Q243 663 219 638.5Q195 614 157 579L138 598Q178 640 197.5 668Q217 696 239 740H291Q313 696 332.5 668Q352 640 392 598Z" glyph-name="ccircumflex" horiz-adv-x="502" unicode="ĉ" /><glyph d="M269 467Q203 467 171 419Q139 371 139 274V214Q139 110 171.5 65Q204 20 279 20Q330 20 358.5 45Q387 70 399 124L445 111Q429 52 384.5 21Q340 -10 274 -10Q176 -10 123.5 54Q71 118 71 234V254Q71 368 123 432.5Q175 497 269 497Q357 497 403.5 447Q450 397 438 318L381 309Q391 385 362.5 426Q334 467 269 467ZM311 663Q311 643 298 630Q285 617 265 617Q245 617 232.5 630Q220 643 220 663Q220 683 233 695.5Q246 708 265 708Q285 708 298 695.5Q311 683 311 663Z" glyph-name="cdotaccent" horiz-adv-x="502" unicode="ċ" /><glyph d="M486 30 541 24V0H408V76Q379 33 340 11.5Q301 -10 252 -10Q165 -10 118.5 53Q72 116 72 233V253Q72 366 126 431.5Q180 497 275 497Q314 497 346.5 483Q379 469 404 442V661Q404 695 401 701.5Q398 708 382 710L327 715V740H464V79Q464 45 467 38.5Q470 32 486 30ZM140 283 140 203Q140 112 169 66Q198 20 256 20Q301 20 337.5 45Q374 70 404 120V391Q380 430 348.5 448.5Q317 467 275 467Q208 467 174 420.5Q140 374 140 283ZM575 526 556 526V740H620Q610 680 599 628Q588 576 575 526Z" glyph-name="dcaron" horiz-adv-x="632" unicode="ď" /><glyph d="M486 30 541 24V0H408V76Q379 33 340 11.5Q301 -10 252 -10Q165 -10 118.5 53Q72 116 72 233V253Q72 366 126 431.5Q180 497 275 497Q314 497 346.5 483Q379 469 404 442V587H246V617H404V661Q404 695 401 701.5Q398 708 382 710L327 715V740H464V617H541V587H464V79Q464 45 467 38.5Q470 32 486 30ZM140 283 140 203Q140 112 169 66Q198 20 256 20Q301 20 337.5 45Q374 70 404 120V391Q380 430 348.5 448.5Q317 467 275 467Q208 467 174 420.5Q140 374 140 283Z" glyph-name="dcroat" horiz-adv-x="578" unicode="đ" /><glyph d="M407 124 453 111Q437 52 391.5 21Q346 -10 278 -10Q178 -10 124.5 53.5Q71 117 71 234V254Q71 369 123 433Q175 497 269 497Q354 497 406 445.5Q458 394 458 306Q458 292 456.5 277Q455 262 452 245H139V214Q139 110 172.5 65Q206 20 283 20Q336 20 365.5 45Q395 70 407 124ZM395 314Q395 389 363 428Q331 467 269 467Q201 467 170 421Q139 375 139 275H393Q394 291 394.5 301Q395 311 395 314ZM265 579 246 598Q274 633 289.5 664Q305 695 317 740H393Q366 695 334.5 655.5Q303 616 265 579Z" glyph-name="eacute" horiz-adv-x="523" unicode="é" /><glyph d="M407 124 453 111Q437 52 391.5 21Q346 -10 278 -10Q178 -10 124.5 53.5Q71 117 71 234V254Q71 369 123 433Q175 497 269 497Q354 497 406 445.5Q458 394 458 306Q458 292 456.5 277Q455 262 452 245H139V214Q139 110 172.5 65Q206 20 283 20Q336 20 365.5 45Q395 70 407 124ZM395 314Q395 389 363 428Q331 467 269 467Q201 467 170 421Q139 375 139 275H393Q394 291 394.5 301Q395 311 395 314ZM394 598 375 579Q341 608 314 634Q287 660 264 685Q245 663 221 638.5Q197 614 159 579L140 598Q180 640 199.5 668Q219 696 241 740H293Q315 696 334.5 668Q354 640 394 598Z" glyph-name="ecircumflex" horiz-adv-x="523" unicode="ê" /><glyph d="M407 124 453 111Q437 52 391.5 21Q346 -10 278 -10Q178 -10 124.5 53.5Q71 117 71 234V254Q71 369 123 433Q175 497 269 497Q354 497 406 445.5Q458 394 458 306Q458 292 456.5 277Q455 262 452 245H139V214Q139 110 172.5 65Q206 20 283 20Q336 20 365.5 45Q395 70 407 124ZM395 314Q395 389 363 428Q331 467 269 467Q201 467 170 421Q139 375 139 275H393Q394 291 394.5 301Q395 311 395 314ZM210 663Q210 644 198 631.5Q186 619 166 619Q147 619 135 631.5Q123 644 123 663Q123 682 135 694Q147 706 166 706Q185 706 197.5 694Q210 682 210 663ZM409 663Q409 644 397 631.5Q385 619 365 619Q346 619 334 631.5Q322 644 322 663Q322 682 334 694Q346 706 365 706Q384 706 396.5 694Q409 682 409 663Z" glyph-name="edieresis" horiz-adv-x="523" unicode="ë" /><glyph d="M407 124 453 111Q437 52 391.5 21Q346 -10 278 -10Q178 -10 124.5 53.5Q71 117 71 234V254Q71 369 123 433Q175 497 269 497Q354 497 406 445.5Q458 394 458 306Q458 292 456.5 277Q455 262 452 245H139V214Q139 110 172.5 65Q206 20 283 20Q336 20 365.5 45Q395 70 407 124ZM395 314Q395 389 363 428Q331 467 269 467Q201 467 170 421Q139 375 139 275H393Q394 291 394.5 301Q395 311 395 314ZM286 598 267 579Q229 616 197.5 655.5Q166 695 139 740H215Q227 695 242.5 664Q258 633 286 598Z" glyph-name="egrave" horiz-adv-x="523" unicode="è" /><glyph d="M407 124 453 111Q437 52 391.5 21Q346 -10 278 -10Q178 -10 124.5 53.5Q71 117 71 234V254Q71 369 123 433Q175 497 269 497Q354 497 406 445.5Q458 394 458 306Q458 292 456.5 277Q455 262 452 245H139V214Q139 110 172.5 65Q206 20 283 20Q336 20 365.5 45Q395 70 407 124ZM395 314Q395 389 363 428Q331 467 269 467Q201 467 170 421Q139 375 139 275H393Q394 291 394.5 301Q395 311 395 314ZM266 632Q313 632 339 656.5Q365 681 379 740L405 733Q391 653 357.5 616Q324 579 266 579Q208 579 174.5 616Q141 653 127 733L153 740Q167 681 193 656.5Q219 632 266 632Z" glyph-name="ebreve" horiz-adv-x="523" unicode="ĕ" /><glyph d="M407 124 453 111Q437 52 391.5 21Q346 -10 278 -10Q178 -10 124.5 53.5Q71 117 71 234V254Q71 369 123 433Q175 497 269 497Q354 497 406 445.5Q458 394 458 306Q458 292 456.5 277Q455 262 452 245H139V214Q139 110 172.5 65Q206 20 283 20Q336 20 365.5 45Q395 70 407 124ZM395 314Q395 389 363 428Q331 467 269 467Q201 467 170 421Q139 375 139 275H393Q394 291 394.5 301Q395 311 395 314ZM374 745 393 726Q353 684 333.5 656Q314 628 292 584H240Q218 628 198.5 656Q179 684 139 726L158 745Q192 716 219 690Q246 664 269 639Q291 664 316 689.5Q341 715 374 745Z" glyph-name="ecaron" horiz-adv-x="523" unicode="ě" /><glyph d="M407 124 453 111Q437 52 391.5 21Q346 -10 278 -10Q178 -10 124.5 53.5Q71 117 71 234V254Q71 369 123 433Q175 497 269 497Q354 497 406 445.5Q458 394 458 306Q458 292 456.5 277Q455 262 452 245H139V214Q139 110 172.5 65Q206 20 283 20Q336 20 365.5 45Q395 70 407 124ZM395 314Q395 389 363 428Q331 467 269 467Q201 467 170 421Q139 375 139 275H393Q394 291 394.5 301Q395 311 395 314ZM312 663Q312 643 299 630Q286 617 266 617Q246 617 233.5 630Q221 643 221 663Q221 683 234 695.5Q247 708 266 708Q286 708 299 695.5Q312 683 312 663Z" glyph-name="edotaccent" horiz-adv-x="523" unicode="ė" /><glyph d="M407 124 453 111Q437 52 391.5 21Q346 -10 278 -10Q178 -10 124.5 53.5Q71 117 71 234V254Q71 369 123 433Q175 497 269 497Q354 497 406 445.5Q458 394 458 306Q458 292 456.5 277Q455 262 452 245H139V214Q139 110 172.5 65Q206 20 283 20Q336 20 365.5 45Q395 70 407 124ZM395 314Q395 389 363 428Q331 467 269 467Q201 467 170 421Q139 375 139 275H393Q394 291 394.5 301Q395 311 395 314ZM123 662 410 662V619H123Z" glyph-name="emacron" horiz-adv-x="523" unicode="ē" /><glyph d="M409 -112 453 -125Q440 -173 408 -198Q376 -223 330 -223Q283 -223 253.5 -198Q224 -173 224 -133Q224 -100 243 -72Q262 -44 316 -7Q306 -9 296.5 -9.5Q287 -10 278 -10Q178 -10 124.5 53.5Q71 117 71 234V254Q71 369 123 433Q175 497 269 497Q354 497 406 445.5Q458 394 458 306Q458 292 456.5 277Q455 262 452 245H139V214Q139 110 172.5 65Q206 20 283 20Q336 20 365.5 45Q395 70 407 124L453 111Q447 87 435.5 68Q424 49 406 32Q392 20 363.5 -2Q335 -24 322 -35Q298 -57 287 -79Q276 -101 276 -127Q276 -160 291 -178Q306 -196 334 -196Q363 -196 381.5 -175Q400 -154 409 -112ZM395 314Q395 389 363 428Q331 467 269 467Q201 467 170 421Q139 375 139 275H393V279Q394 294 394.5 301Q395 308 395 314Z" glyph-name="eogonek" horiz-adv-x="523" unicode="ę" /><glyph d="M495 -63Q495 -140 439 -181.5Q383 -223 280 -223Q177 -223 123 -186.5Q69 -150 70 -82L122 -67Q119 -130 158.5 -161.5Q198 -193 280 -193Q362 -193 408 -163.5Q454 -134 454 -80Q454 -37 425.5 -16.5Q397 4 337 4H215Q163 4 134 28Q105 52 105 93Q105 121 118 145Q131 169 159 192Q118 213 96 249Q74 285 74 333Q74 409 124 453Q174 497 258 497H275Q302 497 327 491.5Q352 486 373 476L518 513L528 454H407Q432 433 445 402Q458 371 458 333Q458 259 407.5 215Q357 171 275 171H258Q240 171 223 173.5Q206 176 191 180Q171 166 161 149.5Q151 133 151 114Q151 89 166.5 76Q182 63 212 63H342Q417 63 456 31Q495 -1 495 -63ZM258 201 275 201Q332 201 361 234Q390 267 390 333Q390 400 361 433.5Q332 467 275 467H258Q200 467 171 433.5Q142 400 142 333Q142 267 171 234Q200 201 258 201ZM271 632Q318 632 344 656.5Q370 681 384 740L410 733Q396 653 362.5 616Q329 579 271 579Q213 579 179.5 616Q146 653 132 733L158 740Q172 681 198 656.5Q224 632 271 632Z" glyph-name="gbreve" horiz-adv-x="546" unicode="ğ" /><glyph d="M495 -63Q495 -140 439 -181.5Q383 -223 280 -223Q177 -223 123 -186.5Q69 -150 70 -82L122 -67Q119 -130 158.5 -161.5Q198 -193 280 -193Q362 -193 408 -163.5Q454 -134 454 -80Q454 -37 425.5 -16.5Q397 4 337 4H215Q163 4 134 28Q105 52 105 93Q105 121 118 145Q131 169 159 192Q118 213 96 249Q74 285 74 333Q74 409 124 453Q174 497 258 497H275Q302 497 327 491.5Q352 486 373 476L518 513L528 454H407Q432 433 445 402Q458 371 458 333Q458 259 407.5 215Q357 171 275 171H258Q240 171 223 173.5Q206 176 191 180Q171 166 161 149.5Q151 133 151 114Q151 89 166.5 76Q182 63 212 63H342Q417 63 456 31Q495 -1 495 -63ZM258 201 275 201Q332 201 361 234Q390 267 390 333Q390 400 361 433.5Q332 467 275 467H258Q200 467 171 433.5Q142 400 142 333Q142 267 171 234Q200 201 258 201ZM398 598 379 579Q345 608 318 634Q291 660 268 685Q249 663 225 638.5Q201 614 163 579L144 598Q184 640 203.5 668Q223 696 245 740H297Q319 696 338.5 668Q358 640 398 598Z" glyph-name="gcircumflex" horiz-adv-x="546" unicode="ĝ" /><glyph d="M495 -63Q495 -140 439 -181.5Q383 -223 280 -223Q177 -223 123 -186.5Q69 -150 70 -82L122 -67Q119 -130 158.5 -161.5Q198 -193 280 -193Q362 -193 408 -163.5Q454 -134 454 -80Q454 -37 425.5 -16.5Q397 4 337 4H215Q163 4 134 28Q105 52 105 93Q105 121 118 145Q131 169 159 192Q118 213 96 249Q74 285 74 333Q74 409 124 453Q174 497 258 497H275Q302 497 327 491.5Q352 486 373 476L518 513L528 454H407Q432 433 445 402Q458 371 458 333Q458 259 407.5 215Q357 171 275 171H258Q240 171 223 173.5Q206 176 191 180Q171 166 161 149.5Q151 133 151 114Q151 89 166.5 76Q182 63 212 63H342Q417 63 456 31Q495 -1 495 -63ZM258 201 275 201Q332 201 361 234Q390 267 390 333Q390 400 361 433.5Q332 467 275 467H258Q200 467 171 433.5Q142 400 142 333Q142 267 171 234Q200 201 258 201ZM315 745 335 731Q318 694 311 660.5Q304 627 304 584H238Q252 639 269 673.5Q286 708 315 745Z" glyph-name="gcommaaccent" horiz-adv-x="546" unicode="ģ" /><glyph d="M495 -63Q495 -140 439 -181.5Q383 -223 280 -223Q177 -223 123 -186.5Q69 -150 70 -82L122 -67Q119 -130 158.5 -161.5Q198 -193 280 -193Q362 -193 408 -163.5Q454 -134 454 -80Q454 -37 425.5 -16.5Q397 4 337 4H215Q163 4 134 28Q105 52 105 93Q105 121 118 145Q131 169 159 192Q118 213 96 249Q74 285 74 333Q74 409 124 453Q174 497 258 497H275Q302 497 327 491.5Q352 486 373 476L518 513L528 454H407Q432 433 445 402Q458 371 458 333Q458 259 407.5 215Q357 171 275 171H258Q240 171 223 173.5Q206 176 191 180Q171 166 161 149.5Q151 133 151 114Q151 89 166.5 76Q182 63 212 63H342Q417 63 456 31Q495 -1 495 -63ZM258 201 275 201Q332 201 361 234Q390 267 390 333Q390 400 361 433.5Q332 467 275 467H258Q200 467 171 433.5Q142 400 142 333Q142 267 171 234Q200 201 258 201ZM317 663Q317 643 304 630Q291 617 271 617Q251 617 238.5 630Q226 643 226 663Q226 683 239 695.5Q252 708 271 708Q291 708 304 695.5Q317 683 317 663Z" glyph-name="gdotaccent" horiz-adv-x="546" unicode="ġ" /><glyph d="M196 30 251 25V0H37V25L92 30Q108 32 111 38.5Q114 45 114 79V587H37V617H114V661Q114 695 111 701.5Q108 708 92 710L37 715V740H174V617H332V587H174V414Q211 455 255 476Q299 497 348 497Q421 497 460 453Q499 409 499 327V79Q499 45 502 38.5Q505 32 521 30L576 25V0H362V25L417 30Q433 32 436 38.5Q439 45 439 79V326Q439 397 415.5 430Q392 463 339 463Q293 463 252 440.5Q211 418 174 372V79Q174 45 177 38.5Q180 32 196 30Z" glyph-name="hbar" horiz-adv-x="607" unicode="ħ" /><glyph d="M521 30 576 25V0H362V25L417 30Q433 32 436 38.5Q439 45 439 79V326Q439 397 415.5 430Q392 463 339 463Q293 463 252 440.5Q211 418 174 372V79Q174 45 177 38.5Q180 32 196 30L251 25V0H37V25L92 30Q108 32 111 38.5Q114 45 114 79V661Q114 695 111 701.5Q108 708 92 710L37 715V740H174V414Q211 455 255 476Q299 497 348 497Q421 497 460 453Q499 409 499 327V79Q499 45 502 38.5Q505 32 521 30ZM372 820 353 801Q319 830 292 856Q265 882 242 907Q223 885 199 860.5Q175 836 137 801L118 820Q158 862 177.5 890Q197 918 219 962H271Q293 918 312.5 890Q332 862 372 820Z" glyph-name="hcircumflex" horiz-adv-x="607" unicode="ĥ" /><glyph d="M98 457 43 462V487H180V79Q180 45 183 38.5Q186 32 202 30L257 25V0H43V25L98 30Q114 32 117 38.5Q120 45 120 79V408Q120 442 117 448.5Q114 455 98 457ZM143 579 124 598Q152 633 167.5 664Q183 695 195 740H271Q244 695 212.5 655.5Q181 616 143 579Z" glyph-name="iacute" horiz-adv-x="294" unicode="í" /><glyph d="M98 457 43 462V487H180V79Q180 45 183 38.5Q186 32 202 30L257 25V0H43V25L98 30Q114 32 117 38.5Q120 45 120 79V408Q120 442 117 448.5Q114 455 98 457ZM271 598 252 579Q218 608 191 634Q164 660 141 685Q122 663 98 638.5Q74 614 36 579L17 598Q57 640 76.5 668Q96 696 118 740H170Q192 696 211.5 668Q231 640 271 598Z" glyph-name="icircumflex" horiz-adv-x="294" unicode="î" /><glyph d="M98 457 43 462V487H180V79Q180 45 183 38.5Q186 32 202 30L257 25V0H43V25L98 30Q114 32 117 38.5Q120 45 120 79V408Q120 442 117 448.5Q114 455 98 457ZM88 663Q88 644 76 631.5Q64 619 44 619Q25 619 13 631.5Q1 644 1 663Q1 682 13 694Q25 706 44 706Q63 706 75.5 694Q88 682 88 663ZM287 663Q287 644 275 631.5Q263 619 243 619Q224 619 212 631.5Q200 644 200 663Q200 682 212 694Q224 706 243 706Q262 706 274.5 694Q287 682 287 663Z" glyph-name="idieresis" horiz-adv-x="294" unicode="ï" /><glyph d="M98 457 43 462V487H180V79Q180 45 183 38.5Q186 32 202 30L257 25V0H43V25L98 30Q114 32 117 38.5Q120 45 120 79V408Q120 442 117 448.5Q114 455 98 457ZM164 598 145 579Q107 616 75.5 655.5Q44 695 17 740H93Q105 695 120.5 664Q136 633 164 598Z" glyph-name="igrave" horiz-adv-x="294" unicode="ì" /><glyph d="M98 457 43 462V487H180V79Q180 45 183 38.5Q186 32 202 30L257 25V0H43V25L98 30Q114 32 117 38.5Q120 45 120 79V408Q120 442 117 448.5Q114 455 98 457ZM144 632Q191 632 217 656.5Q243 681 257 740L283 733Q269 653 235.5 616Q202 579 144 579Q86 579 52.5 616Q19 653 5 733L31 740Q45 681 71 656.5Q97 632 144 632Z" glyph-name="ibreve" horiz-adv-x="294" unicode="ĭ" /><glyph d="M195 663Q195 643 182 630Q169 617 149 617Q129 617 116.5 630Q104 643 104 663Q104 683 117 695.5Q130 708 149 708Q169 708 182 695.5Q195 683 195 663ZM98 457 43 462V487H180V79Q180 45 183 38.5Q186 32 202 30L257 25V0H43V25L98 30Q114 32 117 38.5Q120 45 120 79V408Q120 442 117 448.5Q114 455 98 457Z" glyph-name="i.dot" horiz-adv-x="294" unicode="" /><glyph d="M98 457 43 462V487H180V79Q180 45 183 38.5Q186 32 202 30L257 25V0H43V25L98 30Q114 32 117 38.5Q120 45 120 79V408Q120 442 117 448.5Q114 455 98 457ZM1 662 288 662V619H1Z" glyph-name="imacron" horiz-adv-x="294" unicode="ī" /><glyph d="M193 663Q193 643 180 630Q167 617 147 617Q127 617 114.5 630Q102 643 102 663Q102 683 115 695.5Q128 708 147 708Q167 708 180 695.5Q193 683 193 663ZM96 457 41 462V487H178V79Q178 45 181 38.5Q184 32 200 30L255 25V0H197Q144 0 113.5 -34Q83 -68 83 -127Q83 -161 97.5 -178.5Q112 -196 141 -196Q170 -196 188.5 -175Q207 -154 216 -112L260 -125Q247 -172 214.5 -197.5Q182 -223 137 -223Q89 -223 60 -197Q31 -171 31 -127Q31 -82 54 -46Q77 -10 118 9V408Q118 442 115 448.5Q112 455 96 457Z" glyph-name="iogonek" horiz-adv-x="292" unicode="į" /><glyph d="M98 457 43 462V487H180V79Q180 45 183 38.5Q186 32 202 30L257 25V0H43V25L98 30Q114 32 117 38.5Q120 45 120 79V408Q120 442 117 448.5Q114 455 98 457ZM215 593Q196 593 177.5 603.5Q159 614 129 646Q105 671 92.5 678.5Q80 686 69 686Q49 686 37 665.5Q25 645 24 608H-5Q-4 669 17 702Q38 735 75 735Q94 735 112.5 724.5Q131 714 161 682Q184 657 196 649.5Q208 642 219 642Q239 642 251 662.5Q263 683 264 720H293Q292 660 271 626.5Q250 593 215 593Z" glyph-name="itilde" horiz-adv-x="294" unicode="ĩ" /><glyph d="M91 457 36 462V487H173V-64Q173 -139 138.5 -181Q104 -223 41 -223Q-10 -223 -40.5 -195Q-71 -167 -80 -111L-31 -99Q-28 -148 -11.5 -170.5Q5 -193 38 -193Q80 -193 96.5 -163Q113 -133 113 -64V408Q113 442 110 448.5Q107 455 91 457ZM251 598 232 579Q198 608 171 634Q144 660 121 685Q102 663 78 638.5Q54 614 16 579L-3 598Q37 640 56.5 668Q76 696 98 740H150Q172 696 191.5 668Q211 640 251 598Z" glyph-name="jcircumflex" horiz-adv-x="280" unicode="ĵ" /><glyph d="M195 663Q195 643 182 630Q169 617 149 617Q129 617 116.5 630Q104 643 104 663Q104 683 117 695.5Q130 708 149 708Q169 708 182 695.5Q195 683 195 663ZM98 457 43 462V487H180V79Q180 45 183 38.5Q186 32 202 30L257 25V0H43V25L98 30Q114 32 117 38.5Q120 45 120 79V408Q120 442 117 448.5Q114 455 98 457ZM482 663Q482 643 469 630Q456 617 436 617Q416 617 403.5 630Q391 643 391 663Q391 683 404 695.5Q417 708 436 708Q456 708 469 695.5Q482 683 482 663ZM385 457 330 462V487H467V-64Q467 -139 432.5 -181Q398 -223 335 -223Q284 -223 253.5 -195Q223 -167 214 -111L263 -99Q266 -148 282.5 -170.5Q299 -193 332 -193Q374 -193 390.5 -163Q407 -133 407 -64V408Q407 442 404 448.5Q401 455 385 457Z" glyph-name="ij" horiz-adv-x="574" unicode="ĳ" /><glyph d="M92 710 37 715V740H174V210L372 418Q396 444 398 449.5Q400 455 383 457L334 462V487H520V462L471 457Q457 456 450 451Q443 446 416 418L297 294L447 69Q465 42 471 36.5Q477 31 493 30L542 25V0H419L256 251L174 165V79Q174 45 177 38.5Q180 32 196 30L251 25V0H37V25L92 30Q108 32 111 38.5Q114 45 114 79V661Q114 695 111 701.5Q108 708 92 710ZM257 -238 237 -224Q254 -187 261 -153.5Q268 -120 268 -77H334Q320 -132 303 -166.5Q286 -201 257 -238Z" glyph-name="kcommaaccent" horiz-adv-x="546" unicode="ķ" /><glyph d="M98 457 43 462V487H180V210L378 418Q402 444 404 449.5Q406 455 389 457L340 462V487H526V462L477 457Q463 456 456 451Q449 446 422 418L303 294L453 69Q471 42 477 36.5Q483 31 499 30L548 25V0H425L262 251L180 165V79Q180 45 183 38.5Q186 32 202 30L257 25V0H43V25L98 30Q114 32 117 38.5Q120 45 120 79V408Q120 442 117 448.5Q114 455 98 457Z" glyph-name="kgreenlandic" horiz-adv-x="552" unicode="ĸ" /><glyph d="M92 710 37 715V740H174V79Q174 45 177 38.5Q180 32 196 30L251 25V0H37V25L92 30Q108 32 111 38.5Q114 45 114 79V661Q114 695 111 701.5Q108 708 92 710ZM146 801 127 820Q155 855 170.5 886Q186 917 198 962H274Q247 917 215.5 877.5Q184 838 146 801Z" glyph-name="lacute" horiz-adv-x="288" unicode="ĺ" /><glyph d="M92 710 37 715V740H174V79Q174 45 177 38.5Q180 32 196 30L251 25V0H37V25L92 30Q108 32 111 38.5Q114 45 114 79V661Q114 695 111 701.5Q108 708 92 710ZM285 526 266 526V740H330Q320 680 309 628Q298 576 285 526Z" glyph-name="lcaron" horiz-adv-x="342" unicode="ľ" /><glyph d="M92 710 37 715V740H174V79Q174 45 177 38.5Q180 32 196 30L251 25V0H37V25L92 30Q108 32 111 38.5Q114 45 114 79V661Q114 695 111 701.5Q108 708 92 710ZM100 -238 80 -224Q97 -187 104 -153.5Q111 -120 111 -77H177Q163 -132 146 -166.5Q129 -201 100 -238Z" glyph-name="lcommaaccent" horiz-adv-x="288" unicode="ļ" /><glyph d="M92 710 37 715V740H174V79Q174 45 177 38.5Q180 32 196 30L251 25V0H37V25L92 30Q108 32 111 38.5Q114 45 114 79V661Q114 695 111 701.5Q108 708 92 710ZM334 385Q334 365 321 352Q308 339 288 339Q268 339 255.5 352Q243 365 243 385Q243 405 256 417.5Q269 430 288 430Q308 430 321 417.5Q334 405 334 385Z" glyph-name="ldot" horiz-adv-x="288" unicode="ŀ" /><glyph d="M527 30 582 25V0H368V25L423 30Q439 32 442 38.5Q445 45 445 79V326Q445 397 421.5 430Q398 463 345 463Q299 463 258 440.5Q217 418 180 372V79Q180 45 183 38.5Q186 32 202 30L257 25V0H43V25L98 30Q114 32 117 38.5Q120 45 120 79V408Q120 442 117 448.5Q114 455 98 457L43 462V487H176V409Q214 452 259 474.5Q304 497 354 497Q427 497 466 453Q505 409 505 327V79Q505 45 508 38.5Q511 32 527 30ZM384 593Q365 593 346.5 603.5Q328 614 298 646Q274 671 261.5 678.5Q249 686 238 686Q218 686 206 665.5Q194 645 193 608H164Q165 669 186 702Q207 735 244 735Q263 735 281.5 724.5Q300 714 330 682Q353 657 365 649.5Q377 642 388 642Q408 642 420 662.5Q432 683 433 720H462Q461 660 440 626.5Q419 593 384 593Z" glyph-name="ntilde" horiz-adv-x="613" unicode="ñ" /><glyph d="M527 30 582 25V0H368V25L423 30Q439 32 442 38.5Q445 45 445 79V326Q445 397 421.5 430Q398 463 345 463Q299 463 258 440.5Q217 418 180 372V79Q180 45 183 38.5Q186 32 202 30L257 25V0H43V25L98 30Q114 32 117 38.5Q120 45 120 79V408Q120 442 117 448.5Q114 455 98 457L43 462V487H176V409Q214 452 259 474.5Q304 497 354 497Q427 497 466 453Q505 409 505 327V79Q505 45 508 38.5Q511 32 527 30ZM312 579 293 598Q321 633 336.5 664Q352 695 364 740H440Q413 695 381.5 655.5Q350 616 312 579Z" glyph-name="nacute" horiz-adv-x="613" unicode="ń" /><glyph d="M527 30 582 25V0H368V25L423 30Q439 32 442 38.5Q445 45 445 79V326Q445 397 421.5 430Q398 463 345 463Q299 463 258 440.5Q217 418 180 372V79Q180 45 183 38.5Q186 32 202 30L257 25V0H43V25L98 30Q114 32 117 38.5Q120 45 120 79V408Q120 442 117 448.5Q114 455 98 457L43 462V487H176V409Q214 452 259 474.5Q304 497 354 497Q427 497 466 453Q505 409 505 327V79Q505 45 508 38.5Q511 32 527 30ZM421 745 440 726Q400 684 380.5 656Q361 628 339 584H287Q265 628 245.5 656Q226 684 186 726L205 745Q239 716 266 690Q293 664 316 639Q338 664 363 689.5Q388 715 421 745Z" glyph-name="ncaron" horiz-adv-x="613" unicode="ň" /><glyph d="M527 30 582 25V0H368V25L423 30Q439 32 442 38.5Q445 45 445 79V326Q445 397 421.5 430Q398 463 345 463Q299 463 258 440.5Q217 418 180 372V79Q180 45 183 38.5Q186 32 202 30L257 25V0H43V25L98 30Q114 32 117 38.5Q120 45 120 79V408Q120 442 117 448.5Q114 455 98 457L43 462V487H176V409Q214 452 259 474.5Q304 497 354 497Q427 497 466 453Q505 409 505 327V79Q505 45 508 38.5Q511 32 527 30ZM269 -238 249 -224Q266 -187 273 -153.5Q280 -120 280 -77H346Q332 -132 315 -166.5Q298 -201 269 -238Z" glyph-name="ncommaaccent" horiz-adv-x="613" unicode="ņ" /><glyph d="M98 457 43 462V487H176V409Q214 452 259 474.5Q304 497 354 497Q427 497 466 453Q505 409 505 327V-64Q505 -139 470.5 -181Q436 -223 373 -223Q322 -223 291.5 -195Q261 -167 252 -111L301 -99Q304 -148 320.5 -170.5Q337 -193 370 -193Q412 -193 428.5 -163Q445 -133 445 -64V326Q445 397 421.5 430Q398 463 345 463Q299 463 258 440.5Q217 418 180 372V79Q180 45 183 38.5Q186 32 202 30L257 25V0H43V25L98 30Q114 32 117 38.5Q120 45 120 79V408Q120 442 117 448.5Q114 455 98 457Z" glyph-name="eng" horiz-adv-x="610" unicode="ŋ" /><glyph d="M604 30 659 25V0H445V25L500 30Q516 32 519 38.5Q522 45 522 79V326Q522 397 498.5 430Q475 463 422 463Q376 463 335 440.5Q294 418 257 372V79Q257 45 260 38.5Q263 32 279 30L334 25V0H120V25L175 30Q191 32 194 38.5Q197 45 197 79V408Q197 442 194 448.5Q191 455 175 457L120 462V487H253V409Q291 452 336 474.5Q381 497 431 497Q504 497 543 453Q582 409 582 327V79Q582 45 585 38.5Q588 32 604 30ZM43 690Q63 690 75 676Q87 662 87 638Q87 600 64.5 549Q42 498 4 449L-17 467Q14 511 28.5 542.5Q43 574 45 603H43Q24 603 12 615.5Q0 628 0 647Q0 666 12 678Q24 690 43 690Z" glyph-name="napostrophe" horiz-adv-x="690" unicode="ŉ" /><glyph d="M277 497Q374 497 429.5 432Q485 367 485 254V234Q485 121 429.5 55.5Q374 -10 277 -10Q180 -10 124.5 55Q69 120 69 234V254Q69 368 124 432.5Q179 497 277 497ZM417 214 417 274Q417 372 382.5 419.5Q348 467 277 467Q206 467 171.5 419.5Q137 372 137 274V214Q137 116 171.5 68Q206 20 277 20Q348 20 382.5 68Q417 116 417 214ZM276 579 257 598Q285 633 300.5 664Q316 695 328 740H404Q377 695 345.5 655.5Q314 616 276 579Z" glyph-name="oacute" horiz-adv-x="554" unicode="ó" /><glyph d="M277 497Q374 497 429.5 432Q485 367 485 254V234Q485 121 429.5 55.5Q374 -10 277 -10Q180 -10 124.5 55Q69 120 69 234V254Q69 368 124 432.5Q179 497 277 497ZM417 214 417 274Q417 372 382.5 419.5Q348 467 277 467Q206 467 171.5 419.5Q137 372 137 274V214Q137 116 171.5 68Q206 20 277 20Q348 20 382.5 68Q417 116 417 214ZM404 598 385 579Q351 608 324 634Q297 660 274 685Q255 663 231 638.5Q207 614 169 579L150 598Q190 640 209.5 668Q229 696 251 740H303Q325 696 344.5 668Q364 640 404 598Z" glyph-name="ocircumflex" horiz-adv-x="554" unicode="ô" /><glyph d="M277 497Q374 497 429.5 432Q485 367 485 254V234Q485 121 429.5 55.5Q374 -10 277 -10Q180 -10 124.5 55Q69 120 69 234V254Q69 368 124 432.5Q179 497 277 497ZM417 214 417 274Q417 372 382.5 419.5Q348 467 277 467Q206 467 171.5 419.5Q137 372 137 274V214Q137 116 171.5 68Q206 20 277 20Q348 20 382.5 68Q417 116 417 214ZM221 663Q221 644 209 631.5Q197 619 177 619Q158 619 146 631.5Q134 644 134 663Q134 682 146 694Q158 706 177 706Q196 706 208.5 694Q221 682 221 663ZM420 663Q420 644 408 631.5Q396 619 376 619Q357 619 345 631.5Q333 644 333 663Q333 682 345 694Q357 706 376 706Q395 706 407.5 694Q420 682 420 663Z" glyph-name="odieresis" horiz-adv-x="554" unicode="ö" /><glyph d="M277 497Q374 497 429.5 432Q485 367 485 254V234Q485 121 429.5 55.5Q374 -10 277 -10Q180 -10 124.5 55Q69 120 69 234V254Q69 368 124 432.5Q179 497 277 497ZM417 214 417 274Q417 372 382.5 419.5Q348 467 277 467Q206 467 171.5 419.5Q137 372 137 274V214Q137 116 171.5 68Q206 20 277 20Q348 20 382.5 68Q417 116 417 214ZM297 598 278 579Q240 616 208.5 655.5Q177 695 150 740H226Q238 695 253.5 664Q269 633 297 598Z" glyph-name="ograve" horiz-adv-x="554" unicode="ò" /><glyph d="M277 497Q374 497 429.5 432Q485 367 485 254V234Q485 121 429.5 55.5Q374 -10 277 -10Q180 -10 124.5 55Q69 120 69 234V254Q69 368 124 432.5Q179 497 277 497ZM417 214 417 274Q417 372 382.5 419.5Q348 467 277 467Q206 467 171.5 419.5Q137 372 137 274V214Q137 116 171.5 68Q206 20 277 20Q348 20 382.5 68Q417 116 417 214ZM348 593Q329 593 310.5 603.5Q292 614 262 646Q238 671 225.5 678.5Q213 686 202 686Q182 686 170 665.5Q158 645 157 608H128Q129 669 150 702Q171 735 208 735Q227 735 245.5 724.5Q264 714 294 682Q317 657 329 649.5Q341 642 352 642Q372 642 384 662.5Q396 683 397 720H426Q425 660 404 626.5Q383 593 348 593Z" glyph-name="otilde" horiz-adv-x="554" unicode="õ" /><glyph d="M277 497Q374 497 429.5 432Q485 367 485 254V234Q485 121 429.5 55.5Q374 -10 277 -10Q180 -10 124.5 55Q69 120 69 234V254Q69 368 124 432.5Q179 497 277 497ZM417 214 417 274Q417 372 382.5 419.5Q348 467 277 467Q206 467 171.5 419.5Q137 372 137 274V214Q137 116 171.5 68Q206 20 277 20Q348 20 382.5 68Q417 116 417 214ZM277 632Q324 632 350 656.5Q376 681 390 740L416 733Q402 653 368.5 616Q335 579 277 579Q219 579 185.5 616Q152 653 138 733L164 740Q178 681 204 656.5Q230 632 277 632Z" glyph-name="obreve" horiz-adv-x="554" unicode="ŏ" /><glyph d="M277 497Q374 497 429.5 432Q485 367 485 254V234Q485 121 429.5 55.5Q374 -10 277 -10Q180 -10 124.5 55Q69 120 69 234V254Q69 368 124 432.5Q179 497 277 497ZM417 214 417 274Q417 372 382.5 419.5Q348 467 277 467Q206 467 171.5 419.5Q137 372 137 274V214Q137 116 171.5 68Q206 20 277 20Q348 20 382.5 68Q417 116 417 214ZM210 579 189 594Q206 626 219 660Q232 694 244 740H315Q294 699 266.5 657Q239 615 210 579ZM350 579 329 594Q346 626 359 660Q372 694 384 740H455Q434 699 406.5 657Q379 615 350 579Z" glyph-name="ohungarumlaut" horiz-adv-x="554" unicode="ő" /><glyph d="M277 497Q374 497 429.5 432Q485 367 485 254V234Q485 121 429.5 55.5Q374 -10 277 -10Q180 -10 124.5 55Q69 120 69 234V254Q69 368 124 432.5Q179 497 277 497ZM417 214 417 274Q417 372 382.5 419.5Q348 467 277 467Q206 467 171.5 419.5Q137 372 137 274V214Q137 116 171.5 68Q206 20 277 20Q348 20 382.5 68Q417 116 417 214ZM134 662 421 662V619H134Z" glyph-name="omacron" horiz-adv-x="554" unicode="ō" /><glyph d="M98 457 43 462V487H176V409Q212 454 247 475.5Q282 497 318 497Q351 497 378.5 478.5Q406 460 424 426L375 392Q360 424 341 438.5Q322 453 296 453Q266 453 240 433.5Q214 414 180 368V79Q180 45 183 38Q186 31 202 30L277 25V0H43V25L98 30Q114 32 117 38.5Q120 45 120 79V408Q120 442 117 448.5Q114 455 98 457ZM245 579 226 598Q254 633 269.5 664Q285 695 297 740H373Q346 695 314.5 655.5Q283 616 245 579Z" glyph-name="racute" horiz-adv-x="425" unicode="ŕ" /><glyph d="M98 457 43 462V487H176V409Q212 454 247 475.5Q282 497 318 497Q351 497 378.5 478.5Q406 460 424 426L375 392Q360 424 341 438.5Q322 453 296 453Q266 453 240 433.5Q214 414 180 368V79Q180 45 183 38Q186 31 202 30L277 25V0H43V25L98 30Q114 32 117 38.5Q120 45 120 79V408Q120 442 117 448.5Q114 455 98 457ZM358 745 377 726Q337 684 317.5 656Q298 628 276 584H224Q202 628 182.5 656Q163 684 123 726L142 745Q176 716 203 690Q230 664 253 639Q275 664 300 689.5Q325 715 358 745Z" glyph-name="rcaron" horiz-adv-x="425" unicode="ř" /><glyph d="M98 457 43 462V487H176V409Q212 454 247 475.5Q282 497 318 497Q351 497 378.5 478.5Q406 460 424 426L375 392Q360 424 341 438.5Q322 453 296 453Q266 453 240 433.5Q214 414 180 368V79Q180 45 183 38Q186 31 202 30L277 25V0H43V25L98 30Q114 32 117 38.5Q120 45 120 79V408Q120 442 117 448.5Q114 455 98 457ZM106 -238 86 -224Q103 -187 110 -153.5Q117 -120 117 -77H183Q169 -132 152 -166.5Q135 -201 106 -238Z" glyph-name="rcommaaccent" horiz-adv-x="425" unicode="ŗ" /><glyph d="M356 113Q356 149 329.5 172Q303 195 244 211L187 226Q128 242 97.5 276Q67 310 67 361Q67 421 110 459Q153 497 226 497Q312 497 356 455Q400 413 391 344L334 334Q345 399 317 433Q289 467 225 467Q172 467 143 442.5Q114 418 114 374Q114 339 136.5 317.5Q159 296 207 284L265 269Q334 251 368.5 215.5Q403 180 403 126Q403 63 358.5 26.5Q314 -10 237 -10Q167 -10 119 22Q71 54 55 111L104 127Q117 73 150.5 46Q184 19 239 19Q290 19 323 44Q356 69 356 113ZM345 745 364 726Q324 684 304.5 656Q285 628 263 584H211Q189 628 169.5 656Q150 684 110 726L129 745Q163 716 190 690Q217 664 240 639Q262 664 287 689.5Q312 715 345 745Z" glyph-name="scaron" horiz-adv-x="470" unicode="š" /><glyph d="M356 113Q356 149 329.5 172Q303 195 244 211L187 226Q128 242 97.5 276Q67 310 67 361Q67 421 110 459Q153 497 226 497Q312 497 356 455Q400 413 391 344L334 334Q345 399 317 433Q289 467 225 467Q172 467 143 442.5Q114 418 114 374Q114 339 136.5 317.5Q159 296 207 284L265 269Q334 251 368.5 215.5Q403 180 403 126Q403 63 358.5 26.5Q314 -10 237 -10Q167 -10 119 22Q71 54 55 111L104 127Q117 73 150.5 46Q184 19 239 19Q290 19 323 44Q356 69 356 113ZM236 579 217 598Q245 633 260.5 664Q276 695 288 740H364Q337 695 305.5 655.5Q274 616 236 579Z" glyph-name="sacute" horiz-adv-x="470" unicode="ś" /><glyph d="M332 -141Q332 -179 303.5 -201Q275 -223 227 -223Q183 -223 156 -203Q129 -183 122 -145L166 -132Q170 -166 184 -182Q198 -198 225 -198Q251 -198 265 -183Q279 -168 279 -141Q279 -113 264 -99.5Q249 -86 218 -86Q212 -86 204.5 -86.5Q197 -87 193 -88L184 -63L207 -8Q148 -1 108.5 30Q69 61 55 111L104 127Q117 73 150.5 46Q184 19 239 19Q290 19 323 44Q356 69 356 113Q356 149 329.5 172Q303 195 244 211L187 226Q128 242 97.5 276Q67 310 67 361Q67 421 110 459Q153 497 226 497Q312 497 356 455Q400 413 391 344L334 334Q345 399 317 433Q289 467 225 467Q172 467 143 442.5Q114 418 114 374Q114 339 136.5 317.5Q159 296 207 284L265 269Q334 251 368.5 215.5Q403 180 403 126Q403 64 358.5 27Q314 -10 238 -10L217 -60H221Q272 -60 302 -81.5Q332 -103 332 -141Z" glyph-name="scedilla" horiz-adv-x="470" unicode="ş" /><glyph d="M356 113Q356 149 329.5 172Q303 195 244 211L187 226Q128 242 97.5 276Q67 310 67 361Q67 421 110 459Q153 497 226 497Q312 497 356 455Q400 413 391 344L334 334Q345 399 317 433Q289 467 225 467Q172 467 143 442.5Q114 418 114 374Q114 339 136.5 317.5Q159 296 207 284L265 269Q334 251 368.5 215.5Q403 180 403 126Q403 63 358.5 26.5Q314 -10 237 -10Q167 -10 119 22Q71 54 55 111L104 127Q117 73 150.5 46Q184 19 239 19Q290 19 323 44Q356 69 356 113ZM364 598 345 579Q311 608 284 634Q257 660 234 685Q215 663 191 638.5Q167 614 129 579L110 598Q150 640 169.5 668Q189 696 211 740H263Q285 696 304.5 668Q324 640 364 598Z" glyph-name="scircumflex" horiz-adv-x="470" unicode="ŝ" /><glyph d="M356 113Q356 149 329.5 172Q303 195 244 211L187 226Q128 242 97.5 276Q67 310 67 361Q67 421 110 459Q153 497 226 497Q312 497 356 455Q400 413 391 344L334 334Q345 399 317 433Q289 467 225 467Q172 467 143 442.5Q114 418 114 374Q114 339 136.5 317.5Q159 296 207 284L265 269Q334 251 368.5 215.5Q403 180 403 126Q403 63 358.5 26.5Q314 -10 237 -10Q167 -10 119 22Q71 54 55 111L104 127Q117 73 150.5 46Q184 19 239 19Q290 19 323 44Q356 69 356 113ZM188 -238 168 -224Q185 -187 192 -153.5Q199 -120 199 -77H265Q251 -132 234 -166.5Q217 -201 188 -238Z" glyph-name="uni0219" horiz-adv-x="470" unicode="ș" /><glyph d="M312 114 359 102Q343 43 313.5 16.5Q284 -10 237 -10Q178 -10 145 28Q112 66 112 129V270H35V300H112V408Q112 425 112 430.5Q112 436 111 440Q110 449 107 452.5Q104 456 90 457L35 462V487H112V629L172 641V487H337V457H172V300H310V270H172V129Q172 72 188 46Q204 20 240 20Q270 20 286.5 41Q303 62 312 114Z" glyph-name="tbar" horiz-adv-x="385" unicode="ŧ" /><glyph d="M309 114 356 102Q340 43 310.5 16.5Q281 -10 234 -10Q175 -10 142 28Q109 66 109 129V408Q109 425 109 430.5Q109 436 108 440Q107 449 104 452.5Q101 456 87 457L32 462V487H109V629L169 641V487H334V457H169V129Q169 72 185 46Q201 20 237 20Q267 20 283.5 41Q300 62 309 114ZM265 556 246 556V770H310Q300 710 289 658Q278 606 265 556Z" glyph-name="tcaron" horiz-adv-x="382" unicode="ť" /><glyph d="M309 114 356 102Q340 43 310.5 16.5Q281 -10 234 -10Q175 -10 142 28Q109 66 109 129V408Q109 425 109 430.5Q109 436 108 440Q107 449 104 452.5Q101 456 87 457L32 462V487H109V629L169 641V487H334V457H169V129Q169 72 185 46Q201 20 237 20Q267 20 283.5 41Q300 62 309 114ZM183 -238 163 -224Q180 -187 187 -153.5Q194 -120 194 -77H260Q246 -132 229 -166.5Q212 -201 183 -238Z" glyph-name="uni0163" horiz-adv-x="382" unicode="ţ" /><glyph d="M309 114 356 102Q340 43 310.5 16.5Q281 -10 234 -10Q175 -10 142 28Q109 66 109 129V408Q109 425 109 430.5Q109 436 108 440Q107 449 104 452.5Q101 456 87 457L32 462V487H109V629L169 641V487H334V457H169V129Q169 72 185 46Q201 20 237 20Q267 20 283.5 41Q300 62 309 114ZM183 -238 163 -224Q180 -187 187 -153.5Q194 -120 194 -77H260Q246 -132 229 -166.5Q212 -201 183 -238Z" glyph-name="uni021B" horiz-adv-x="382" unicode="ț" /><glyph d="M503 30 558 25V0H425V78Q388 35 344 12.5Q300 -10 252 -10Q182 -10 144 34Q106 78 106 160V408Q106 442 103 448.5Q100 455 84 457L29 462V487H166V161Q166 90 188.5 57Q211 24 261 24Q305 24 345 46.5Q385 69 421 115V408Q421 442 418 449Q415 456 399 457L324 462V487H481V79Q481 45 484 38.5Q487 32 503 30ZM293 579 274 598Q302 633 317.5 664Q333 695 345 740H421Q394 695 362.5 655.5Q331 616 293 579Z" glyph-name="uacute" horiz-adv-x="595" unicode="ú" /><glyph d="M503 30 558 25V0H425V78Q388 35 344 12.5Q300 -10 252 -10Q182 -10 144 34Q106 78 106 160V408Q106 442 103 448.5Q100 455 84 457L29 462V487H166V161Q166 90 188.5 57Q211 24 261 24Q305 24 345 46.5Q385 69 421 115V408Q421 442 418 449Q415 456 399 457L324 462V487H481V79Q481 45 484 38.5Q487 32 503 30ZM421 598 402 579Q368 608 341 634Q314 660 291 685Q272 663 248 638.5Q224 614 186 579L167 598Q207 640 226.5 668Q246 696 268 740H320Q342 696 361.5 668Q381 640 421 598Z" glyph-name="ucircumflex" horiz-adv-x="595" unicode="û" /><glyph d="M503 30 558 25V0H425V78Q388 35 344 12.5Q300 -10 252 -10Q182 -10 144 34Q106 78 106 160V408Q106 442 103 448.5Q100 455 84 457L29 462V487H166V161Q166 90 188.5 57Q211 24 261 24Q305 24 345 46.5Q385 69 421 115V408Q421 442 418 449Q415 456 399 457L324 462V487H481V79Q481 45 484 38.5Q487 32 503 30ZM238 663Q238 644 226 631.5Q214 619 194 619Q175 619 163 631.5Q151 644 151 663Q151 682 163 694Q175 706 194 706Q213 706 225.5 694Q238 682 238 663ZM437 663Q437 644 425 631.5Q413 619 393 619Q374 619 362 631.5Q350 644 350 663Q350 682 362 694Q374 706 393 706Q412 706 424.5 694Q437 682 437 663Z" glyph-name="udieresis" horiz-adv-x="595" unicode="ü" /><glyph d="M503 30 558 25V0H425V78Q388 35 344 12.5Q300 -10 252 -10Q182 -10 144 34Q106 78 106 160V408Q106 442 103 448.5Q100 455 84 457L29 462V487H166V161Q166 90 188.5 57Q211 24 261 24Q305 24 345 46.5Q385 69 421 115V408Q421 442 418 449Q415 456 399 457L324 462V487H481V79Q481 45 484 38.5Q487 32 503 30ZM314 598 295 579Q257 616 225.5 655.5Q194 695 167 740H243Q255 695 270.5 664Q286 633 314 598Z" glyph-name="ugrave" horiz-adv-x="595" unicode="ù" /><glyph d="M503 30 558 25V0H425V78Q388 35 344 12.5Q300 -10 252 -10Q182 -10 144 34Q106 78 106 160V408Q106 442 103 448.5Q100 455 84 457L29 462V487H166V161Q166 90 188.5 57Q211 24 261 24Q305 24 345 46.5Q385 69 421 115V408Q421 442 418 449Q415 456 399 457L324 462V487H481V79Q481 45 484 38.5Q487 32 503 30ZM294 632Q341 632 367 656.5Q393 681 407 740L433 733Q419 653 385.5 616Q352 579 294 579Q236 579 202.5 616Q169 653 155 733L181 740Q195 681 221 656.5Q247 632 294 632Z" glyph-name="ubreve" horiz-adv-x="595" unicode="ŭ" /><glyph d="M503 30 558 25V0H425V78Q388 35 344 12.5Q300 -10 252 -10Q182 -10 144 34Q106 78 106 160V408Q106 442 103 448.5Q100 455 84 457L29 462V487H166V161Q166 90 188.5 57Q211 24 261 24Q305 24 345 46.5Q385 69 421 115V408Q421 442 418 449Q415 456 399 457L324 462V487H481V79Q481 45 484 38.5Q487 32 503 30ZM227 579 206 594Q223 626 236 660Q249 694 261 740H332Q311 699 283.5 657Q256 615 227 579ZM367 579 346 594Q363 626 376 660Q389 694 401 740H472Q451 699 423.5 657Q396 615 367 579Z" glyph-name="uhungarumlaut" horiz-adv-x="595" unicode="ű" /><glyph d="M503 30 558 25V0H425V78Q388 35 344 12.5Q300 -10 252 -10Q182 -10 144 34Q106 78 106 160V408Q106 442 103 448.5Q100 455 84 457L29 462V487H166V161Q166 90 188.5 57Q211 24 261 24Q305 24 345 46.5Q385 69 421 115V408Q421 442 418 449Q415 456 399 457L324 462V487H481V79Q481 45 484 38.5Q487 32 503 30ZM151 662 438 662V619H151Z" glyph-name="umacron" horiz-adv-x="595" unicode="ū" /><glyph d="M399 457 324 462V487H481V79Q481 45 484 38.5Q487 32 503 30L558 25V0H495Q442 0 411.5 -34Q381 -68 381 -127Q381 -161 395.5 -178.5Q410 -196 439 -196Q468 -196 486.5 -175Q505 -154 514 -112L558 -125Q545 -172 512.5 -197.5Q480 -223 435 -223Q387 -223 358 -197Q329 -171 329 -127Q329 -79 355 -41.5Q381 -4 425 13V78Q388 35 344 12.5Q300 -10 252 -10Q182 -10 144 34Q106 78 106 160V408Q106 442 103 448.5Q100 455 84 457L29 462V487H166V161Q166 90 188.5 57Q211 24 261 24Q305 24 345 46.5Q385 69 421 115V408Q421 442 418 449Q415 456 399 457Z" glyph-name="uogonek" horiz-adv-x="595" unicode="ų" /><glyph d="M503 30 558 25V0H425V78Q388 35 344 12.5Q300 -10 252 -10Q182 -10 144 34Q106 78 106 160V408Q106 442 103 448.5Q100 455 84 457L29 462V487H166V161Q166 90 188.5 57Q211 24 261 24Q305 24 345 46.5Q385 69 421 115V408Q421 442 418 449Q415 456 399 457L324 462V487H481V79Q481 45 484 38.5Q487 32 503 30ZM294 781Q345 781 378.5 750.5Q412 720 412 677V666Q412 623 378.5 592Q345 561 294 561Q243 561 209.5 591.5Q176 622 176 666V677Q176 720 209.5 750.5Q243 781 294 781ZM361 659 361 684Q361 718 343 737Q325 756 294 756Q263 756 245.5 737Q228 718 228 684V659Q228 625 245.5 605.5Q263 586 294 586Q325 586 343 605.5Q361 625 361 659Z" glyph-name="uring" horiz-adv-x="595" unicode="ů" /><glyph d="M503 30 558 25V0H425V78Q388 35 344 12.5Q300 -10 252 -10Q182 -10 144 34Q106 78 106 160V408Q106 442 103 448.5Q100 455 84 457L29 462V487H166V161Q166 90 188.5 57Q211 24 261 24Q305 24 345 46.5Q385 69 421 115V408Q421 442 418 449Q415 456 399 457L324 462V487H481V79Q481 45 484 38.5Q487 32 503 30ZM365 593Q346 593 327.5 603.5Q309 614 279 646Q255 671 242.5 678.5Q230 686 219 686Q199 686 187 665.5Q175 645 174 608H145Q146 669 167 702Q188 735 225 735Q244 735 262.5 724.5Q281 714 311 682Q334 657 346 649.5Q358 642 369 642Q389 642 401 662.5Q413 683 414 720H443Q442 660 421 626.5Q400 593 365 593Z" glyph-name="utilde" horiz-adv-x="595" unicode="ũ" /><glyph d="M679 418 565 0H517L379 422L242 0H194L81 418Q74 445 69.5 450Q65 455 49 457L0 462V487H201V462L152 457Q136 455 134.5 449.5Q133 444 140 418L232 70L367 487H416L552 69L644 418Q651 444 649.5 449.5Q648 455 632 457L583 462V487H759V462L710 457Q695 455 690.5 450Q686 445 679 418ZM388 579 369 598Q397 633 412.5 664Q428 695 440 740H516Q489 695 457.5 655.5Q426 616 388 579Z" glyph-name="wacute" horiz-adv-x="759" unicode="ẃ" /><glyph d="M679 418 565 0H517L379 422L242 0H194L81 418Q74 445 69.5 450Q65 455 49 457L0 462V487H201V462L152 457Q136 455 134.5 449.5Q133 444 140 418L232 70L367 487H416L552 69L644 418Q651 444 649.5 449.5Q648 455 632 457L583 462V487H759V462L710 457Q695 455 690.5 450Q686 445 679 418ZM516 598 497 579Q463 608 436 634Q409 660 386 685Q367 663 343 638.5Q319 614 281 579L262 598Q302 640 321.5 668Q341 696 363 740H415Q437 696 456.5 668Q476 640 516 598Z" glyph-name="wcircumflex" horiz-adv-x="759" unicode="ŵ" /><glyph d="M679 418 565 0H517L379 422L242 0H194L81 418Q74 445 69.5 450Q65 455 49 457L0 462V487H201V462L152 457Q136 455 134.5 449.5Q133 444 140 418L232 70L367 487H416L552 69L644 418Q651 444 649.5 449.5Q648 455 632 457L583 462V487H759V462L710 457Q695 455 690.5 450Q686 445 679 418ZM333 663Q333 644 321 631.5Q309 619 289 619Q270 619 258 631.5Q246 644 246 663Q246 682 258 694Q270 706 289 706Q308 706 320.5 694Q333 682 333 663ZM532 663Q532 644 520 631.5Q508 619 488 619Q469 619 457 631.5Q445 644 445 663Q445 682 457 694Q469 706 488 706Q507 706 519.5 694Q532 682 532 663Z" glyph-name="wdieresis" horiz-adv-x="759" unicode="ẅ" /><glyph d="M679 418 565 0H517L379 422L242 0H194L81 418Q74 445 69.5 450Q65 455 49 457L0 462V487H201V462L152 457Q136 455 134.5 449.5Q133 444 140 418L232 70L367 487H416L552 69L644 418Q651 444 649.5 449.5Q648 455 632 457L583 462V487H759V462L710 457Q695 455 690.5 450Q686 445 679 418ZM408 598 389 579Q351 616 319.5 655.5Q288 695 261 740H337Q349 695 364.5 664Q380 633 408 598Z" glyph-name="wgrave" horiz-adv-x="759" unicode="ẁ" /><glyph d="M431 418 265 -50Q230 -147 188.5 -185Q147 -223 77 -223V-163Q143 -163 176 -136.5Q209 -110 233 -43L248 0H234L84 418Q75 442 70.5 448Q66 454 49 456L0 462V487H201V462L152 456Q136 454 135 449Q134 444 143 418L270 62L396 418Q405 443 403.5 448.5Q402 454 386 456L337 462V487H514V462L465 456Q450 454 445.5 449Q441 444 431 418ZM268 579 249 598Q277 633 292.5 664Q308 695 320 740H396Q369 695 337.5 655.5Q306 616 268 579Z" glyph-name="yacute" horiz-adv-x="514" unicode="ý" /><glyph d="M431 418 265 -50Q230 -147 188.5 -185Q147 -223 77 -223V-163Q143 -163 176 -136.5Q209 -110 233 -43L248 0H234L84 418Q75 442 70.5 448Q66 454 49 456L0 462V487H201V462L152 456Q136 454 135 449Q134 444 143 418L270 62L396 418Q405 443 403.5 448.5Q402 454 386 456L337 462V487H514V462L465 456Q450 454 445.5 449Q441 444 431 418ZM213 663Q213 644 201 631.5Q189 619 169 619Q150 619 138 631.5Q126 644 126 663Q126 682 138 694Q150 706 169 706Q188 706 200.5 694Q213 682 213 663ZM412 663Q412 644 400 631.5Q388 619 368 619Q349 619 337 631.5Q325 644 325 663Q325 682 337 694Q349 706 368 706Q387 706 399.5 694Q412 682 412 663Z" glyph-name="ydieresis" horiz-adv-x="514" unicode="ÿ" /><glyph d="M431 418 265 -50Q230 -147 188.5 -185Q147 -223 77 -223V-163Q143 -163 176 -136.5Q209 -110 233 -43L248 0H234L84 418Q75 442 70.5 448Q66 454 49 456L0 462V487H201V462L152 456Q136 454 135 449Q134 444 143 418L270 62L396 418Q405 443 403.5 448.5Q402 454 386 456L337 462V487H514V462L465 456Q450 454 445.5 449Q441 444 431 418ZM396 598 377 579Q343 608 316 634Q289 660 266 685Q247 663 223 638.5Q199 614 161 579L142 598Q182 640 201.5 668Q221 696 243 740H295Q317 696 336.5 668Q356 640 396 598Z" glyph-name="ycircumflex" horiz-adv-x="514" unicode="ŷ" /><glyph d="M431 418 265 -50Q230 -147 188.5 -185Q147 -223 77 -223V-163Q143 -163 176 -136.5Q209 -110 233 -43L248 0H234L84 418Q75 442 70.5 448Q66 454 49 456L0 462V487H201V462L152 456Q136 454 135 449Q134 444 143 418L270 62L396 418Q405 443 403.5 448.5Q402 454 386 456L337 462V487H514V462L465 456Q450 454 445.5 449Q441 444 431 418ZM289 598 270 579Q232 616 200.5 655.5Q169 695 142 740H218Q230 695 245.5 664Q261 633 289 598Z" glyph-name="ygrave" horiz-adv-x="514" unicode="ỳ" /><glyph d="M356 56 383 137H408V0H51V25L329 457H167Q137 457 128.5 454Q120 451 113 431L86 350H61V487H398V462L120 30H302Q332 30 340.5 33Q349 36 356 56ZM337 745 356 726Q316 684 296.5 656Q277 628 255 584H203Q181 628 161.5 656Q142 684 102 726L121 745Q155 716 182 690Q209 664 232 639Q254 664 279 689.5Q304 715 337 745Z" glyph-name="zcaron" horiz-adv-x="459" unicode="ž" /><glyph d="M356 56 383 137H408V0H51V25L329 457H167Q137 457 128.5 454Q120 451 113 431L86 350H61V487H398V462L120 30H302Q332 30 340.5 33Q349 36 356 56ZM228 579 209 598Q237 633 252.5 664Q268 695 280 740H356Q329 695 297.5 655.5Q266 616 228 579Z" glyph-name="zacute" horiz-adv-x="459" unicode="ź" /><glyph d="M356 56 383 137H408V0H51V25L329 457H167Q137 457 128.5 454Q120 451 113 431L86 350H61V487H398V462L120 30H302Q332 30 340.5 33Q349 36 356 56ZM275 663Q275 643 262 630Q249 617 229 617Q209 617 196.5 630Q184 643 184 663Q184 683 197 695.5Q210 708 229 708Q249 708 262 695.5Q275 683 275 663Z" glyph-name="zdotaccent" horiz-adv-x="459" unicode="ż" /><glyph d="M228 579 209 598Q237 633 252.5 664Q268 695 280 740H356Q329 695 297.5 655.5Q266 616 228 579Z" glyph-name="acute" horiz-adv-x="500" unicode="´" /><glyph d="M289 598 270 579Q232 616 200.5 655.5Q169 695 142 740H218Q230 695 245.5 664Q261 633 289 598Z" glyph-name="grave" horiz-adv-x="500" unicode="`" /><glyph d="M396 598 377 579Q343 608 316 634Q289 660 266 685Q247 663 223 638.5Q199 614 161 579L142 598Q182 640 201.5 668Q221 696 243 740H295Q317 696 336.5 668Q356 640 396 598Z" glyph-name="circumflex" horiz-adv-x="500" unicode="ˆ" /><glyph d="M337 745 356 726Q316 684 296.5 656Q277 628 255 584H203Q181 628 161.5 656Q142 684 102 726L121 745Q155 716 182 690Q209 664 232 639Q254 664 279 689.5Q304 715 337 745Z" glyph-name="caron" horiz-adv-x="500" unicode="ˇ" /><glyph d="M365 593Q346 593 327.5 603.5Q309 614 279 646Q255 671 242.5 678.5Q230 686 219 686Q199 686 187 665.5Q175 645 174 608H145Q146 669 167 702Q188 735 225 735Q244 735 262.5 724.5Q281 714 311 682Q334 657 346 649.5Q358 642 369 642Q389 642 401 662.5Q413 683 414 720H443Q442 660 421 626.5Q400 593 365 593Z" glyph-name="tilde" horiz-adv-x="500" unicode="˜" /><glyph d="M213 663Q213 644 201 631.5Q189 619 169 619Q150 619 138 631.5Q126 644 126 663Q126 682 138 694Q150 706 169 706Q188 706 200.5 694Q213 682 213 663ZM412 663Q412 644 400 631.5Q388 619 368 619Q349 619 337 631.5Q325 644 325 663Q325 682 337 694Q349 706 368 706Q387 706 399.5 694Q412 682 412 663Z" glyph-name="dieresis" horiz-adv-x="500" unicode="¨" /><glyph d="M294 781Q345 781 378.5 750.5Q412 720 412 677V666Q412 623 378.5 592Q345 561 294 561Q243 561 209.5 591.5Q176 622 176 666V677Q176 720 209.5 750.5Q243 781 294 781ZM361 659 361 684Q361 718 343 737Q325 756 294 756Q263 756 245.5 737Q228 718 228 684V659Q228 625 245.5 605.5Q263 586 294 586Q325 586 343 605.5Q361 625 361 659Z" glyph-name="ring" horiz-adv-x="500" unicode="˚" /><glyph d="M355 -141Q355 -179 326.5 -201Q298 -223 250 -223Q206 -223 179 -203Q152 -183 145 -145L189 -132Q193 -166 207 -182Q221 -198 248 -198Q274 -198 288 -183Q302 -168 302 -141Q302 -113 287 -99.5Q272 -86 241 -86Q235 -86 227.5 -86.5Q220 -87 216 -88L207 -63L233 0H265L240 -60H244Q295 -60 325 -81.5Q355 -103 355 -141Z" glyph-name="cedilla" horiz-adv-x="500" unicode="¸" /><glyph d="M227 579 206 594Q223 626 236 660Q249 694 261 740H332Q311 699 283.5 657Q256 615 227 579ZM367 579 346 594Q363 626 376 660Q389 694 401 740H472Q451 699 423.5 657Q396 615 367 579Z" glyph-name="hungarumlaut" horiz-adv-x="500" unicode="˝" /><glyph d="M294 632Q341 632 367 656.5Q393 681 407 740L433 733Q419 653 385.5 616Q352 579 294 579Q236 579 202.5 616Q169 653 155 733L181 740Q195 681 221 656.5Q247 632 294 632Z" glyph-name="breve" horiz-adv-x="500" unicode="˘" /><glyph d="M151 662 438 662V619H151Z" glyph-name="macron" horiz-adv-x="500" unicode="¯" /><glyph d="M275 663Q275 643 262 630Q249 617 229 617Q209 617 196.5 630Q184 643 184 663Q184 683 197 695.5Q210 708 229 708Q249 708 262 695.5Q275 683 275 663Z" glyph-name="dotaccent" horiz-adv-x="500" unicode="˙" /><glyph d="M334 385Q334 365 321 352Q308 339 288 339Q268 339 255.5 352Q243 365 243 385Q243 405 256 417.5Q269 430 288 430Q308 430 321 417.5Q334 405 334 385Z" glyph-name="periodcentered" horiz-adv-x="500" unicode="·" /><glyph d="M242 -223Q194 -223 165 -197Q136 -171 136 -127Q136 -61 182 -18Q228 25 294 25L302 0Q249 0 218.5 -34Q188 -68 188 -127Q188 -161 202.5 -178.5Q217 -196 246 -196Q275 -196 293.5 -175Q312 -154 321 -112L365 -125Q352 -172 319.5 -197.5Q287 -223 242 -223Z" glyph-name="ogonek" horiz-adv-x="500" unicode="˛" /><glyph d="M183 -238 163 -224Q180 -187 187 -153.5Q194 -120 194 -77H260Q246 -132 229 -166.5Q212 -201 183 -238Z" glyph-name="commaaccent" horiz-adv-x="500" unicode="" /><glyph d="M265 556 246 556V770H310Q300 710 289 658Q278 606 265 556Z" glyph-name="caron.alt" horiz-adv-x="500" unicode="" /><glyph d="M315 745 335 731Q318 694 311 660.5Q304 627 304 584H238Q252 639 269 673.5Q286 708 315 745Z" glyph-name="revcommaaccent" horiz-adv-x="500" unicode="" /><glyph d="M178 38Q178 17 164.5 3.5Q151 -10 130 -10Q110 -10 96.5 3.5Q83 17 83 38Q83 58 96.5 71.5Q110 85 130 85Q151 85 164.5 71.5Q178 58 178 38Z" glyph-name="period" horiz-adv-x="261" unicode="." /><glyph d="M130 81Q151 81 163.5 66.5Q176 52 176 27Q176 -21 147.5 -82Q119 -143 70 -199L49 -181Q85 -137 105.5 -93Q126 -49 130 -10Q110 -10 97.5 3Q85 16 85 36Q85 56 98 68.5Q111 81 130 81Z" glyph-name="comma" horiz-adv-x="261" unicode="," /><glyph d="M178 450Q178 429 164.5 415.5Q151 402 130 402Q110 402 96.5 415.5Q83 429 83 450Q83 470 96.5 483.5Q110 497 130 497Q151 497 164.5 483.5Q178 470 178 450ZM178 38Q178 17 164.5 3.5Q151 -10 130 -10Q110 -10 96.5 3.5Q83 17 83 38Q83 58 96.5 71.5Q110 85 130 85Q151 85 164.5 71.5Q178 58 178 38Z" glyph-name="colon" horiz-adv-x="261" unicode=":" /><glyph d="M178 450Q178 429 164.5 415.5Q151 402 130 402Q110 402 96.5 415.5Q83 429 83 450Q83 470 96.5 483.5Q110 497 130 497Q151 497 164.5 483.5Q178 470 178 450ZM130 81Q151 81 163.5 66.5Q176 52 176 27Q176 -21 147.5 -82Q119 -143 70 -199L49 -181Q85 -137 105.5 -93Q126 -49 130 -10Q110 -10 97.5 3Q85 16 85 36Q85 56 98 68.5Q111 81 130 81Z" glyph-name="semicolon" horiz-adv-x="261" unicode=";" /><glyph d="M578 38Q578 17 564.5 3.5Q551 -10 530 -10Q510 -10 496.5 3.5Q483 17 483 38Q483 58 496.5 71.5Q510 85 530 85Q551 85 564.5 71.5Q578 58 578 38ZM578 38Q578 17 564.5 3.5Q551 -10 530 -10Q510 -10 496.5 3.5Q483 17 483 38Q483 58 496.5 71.5Q510 85 530 85Q551 85 564.5 71.5Q578 58 578 38ZM578 38Q578 17 564.5 3.5Q551 -10 530 -10Q510 -10 496.5 3.5Q483 17 483 38Q483 58 496.5 71.5Q510 85 530 85Q551 85 564.5 71.5Q578 58 578 38Z" glyph-name="ellipsis" horiz-adv-x="661" unicode="…" /><glyph d="M249 199 252 172H209V198Q209 238 222 268.5Q235 299 278 342Q324 387 338.5 422Q353 457 353 503Q353 581 322.5 620.5Q292 660 232 660Q160 660 129.5 612Q99 564 109 467L49 483Q33 571 84 630.5Q135 690 233 690Q323 690 373 642.5Q423 595 423 514Q423 462 404 424Q385 386 325 340Q272 299 258.5 269Q245 239 249 199ZM277 38Q277 17 263.5 3.5Q250 -10 229 -10Q209 -10 195.5 3.5Q182 17 182 38Q182 58 195.5 71.5Q209 85 229 85Q250 85 263.5 71.5Q277 58 277 38Z" glyph-name="question" horiz-adv-x="471" unicode="?" /><glyph d="M153 442Q148 352 146.5 294.5Q145 237 145 172H117Q117 237 115.5 294.5Q114 352 109 442Q104 525 102.5 575Q101 625 101 680H161Q161 625 159.5 575Q158 525 153 442ZM178 38Q178 17 164.5 3.5Q151 -10 130 -10Q110 -10 96.5 3.5Q83 17 83 38Q83 58 96.5 71.5Q110 85 130 85Q151 85 164.5 71.5Q178 58 178 38Z" glyph-name="exclam" horiz-adv-x="261" unicode="!" /><glyph d="M195 449Q195 470 208.5 483.5Q222 497 243 497Q263 497 276.5 483.5Q290 470 290 449Q290 429 276.5 415.5Q263 402 243 402Q222 402 208.5 415.5Q195 429 195 449ZM223 288 220 315H263V289Q263 249 250 218.5Q237 188 194 145Q148 100 133.5 65Q119 30 119 -16Q119 -94 149.5 -133.5Q180 -173 240 -173Q312 -173 342.5 -125Q373 -77 363 20L423 4Q439 -84 388 -143.5Q337 -203 239 -203Q149 -203 99 -155.5Q49 -108 49 -27Q49 25 68 63Q87 101 147 147Q200 188 213.5 218Q227 248 223 288Z" glyph-name="questiondown" horiz-adv-x="471" unicode="¿" /><glyph d="M83 449Q83 470 96.5 483.5Q110 497 131 497Q151 497 164.5 483.5Q178 470 178 449Q178 429 164.5 415.5Q151 402 131 402Q110 402 96.5 415.5Q83 429 83 449ZM108 45Q113 135 114.5 192.5Q116 250 116 315H144Q144 250 145.5 192.5Q147 135 152 45Q157 -38 158.5 -88Q160 -138 160 -193H100Q100 -138 101.5 -88Q103 -38 108 45Z" glyph-name="exclamdown" horiz-adv-x="261" unicode="¡" /><glyph d="M82 280 82 317Q82 442 134 551.5Q186 661 289 750L312 726Q231 649 189 545Q147 441 147 317V280Q147 156 189 52Q231 -52 312 -129L289 -153Q186 -64 134 45.5Q82 155 82 280Z" glyph-name="parenleft" horiz-adv-x="339" unicode="(" /><glyph d="M257 317 257 280Q257 155 205 45.5Q153 -64 50 -153L27 -129Q108 -52 150 52Q192 156 192 280V317Q192 441 150 545Q108 649 27 726L50 750Q153 661 205 551.5Q257 442 257 317Z" glyph-name="parenright" horiz-adv-x="339" unicode=")" /><glyph d="M295 -114 380 -114V-144H295Q211 -144 172.5 -95Q134 -46 150 41L170 147Q182 211 164.5 247Q147 283 103 283H30V313H103Q147 313 164.5 349Q182 385 170 449L150 555Q134 642 172.5 691Q211 740 295 740H380V710H295Q240 710 219 676.5Q198 643 211 574L231 468Q243 403 223.5 358.5Q204 314 156 298Q204 282 223.5 238Q243 194 231 128L211 22Q198 -47 219 -80.5Q240 -114 295 -114Z" glyph-name="braceleft" horiz-adv-x="407" unicode="{" /><glyph d="M237 147 257 41Q273 -46 234.5 -95Q196 -144 112 -144H27V-114H112Q167 -114 188 -80.5Q209 -47 196 22L176 128Q164 193 183.5 237.5Q203 282 251 298Q203 314 183.5 358Q164 402 176 468L196 574Q209 643 188 676.5Q167 710 112 710H27V740H112Q196 740 234.5 691Q273 642 257 555L237 449Q225 385 242.5 349Q260 313 304 313H377V283H304Q260 283 242.5 247Q225 211 237 147Z" glyph-name="braceright" horiz-adv-x="407" unicode="}" /><glyph d="M333 740 333 710H168V-113H333V-143H108V740Z" glyph-name="bracketleft" horiz-adv-x="360" unicode="[" /><glyph d="M27 710 27 740H252V-143H27V-113H192V710Z" glyph-name="bracketright" horiz-adv-x="360" unicode="]" /><glyph d="M-15 -128 331 740L365 725L19 -143Z" glyph-name="slash" horiz-adv-x="383" unicode="/" /><glyph d="M18 725 52 740L398 -128L364 -143Z" glyph-name="backslash" horiz-adv-x="383" unicode="\" /><glyph d="M384 -143 20 -143V-109H384Z" glyph-name="underscore" horiz-adv-x="404" unicode="_" /><glyph d="M341 318 77 318V352H341Z" glyph-name="hyphen" horiz-adv-x="418" unicode="-" /><glyph d="" glyph-name="uni00AD" horiz-adv-x="0" unicode="­" /><glyph d="M541 318 77 318V352H541Z" glyph-name="endash" horiz-adv-x="618" unicode="–" /><glyph d="M741 318 77 318V352H741Z" glyph-name="emdash" horiz-adv-x="818" unicode="—" /><glyph d="M101 357 101 740H136V357ZM101 -213 101 170H136V-213Z" glyph-name="brokenbar" horiz-adv-x="237" unicode="¦" /><glyph d="M108 -213 108 740H143V-213Z" glyph-name="bar" horiz-adv-x="251" unicode="|" /><glyph d="M383 244 583 26L568 10L306 232V256L568 478L583 462ZM133 244 333 26L318 10L56 232V256L318 478L333 462Z" glyph-name="guillemotleft" horiz-adv-x="642" unicode="«" /><glyph d="M259 245 59 463L74 479L336 257V233L74 11L59 27ZM509 245 309 463L324 479L586 257V233L324 11L309 27Z" glyph-name="guillemotright" horiz-adv-x="642" unicode="»" /><glyph d="M133 244 333 26L318 10L56 232V256L318 478L333 462Z" glyph-name="guilsinglleft" horiz-adv-x="392" unicode="‹" /><glyph d="M259 245 59 463L74 479L336 257V233L74 11L59 27Z" glyph-name="guilsinglright" horiz-adv-x="392" unicode="›" /><glyph d="M130 77Q150 77 162 63Q174 49 174 25Q174 -13 151.5 -64Q129 -115 91 -164L70 -146Q101 -102 115.5 -70.5Q130 -39 132 -10H130Q111 -10 99 2.5Q87 15 87 34Q87 53 99 65Q111 77 130 77Z" glyph-name="quotesinglbase" horiz-adv-x="261" unicode="‚" /><glyph d="M130 77Q150 77 162 63Q174 49 174 25Q174 -13 151.5 -64Q129 -115 91 -164L70 -146Q101 -102 115.5 -70.5Q130 -39 132 -10H130Q111 -10 99 2.5Q87 15 87 34Q87 53 99 65Q111 77 130 77ZM280 77Q300 77 312 63Q324 49 324 25Q324 -13 301.5 -64Q279 -115 241 -164L220 -146Q251 -102 265.5 -70.5Q280 -39 282 -10H280Q261 -10 249 2.5Q237 15 237 34Q237 53 249 65Q261 77 280 77Z" glyph-name="quotedblbase" horiz-adv-x="411" unicode="„" /><glyph d="M171 492Q171 473 159 461Q147 449 128 449Q108 449 96 463Q84 477 84 501Q84 539 106.5 590Q129 641 167 690L188 672Q157 628 142.5 596.5Q128 565 126 536H128Q147 536 159 523.5Q171 511 171 492Z" glyph-name="quoteleft" horiz-adv-x="261" unicode="‘" /><glyph d="M321 492Q321 473 309 461Q297 449 278 449Q258 449 246 463Q234 477 234 501Q234 539 256.5 590Q279 641 317 690L338 672Q307 628 292.5 596.5Q278 565 276 536H278Q297 536 309 523.5Q321 511 321 492ZM171 492Q171 473 159 461Q147 449 128 449Q108 449 96 463Q84 477 84 501Q84 539 106.5 590Q129 641 167 690L188 672Q157 628 142.5 596.5Q128 565 126 536H128Q147 536 159 523.5Q171 511 171 492Z" glyph-name="quotedblleft" horiz-adv-x="411" unicode="“" /><glyph d="M43 690Q63 690 75 676Q87 662 87 638Q87 600 64.5 549Q42 498 4 449L-17 467Q14 511 28.5 542.5Q43 574 45 603H43Q24 603 12 615.5Q0 628 0 647Q0 666 12 678Q24 690 43 690Z" glyph-name="quoteright" horiz-adv-x="261" unicode="’" /><glyph d="M133 690Q153 690 165 676Q177 662 177 638Q177 600 154.5 549Q132 498 94 449L73 467Q104 511 118.5 542.5Q133 574 135 603H133Q114 603 102 615.5Q90 628 90 647Q90 666 102 678Q114 690 133 690ZM283 690Q303 690 315 676Q327 662 327 638Q327 600 304.5 549Q282 498 244 449L223 467Q254 511 268.5 542.5Q283 574 285 603H283Q264 603 252 615.5Q240 628 240 647Q240 666 252 678Q264 690 283 690Z" glyph-name="quotedblright" horiz-adv-x="411" unicode="”" /><glyph d="M162 608Q152 576 148 541.5Q144 507 144 459H116Q116 507 112 541.5Q108 576 98 608Q93 622 92 629Q91 636 91 643Q91 665 101.5 677.5Q112 690 130 690Q148 690 158.5 677.5Q169 665 169 643Q169 636 168 629Q167 622 162 608Z" glyph-name="quotesingle" horiz-adv-x="260" unicode="'" /><glyph d="M162 608Q152 576 148 541.5Q144 507 144 459H116Q116 507 112 541.5Q108 576 98 608Q93 622 92 629Q91 636 91 643Q91 665 101.5 677.5Q112 690 130 690Q148 690 158.5 677.5Q169 665 169 643Q169 636 168 629Q167 622 162 608ZM313 608Q303 576 299 541.5Q295 507 295 459H267Q267 507 263 541.5Q259 576 249 608Q244 622 243 629Q242 636 242 643Q242 665 252.5 677.5Q263 690 281 690Q299 690 309.5 677.5Q320 665 320 643Q320 636 319 629Q318 622 313 608Z" glyph-name="quotedbl" horiz-adv-x="411" unicode="&quot;" /><glyph d="M198 334Q198 305 179 286Q160 267 131 267Q102 267 83.5 286Q65 305 65 334Q65 363 84 381.5Q103 400 131 400Q160 400 179 381.5Q198 363 198 334Z" glyph-name="bullet" horiz-adv-x="263" unicode="•" /><glyph d="M124 146Q124 86 157 53Q190 20 248 20Q331 20 365 87Q399 154 356 236L405 266L529 69Q544 44 551 38Q558 32 575 30L624 25V0H500L410 148Q411 80 365 35Q319 -10 246 -10Q161 -10 110 32Q59 74 59 146Q59 197 88.5 241Q118 285 211 349L230 362Q163 407 131.5 450Q100 493 100 541Q100 602 147 646Q194 690 264 690Q336 690 382.5 646.5Q429 603 429 538Q429 497 406.5 463.5Q384 430 303 375L232 327Q177 289 150.5 244.5Q124 200 124 146ZM265 660Q218 660 191.5 630Q165 600 165 545Q165 497 187.5 456.5Q210 416 255 380L283 399Q325 428 344.5 463Q364 498 364 544Q364 598 337.5 629Q311 660 265 660Z" glyph-name="ampersand" horiz-adv-x="616" unicode="&amp;" /><glyph d="M41 469 41 502Q41 585 92.5 632.5Q144 680 234 680H506V655L451 650Q435 648 432 641.5Q429 635 429 601V-64Q429 -98 432 -104.5Q435 -111 451 -113L506 -118V-143H267V-118L342 -113Q358 -112 361 -105Q364 -98 364 -64V650H293V290H234Q144 290 92.5 338Q41 386 41 469Z" glyph-name="paragraph" horiz-adv-x="555" unicode="¶" /><glyph d="M201 680 271 680Q271 659 269 640Q267 621 261 590Q254 556 252 534.5Q250 513 250 488Q274 488 295.5 490Q317 492 350 499Q380 505 398.5 507Q417 509 437 509V441Q417 441 398.5 443Q380 445 350 451Q317 458 295.5 460Q274 462 250 462Q250 437 252 415.5Q254 394 261 360Q267 329 269 310Q271 291 271 270V267Q271 239 269.5 211.5Q268 184 263 130Q255 48 252.5 -12Q250 -72 250 -143H222Q222 -72 219.5 -12Q217 48 209 130Q204 184 202.5 211.5Q201 239 201 267V270Q201 291 203 310Q205 329 211 360Q218 394 220 415.5Q222 437 222 462Q198 462 176.5 460Q155 458 122 451Q92 445 73.5 443Q55 441 35 441V509Q55 509 73.5 507Q92 505 122 499Q155 492 176.5 490Q198 488 222 488Q222 513 220 534.5Q218 556 211 590Q205 621 203 640Q201 659 201 680Z" glyph-name="dagger" horiz-adv-x="472" unicode="†" /><glyph d="M281 270 281 267Q281 246 279 227Q277 208 271 177Q264 143 262 121.5Q260 100 260 75Q284 75 305.5 77Q327 79 360 86Q390 92 408.5 94Q427 96 447 96V28Q427 28 408.5 30Q390 32 360 38Q327 45 305.5 47Q284 49 260 49Q260 24 262 2.5Q264 -19 271 -53Q277 -84 279 -103Q281 -122 281 -143H211Q211 -122 213 -103Q215 -84 221 -53Q228 -19 230 2.5Q232 24 232 49Q208 49 186.5 47Q165 45 132 38Q102 32 83.5 30Q65 28 45 28V96Q65 96 83.5 94Q102 92 132 86Q165 79 186.5 77Q208 75 232 75Q232 100 230 121.5Q228 143 221 177Q215 208 213 227Q211 246 211 267V270Q211 291 213 310Q215 329 221 360Q228 394 230 415.5Q232 437 232 462Q208 462 186.5 460Q165 458 132 451Q102 445 83.5 443Q65 441 45 441V509Q65 509 83.5 507Q102 505 132 499Q165 492 186.5 490Q208 488 232 488Q232 513 230 534.5Q228 556 221 590Q215 621 213 640Q211 659 211 680H281Q281 659 279 640Q277 621 271 590Q264 556 262 534.5Q260 513 260 488Q284 488 305.5 490Q327 492 360 499Q390 505 408.5 507Q427 509 447 509V441Q427 441 408.5 443Q390 445 360 451Q327 458 305.5 460Q284 462 260 462Q260 437 262 415.5Q264 394 271 360Q277 329 279 310Q281 291 281 270Z" glyph-name="daggerdbl" horiz-adv-x="492" unicode="‡" /><glyph d="M369 90Q412 67 433.5 30Q455 -7 455 -56Q455 -132 403 -177.5Q351 -223 260 -223Q171 -223 120.5 -180Q70 -137 55 -50L110 -32Q116 -112 153.5 -152.5Q191 -193 260 -193Q324 -193 361.5 -161Q399 -129 399 -74Q399 -22 369.5 9Q340 40 275 58L209 76Q133 97 91.5 138Q50 179 50 235Q50 286 81.5 325.5Q113 365 169 382Q124 405 100.5 444Q77 483 77 532Q77 604 125.5 647Q174 690 260 690Q359 690 408.5 635Q458 580 443 493L380 477Q390 570 360.5 615.5Q331 661 260 661Q199 661 166 631.5Q133 602 133 547Q133 496 160.5 466Q188 436 248 420L314 402Q398 379 440.5 338Q483 297 483 239Q483 187 453 148Q423 109 369 90ZM243 131 309 113Q313 112 319.5 110Q326 108 329 107Q377 119 402 147.5Q427 176 427 219Q427 267 393 296.5Q359 326 280 347L214 365Q161 357 133.5 329Q106 301 106 254Q106 207 137.5 179Q169 151 243 131Z" glyph-name="section" horiz-adv-x="533" unicode="§" /><glyph d="M32 523 50 578Q68 572 83.5 565.5Q99 559 124 545Q151 531 169 523Q187 515 208 508Q208 530 206.5 549.5Q205 569 199 599Q194 627 192.5 644Q191 661 191 680H249Q249 661 247.5 644Q246 627 241 599Q235 569 233.5 549.5Q232 530 232 508Q253 515 270.5 522.5Q288 530 314 545Q340 558 356 565Q372 572 390 578L408 523Q390 517 373 513Q356 509 328 505Q298 501 279 497Q260 493 239 486Q252 468 265 453.5Q278 439 300 417Q321 398 332 385Q343 372 354 357L307 323Q296 338 287.5 352.5Q279 367 266 393Q253 420 243 436.5Q233 453 220 471Q207 453 197 436.5Q187 420 174 393Q161 367 152.5 352.5Q144 338 133 323L86 357Q97 372 108.5 385Q120 398 140 418Q162 439 175 453.5Q188 468 201 486Q180 493 161 497Q142 501 112 505Q83 509 66.5 513Q50 517 32 523Z" glyph-name="asterisk" horiz-adv-x="440" unicode="*" /><glyph d="M32 604 32 680H306V604H286L276 644Q274 654 269.5 655.5Q265 657 249 657H192V388Q192 372 193.5 368Q195 364 203 363L231 361V340H107V361L135 363Q143 364 144.5 368Q146 372 146 388V657H89Q73 657 68.5 655.5Q64 654 62 644L52 604ZM705 363 733 361V340H609V361L637 363Q645 364 646.5 368Q648 372 648 388V640L543 380H514L408 641V388Q408 372 409.5 368Q411 364 419 363L447 361V340H344V361L372 363Q380 364 381.5 368Q383 372 383 388V633Q383 649 381.5 652.5Q380 656 372 657L344 660V680H440L541 434L639 680H733V660L705 657Q697 656 695.5 652.5Q694 649 694 633V388Q694 372 695.5 368Q697 364 705 363Z" glyph-name="trademark" horiz-adv-x="776" unicode="™" /><glyph d="M519 479Q519 379 451 310Q383 241 285 241Q186 241 118.5 310Q51 379 51 479Q51 580 118.5 648.5Q186 717 285 717Q383 717 451 648Q519 579 519 479ZM83 479Q83 391 141.5 330.5Q200 270 285 270Q371 270 429 330.5Q487 391 487 479Q487 568 429 628Q371 688 285 688Q200 688 141.5 628Q83 568 83 479ZM203 586 182 588V608H288Q325 608 346.5 590.5Q368 573 368 543V527Q368 504 356.5 487.5Q345 471 324 464L367 394Q368 393 373 384Q378 375 385 375L403 374V353H340L281 458H253V394Q253 381 254 378Q255 375 261 375L282 374V353H182V374L203 375Q209 375 210.5 378Q212 381 212 394V568Q212 579 211 582Q210 585 203 586ZM288 586 253 586V481H288Q305 481 315 493Q325 505 325 527V543Q325 563 315 574.5Q305 586 288 586Z" glyph-name="registered" horiz-adv-x="570" unicode="®" /><glyph d="M801 340Q801 181 693.5 72Q586 -37 429 -37Q272 -37 164.5 72Q57 181 57 340Q57 500 164 608.5Q271 717 429 717Q586 717 693.5 608Q801 499 801 340ZM89 340Q89 193 187 93Q285 -7 429 -7Q573 -7 671 93Q769 193 769 340Q769 487 671 587Q573 687 429 687Q285 687 187 587Q89 487 89 340ZM434 544Q371 544 340.5 501Q310 458 310 371V310Q310 217 341 176.5Q372 136 443 136Q494 136 522 162.5Q550 189 561 248L606 234Q589 172 546 140Q503 108 438 108Q344 108 293 166Q242 224 242 330V351Q242 455 292.5 513.5Q343 572 434 572Q520 572 565.5 523Q611 474 599 398L542 389Q552 464 524 504Q496 544 434 544Z" glyph-name="copyright" horiz-adv-x="858" unicode="©" /><glyph d="M727 -121 747 -167Q696 -193 627.5 -208Q559 -223 493 -223Q303 -223 185.5 -101.5Q68 20 68 214Q68 418 191.5 554Q315 690 502 690Q677 690 794.5 571.5Q912 453 912 278Q912 160 851.5 80Q791 0 702 0Q652 0 620.5 26Q589 52 584 98Q551 46 513 20.5Q475 -5 431 -5Q353 -5 315.5 66.5Q278 138 297 246L301 268Q318 359 375 415.5Q432 472 507 472Q547 472 577.5 455Q608 438 632 402Q634 407 645 428.5Q656 450 662 462H702L647 155Q635 92 649.5 60.5Q664 29 706 29Q778 29 829 101Q880 173 880 278Q880 441 772 550.5Q664 660 502 660Q328 660 214 532.5Q100 405 100 214Q100 32 208 -80.5Q316 -193 493 -193Q562 -193 621.5 -175Q681 -157 727 -121ZM369 276 359 216Q345 131 366.5 78Q388 25 436 25Q479 25 515 57.5Q551 90 588 160L623 359Q599 403 572.5 422.5Q546 442 509 442Q454 442 418 399.5Q382 357 369 276Z" glyph-name="at" horiz-adv-x="976" unicode="@" /><glyph d="M311 339Q287 339 271 351.5Q255 364 251 386Q228 361 200.5 348Q173 335 143 335Q100 335 76 359.5Q52 384 52 426Q52 471 81 492Q110 513 170 513H249V568Q249 617 232.5 639Q216 661 177 661Q136 661 121 638.5Q106 616 112 567L68 574Q63 624 93 654.5Q123 685 178 685Q236 685 265.5 655.5Q295 626 295 568V416Q295 390 301 378Q307 366 324 366Q331 366 338.5 369Q346 372 353 378L365 359Q354 349 340.5 344Q327 339 311 339ZM100 430Q100 397 113.5 379.5Q127 362 154 362Q179 362 202.5 375.5Q226 389 249 417V489H175Q135 489 117.5 475Q100 461 100 430Z" glyph-name="ordfeminine" horiz-adv-x="387" unicode="ª" /><glyph d="M199 685Q266 685 304.5 640Q343 595 343 517V504Q343 425 304.5 380Q266 335 199 335Q131 335 93 380Q55 425 55 504V517Q55 595 93.5 640Q132 685 199 685ZM290 490 290 531Q290 600 268.5 630.5Q247 661 199 661Q151 661 129.5 630.5Q108 600 108 531V490Q108 421 129.5 390Q151 359 199 359Q247 359 268.5 390Q290 421 290 490Z" glyph-name="ordmasculine" horiz-adv-x="398" unicode="º" /><glyph d="M553 243 553 213H435L366 -10L334 0L400 213H173L104 -10L72 0L138 213H29V243H147L207 437H98V467H216L285 690L317 680L251 467H478L547 690L579 680L513 467H622V437H504L444 243ZM242 437 182 243H409L469 437Z" glyph-name="numbersign" horiz-adv-x="651" unicode="#" /><glyph d="M884 685Q960 685 1003 639Q1046 593 1046 512V492Q1046 411 1002.5 364.5Q959 318 884 318Q808 318 765 364.5Q722 411 722 492V512Q722 593 765 639Q808 685 884 685ZM514 650 459 655V680H648V655L593 650Q577 648 574 641.5Q571 635 571 601V0H526L164 630V79Q164 45 167 38.5Q170 32 186 30L241 25V0H52V25L107 30Q123 32 126 38.5Q129 45 129 79V601Q129 635 126 641.5Q123 648 107 650L52 655V680H206L536 106V601Q536 635 533 641.5Q530 648 514 650ZM980 472 980 532Q980 595 956.5 626Q933 657 884 657Q835 657 811.5 626Q788 595 788 532V472Q788 408 811.5 377Q835 346 884 346Q933 346 956.5 377Q980 408 980 472ZM1021 184 747 184V214H1021Z" glyph-name="uni2116" horiz-adv-x="1086" unicode="№" /><glyph d="M494 144 550 131Q530 62 478 26Q426 -10 347 -10Q242 -10 180 56Q118 122 107 244H27V274H105Q104 278 104 283Q104 288 104 299V384H27V414H105Q112 544 175 617Q238 690 344 690Q447 690 502.5 630.5Q558 571 543 483L478 467Q488 560 454 610Q420 660 346 660Q259 660 218 604.5Q177 549 177 432V414H418L412 384H177V274H390L384 244H177Q178 129 220 74.5Q262 20 350 20Q411 20 449 52Q487 84 494 144Z" glyph-name="Euro" horiz-adv-x="603" unicode="€" /><glyph d="M484 174Q484 94 431.5 44.5Q379 -5 286 -10V-125H251V-10Q164 -6 112.5 40Q61 86 46 173L101 191Q107 110 145 67.5Q183 25 251 21V317L221 325Q141 346 99.5 394Q58 442 58 512Q58 589 109.5 638Q161 687 251 690V805H286V689Q382 683 430.5 625Q479 567 464 483L401 467Q411 556 382.5 604.5Q354 653 286 660V378L308 372Q394 349 439 298.5Q484 248 484 174ZM118 527Q118 471 149.5 438.5Q181 406 251 387V661Q188 658 153 623Q118 588 118 527ZM424 159Q424 216 391 251.5Q358 287 286 308V21Q351 26 387.5 62Q424 98 424 159Z" glyph-name="dollar" horiz-adv-x="540" unicode="$" /><glyph d="M352 30 407 25V0H188V25L243 30Q259 32 262 38.5Q265 45 265 79V214H72V244H265V290L232 354H72V384H217L102 611Q89 637 83 642.5Q77 648 61 650L12 655V680H226V655L177 650Q161 648 161 642.5Q161 637 174 611L315 328L456 611Q469 637 469 642.5Q469 648 453 650L404 655V680H582V655L533 650Q517 649 511.5 643.5Q506 638 492 611L378 384H523V354H362L330 290V244H523V214H330V79Q330 45 333 38.5Q336 32 352 30Z" glyph-name="yen" horiz-adv-x="594" unicode="¥" /><glyph d="M410 79 427 160H452V0H67V46Q125 111 147 150.5Q169 190 169 233Q169 246 167 259Q165 272 161 285H59V315H150Q148 320 111 386.5Q74 453 74 511Q74 590 125.5 640Q177 690 265 690Q365 690 417 630.5Q469 571 453 483L388 467Q398 565 368 612.5Q338 660 266 660Q210 660 179.5 622.5Q149 585 149 516Q149 459 174.5 392Q200 325 203 315H383V285H210Q211 276 212 266.5Q213 257 213 247Q213 203 191 159Q169 115 114 53H356Q390 53 398 56.5Q406 60 410 79Z" glyph-name="sterling" horiz-adv-x="522" unicode="£" /><glyph d="M399 124 445 111Q430 55 389 24.5Q348 -6 287 -10V-125H252V-9Q165 -2 118 61.5Q71 125 71 234V254Q71 362 118.5 426Q166 490 252 496V612H287V496Q366 491 407.5 441.5Q449 392 438 318L381 309Q391 380 367 420.5Q343 461 287 466V20Q334 22 361 47Q388 72 399 124ZM139 274 139 214Q139 119 166 74Q193 29 252 22V466Q195 460 167 412.5Q139 365 139 274Z" glyph-name="cent" horiz-adv-x="502" unicode="¢" /><glyph d="M222 342 185 -64Q177 -152 147 -187.5Q117 -223 59 -223Q5 -223 -21.5 -194.5Q-48 -166 -40 -118L9 -109Q3 -151 15.5 -173Q28 -195 59 -195Q91 -195 105 -169Q119 -143 125 -74L163 342H36V372H165L185 591Q193 679 223 714.5Q253 750 311 750Q364 750 390.5 721.5Q417 693 410 645L361 636Q367 679 354.5 700.5Q342 722 311 722Q278 722 264.5 695.5Q251 669 245 601L224 372H350V342Z" glyph-name="florin" horiz-adv-x="411" unicode="ƒ" /><glyph d="M497 25 497 0H370L56 308V338H212Q269 338 303 375.5Q337 413 337 477V479H56V509H337V512Q337 576 303.5 613Q270 650 212 650H56V680H482V650H333Q368 628 386.5 593Q405 558 405 512V509H482V479H405V477Q405 399 353.5 353.5Q302 308 212 308H145L383 79Q418 45 429 38Q440 31 452 30Z" glyph-name="uni20B9" horiz-adv-x="530" unicode="₹" /><glyph d="M442 171 542 67L520 43L418 147Q392 126 360.5 114.5Q329 103 296 103Q262 103 230.5 114.5Q199 126 174 147L72 43L50 67L150 171Q128 197 116 230Q104 263 104 300Q104 337 116 370Q128 403 150 429L50 533L72 557L173 453Q198 474 229.5 485.5Q261 497 296 497Q330 497 361.5 486Q393 475 418 453L520 557L542 533L442 429Q464 403 476 370Q488 337 488 300Q488 263 476 230Q464 197 442 171ZM136 300Q136 230 182 181.5Q228 133 296 133Q364 133 410 181.5Q456 230 456 300Q456 370 410 418.5Q364 467 296 467Q228 467 182 418.5Q136 370 136 300Z" glyph-name="currency" horiz-adv-x="592" unicode="¤" /><glyph d="M307 690Q411 690 471 604.5Q531 519 531 372V309Q531 161 471 75.5Q411 -10 307 -10Q202 -10 142.5 75.5Q83 161 83 309V372Q83 520 142.5 605Q202 690 307 690ZM458 239 458 442Q458 553 421 606.5Q384 660 307 660Q230 660 193 606.5Q156 553 156 442V239Q156 128 193 74Q230 20 307 20Q384 20 421 74Q458 128 458 239Z" glyph-name="zero" horiz-adv-x="614" unicode="0" /><glyph d="M54 576 38 601L165 680H220V79Q220 45 223 38.5Q226 32 242 30L297 25V0H58V25L133 30Q149 31 152 38Q155 45 155 79V638Z" glyph-name="one" horiz-adv-x="345" unicode="1" /><glyph d="M407 83 434 184H459V0H69V43Q69 90 80.5 129Q92 168 117 200Q135 225 161.5 248.5Q188 272 243 308Q299 346 314.5 359.5Q330 373 342 386Q364 411 374.5 439.5Q385 468 385 502Q385 581 353.5 620.5Q322 660 259 660Q185 660 154 612.5Q123 565 133 467L68 483Q52 572 105 631Q158 690 260 690Q354 690 407 640Q460 590 460 505Q460 474 452.5 448Q445 422 431 400Q418 380 398.5 362.5Q379 345 351 327Q332 316 298 298Q264 280 253 274Q176 230 141.5 179Q107 128 104 57H353Q385 57 393.5 60.5Q402 64 407 83Z" glyph-name="two" horiz-adv-x="543" unicode="2" /><glyph d="M389 170Q389 252 344 294Q299 336 211 336H184V366H211Q292 366 333.5 404Q375 442 375 516Q375 586 343 623Q311 660 250 660Q176 660 145.5 612.5Q115 565 125 467L60 483Q44 572 97 631Q150 690 251 690Q345 690 397.5 643Q450 596 450 516Q450 448 411.5 406.5Q373 365 297 351Q380 336 422 290.5Q464 245 464 170Q464 87 409 38.5Q354 -10 255 -10Q175 -10 125 28Q75 66 50 146L107 163Q118 92 155 56Q192 20 253 20Q320 20 354.5 58Q389 96 389 170Z" glyph-name="three" horiz-adv-x="531" unicode="3" /><glyph d="M314 79 314 176H20V206Q127 322 180.5 426Q234 530 265 680H345Q312 555 243 441.5Q174 328 56 206H314V367L379 377V206H456V176H379V79Q379 45 382 38.5Q385 32 401 30L456 25V0H217V25L292 30Q308 31 311 38Q314 45 314 79Z" glyph-name="four" horiz-adv-x="490" unicode="4" /><glyph d="M395 706 403 760H428V621H128L116 394Q144 413 177.5 423Q211 433 248 433Q344 433 400 371.5Q456 310 456 205Q456 106 400.5 48Q345 -10 246 -10Q172 -10 125.5 28Q79 66 54 146L111 163Q122 91 155.5 55.5Q189 20 245 20Q311 20 346 67.5Q381 115 381 205Q381 301 346 350.5Q311 400 242 400Q201 400 164.5 386Q128 372 96 344L79 349L97 680H341Q377 680 384.5 683.5Q392 687 395 706Z" glyph-name="five" horiz-adv-x="509" unicode="5" /><glyph d="M508 199 508 189Q508 99 451.5 44.5Q395 -10 303 -10Q195 -10 138.5 70.5Q82 151 82 305V368Q82 524 138.5 607Q195 690 300 690Q396 690 452 629Q508 568 493 483L428 467Q439 561 406 610.5Q373 660 299 660Q223 660 189 603.5Q155 547 155 427V325Q183 361 223 380Q263 399 311 399Q401 399 454.5 344.5Q508 290 508 199ZM155 276 155 246Q155 128 189.5 74Q224 20 303 20Q370 20 402.5 62Q435 104 435 189V199Q435 279 400.5 323Q366 367 302 367Q255 367 217.5 344Q180 321 155 276Z" glyph-name="six" horiz-adv-x="572" unicode="6" /><glyph d="M76 595 49 494H24V680H436V629Q329 490 290 356.5Q251 223 243 0H163Q186 207 239.5 346.5Q293 486 401 621H130Q98 621 89.5 617.5Q81 614 76 595Z" glyph-name="seven" horiz-adv-x="452" unicode="7" /><glyph d="M330 361Q406 332 442 284.5Q478 237 478 166Q478 84 424 37Q370 -10 274 -10Q177 -10 118.5 36.5Q60 83 60 156Q60 212 98 260Q136 308 204 338Q139 366 106.5 409Q74 452 74 511Q74 591 126 640.5Q178 690 265 690Q352 690 407.5 642.5Q463 595 463 523Q463 469 430 428.5Q397 388 330 361ZM129 532Q129 483 159 450Q189 417 260 389L297 374Q349 397 373.5 433Q398 469 398 524Q398 589 363.5 624.5Q329 660 266 660Q204 660 166.5 625.5Q129 591 129 532ZM125 157Q125 92 164 56Q203 20 274 20Q345 20 384 53.5Q423 87 423 149Q423 204 392.5 239.5Q362 275 289 304L235 325Q183 302 154 257.5Q125 213 125 157Z" glyph-name="eight" horiz-adv-x="538" unicode="8" /><glyph d="M490 375 490 312Q490 156 431 73Q372 -10 263 -10Q188 -10 141 28Q94 66 69 146L126 163Q137 92 171.5 56Q206 20 263 20Q341 20 379 78Q417 136 417 253V340Q389 304 349 285Q309 266 261 266Q171 266 117.5 320.5Q64 375 64 466V491Q64 581 120.5 635.5Q177 690 269 690Q377 690 433.5 609.5Q490 529 490 375ZM137 491 137 466Q137 386 171.5 342Q206 298 270 298Q317 298 354.5 321Q392 344 417 389V434Q417 552 382.5 606Q348 660 269 660Q202 660 169.5 618Q137 576 137 491Z" glyph-name="nine" horiz-adv-x="572" unicode="9" /><glyph d="M258 690Q362 690 422 604.5Q482 519 482 372V309Q482 161 422 75.5Q362 -10 258 -10Q153 -10 93.5 75.5Q34 161 34 309V372Q34 520 93.5 605Q153 690 258 690ZM409 239 409 442Q409 553 372 606.5Q335 660 258 660Q181 660 144 606.5Q107 553 107 442V239Q107 128 144 74Q181 20 258 20Q335 20 372 74Q409 128 409 239Z" glyph-name="zero.tlf" horiz-adv-x="516" unicode="" /><glyph d="M99 547 83 572L252 680H307V81Q307 47 310 40Q313 33 329 32L434 25V0H105V25L220 32Q236 33 239 40Q242 47 242 81V638Z" glyph-name="one.tlf" horiz-adv-x="516" unicode="" /><glyph d="M398 83 425 184H450V0H60V43Q60 90 71.5 129Q83 168 108 200Q126 225 152.5 248.5Q179 272 234 308Q290 346 305.5 359.5Q321 373 333 386Q355 411 365.5 439.5Q376 468 376 502Q376 581 344.5 620.5Q313 660 250 660Q176 660 145 612.5Q114 565 124 467L59 483Q43 572 96 631Q149 690 251 690Q345 690 398 640Q451 590 451 505Q451 474 443.5 448Q436 422 422 400Q409 380 389.5 362.5Q370 345 342 327Q323 316 289 298Q255 280 244 274Q167 230 132.5 179Q98 128 95 57H344Q376 57 384.5 60.5Q393 64 398 83Z" glyph-name="two.tlf" horiz-adv-x="516" unicode="" /><glyph d="M386 170Q386 252 341 294Q296 336 208 336H181V366H208Q289 366 330.5 404Q372 442 372 516Q372 586 340 623Q308 660 247 660Q173 660 142.5 612.5Q112 565 122 467L57 483Q41 572 94 631Q147 690 248 690Q342 690 394.5 643Q447 596 447 516Q447 448 408.5 406.5Q370 365 294 351Q377 336 419 290.5Q461 245 461 170Q461 87 406 38.5Q351 -10 252 -10Q172 -10 122 28Q72 66 47 146L104 163Q115 92 152 56Q189 20 250 20Q317 20 351.5 58Q386 96 386 170Z" glyph-name="three.tlf" horiz-adv-x="516" unicode="" /><glyph d="M330 79 330 176H36V206Q143 322 196.5 426Q250 530 281 680H361Q328 555 259 441.5Q190 328 72 206H330V367L395 377V206H472V176H395V79Q395 45 398 38.5Q401 32 417 30L472 25V0H233V25L308 30Q324 31 327 38Q330 45 330 79Z" glyph-name="four.tlf" horiz-adv-x="516" unicode="" /><glyph d="M395 706 403 760H428V621H128L116 394Q144 413 177.5 423Q211 433 248 433Q344 433 400 371.5Q456 310 456 205Q456 106 400.5 48Q345 -10 246 -10Q172 -10 125.5 28Q79 66 54 146L111 163Q122 91 155.5 55.5Q189 20 245 20Q311 20 346 67.5Q381 115 381 205Q381 301 346 350.5Q311 400 242 400Q201 400 164.5 386Q128 372 96 344L79 349L97 680H341Q377 680 384.5 683.5Q392 687 395 706Z" glyph-name="five.tlf" horiz-adv-x="516" unicode="" /><glyph d="M478 199 478 189Q478 99 421.5 44.5Q365 -10 273 -10Q165 -10 108.5 70.5Q52 151 52 305V368Q52 524 108.5 607Q165 690 270 690Q366 690 422 629Q478 568 463 483L398 467Q409 561 376 610.5Q343 660 269 660Q193 660 159 603.5Q125 547 125 427V325Q153 361 193 380Q233 399 281 399Q371 399 424.5 344.5Q478 290 478 199ZM125 276 125 246Q125 128 159.5 74Q194 20 273 20Q340 20 372.5 62Q405 104 405 189V199Q405 279 370.5 323Q336 367 272 367Q225 367 187.5 344Q150 321 125 276Z" glyph-name="six.tlf" horiz-adv-x="516" unicode="" /><glyph d="M103 595 76 494H51V680H463V629Q356 490 317 356.5Q278 223 270 0H190Q213 207 266.5 346.5Q320 486 428 621H157Q125 621 116.5 617.5Q108 614 103 595Z" glyph-name="seven.tlf" horiz-adv-x="516" unicode="" /><glyph d="M319 361Q395 332 431 284.5Q467 237 467 166Q467 84 413 37Q359 -10 263 -10Q166 -10 107.5 36.5Q49 83 49 156Q49 212 87 260Q125 308 193 338Q128 366 95.5 409Q63 452 63 511Q63 591 115 640.5Q167 690 254 690Q341 690 396.5 642.5Q452 595 452 523Q452 469 419 428.5Q386 388 319 361ZM118 532Q118 483 148 450Q178 417 249 389L286 374Q338 397 362.5 433Q387 469 387 524Q387 589 352.5 624.5Q318 660 255 660Q193 660 155.5 625.5Q118 591 118 532ZM114 157Q114 92 153 56Q192 20 263 20Q334 20 373 53.5Q412 87 412 149Q412 204 381.5 239.5Q351 275 278 304L224 325Q172 302 143 257.5Q114 213 114 157Z" glyph-name="eight.tlf" horiz-adv-x="516" unicode="" /><glyph d="M464 375 464 312Q464 156 405 73Q346 -10 237 -10Q162 -10 115 28Q68 66 43 146L100 163Q111 92 145.5 56Q180 20 237 20Q315 20 353 78Q391 136 391 253V340Q363 304 323 285Q283 266 235 266Q145 266 91.5 320.5Q38 375 38 466V491Q38 581 94.5 635.5Q151 690 243 690Q351 690 407.5 609.5Q464 529 464 375ZM111 491 111 466Q111 386 145.5 342Q180 298 244 298Q291 298 328.5 321Q366 344 391 389V434Q391 552 356.5 606Q322 660 243 660Q176 660 143.5 618Q111 576 111 491Z" glyph-name="nine.tlf" horiz-adv-x="516" unicode="" /><glyph d="M282 497Q382 497 438.5 432Q495 367 495 254V234Q495 121 438 55.5Q381 -10 282 -10Q182 -10 125.5 55Q69 120 69 234V254Q69 367 125.5 432Q182 497 282 497ZM424 214 424 274Q424 373 389.5 420Q355 467 282 467Q209 467 174.5 420Q140 373 140 274V214Q140 115 174.5 67.5Q209 20 282 20Q355 20 389.5 67.5Q424 115 424 214Z" glyph-name="zero.posf" horiz-adv-x="564" unicode="" /><glyph d="M48 383 32 408L159 487H214V79Q214 45 217 38.5Q220 32 236 30L291 25V0H52V25L127 30Q143 31 146 38Q149 45 149 79V445Z" glyph-name="one.posf" horiz-adv-x="334" unicode="" /><glyph d="M384 85 401 146H426V0H82V45Q82 102 111 140.5Q140 179 206 209Q262 234 277.5 243Q293 252 305 261Q329 280 340.5 303.5Q352 327 352 357Q352 411 326 439Q300 467 250 467Q191 467 166 425.5Q141 384 150 299L85 315Q71 393 117 445Q163 497 251 497Q334 497 380.5 459.5Q427 422 427 358Q427 321 410 293Q393 265 356 243Q330 227 279.5 206.5Q229 186 226 185Q169 160 143.5 131Q118 102 115 59H330Q362 59 370 62Q378 65 384 85Z" glyph-name="two.posf" horiz-adv-x="514" unicode="" /><glyph d="M112 402 85 301H60V487H430V436L249 195Q346 192 395.5 142Q445 92 445 -4Q445 -95 391 -149Q337 -203 241 -203Q163 -203 114.5 -165Q66 -127 41 -47L98 -30Q109 -101 144.5 -137Q180 -173 239 -173Q303 -173 336.5 -130Q370 -87 370 -4Q370 81 336.5 123.5Q303 166 237 166H210V195L385 428H166Q134 428 125.5 424.5Q117 421 112 402Z" glyph-name="three.posf" horiz-adv-x="502" unicode="" /><glyph d="M384 -191 319 -203V0H25V30Q137 151 189 250Q241 349 270 487H350Q320 373 253.5 266.5Q187 160 61 30H319V172L384 184V30H461V0H384Z" glyph-name="four.posf" horiz-adv-x="489" unicode="" /><glyph d="M395 513 403 567H428V428H128L116 201Q144 220 177.5 230Q211 240 248 240Q344 240 400 178.5Q456 117 456 12Q456 -87 400.5 -145Q345 -203 246 -203Q172 -203 125.5 -165Q79 -127 54 -47L111 -30Q122 -102 155.5 -137.5Q189 -173 245 -173Q311 -173 346 -125.5Q381 -78 381 12Q381 108 346 157.5Q311 207 242 207Q201 207 164.5 193Q128 179 96 151L79 156L97 487H341Q377 487 384.5 490.5Q392 494 395 513Z" glyph-name="five.posf" horiz-adv-x="509" unicode="" /><glyph d="M506 199 506 189Q506 99 449.5 44.5Q393 -10 301 -10Q193 -10 136.5 70.5Q80 151 80 305V368Q80 524 136.5 607Q193 690 298 690Q394 690 450 629Q506 568 491 483L426 467Q437 561 404 610.5Q371 660 297 660Q221 660 187 603.5Q153 547 153 427V325Q181 361 221 380Q261 399 309 399Q399 399 452.5 344.5Q506 290 506 199ZM153 276 153 246Q153 128 187.5 74Q222 20 301 20Q368 20 400.5 62Q433 104 433 189V199Q433 279 398.5 323Q364 367 300 367Q253 367 215.5 344Q178 321 153 276Z" glyph-name="six.posf" horiz-adv-x="574" unicode="" /><glyph d="M88 402 61 301H36V487H448V436Q341 297 302 163.5Q263 30 255 -193H175Q198 14 251.5 153.5Q305 293 413 428H142Q110 428 101.5 424.5Q93 421 88 402Z" glyph-name="seven.posf" horiz-adv-x="479" unicode="" /><glyph d="M331 361Q407 332 443 284.5Q479 237 479 166Q479 84 425 37Q371 -10 275 -10Q178 -10 119.5 36.5Q61 83 61 156Q61 212 99 260Q137 308 205 338Q140 366 107.5 409Q75 452 75 511Q75 591 127 640.5Q179 690 266 690Q353 690 408.5 642.5Q464 595 464 523Q464 469 431 428.5Q398 388 331 361ZM130 532Q130 483 160 450Q190 417 261 389L298 374Q350 397 374.5 433Q399 469 399 524Q399 589 364.5 624.5Q330 660 267 660Q205 660 167.5 625.5Q130 591 130 532ZM126 157Q126 92 165 56Q204 20 275 20Q346 20 385 53.5Q424 87 424 149Q424 204 393.5 239.5Q363 275 290 304L236 325Q184 302 155 257.5Q126 213 126 157Z" glyph-name="eight.posf" horiz-adv-x="540" unicode="" /><glyph d="M493 182 493 119Q493 -37 434 -120Q375 -203 266 -203Q191 -203 144 -165Q97 -127 72 -47L129 -30Q140 -101 174.5 -137Q209 -173 266 -173Q344 -173 382 -115Q420 -57 420 60V147Q392 111 352 92Q312 73 264 73Q174 73 120.5 127.5Q67 182 67 273V298Q67 388 123.5 442.5Q180 497 272 497Q380 497 436.5 416.5Q493 336 493 182ZM140 298 140 273Q140 193 174.5 149Q209 105 273 105Q320 105 357.5 128Q395 151 420 196V241Q420 359 385.5 413Q351 467 272 467Q205 467 172.5 425Q140 383 140 298Z" glyph-name="nine.posf" horiz-adv-x="580" unicode="" /><glyph d="M358 528Q358 458 313.5 412Q269 366 201 366Q133 366 88.5 412Q44 458 44 528Q44 598 88.5 644Q133 690 201 690Q269 690 313.5 644Q358 598 358 528ZM80 528Q80 471 114 434.5Q148 398 201 398Q254 398 288 434.5Q322 471 322 528Q322 585 288 621.5Q254 658 201 658Q148 658 114 621.5Q80 585 80 528Z" glyph-name="degree" horiz-adv-x="402" unicode="°" /><glyph d="M176 685Q234 685 271 645.5Q308 606 308 546V515Q308 455 271 415Q234 375 176 375Q117 375 80.5 414.5Q44 454 44 515V546Q44 606 80.5 645.5Q117 685 176 685ZM157 16 533 680L558 664L182 0ZM257 490 257 571Q257 615 235.5 640Q214 665 176 665Q139 665 117.5 640Q96 615 96 571V490Q96 446 117 420.5Q138 395 176 395Q214 395 235.5 420.5Q257 446 257 490ZM539 305Q597 305 634 265.5Q671 226 671 166V135Q671 75 634 35Q597 -5 539 -5Q480 -5 443.5 34.5Q407 74 407 135V166Q407 226 443.5 265.5Q480 305 539 305ZM620 110 620 191Q620 235 598.5 260Q577 285 539 285Q502 285 480.5 260Q459 235 459 191V110Q459 66 480 40.5Q501 15 539 15Q577 15 598.5 40.5Q620 66 620 110Z" glyph-name="percent" horiz-adv-x="715" unicode="%" /><glyph d="M176 685Q234 685 271 645.5Q308 606 308 546V515Q308 455 271 415Q234 375 176 375Q117 375 80.5 414.5Q44 454 44 515V546Q44 606 80.5 645.5Q117 685 176 685ZM157 16 533 680L558 664L182 0ZM257 490 257 571Q257 615 235.5 640Q214 665 176 665Q139 665 117.5 640Q96 615 96 571V490Q96 446 117 420.5Q138 395 176 395Q214 395 235.5 420.5Q257 446 257 490ZM539 305Q597 305 634 265.5Q671 226 671 166V135Q671 75 634 35Q597 -5 539 -5Q480 -5 443.5 34.5Q407 74 407 135V166Q407 226 443.5 265.5Q480 305 539 305ZM891 305Q949 305 986 265.5Q1023 226 1023 166V135Q1023 75 986 35Q949 -5 891 -5Q832 -5 795.5 34.5Q759 74 759 135V166Q759 226 795.5 265.5Q832 305 891 305ZM620 110 620 191Q620 235 598.5 260Q577 285 539 285Q502 285 480.5 260Q459 235 459 191V110Q459 66 480 40.5Q501 15 539 15Q577 15 598.5 40.5Q620 66 620 110ZM972 110 972 191Q972 235 950.5 260Q929 285 891 285Q854 285 832.5 260Q811 235 811 191V110Q811 66 832 40.5Q853 15 891 15Q929 15 950.5 40.5Q972 66 972 110Z" glyph-name="perthousand" horiz-adv-x="1067" unicode="‰" /><glyph d="M-175 16 201 680L226 664L-150 0Z" glyph-name="fraction" horiz-adv-x="51" unicode="⁄" /><glyph d="M-175 16 201 680L226 664L-150 0Z" glyph-name="uni2215" horiz-adv-x="51" unicode="∕" /><glyph d="M166 790Q223 790 255.5 747Q288 704 288 631V600Q288 526 255.5 483Q223 440 166 440Q109 440 76.5 482.5Q44 525 44 600V631Q44 705 76.5 747.5Q109 790 166 790ZM237 565 237 666Q237 718 219.5 744Q202 770 166 770Q130 770 113 744.5Q96 719 96 666V565Q96 512 113 486Q130 460 166 460Q202 460 219.5 486Q237 512 237 565Z" glyph-name="zerosuperior" horiz-adv-x="332" unicode="⁰" /><glyph d="M36 729 25 746L89 785H131V490Q131 474 132.5 470Q134 466 142 465L170 463V445H35V463L73 465Q81 466 82.5 470Q84 474 84 490V758Z" glyph-name="onesuperior" horiz-adv-x="201" unicode="¹" /><glyph d="M217 490 225 530H243V445H32V468Q32 515 48 541.5Q64 568 127 605Q164 627 177.5 647Q191 667 191 694Q191 732 177 751Q163 770 135 770Q102 770 88 747.5Q74 725 79 679L31 687Q23 731 52 760.5Q81 790 135 790Q186 790 214.5 765Q243 740 243 696Q243 673 234 654.5Q225 636 207 620Q200 614 181 603.5Q162 593 132 578Q94 559 78 536.5Q62 514 60 477H190Q207 477 211 479Q215 481 217 490Z" glyph-name="twosuperior" horiz-adv-x="285" unicode="²" /><glyph d="M200 530Q200 569 179 589.5Q158 610 116 610H102V630H116Q154 630 173.5 648.5Q193 667 193 703Q193 736 178 753Q163 770 135 770Q101 770 87 747.5Q73 725 78 679L30 687Q22 732 51.5 761Q81 790 136 790Q188 790 216.5 766.5Q245 743 245 703Q245 671 227 650Q209 629 174 620Q213 611 232.5 588.5Q252 566 252 530Q252 488 222 464Q192 440 138 440Q97 440 69.5 457.5Q42 475 30 510L60 520Q65 491 85.5 475.5Q106 460 137 460Q168 460 184 478Q200 496 200 530Z" glyph-name="threesuperior" horiz-adv-x="291" unicode="³" /><glyph d="M159 490 159 528H7V548Q67 614 93 665.5Q119 717 129 785H184Q173 733 140.5 680.5Q108 628 30 548H159V629L206 634V548H245V528H206V490Q206 474 207.5 470Q209 466 217 465L245 463V445H120V463L148 465Q156 466 157.5 470Q159 474 159 490Z" glyph-name="foursuperior" horiz-adv-x="262" unicode="⁴" /><glyph d="M216 798 220 825H233V754H70L65 649Q80 658 96.5 662.5Q113 667 130 667Q184 667 215.5 635.5Q247 604 247 551Q247 500 216.5 470Q186 440 131 440Q93 440 67 458Q41 476 29 511L59 519Q64 490 83 474Q102 458 130 458Q161 458 177.5 482Q194 506 194 551Q194 599 177.5 623.5Q161 648 129 648Q109 648 90.5 640.5Q72 633 55 617L41 620L50 785H189Q199 785 202 785Q205 785 207 786Q211 786 213 788Q215 790 216 798Z" glyph-name="fivesuperior" horiz-adv-x="275" unicode="⁵" /><glyph d="M278 545 278 540Q278 495 247 467.5Q216 440 166 440Q107 440 76 480Q45 520 45 598V629Q45 707 76 748.5Q107 790 164 790Q216 790 247 759.5Q278 729 271 687L223 679Q228 724 213 747Q198 770 164 770Q128 770 112.5 743Q97 716 97 659V619Q111 634 129.5 642Q148 650 170 650Q219 650 248.5 621.5Q278 593 278 545ZM97 592 97 568Q97 511 113 485.5Q129 460 166 460Q196 460 211.5 480Q227 500 227 540V545Q227 585 210.5 607Q194 629 165 629Q144 629 126.5 619.5Q109 610 97 592Z" glyph-name="sixsuperior" horiz-adv-x="316" unicode="⁶" /><glyph d="M55 741 47 700H29V785H240V758Q188 690 168.5 622.5Q149 555 145 445H90Q100 537 129.5 606Q159 675 223 754H82Q65 754 61 752Q57 750 55 741Z" glyph-name="sevensuperior" horiz-adv-x="263" unicode="⁷" /><glyph d="M193 629Q230 612 247.5 587.5Q265 563 265 528Q265 487 236 463.5Q207 440 155 440Q103 440 71.5 463.5Q40 487 40 523Q40 552 56.5 573.5Q73 595 108 611Q77 627 62 649.5Q47 672 47 701Q47 741 75 765.5Q103 790 150 790Q197 790 227 766.5Q257 743 257 707Q257 678 242 660.5Q227 643 193 629ZM89 711Q89 689 102 675Q115 661 148 647L168 639Q190 652 200 667.5Q210 683 210 707Q210 737 194.5 753.5Q179 770 151 770Q122 770 105.5 754.5Q89 739 89 711ZM87 524Q87 494 104.5 477Q122 460 155 460Q187 460 204.5 475.5Q222 491 222 520Q222 545 208.5 560.5Q195 576 162 589L131 601Q109 588 98 568.5Q87 549 87 524Z" glyph-name="eightsuperior" horiz-adv-x="305" unicode="⁸" /><glyph d="M266 633 266 601Q266 523 234 481.5Q202 440 142 440Q104 440 77.5 458Q51 476 39 511L70 519Q74 491 93.5 475.5Q113 460 142 460Q178 460 196 488Q214 516 214 572V604Q200 589 181.5 581Q163 573 141 573Q91 573 62 601.5Q33 630 33 678V691Q33 735 64 762.5Q95 790 145 790Q204 790 235 749.5Q266 709 266 633ZM84 691 84 678Q84 638 100 616Q116 594 146 594Q167 594 184.5 603.5Q202 613 214 631V662Q214 718 197.5 744Q181 770 145 770Q114 770 99 750.5Q84 731 84 691Z" glyph-name="ninesuperior" horiz-adv-x="311" unicode="⁹" /><glyph d="M166 240Q223 240 255.5 197Q288 154 288 81V50Q288 -24 255.5 -67Q223 -110 166 -110Q109 -110 76.5 -67.5Q44 -25 44 50V81Q44 155 76.5 197.5Q109 240 166 240ZM237 15 237 116Q237 168 219.5 194Q202 220 166 220Q130 220 113 194.5Q96 169 96 116V15Q96 -38 113 -64Q130 -90 166 -90Q202 -90 219.5 -64Q237 -38 237 15Z" glyph-name="zeroinferior" horiz-adv-x="332" unicode="₀" /><glyph d="M36 179 25 196L89 235H131V-60Q131 -76 132.5 -80Q134 -84 142 -85L170 -87V-105H35V-87L73 -85Q81 -84 82.5 -80Q84 -76 84 -60V208Z" glyph-name="oneinferior" horiz-adv-x="201" unicode="₁" /><glyph d="M217 -60 225 -20H243V-105H32V-82Q32 -35 48 -8.5Q64 18 127 55Q164 77 177.5 97Q191 117 191 144Q191 182 177 201Q163 220 135 220Q102 220 88 197.5Q74 175 79 129L31 137Q23 181 52 210.5Q81 240 135 240Q186 240 214.5 215Q243 190 243 146Q243 123 234 104.5Q225 86 207 70Q200 64 181 53.5Q162 43 132 28Q94 9 78 -13.5Q62 -36 60 -73H190Q207 -73 211 -71Q215 -69 217 -60Z" glyph-name="twoinferior" horiz-adv-x="285" unicode="₂" /><glyph d="M200 -20Q200 19 179 39.5Q158 60 116 60H102V80H116Q154 80 173.5 98.5Q193 117 193 153Q193 186 178 203Q163 220 135 220Q101 220 87 197.5Q73 175 78 129L30 137Q22 182 51.5 211Q81 240 136 240Q188 240 216.5 216.5Q245 193 245 153Q245 121 227 100Q209 79 174 70Q213 61 232.5 38.5Q252 16 252 -20Q252 -62 222 -86Q192 -110 138 -110Q97 -110 69.5 -92.5Q42 -75 30 -40L60 -30Q65 -59 85.5 -74.5Q106 -90 137 -90Q168 -90 184 -72Q200 -54 200 -20Z" glyph-name="threeinferior" horiz-adv-x="291" unicode="₃" /><glyph d="M159 -60 159 -22H7V-2Q67 64 93 115.5Q119 167 129 235H184Q173 183 140.5 130.5Q108 78 30 -2H159V79L206 84V-2H245V-22H206V-60Q206 -76 207.5 -80Q209 -84 217 -85L245 -87V-105H120V-87L148 -85Q156 -84 157.5 -80Q159 -76 159 -60Z" glyph-name="fourinferior" horiz-adv-x="262" unicode="₄" /><glyph d="M216 248 220 275H233V204H70L65 99Q80 108 96.5 112.5Q113 117 130 117Q184 117 215.5 85.5Q247 54 247 1Q247 -50 216.5 -80Q186 -110 131 -110Q93 -110 67 -92Q41 -74 29 -39L59 -31Q64 -60 83 -76Q102 -92 130 -92Q161 -92 177.5 -68Q194 -44 194 1Q194 49 177.5 73.5Q161 98 129 98Q109 98 90.5 90.5Q72 83 55 67L41 70L50 235H189Q199 235 202 235Q205 235 207 236Q211 236 213 238Q215 240 216 248Z" glyph-name="fiveinferior" horiz-adv-x="275" unicode="₅" /><glyph d="M278 -5 278 -10Q278 -55 247 -82.5Q216 -110 166 -110Q107 -110 76 -70Q45 -30 45 48V79Q45 157 76 198.5Q107 240 164 240Q216 240 247 209.5Q278 179 271 137L223 129Q228 174 213 197Q198 220 164 220Q128 220 112.5 193Q97 166 97 109V69Q111 84 129.5 92Q148 100 170 100Q219 100 248.5 71.5Q278 43 278 -5ZM97 42 97 18Q97 -39 113 -64.5Q129 -90 166 -90Q196 -90 211.5 -70Q227 -50 227 -10V-5Q227 35 210.5 57Q194 79 165 79Q144 79 126.5 69.5Q109 60 97 42Z" glyph-name="sixinferior" horiz-adv-x="316" unicode="₆" /><glyph d="M55 191 47 150H29V235H240V208Q188 140 168.5 72.5Q149 5 145 -105H90Q100 -13 129.5 56Q159 125 223 204H82Q65 204 61 202Q57 200 55 191Z" glyph-name="seveninferior" horiz-adv-x="263" unicode="₇" /><glyph d="M193 79Q230 62 247.5 37.5Q265 13 265 -22Q265 -63 236 -86.5Q207 -110 155 -110Q103 -110 71.5 -86.5Q40 -63 40 -27Q40 2 56.5 23.5Q73 45 108 61Q77 77 62 99.5Q47 122 47 151Q47 191 75 215.5Q103 240 150 240Q197 240 227 216.5Q257 193 257 157Q257 128 242 110.5Q227 93 193 79ZM89 161Q89 139 102 125Q115 111 148 97L168 89Q190 102 200 117.5Q210 133 210 157Q210 187 194.5 203.5Q179 220 151 220Q122 220 105.5 204.5Q89 189 89 161ZM87 -26Q87 -56 104.5 -73Q122 -90 155 -90Q187 -90 204.5 -74.5Q222 -59 222 -30Q222 -5 208.5 10.5Q195 26 162 39L131 51Q109 38 98 18.5Q87 -1 87 -26Z" glyph-name="eightinferior" horiz-adv-x="305" unicode="₈" /><glyph d="M266 83 266 51Q266 -27 234 -68.5Q202 -110 142 -110Q104 -110 77.5 -92Q51 -74 39 -39L70 -31Q74 -59 93.5 -74.5Q113 -90 142 -90Q178 -90 196 -62Q214 -34 214 22V54Q200 39 181.5 31Q163 23 141 23Q91 23 62 51.5Q33 80 33 128V141Q33 185 64 212.5Q95 240 145 240Q204 240 235 199.5Q266 159 266 83ZM84 141 84 128Q84 88 100 66Q116 44 146 44Q167 44 184.5 53.5Q202 63 214 81V112Q214 168 197.5 194Q181 220 145 220Q114 220 99 200.5Q84 181 84 141Z" glyph-name="nineinferior" horiz-adv-x="311" unicode="₉" /><glyph d="M166 240Q223 240 255.5 197Q288 154 288 81V50Q288 -24 255.5 -67Q223 -110 166 -110Q109 -110 76.5 -67.5Q44 -25 44 50V81Q44 155 76.5 197.5Q109 240 166 240ZM237 15 237 116Q237 168 219.5 194Q202 220 166 220Q130 220 113 194.5Q96 169 96 116V15Q96 -38 113 -64Q130 -90 166 -90Q202 -90 219.5 -64Q237 -38 237 15Z" glyph-name="zero.numerator" horiz-adv-x="332" unicode="" /><glyph d="M36 179 25 196L89 235H131V-60Q131 -76 132.5 -80Q134 -84 142 -85L170 -87V-105H35V-87L73 -85Q81 -84 82.5 -80Q84 -76 84 -60V208Z" glyph-name="one.numerator" horiz-adv-x="201" unicode="" /><glyph d="M217 -60 225 -20H243V-105H32V-82Q32 -35 48 -8.5Q64 18 127 55Q164 77 177.5 97Q191 117 191 144Q191 182 177 201Q163 220 135 220Q102 220 88 197.5Q74 175 79 129L31 137Q23 181 52 210.5Q81 240 135 240Q186 240 214.5 215Q243 190 243 146Q243 123 234 104.5Q225 86 207 70Q200 64 181 53.5Q162 43 132 28Q94 9 78 -13.5Q62 -36 60 -73H190Q207 -73 211 -71Q215 -69 217 -60Z" glyph-name="two.numerator" horiz-adv-x="285" unicode="" /><glyph d="M200 -20Q200 19 179 39.5Q158 60 116 60H102V80H116Q154 80 173.5 98.5Q193 117 193 153Q193 186 178 203Q163 220 135 220Q101 220 87 197.5Q73 175 78 129L30 137Q22 182 51.5 211Q81 240 136 240Q188 240 216.5 216.5Q245 193 245 153Q245 121 227 100Q209 79 174 70Q213 61 232.5 38.5Q252 16 252 -20Q252 -62 222 -86Q192 -110 138 -110Q97 -110 69.5 -92.5Q42 -75 30 -40L60 -30Q65 -59 85.5 -74.5Q106 -90 137 -90Q168 -90 184 -72Q200 -54 200 -20Z" glyph-name="three.numerator" horiz-adv-x="291" unicode="" /><glyph d="M159 -60 159 -22H7V-2Q67 64 93 115.5Q119 167 129 235H184Q173 183 140.5 130.5Q108 78 30 -2H159V79L206 84V-2H245V-22H206V-60Q206 -76 207.5 -80Q209 -84 217 -85L245 -87V-105H120V-87L148 -85Q156 -84 157.5 -80Q159 -76 159 -60Z" glyph-name="four.numerator" horiz-adv-x="262" unicode="" /><glyph d="M216 248 220 275H233V204H70L65 99Q80 108 96.5 112.5Q113 117 130 117Q184 117 215.5 85.5Q247 54 247 1Q247 -50 216.5 -80Q186 -110 131 -110Q93 -110 67 -92Q41 -74 29 -39L59 -31Q64 -60 83 -76Q102 -92 130 -92Q161 -92 177.5 -68Q194 -44 194 1Q194 49 177.5 73.5Q161 98 129 98Q109 98 90.5 90.5Q72 83 55 67L41 70L50 235H189Q199 235 202 235Q205 235 207 236Q211 236 213 238Q215 240 216 248Z" glyph-name="five.numerator" horiz-adv-x="275" unicode="" /><glyph d="M278 -5 278 -10Q278 -55 247 -82.5Q216 -110 166 -110Q107 -110 76 -70Q45 -30 45 48V79Q45 157 76 198.5Q107 240 164 240Q216 240 247 209.5Q278 179 271 137L223 129Q228 174 213 197Q198 220 164 220Q128 220 112.5 193Q97 166 97 109V69Q111 84 129.5 92Q148 100 170 100Q219 100 248.5 71.5Q278 43 278 -5ZM97 42 97 18Q97 -39 113 -64.5Q129 -90 166 -90Q196 -90 211.5 -70Q227 -50 227 -10V-5Q227 35 210.5 57Q194 79 165 79Q144 79 126.5 69.5Q109 60 97 42Z" glyph-name="six.numerator" horiz-adv-x="316" unicode="" /><glyph d="M55 191 47 150H29V235H240V208Q188 140 168.5 72.5Q149 5 145 -105H90Q100 -13 129.5 56Q159 125 223 204H82Q65 204 61 202Q57 200 55 191Z" glyph-name="seven.numerator" horiz-adv-x="263" unicode="" /><glyph d="M193 79Q230 62 247.5 37.5Q265 13 265 -22Q265 -63 236 -86.5Q207 -110 155 -110Q103 -110 71.5 -86.5Q40 -63 40 -27Q40 2 56.5 23.5Q73 45 108 61Q77 77 62 99.5Q47 122 47 151Q47 191 75 215.5Q103 240 150 240Q197 240 227 216.5Q257 193 257 157Q257 128 242 110.5Q227 93 193 79ZM89 161Q89 139 102 125Q115 111 148 97L168 89Q190 102 200 117.5Q210 133 210 157Q210 187 194.5 203.5Q179 220 151 220Q122 220 105.5 204.5Q89 189 89 161ZM87 -26Q87 -56 104.5 -73Q122 -90 155 -90Q187 -90 204.5 -74.5Q222 -59 222 -30Q222 -5 208.5 10.5Q195 26 162 39L131 51Q109 38 98 18.5Q87 -1 87 -26Z" glyph-name="eight.numerator" horiz-adv-x="305" unicode="" /><glyph d="M266 83 266 51Q266 -27 234 -68.5Q202 -110 142 -110Q104 -110 77.5 -92Q51 -74 39 -39L70 -31Q74 -59 93.5 -74.5Q113 -90 142 -90Q178 -90 196 -62Q214 -34 214 22V54Q200 39 181.5 31Q163 23 141 23Q91 23 62 51.5Q33 80 33 128V141Q33 185 64 212.5Q95 240 145 240Q204 240 235 199.5Q266 159 266 83ZM84 141 84 128Q84 88 100 66Q116 44 146 44Q167 44 184.5 53.5Q202 63 214 81V112Q214 168 197.5 194Q181 220 145 220Q114 220 99 200.5Q84 181 84 141Z" glyph-name="nine.numerator" horiz-adv-x="311" unicode="" /><glyph d="M166 345Q223 345 255.5 302Q288 259 288 186V155Q288 81 255.5 38Q223 -5 166 -5Q109 -5 76.5 37.5Q44 80 44 155V186Q44 260 76.5 302.5Q109 345 166 345ZM237 120 237 221Q237 273 219.5 299Q202 325 166 325Q130 325 113 299.5Q96 274 96 221V120Q96 67 113 41Q130 15 166 15Q202 15 219.5 41Q237 67 237 120Z" glyph-name="zero.denominator" horiz-adv-x="332" unicode="" /><glyph d="M36 284 25 301L89 340H131V45Q131 29 132.5 25Q134 21 142 20L170 18V0H35V18L73 20Q81 21 82.5 25Q84 29 84 45V313Z" glyph-name="one.denominator" horiz-adv-x="201" unicode="" /><glyph d="M217 45 225 85H243V0H32V23Q32 70 48 96.5Q64 123 127 160Q164 182 177.5 202Q191 222 191 249Q191 287 177 306Q163 325 135 325Q102 325 88 302.5Q74 280 79 234L31 242Q23 286 52 315.5Q81 345 135 345Q186 345 214.5 320Q243 295 243 251Q243 228 234 209.5Q225 191 207 175Q200 169 181 158.5Q162 148 132 133Q94 114 78 91.5Q62 69 60 32H190Q207 32 211 34Q215 36 217 45Z" glyph-name="two.denominator" horiz-adv-x="285" unicode="" /><glyph d="M200 85Q200 124 179 144.5Q158 165 116 165H102V185H116Q154 185 173.5 203.5Q193 222 193 258Q193 291 178 308Q163 325 135 325Q101 325 87 302.5Q73 280 78 234L30 242Q22 287 51.5 316Q81 345 136 345Q188 345 216.5 321.5Q245 298 245 258Q245 226 227 205Q209 184 174 175Q213 166 232.5 143.5Q252 121 252 85Q252 43 222 19Q192 -5 138 -5Q97 -5 69.5 12.5Q42 30 30 65L60 75Q65 46 85.5 30.5Q106 15 137 15Q168 15 184 33Q200 51 200 85Z" glyph-name="three.denominator" horiz-adv-x="291" unicode="" /><glyph d="M159 45 159 83H7V103Q67 169 93 220.5Q119 272 129 340H184Q173 288 140.5 235.5Q108 183 30 103H159V184L206 189V103H245V83H206V45Q206 29 207.5 25Q209 21 217 20L245 18V0H120V18L148 20Q156 21 157.5 25Q159 29 159 45Z" glyph-name="four.denominator" horiz-adv-x="262" unicode="" /><glyph d="M216 353 220 380H233V309H70L65 204Q80 213 96.5 217.5Q113 222 130 222Q184 222 215.5 190.5Q247 159 247 106Q247 55 216.5 25Q186 -5 131 -5Q93 -5 67 13Q41 31 29 66L59 74Q64 45 83 29Q102 13 130 13Q161 13 177.5 37Q194 61 194 106Q194 154 177.5 178.5Q161 203 129 203Q109 203 90.5 195.5Q72 188 55 172L41 175L50 340H189Q199 340 202 340Q205 340 207 341Q211 341 213 343Q215 345 216 353Z" glyph-name="five.denominator" horiz-adv-x="275" unicode="" /><glyph d="M278 100 278 95Q278 50 247 22.5Q216 -5 166 -5Q107 -5 76 35Q45 75 45 153V184Q45 262 76 303.5Q107 345 164 345Q216 345 247 314.5Q278 284 271 242L223 234Q228 279 213 302Q198 325 164 325Q128 325 112.5 298Q97 271 97 214V174Q111 189 129.5 197Q148 205 170 205Q219 205 248.5 176.5Q278 148 278 100ZM97 147 97 123Q97 66 113 40.5Q129 15 166 15Q196 15 211.5 35Q227 55 227 95V100Q227 140 210.5 162Q194 184 165 184Q144 184 126.5 174.5Q109 165 97 147Z" glyph-name="six.denominator" horiz-adv-x="316" unicode="" /><glyph d="M55 296 47 255H29V340H240V313Q188 245 168.5 177.5Q149 110 145 0H90Q100 92 129.5 161Q159 230 223 309H82Q65 309 61 307Q57 305 55 296Z" glyph-name="seven.denominator" horiz-adv-x="263" unicode="" /><glyph d="M193 184Q230 167 247.5 142.5Q265 118 265 83Q265 42 236 18.5Q207 -5 155 -5Q103 -5 71.5 18.5Q40 42 40 78Q40 107 56.5 128.5Q73 150 108 166Q77 182 62 204.5Q47 227 47 256Q47 296 75 320.5Q103 345 150 345Q197 345 227 321.5Q257 298 257 262Q257 233 242 215.5Q227 198 193 184ZM89 266Q89 244 102 230Q115 216 148 202L168 194Q190 207 200 222.5Q210 238 210 262Q210 292 194.5 308.5Q179 325 151 325Q122 325 105.5 309.5Q89 294 89 266ZM87 79Q87 49 104.5 32Q122 15 155 15Q187 15 204.5 30.5Q222 46 222 75Q222 100 208.5 115.5Q195 131 162 144L131 156Q109 143 98 123.5Q87 104 87 79Z" glyph-name="eight.denominator" horiz-adv-x="305" unicode="" /><glyph d="M266 188 266 156Q266 78 234 36.5Q202 -5 142 -5Q104 -5 77.5 13Q51 31 39 66L70 74Q74 46 93.5 30.5Q113 15 142 15Q178 15 196 43Q214 71 214 127V159Q200 144 181.5 136Q163 128 141 128Q91 128 62 156.5Q33 185 33 233V246Q33 290 64 317.5Q95 345 145 345Q204 345 235 304.5Q266 264 266 188ZM84 246 84 233Q84 193 100 171Q116 149 146 149Q167 149 184.5 158.5Q202 168 214 186V217Q214 273 197.5 299Q181 325 145 325Q114 325 99 305.5Q84 286 84 246Z" glyph-name="nine.denominator" horiz-adv-x="311" unicode="" /><glyph d="M36 624 25 641L89 680H131V385Q131 369 132.5 365Q134 361 142 360L170 358V340H35V358L73 360Q81 361 82.5 365Q84 369 84 385V653ZM56 16 432 680L457 664L81 0ZM499 45 507 85H525V0H314V23Q314 70 330 96.5Q346 123 409 160Q446 182 459.5 202Q473 222 473 249Q473 287 459 306Q445 325 417 325Q384 325 370 302.5Q356 280 361 234L313 242Q305 286 334 315.5Q363 345 417 345Q468 345 496.5 320Q525 295 525 251Q525 228 516 209.5Q507 191 489 175Q482 169 463 158.5Q444 148 414 133Q376 114 360 91.5Q344 69 342 32H472Q489 32 493 34Q497 36 499 45Z" glyph-name="onehalf" horiz-adv-x="567" unicode="½" /><glyph d="M36 624 25 641L89 680H131V385Q131 369 132.5 365Q134 361 142 360L170 358V340H35V358L73 360Q81 361 82.5 365Q84 369 84 385V653ZM56 16 432 680L457 664L81 0ZM482 85Q482 124 461 144.5Q440 165 398 165H384V185H398Q436 185 455.5 203.5Q475 222 475 258Q475 291 460 308Q445 325 417 325Q383 325 369 302.5Q355 280 360 234L312 242Q304 287 333.5 316Q363 345 418 345Q470 345 498.5 321.5Q527 298 527 258Q527 226 509 205Q491 184 456 175Q495 166 514.5 143.5Q534 121 534 85Q534 43 504 19Q474 -5 420 -5Q379 -5 351.5 12.5Q324 30 312 65L342 75Q347 46 367.5 30.5Q388 15 419 15Q450 15 466 33Q482 51 482 85Z" glyph-name="onethird" horiz-adv-x="573" unicode="⅓" /><glyph d="M36 624 25 641L89 680H131V385Q131 369 132.5 365Q134 361 142 360L170 358V340H35V358L73 360Q81 361 82.5 365Q84 369 84 385V653ZM56 16 432 680L457 664L81 0ZM433 45 433 83H281V103Q341 169 367 220.5Q393 272 403 340H458Q447 288 414.5 235.5Q382 183 304 103H433V184L480 189V103H519V83H480V45Q480 29 481.5 25Q483 21 491 20L519 18V0H394V18L422 20Q430 21 431.5 25Q433 29 433 45Z" glyph-name="onequarter" horiz-adv-x="531" unicode="¼" /></font>
</defs>
</svg>
